  0
SECTION
  2
HEADER
  9
$ACADVER
  1
AC1012
  9
$DWGCODEPAGE
  3
dos932
  9
$INSBASE
 10
0.0
 20
0.0
 30
0.0
  9
$EXTMIN
 10
12.5
 20
9.0
 30
0.0
  9
$EXTMAX
 10
403.0
 20
275.0
 30
0.0
  9
$LIMMIN
 10
0.0
 20
0.0
  9
$LIMMAX
 10
420.0
 20
297.0
  9
$ORTHOMODE
 70
     0
  9
$REGENMODE
 70
     1
  9
$FILLMODE
 70
     1
  9
$QTEXTMODE
 70
     0
  9
$MIRRTEXT
 70
     1
  9
$DRAGMODE
 70
     2
  9
$LTSCALE
 40
15.0
  9
$OSMODE
 70
    37
  9
$ATTMODE
 70
     1
  9
$TEXTSIZE
 40
0.2
  9
$TRACEWID
 40
0.05
  9
$TEXTSTYLE
  7
GOTHIC
  9
$CLAYER
  8
CSLAYER1
  9
$CELTYPE
  6
BYLAYER
  9
$CECOLOR
 62
   256
  9
$CELTSCALE
 40
1.0
  9
$DELOBJ
 70
     1
  9
$DISPSILH
 70
     0
  9
$DIMSCALE
 40
1.0
  9
$DIMASZ
 40
0.18
  9
$DIMEXO
 40
0.0625
  9
$DIMDLI
 40
0.38
  9
$DIMRND
 40
0.0
  9
$DIMDLE
 40
0.0
  9
$DIMEXE
 40
0.18
  9
$DIMTP
 40
0.0
  9
$DIMTM
 40
0.0
  9
$DIMTXT
 40
0.18
  9
$DIMCEN
 40
0.09
  9
$DIMTSZ
 40
0.0
  9
$DIMTOL
 70
     0
  9
$DIMLIM
 70
     0
  9
$DIMTIH
 70
     1
  9
$DIMTOH
 70
     1
  9
$DIMSE1
 70
     0
  9
$DIMSE2
 70
     0
  9
$DIMTAD
 70
     0
  9
$DIMZIN
 70
     0
  9
$DIMBLK
  1

  9
$DIMASO
 70
     1
  9
$DIMSHO
 70
     1
  9
$DIMPOST
  1

  9
$DIMAPOST
  1

  9
$DIMALT
 70
     0
  9
$DIMALTD
 70
     2
  9
$DIMALTF
 40
25.4
  9
$DIMLFAC
 40
1.0
  9
$DIMTOFL
 70
     0
  9
$DIMTVP
 40
0.0
  9
$DIMTIX
 70
     0
  9
$DIMSOXD
 70
     0
  9
$DIMSAH
 70
     0
  9
$DIMBLK1
  1

  9
$DIMBLK2
  1

  9
$DIMSTYLE
  2
STANDARD
  9
$DIMCLRD
 70
     0
  9
$DIMCLRE
 70
     0
  9
$DIMCLRT
 70
     0
  9
$DIMTFAC
 40
1.0
  9
$DIMGAP
 40
0.09
  9
$DIMJUST
 70
     0
  9
$DIMSD1
 70
     0
  9
$DIMSD2
 70
     0
  9
$DIMTOLJ
 70
     1
  9
$DIMTZIN
 70
     0
  9
$DIMALTZ
 70
     0
  9
$DIMALTTZ
 70
     0
  9
$DIMFIT
 70
     3
  9
$DIMUPT
 70
     0
  9
$DIMUNIT
 70
     2
  9
$DIMDEC
 70
     4
  9
$DIMTDEC
 70
     4
  9
$DIMALTU
 70
     2
  9
$DIMALTTD
 70
     2
  9
$DIMTXSTY
  7
STANDARD
  9
$DIMAUNIT
 70
     0
  9
$LUNITS
 70
     2
  9
$LUPREC
 70
     4
  9
$SKETCHINC
 40
0.1
  9
$FILLETRAD
 40
0.0
  9
$AUNITS
 70
     0
  9
$AUPREC
 70
     0
  9
$MENU
  1
ACAD
  9
$ELEVATION
 40
0.0
  9
$PELEVATION
 40
0.0
  9
$THICKNESS
 40
0.0
  9
$LIMCHECK
 70
     0
  9
$BLIPMODE
 70
     1
  9
$CHAMFERA
 40
0.0
  9
$CHAMFERB
 40
0.0
  9
$CHAMFERC
 40
0.0
  9
$CHAMFERD
 40
0.0
  9
$SKPOLY
 70
     0
  9
$TDCREATE
 40
2453483.000000000
  9
$TDUPDATE
 40
2453483.000000000
  9
$TDINDWG
 40
0.0000041782
  9
$TDUSRTIMER
 40
0.0000041782
  9
$USRTIMER
 70
     1
  9
$ANGBASE
 50
0.0
  9
$ANGDIR
 70
     0
  9
$PDMODE
 70
     0
  9
$PDSIZE
 40
0.0
  9
$PLINEWID
 40
0.0
  9
$COORDS
 70
     2
  9
$SPLFRAME
 70
     0
  9
$SPLINETYPE
 70
     6
  9
$SPLINESEGS
 70
     8
  9
$ATTDIA
 70
     0
  9
$ATTREQ
 70
     1
  9
$HANDLING
 70
 22529
  9
$HANDSEED
  5
498
  9
$SURFTAB1
 70
     6
  9
$SURFTAB2
 70
     6
  9
$SURFTYPE
 70
     6
  9
$SURFU
 70
     6
  9
$SURFV
 70
     6
  9
$UCSNAME
  2

  9
$UCSORG
 10
0.0
 20
0.0
 30
0.0
  9
$UCSXDIR
 10
1.0
 20
0.0
 30
0.0
  9
$UCSYDIR
 10
0.0
 20
1.0
 30
0.0
  9
$PUCSNAME
  2

  9
$PUCSORG
 10
0.0
 20
0.0
 30
0.0
  9
$PUCSXDIR
 10
1.0
 20
0.0
 30
0.0
  9
$PUCSYDIR
 10
0.0
 20
1.0
 30
0.0
  9
$USERI1
 70
     0
  9
$USERI2
 70
     0
  9
$USERI3
 70
     0
  9
$USERI4
 70
     0
  9
$USERI5
 70
     0
  9
$USERR1
 40
0.0
  9
$USERR2
 40
0.0
  9
$USERR3
 40
0.0
  9
$USERR4
 40
0.0
  9
$USERR5
 40
0.0
  9
$WORLDVIEW
 70
     1
  9
$SHADEDGE
 70
     3
  9
$SHADEDIF
 70
    70
  9
$TILEMODE
 70
     1
  9
$MAXACTVP
 70
    64
  9
$PINSBASE
 10
0.0
 20
0.0
 30
0.0
  9
$PLIMCHECK
 70
     0
  9
$PEXTMIN
 10
1.000000000000000E+20
 20
1.000000000000000E+20
 30
1.000000000000000E+20
  9
$PEXTMAX
 10
-1.000000000000000E+20
 20
-1.000000000000000E+20
 30
-1.000000000000000E+20
  9
$PLIMMIN
 10
0.0
 20
0.0
  9
$PLIMMAX
 10
12.0
 20
9.0
  9
$UNITMODE
 70
     0
  9
$VISRETAIN
 70
     1
  9
$PLINEGEN
 70
     0
  9
$PSLTSCALE
 70
     1
  9
$TREEDEPTH
 70
  3020
  9
$PICKSTYLE
 70
     3
  9
$CMLSTYLE
  2
STANDARD
  9
$CMLJUST
 70
     0
  9
$CMLSCALE
 40
1.0
  9
$SAVEIMAGES
 70
     1
  0
ENDSEC
  0
SECTION
  2
CLASSES
  0
CLASS
  1
ACDBDICTIONARYWDFLT
  2
AcDbDictionaryWithDefault
  3
AutoCAD 2000
 90
    32768
280
     0
281
     0
  0
CLASS
  1
ACDBPLACEHOLDER
  2
AcDbPlaceHolder
  3
AutoCAD 2000
 90
    32768
280
     0
281
     0
  0
CLASS
  1
LAYOUT
  2
AcDbLayout
  3
AutoCAD 2000
 90
    32768
280
     0
281
     0
  0
CLASS
  1
DICTIONARYVAR
  2
AcDbDictionaryVar
  3
AutoCAD 2000
 90
    32768
280
     0
281
     0
  0
CLASS
  1
LONG_TRANSACTION
  2
AcDbLongTransaction
  3
AutoCAD 2000
 90
    32768
280
     0
281
     0
  0
CLASS
  1
LWPOLYLINE
  2
AcDbPolyline
  3
AutoCAD 2000
 90
    32768
280
     0
281
     1
  0
CLASS
  1
HATCH
  2
AcDbHatch
  3
AutoCAD 2000
 90
    32768
280
     0
281
     1
  0
CLASS
  1
XRECORD
  2
AcDbXrecord
  3
AutoCAD 2000
 90
    32768
280
     0
281
     0
  0
ENDSEC
  0
SECTION
  2
TABLES
  0
TABLE
  2
VPORT
  5
8
330
0
100
AcDbSymbolTable
 70
     2
  0
VPORT
  5
493
330
8
100
AcDbSymbolTableRecord
100
AcDbViewportTableRecord
  2
*ACTIVE
 70
     0
 10
0.0
 20
0.0
 11
1.0
 21
1.0
 12
207.75695898309
 22
141.9967810794441
 13
0.0
 23
0.0
 14
1.0
 24
1.0
 15
0.0
 25
0.0
 16
0.0
 26
0.0
 36
1.0
 17
0.0
 27
0.0
 37
0.0
 40
268.0930872962429
 41
1.637191157347204
 42
50.0
 43
0.0
 44
0.0
 50
0.0
 51
0.0
 71
     0
 72
   100
 73
     1
 74
     1
 75
     0
 76
     0
 77
     0
 78
     0
  0
ENDTAB
  0
TABLE
  2
LTYPE
  5
5
330
0
100
AcDbSymbolTable
 70
     9
  0
LTYPE
  5
13
330
5
100
AcDbSymbolTableRecord
100
AcDbLinetypeTableRecord
  2
BYBLOCK
 70
     0
  3

 72
    65
 73
     0
 40
0.0
  0
LTYPE
  5
14
330
5
100
AcDbSymbolTableRecord
100
AcDbLinetypeTableRecord
  2
BYLAYER
 70
     0
  3

 72
    65
 73
     0
 40
0.0
  0
LTYPE
  5
15
330
5
100
AcDbSymbolTableRecord
100
AcDbLinetypeTableRecord
  2
CONTINUOUS
 70
     0
  3
Solid line
 72
    65
 73
     0
 40
0.0
  0
LTYPE
  5
23
330
5
100
AcDbSymbolTableRecord
100
AcDbLinetypeTableRecord
  2
DASHED
 70
     0
  3
__ __ __ __ __ __ __ __ __ __ __ __ __ __ __
 72
    65
 73
     2
 40
0.75
 49
0.5
 74
     0
 49
-0.25
 74
     0
  0
LTYPE
  5
25
330
5
100
AcDbSymbolTableRecord
100
AcDbLinetypeTableRecord
  2
DOT
 70
     0
  3
...............................................
 72
    65
 73
     2
 40
0.25
 49
0.0
 74
     0
 49
-0.25
 74
     0
  0
LTYPE
  5
28
330
5
100
AcDbSymbolTableRecord
100
AcDbLinetypeTableRecord
  2
CENTER
 70
     0
  3
____ _ ____ _ ____ _ ____ _ ____ _ ____ _ ____ 
 72
    65
 73
     4
 40
2.0
 49
1.25
 74
     0
 49
-0.25
 74
     0
 49
0.25
 74
     0
 49
-0.25
 74
     0
  0
ENDTAB
  0
TABLE
  2
LAYER
  5
2
330
0
100
AcDbSymbolTable
 70
    17
  0
LAYER
  5
10
330
2
100
AcDbSymbolTableRecord
100
AcDbLayerTableRecord
  2
0
 70
     0
 62
     7
  6
CONTINUOUS
  0
LAYER
  5
22
330
2
100
AcDbSymbolTableRecord
100
AcDbLayerTableRecord
  2
CSLAYER1
 70
     0
 62
     7
  6
CONTINUOUS
  0
ENDTAB
  0
TABLE
  2
STYLE
  5
3
330
0
100
AcDbSymbolTable
 70
     3
  0
STYLE
  5
11
330
3
100
AcDbSymbolTableRecord
100
AcDbTextStyleTableRecord
  2
STANDARD
 70
     0
 40
0.0
 41
1.0
 50
0.0
 71
     0
 42
0.2
  3
txt
  4
extfont.shx
  0
STYLE
  5
3A
330
3
100
AcDbSymbolTableRecord
100
AcDbTextStyleTableRecord
  2
FX_FONT
 70
     0
 40
1.0
 41
1.0
 50
0.0
 71
     0
 42
1.0
  3
monotxt
  4
bigfont
  0
STYLE
  5
490
330
3
100
AcDbSymbolTableRecord
100
AcDbTextStyleTableRecord
  2
GOTHIC
 70
     0
 40
0.0
 41
1.0
 50
0.0
 71
     0
 42
0.2
  3
txt.shx
  4
extfont.shx
  0
ENDTAB
  0
TABLE
  2
VIEW
  5
6
330
0
100
AcDbSymbolTable
 70
     0
  0
ENDTAB
  0
TABLE
  2
UCS
  5
7
330
0
100
AcDbSymbolTable
 70
     0
  0
ENDTAB
  0
TABLE
  2
APPID
  5
9
330
0
100
AcDbSymbolTable
 70
     1
  0
APPID
  5
12
330
9
100
AcDbSymbolTableRecord
100
AcDbRegAppTableRecord
  2
ACAD
 70
     0
  0
ENDTAB
  0
TABLE
  2
DIMSTYLE
  5
A
330
0
100
AcDbSymbolTable
 70
     1
  0
DIMSTYLE
105
48D
330
A
100
AcDbSymbolTableRecord
100
AcDbDimStyleTableRecord
  2
STANDARD
 70
     0
  3

  4

  5

  6

  7

 40
1.0
 41
0.18
 42
0.0625
 43
0.38
 44
0.18
 45
0.0
 46
0.0
 47
0.0
 48
0.0
140
0.18
141
0.09
142
0.0
143
25.4
144
1.0
145
0.0
146
1.0
147
0.09
 71
     0
 72
     0
 73
     1
 74
     1
 75
     0
 76
     0
 77
     0
 78
     0
170
     0
171
     2
172
     0
173
     0
174
     0
175
     0
176
     0
177
     0
178
     0
270
     2
271
     4
272
     4
273
     2
274
     2
340
11
275
     0
280
     0
281
     0
282
     0
283
     1
284
     0
285
     0
286
     0
287
     3
288
     0
  0
ENDTAB
  0
TABLE
  2
BLOCK_RECORD
  5
1
330
0
100
AcDbSymbolTable
 70
    31
  0
BLOCK_RECORD
  5
1E
102
{ACAD_XDICTIONARY
360
496
102
}
330
1
100
AcDbSymbolTableRecord
100
AcDbBlockTableRecord
  2
*MODEL_SPACE
  0
BLOCK_RECORD
  5
1A
102
{ACAD_XDICTIONARY
360
494
102
}
330
1
100
AcDbSymbolTableRecord
100
AcDbBlockTableRecord
  2
*PAPER_SPACE
  0
BLOCK_RECORD
  5
3F
330
1
100
AcDbSymbolTableRecord
100
AcDbBlockTableRecord
  2
*D0
  0
BLOCK_RECORD
  5
4A
330
1
100
AcDbSymbolTableRecord
100
AcDbBlockTableRecord
  2
FXDIM0000
  0
BLOCK_RECORD
  5
4E
330
1
100
AcDbSymbolTableRecord
100
AcDbBlockTableRecord
  2
*D2
  0
BLOCK_RECORD
  5
59
330
1
100
AcDbSymbolTableRecord
100
AcDbBlockTableRecord
  2
*D3
  0
BLOCK_RECORD
  5
64
330
1
100
AcDbSymbolTableRecord
100
AcDbBlockTableRecord
  2
*D4
  0
BLOCK_RECORD
  5
71
330
1
100
AcDbSymbolTableRecord
100
AcDbBlockTableRecord
  2
FXDIM0001
  0
BLOCK_RECORD
  5
75
330
1
100
AcDbSymbolTableRecord
100
AcDbBlockTableRecord
  2
*D6
  0
BLOCK_RECORD
  5
80
330
1
100
AcDbSymbolTableRecord
100
AcDbBlockTableRecord
  2
*D7
  0
BLOCK_RECORD
  5
8D
330
1
100
AcDbSymbolTableRecord
100
AcDbBlockTableRecord
  2
FXDIM0002
  0
BLOCK_RECORD
  5
95
330
1
100
AcDbSymbolTableRecord
100
AcDbBlockTableRecord
  2
FXDIM0003
  0
BLOCK_RECORD
  5
9D
330
1
100
AcDbSymbolTableRecord
100
AcDbBlockTableRecord
  2
FXDIM0004
  0
BLOCK_RECORD
  5
A5
330
1
100
AcDbSymbolTableRecord
100
AcDbBlockTableRecord
  2
FXDIM0005
  0
BLOCK_RECORD
  5
AD
330
1
100
AcDbSymbolTableRecord
100
AcDbBlockTableRecord
  2
*D12
  0
BLOCK_RECORD
  5
B8
330
1
100
AcDbSymbolTableRecord
100
AcDbBlockTableRecord
  2
*D13
  0
BLOCK_RECORD
  5
C3
330
1
100
AcDbSymbolTableRecord
100
AcDbBlockTableRecord
  2
*D14
  0
BLOCK_RECORD
  5
CD
330
1
100
AcDbSymbolTableRecord
100
AcDbBlockTableRecord
  2
*D15
  0
BLOCK_RECORD
  5
D8
330
1
100
AcDbSymbolTableRecord
100
AcDbBlockTableRecord
  2
*D16
  0
BLOCK_RECORD
  5
E3
330
1
100
AcDbSymbolTableRecord
100
AcDbBlockTableRecord
  2
*D17
  0
BLOCK_RECORD
  5
EE
330
1
100
AcDbSymbolTableRecord
100
AcDbBlockTableRecord
  2
*D18
  0
BLOCK_RECORD
  5
FA
330
1
100
AcDbSymbolTableRecord
100
AcDbBlockTableRecord
  2
*D19
  0
BLOCK_RECORD
  5
103
330
1
100
AcDbSymbolTableRecord
100
AcDbBlockTableRecord
  2
*D20
  0
BLOCK_RECORD
  5
10D
330
1
100
AcDbSymbolTableRecord
100
AcDbBlockTableRecord
  2
*D21
  0
BLOCK_RECORD
  5
115
330
1
100
AcDbSymbolTableRecord
100
AcDbBlockTableRecord
  2
*D22
  0
BLOCK_RECORD
  5
120
330
1
100
AcDbSymbolTableRecord
100
AcDbBlockTableRecord
  2
*D23
  0
BLOCK_RECORD
  5
12A
330
1
100
AcDbSymbolTableRecord
100
AcDbBlockTableRecord
  2
*D24
  0
BLOCK_RECORD
  5
133
330
1
100
AcDbSymbolTableRecord
100
AcDbBlockTableRecord
  2
*D25
  0
BLOCK_RECORD
  5
13E
330
1
100
AcDbSymbolTableRecord
100
AcDbBlockTableRecord
  2
*D26
  0
BLOCK_RECORD
  5
148
330
1
100
AcDbSymbolTableRecord
100
AcDbBlockTableRecord
  2
*D27
  0
BLOCK_RECORD
  5
151
330
1
100
AcDbSymbolTableRecord
100
AcDbBlockTableRecord
  2
*D28
  0
BLOCK_RECORD
  5
15B
330
1
100
AcDbSymbolTableRecord
100
AcDbBlockTableRecord
  2
*D29
  0
BLOCK_RECORD
  5
163
330
1
100
AcDbSymbolTableRecord
100
AcDbBlockTableRecord
  2
FXDIM0006
  0
ENDTAB
  0
ENDSEC
  0
SECTION
  2
BLOCKS
  0
BLOCK
  5
1F
330
1E
100
AcDbEntity
  8
0
100
AcDbBlockBegin
  2
*MODEL_SPACE
 70
     0
 10
0.0
 20
0.0
 30
0.0
  3
*MODEL_SPACE
  1

  0
ENDBLK
  5
20
330
1E
100
AcDbEntity
  8
0
100
AcDbBlockEnd
  0
BLOCK
  5
1B
330
1A
100
AcDbEntity
 67
     1
  8
0
100
AcDbBlockBegin
  2
*PAPER_SPACE
 70
     0
 10
0.0
 20
0.0
 30
0.0
  3
*PAPER_SPACE
  1

  0
ENDBLK
  5
1C
330
1A
100
AcDbEntity
 67
     1
  8
0
100
AcDbBlockEnd
  0
BLOCK
  5
40
330
3F
100
AcDbEntity
  8
CSLAYER1
100
AcDbBlockBegin
  2
*D0
 70
     1
 10
0.0
 20
0.0
 30
0.0
  3
*D0
  1

  0
TEXT
  5
41
330
3F
100
AcDbEntity
  8
CSLAYER1
 62
     4
100
AcDbText
 10
368.536102
 20
168.4258699999999
 30
0.0
 40
3.2
  1
12
 50
90.0
 41
1.200000000000001
 51
15.0
  7
FX_FONT
 72
     5
 11
368.536102
 21
174.82587
 31
0.0
100
AcDbText
  0
LINE
  5
42
330
3F
100
AcDbEntity
  8
CSLAYER1
  6
CONTINUOUS
 62
     4
100
AcDbLine
 10
350.044385
 20
165.625874
 30
0.0
 11
370.0361
 21
165.625874
 31
0.0
  0
LINE
  5
43
330
3F
100
AcDbEntity
  8
CSLAYER1
  6
CONTINUOUS
 62
     4
100
AcDbLine
 10
350.044385
 20
177.625874
 30
0.0
 11
370.0361
 21
177.625874
 31
0.0
  0
LINE
  5
44
330
3F
100
AcDbEntity
  8
CSLAYER1
  6
CONTINUOUS
 62
     4
100
AcDbLine
 10
369.0360999999999
 20
165.625874
 30
0.0
 11
369.0360999999999
 21
177.625874
 31
0.0
  0
LINE
  5
45
330
3F
100
AcDbEntity
  8
CSLAYER1
  6
CONTINUOUS
 62
     4
100
AcDbLine
 10
369.0360999999999
 20
165.625874
 30
0.0
 11
368.259643
 21
168.523651
 31
0.0
  0
LINE
  5
46
330
3F
100
AcDbEntity
  8
CSLAYER1
  6
CONTINUOUS
 62
     4
100
AcDbLine
 10
369.0360999999999
 20
165.625874
 30
0.0
 11
369.8125569999999
 21
168.523651
 31
0.0
  0
LINE
  5
47
330
3F
100
AcDbEntity
  8
CSLAYER1
  6
CONTINUOUS
 62
     4
100
AcDbLine
 10
369.0360999999999
 20
177.625874
 30
0.0
 11
368.259643
 21
174.7280959999999
 31
0.0
  0
LINE
  5
48
330
3F
100
AcDbEntity
  8
CSLAYER1
  6
CONTINUOUS
 62
     4
100
AcDbLine
 10
369.0360999999999
 20
177.625874
 30
0.0
 11
369.8125569999999
 21
174.7280959999999
 31
0.0
  0
ENDBLK
  5
49
330
3F
100
AcDbEntity
  8
0
100
AcDbBlockEnd
  0
BLOCK
  5
4B
330
4A
100
AcDbEntity
  8
CSLAYER1
100
AcDbBlockBegin
  2
FXDIM0000
 70
     0
 10
0.0
 20
0.0
 30
0.0
  3
FXDIM0000
  1

  0
LINE
  5
4C
330
4A
100
AcDbEntity
  8
CSLAYER1
  6
CONTINUOUS
 62
     4
100
AcDbLine
 10
265.6534759999999
 20
171.625874
 30
0.0
 11
264.130807
 21
171.625874
 31
0.0
  0
ENDBLK
  5
4D
330
4A
100
AcDbEntity
  8
0
100
AcDbBlockEnd
  0
BLOCK
  5
4F
330
4E
100
AcDbEntity
  8
CSLAYER1
100
AcDbBlockBegin
  2
*D2
 70
     1
 10
0.0
 20
0.0
 30
0.0
  3
*D2
  1

  0
TEXT
  5
50
330
4E
100
AcDbEntity
  8
CSLAYER1
 62
     4
100
AcDbText
 10
306.8634149999999
 20
107.996635
 30
0.0
 40
3.2
  1
86
 41
1.200000187500005
 51
15.0
  7
FX_FONT
 72
     5
 11
313.263416
 21
107.996635
 31
0.0
100
AcDbText
  0
LINE
  5
51
330
4E
100
AcDbEntity
  8
CSLAYER1
  6
CONTINUOUS
 62
     4
100
AcDbLine
 10
272.044385
 20
166.125874
 30
0.0
 11
272.044385
 21
106.4966279999999
 31
0.0
  0
LINE
  5
52
330
4E
100
AcDbEntity
  8
CSLAYER1
  6
CONTINUOUS
 62
     4
100
AcDbLine
 10
358.044385
 20
166.125874
 30
0.0
 11
358.044385
 21
106.4966279999999
 31
0.0
  0
LINE
  5
53
330
4E
100
AcDbEntity
  8
CSLAYER1
  6
CONTINUOUS
 62
     4
100
AcDbLine
 10
272.044385
 20
107.4966279999999
 30
0.0
 11
358.044385
 21
107.4966279999999
 31
0.0
  0
LINE
  5
54
330
4E
100
AcDbEntity
  8
CSLAYER1
  6
CONTINUOUS
 62
     4
100
AcDbLine
 10
272.044385
 20
107.4966279999999
 30
0.0
 11
274.942163
 21
108.273085
 31
0.0
  0
LINE
  5
55
330
4E
100
AcDbEntity
  8
CSLAYER1
  6
CONTINUOUS
 62
     4
100
AcDbLine
 10
272.044385
 20
107.4966279999999
 30
0.0
 11
274.942163
 21
106.7201709999999
 31
0.0
  0
LINE
  5
56
330
4E
100
AcDbEntity
  8
CSLAYER1
  6
CONTINUOUS
 62
     4
100
AcDbLine
 10
358.044385
 20
107.4966279999999
 30
0.0
 11
355.146608
 21
108.273085
 31
0.0
  0
LINE
  5
57
330
4E
100
AcDbEntity
  8
CSLAYER1
  6
CONTINUOUS
 62
     4
100
AcDbLine
 10
358.044385
 20
107.4966279999999
 30
0.0
 11
355.146608
 21
106.7201709999999
 31
0.0
  0
ENDBLK
  5
58
330
4E
100
AcDbEntity
  8
0
100
AcDbBlockEnd
  0
BLOCK
  5
5A
330
59
100
AcDbEntity
  8
CSLAYER1
100
AcDbBlockBegin
  2
*D3
 70
     1
 10
0.0
 20
0.0
 30
0.0
  3
*D3
  1

  0
TEXT
  5
5B
330
59
100
AcDbEntity
  8
CSLAYER1
 62
     4
100
AcDbText
 10
306.04646
 20
113.996635
 30
0.0
 40
3.2
  1
68
 41
1.199999999999995
 51
15.0
  7
FX_FONT
 72
     5
 11
312.44646
 21
113.996635
 31
0.0
100
AcDbText
  0
LINE
  5
5C
330
59
100
AcDbEntity
  8
CSLAYER1
  6
CONTINUOUS
 62
     4
100
AcDbLine
 10
281.044385
 20
159.6603489999999
 30
0.0
 11
281.044385
 21
112.4966279999999
 31
0.0
  0
LINE
  5
5D
330
59
100
AcDbEntity
  8
CSLAYER1
  6
CONTINUOUS
 62
     4
100
AcDbLine
 10
349.044385
 20
159.6603489999999
 30
0.0
 11
349.044385
 21
112.4966279999999
 31
0.0
  0
LINE
  5
5E
330
59
100
AcDbEntity
  8
CSLAYER1
  6
CONTINUOUS
 62
     4
100
AcDbLine
 10
281.044385
 20
113.4966279999999
 30
0.0
 11
349.044385
 21
113.4966279999999
 31
0.0
  0
LINE
  5
5F
330
59
100
AcDbEntity
  8
CSLAYER1
  6
CONTINUOUS
 62
     4
100
AcDbLine
 10
281.044385
 20
113.4966279999999
 30
0.0
 11
283.942163
 21
114.273085
 31
0.0
  0
LINE
  5
60
330
59
100
AcDbEntity
  8
CSLAYER1
  6
CONTINUOUS
 62
     4
100
AcDbLine
 10
281.044385
 20
113.4966279999999
 30
0.0
 11
283.942163
 21
112.720171
 31
0.0
  0
LINE
  5
61
330
59
100
AcDbEntity
  8
CSLAYER1
  6
CONTINUOUS
 62
     4
100
AcDbLine
 10
349.044385
 20
113.4966279999999
 30
0.0
 11
346.146608
 21
114.273085
 31
0.0
  0
LINE
  5
62
330
59
100
AcDbEntity
  8
CSLAYER1
  6
CONTINUOUS
 62
     4
100
AcDbLine
 10
349.044385
 20
113.4966279999999
 30
0.0
 11
346.146608
 21
112.720171
 31
0.0
  0
ENDBLK
  5
63
330
59
100
AcDbEntity
  8
0
100
AcDbBlockEnd
  0
BLOCK
  5
65
330
64
100
AcDbEntity
  8
CSLAYER1
100
AcDbBlockBegin
  2
*D4
 70
     1
 10
0.0
 20
0.0
 30
0.0
  3
*D4
  1

  0
TEXT
  5
66
330
64
100
AcDbEntity
  8
CSLAYER1
 62
     4
100
AcDbText
 10
344.4773129999999
 20
190.16333
 30
0.0
 40
3.2
  1
6.4
 41
1.125000000000002
 51
15.0
  7
FX_FONT
 72
     5
 11
354.077313
 21
190.16333
 31
0.0
100
AcDbText
  0
LINE
  5
67
330
64
100
AcDbEntity
  8
CSLAYER1
  6
CONTINUOUS
 62
     4
100
AcDbLine
 10
345.844385
 20
175.475105
 30
0.0
 11
345.844385
 21
189.5294169999999
 31
0.0
  0
LINE
  5
68
330
64
100
AcDbEntity
  8
CSLAYER1
  6
CONTINUOUS
 62
     4
100
AcDbLine
 10
352.244385
 20
175.475105
 30
0.0
 11
352.244385
 21
189.5294169999999
 31
0.0
  0
LINE
  5
69
330
64
100
AcDbEntity
  8
CSLAYER1
  6
CONTINUOUS
 62
     4
100
AcDbLine
 10
345.844385
 20
188.5294169999999
 30
0.0
 11
352.244385
 21
188.5294169999999
 31
0.0
  0
LINE
  5
6A
330
64
100
AcDbEntity
  8
CSLAYER1
  6
CONTINUOUS
 62
     4
100
AcDbLine
 10
342.8443849999999
 20
188.5294169999999
 30
0.0
 11
345.844385
 21
188.5294169999999
 31
0.0
  0
LINE
  5
6B
330
64
100
AcDbEntity
  8
CSLAYER1
  6
CONTINUOUS
 62
     4
100
AcDbLine
 10
345.844385
 20
188.5294169999999
 30
0.0
 11
342.946608
 21
189.3058739999999
 31
0.0
  0
LINE
  5
6C
330
64
100
AcDbEntity
  8
CSLAYER1
  6
CONTINUOUS
 62
     4
100
AcDbLine
 10
345.844385
 20
188.5294169999999
 30
0.0
 11
342.946608
 21
187.7529589999999
 31
0.0
  0
LINE
  5
6D
330
64
100
AcDbEntity
  8
CSLAYER1
  6
CONTINUOUS
 62
     4
100
AcDbLine
 10
352.244385
 20
188.5294169999999
 30
0.0
 11
355.244385
 21
188.5294169999999
 31
0.0
  0
LINE
  5
6E
330
64
100
AcDbEntity
  8
CSLAYER1
  6
CONTINUOUS
 62
     4
100
AcDbLine
 10
352.244385
 20
188.5294169999999
 30
0.0
 11
355.142163
 21
189.3058739999999
 31
0.0
  0
LINE
  5
6F
330
64
100
AcDbEntity
  8
CSLAYER1
  6
CONTINUOUS
 62
     4
100
AcDbLine
 10
352.244385
 20
188.5294169999999
 30
0.0
 11
355.142163
 21
187.7529589999999
 31
0.0
  0
ENDBLK
  5
70
330
64
100
AcDbEntity
  8
0
100
AcDbBlockEnd
  0
BLOCK
  5
72
330
71
100
AcDbEntity
  8
CSLAYER1
100
AcDbBlockBegin
  2
FXDIM0001
 70
     0
 10
0.0
 20
0.0
 30
0.0
  3
FXDIM0001
  1

  0
LINE
  5
73
330
71
100
AcDbEntity
  8
CSLAYER1
  6
CONTINUOUS
 62
     4
100
AcDbLine
 10
223.537741
 20
117.347506
 30
0.0
 11
223.537741
 21
118.288208
 31
0.0
  0
ENDBLK
  5
74
330
71
100
AcDbEntity
  8
0
100
AcDbBlockEnd
  0
BLOCK
  5
76
330
75
100
AcDbEntity
  8
CSLAYER1
100
AcDbBlockBegin
  2
*D6
 70
     1
 10
0.0
 20
0.0
 30
0.0
  3
*D6
  1

  0
TEXT
  5
77
330
75
100
AcDbEntity
  8
CSLAYER1
 62
     4
100
AcDbText
 10
63.495564
 20
36.28287499999999
 30
0.0
 40
3.2
  1
12
 41
1.200000000000001
 51
15.0
  7
FX_FONT
 72
     5
 11
69.89556400000001
 21
36.28287499999999
 31
0.0
100
AcDbText
  0
LINE
  5
78
330
75
100
AcDbEntity
  8
CSLAYER1
  6
CONTINUOUS
 62
     4
100
AcDbLine
 10
72.69556700000001
 20
27.42803499999999
 30
0.0
 11
72.69556700000001
 21
36.782876
 31
0.0
  0
LINE
  5
79
330
75
100
AcDbEntity
  8
CSLAYER1
  6
CONTINUOUS
 62
     4
100
AcDbLine
 10
60.695567
 20
27.42803499999999
 30
0.0
 11
60.695567
 21
36.782876
 31
0.0
  0
LINE
  5
7A
330
75
100
AcDbEntity
  8
CSLAYER1
  6
CONTINUOUS
 62
     4
100
AcDbLine
 10
60.695567
 20
35.782876
 30
0.0
 11
72.69556700000001
 21
35.782876
 31
0.0
  0
LINE
  5
7B
330
75
100
AcDbEntity
  8
CSLAYER1
  6
CONTINUOUS
 62
     4
100
AcDbLine
 10
60.695567
 20
35.782876
 30
0.0
 11
63.59334499999999
 21
36.559333
 31
0.0
  0
LINE
  5
7C
330
75
100
AcDbEntity
  8
CSLAYER1
  6
CONTINUOUS
 62
     4
100
AcDbLine
 10
60.695567
 20
35.782876
 30
0.0
 11
63.59334499999999
 21
35.006419
 31
0.0
  0
LINE
  5
7D
330
75
100
AcDbEntity
  8
CSLAYER1
  6
CONTINUOUS
 62
     4
100
AcDbLine
 10
72.69556700000001
 20
35.782876
 30
0.0
 11
69.79779
 21
36.559333
 31
0.0
  0
LINE
  5
7E
330
75
100
AcDbEntity
  8
CSLAYER1
  6
CONTINUOUS
 62
     4
100
AcDbLine
 10
72.69556700000001
 20
35.782876
 30
0.0
 11
69.79779
 21
35.006419
 31
0.0
  0
ENDBLK
  5
7F
330
75
100
AcDbEntity
  8
0
100
AcDbBlockEnd
  0
BLOCK
  5
81
330
80
100
AcDbEntity
  8
CSLAYER1
100
AcDbBlockBegin
  2
*D7
 70
     1
 10
0.0
 20
0.0
 30
0.0
  3
*D7
  1

  0
TEXT
  5
82
330
80
100
AcDbEntity
  8
CSLAYER1
 62
     4
100
AcDbText
 10
90.715248
 20
21.01032
 30
0.0
 40
3.2
  1
6.4
 50
90.0
 41
1.125
 51
15.0
  7
FX_FONT
 72
     5
 11
90.715248
 21
30.61032
 31
0.0
100
AcDbText
  0
LINE
  5
83
330
80
100
AcDbEntity
  8
CSLAYER1
  6
CONTINUOUS
 62
     4
100
AcDbLine
 10
70.544798
 20
23.228035
 30
0.0
 11
85.660547
 21
23.228035
 31
0.0
  0
LINE
  5
84
330
80
100
AcDbEntity
  8
CSLAYER1
  6
CONTINUOUS
 62
     4
100
AcDbLine
 10
70.544798
 20
29.62803499999999
 30
0.0
 11
85.660547
 21
29.62803499999999
 31
0.0
  0
LINE
  5
85
330
80
100
AcDbEntity
  8
CSLAYER1
  6
CONTINUOUS
 62
     4
100
AcDbLine
 10
84.66054699999999
 20
23.228035
 30
0.0
 11
84.66054699999999
 21
29.62803499999999
 31
0.0
  0
LINE
  5
86
330
80
100
AcDbEntity
  8
CSLAYER1
  6
CONTINUOUS
 62
     4
100
AcDbLine
 10
84.66054699999999
 20
20.228035
 30
0.0
 11
84.66054699999999
 21
23.228035
 31
0.0
  0
LINE
  5
87
330
80
100
AcDbEntity
  8
CSLAYER1
  6
CONTINUOUS
 62
     4
100
AcDbLine
 10
84.66054699999999
 20
23.228035
 30
0.0
 11
83.88409000000001
 21
20.330257
 31
0.0
  0
LINE
  5
88
330
80
100
AcDbEntity
  8
CSLAYER1
  6
CONTINUOUS
 62
     4
100
AcDbLine
 10
84.66054699999999
 20
23.228035
 30
0.0
 11
85.437004
 21
20.330257
 31
0.0
  0
LINE
  5
89
330
80
100
AcDbEntity
  8
CSLAYER1
  6
CONTINUOUS
 62
     4
100
AcDbLine
 10
84.66054699999999
 20
29.62803499999999
 30
0.0
 11
84.66054699999999
 21
32.62803499999999
 31
0.0
  0
LINE
  5
8A
330
80
100
AcDbEntity
  8
CSLAYER1
  6
CONTINUOUS
 62
     4
100
AcDbLine
 10
84.66054699999999
 20
29.62803499999999
 30
0.0
 11
83.88409000000001
 21
32.525812
 31
0.0
  0
LINE
  5
8B
330
80
100
AcDbEntity
  8
CSLAYER1
  6
CONTINUOUS
 62
     4
100
AcDbLine
 10
84.66054699999999
 20
29.62803499999999
 30
0.0
 11
85.437004
 21
32.525812
 31
0.0
  0
ENDBLK
  5
8C
330
80
100
AcDbEntity
  8
0
100
AcDbBlockEnd
  0
BLOCK
  5
8E
330
8D
100
AcDbEntity
  8
CSLAYER1
100
AcDbBlockBegin
  2
FXDIM0002
 70
     0
 10
0.0
 20
0.0
 30
0.0
  3
FXDIM0002
  1

  0
LINE
  5
8F
330
8D
100
AcDbEntity
  8
CSLAYER1
  6
CONTINUOUS
 62
     4
100
AcDbLine
 10
334.9311589999999
 20
211.9857259999999
 30
0.0
 11
349.441373
 21
199.3721899999999
 31
0.0
  0
LINE
  5
90
330
8D
100
AcDbEntity
  8
CSLAYER1
  6
CONTINUOUS
 62
     4
100
AcDbLine
 10
334.9311589999999
 20
211.9857259999999
 30
0.0
 11
337.627541
 21
210.670613
 31
0.0
  0
LINE
  5
91
330
8D
100
AcDbEntity
  8
CSLAYER1
  6
CONTINUOUS
 62
     4
100
AcDbLine
 10
334.9311589999999
 20
211.9857259999999
 30
0.0
 11
336.608738
 21
209.4986129999999
 31
0.0
  0
LINE
  5
92
330
8D
100
AcDbEntity
  8
CSLAYER1
  6
CONTINUOUS
 62
     4
100
AcDbLine
 10
349.441373
 20
199.3721899999999
 30
0.0
 11
386.641374
 21
199.3721899999999
 31
0.0
  0
TEXT
  5
93
330
8D
100
AcDbEntity
  8
CSLAYER1
 62
     4
100
AcDbText
 10
350.441406
 20
199.8721919999999
 30
0.0
 40
3.2
  1
2-M5X0.8タップ
 41
0.9705882628676453
 51
15.0
  7
FX_FONT
 72
     5
 11
385.6414069999999
 21
199.8721919999999
 31
0.0
100
AcDbText
  0
ENDBLK
  5
94
330
8D
100
AcDbEntity
  8
0
100
AcDbBlockEnd
  0
BLOCK
  5
96
330
95
100
AcDbEntity
  8
CSLAYER1
100
AcDbBlockBegin
  2
FXDIM0003
 70
     0
 10
0.0
 20
0.0
 30
0.0
  3
FXDIM0003
  1

  0
LINE
  5
97
330
95
100
AcDbEntity
  8
CSLAYER1
  6
CONTINUOUS
 62
     4
100
AcDbLine
 10
335.69865
 20
170.5018589999999
 30
0.0
 11
361.97117
 21
152.432897
 31
0.0
  0
LINE
  5
98
330
95
100
AcDbEntity
  8
CSLAYER1
  6
CONTINUOUS
 62
     4
100
AcDbLine
 10
335.69865
 20
170.5018589999999
 30
0.0
 11
338.5262539999999
 21
169.499535
 31
0.0
  0
LINE
  5
99
330
95
100
AcDbEntity
  8
CSLAYER1
  6
CONTINUOUS
 62
     4
100
AcDbLine
 10
335.69865
 20
170.5018589999999
 30
0.0
 11
337.6462649999999
 21
168.220019
 31
0.0
  0
LINE
  5
9A
330
95
100
AcDbEntity
  8
CSLAYER1
  6
CONTINUOUS
 62
     4
100
AcDbLine
 10
361.97117
 20
152.432897
 30
0.0
 11
392.771171
 21
152.432897
 31
0.0
  0
TEXT
  5
9B
330
95
100
AcDbEntity
  8
CSLAYER1
 62
     4
100
AcDbText
 10
362.9711549999999
 20
152.932907
 30
0.0
 40
3.2
  1
スライド調整ボルト
 41
0.8709677419354839
 51
15.0
  7
FX_FONT
 72
     5
 11
391.7711549999999
 21
152.932907
 31
0.0
100
AcDbText
  0
ENDBLK
  5
9C
330
95
100
AcDbEntity
  8
0
100
AcDbBlockEnd
  0
BLOCK
  5
9E
330
9D
100
AcDbEntity
  8
CSLAYER1
100
AcDbBlockBegin
  2
FXDIM0004
 70
     0
 10
0.0
 20
0.0
 30
0.0
  3
FXDIM0004
  1

  0
LINE
  5
9F
330
9D
100
AcDbEntity
  8
CSLAYER1
  6
CONTINUOUS
 62
     4
100
AcDbLine
 10
232.058292
 20
169.1806689999999
 30
0.0
 11
236.216287
 21
149.6491649999999
 31
0.0
  0
LINE
  5
A0
330
9D
100
AcDbEntity
  8
CSLAYER1
  6
CONTINUOUS
 62
     4
100
AcDbLine
 10
232.058292
 20
169.1806689999999
 30
0.0
 11
233.421108
 21
166.50808
 31
0.0
  0
LINE
  5
A1
330
9D
100
AcDbEntity
  8
CSLAYER1
  6
CONTINUOUS
 62
     4
100
AcDbLine
 10
232.058292
 20
169.1806689999999
 30
0.0
 11
231.9022299999999
 21
166.1847309999999
 31
0.0
  0
LINE
  5
A2
330
9D
100
AcDbEntity
  8
CSLAYER1
  6
CONTINUOUS
 62
     4
100
AcDbLine
 10
236.216287
 20
149.6491649999999
 30
0.0
 11
257.416288
 21
149.6491649999999
 31
0.0
  0
TEXT
  5
A3
330
9D
100
AcDbEntity
  8
CSLAYER1
 62
     4
100
AcDbText
 10
237.2162689999999
 20
150.149155
 30
0.0
 40
3.2
  1
M5X0.8
 41
1.058823529411765
 51
15.0
  7
FX_FONT
 72
     5
 11
256.4162689999999
 21
150.149155
 31
0.0
100
AcDbText
  0
ENDBLK
  5
A4
330
9D
100
AcDbEntity
  8
0
100
AcDbBlockEnd
  0
BLOCK
  5
A6
330
A5
100
AcDbEntity
  8
CSLAYER1
100
AcDbBlockBegin
  2
FXDIM0005
 70
     0
 10
0.0
 20
0.0
 30
0.0
  3
FXDIM0005
  1

  0
LINE
  5
A7
330
A5
100
AcDbEntity
  8
CSLAYER1
  6
CONTINUOUS
 62
     4
100
AcDbLine
 10
179.181304
 20
102.4222329999999
 30
0.0
 11
192.5123439999999
 21
72.87565999999999
 31
0.0
  0
LINE
  5
A8
330
A5
100
AcDbEntity
  8
CSLAYER1
  6
CONTINUOUS
 62
     4
100
AcDbLine
 10
179.181304
 20
102.4222329999999
 30
0.0
 11
181.08081
 21
100.1001919999999
 31
0.0
  0
LINE
  5
A9
330
A5
100
AcDbEntity
  8
CSLAYER1
  6
CONTINUOUS
 62
     4
100
AcDbLine
 10
179.181304
 20
102.4222329999999
 30
0.0
 11
179.6653039999999
 21
99.461533
 31
0.0
  0
LINE
  5
AA
330
A5
100
AcDbEntity
  8
CSLAYER1
  6
CONTINUOUS
 62
     4
100
AcDbLine
 10
192.5123439999999
 20
72.87565999999999
 30
0.0
 11
216.912345
 21
72.87565999999999
 31
0.0
  0
TEXT
  5
AB
330
A5
100
AcDbEntity
  8
CSLAYER1
 62
     4
100
AcDbText
 10
193.5123719999999
 20
73.375671
 30
0.0
 40
3.2
  1
Rc1/8ネジ
 41
0.9813084112149548
 51
15.0
  7
FX_FONT
 72
     5
 11
215.912372
 21
73.375671
 31
0.0
100
AcDbText
  0
ENDBLK
  5
AC
330
A5
100
AcDbEntity
  8
0
100
AcDbBlockEnd
  0
BLOCK
  5
AE
330
AD
100
AcDbEntity
  8
CSLAYER1
100
AcDbBlockBegin
  2
*D12
 70
     1
 10
0.0
 20
0.0
 30
0.0
  3
*D12
  1

  0
TEXT
  5
AF
330
AD
100
AcDbEntity
  8
CSLAYER1
 62
     4
100
AcDbText
 10
311.844403
 20
239.004883
 30
0.0
 40
3.2
  1
36
 41
1.199999999999995
 51
15.0
  7
FX_FONT
 72
     5
 11
318.2444029999999
 21
239.004883
 31
0.0
100
AcDbText
  0
LINE
  5
B0
330
AD
100
AcDbEntity
  8
CSLAYER1
  6
CONTINUOUS
 62
     4
100
AcDbLine
 10
297.044385
 20
238.504879
 30
0.0
 11
333.044385
 21
238.504879
 31
0.0
  0
LINE
  5
B1
330
AD
100
AcDbEntity
  8
CSLAYER1
  6
CONTINUOUS
 62
     4
100
AcDbLine
 10
297.044385
 20
238.504879
 30
0.0
 11
299.942163
 21
239.2813359999999
 31
0.0
  0
LINE
  5
B2
330
AD
100
AcDbEntity
  8
CSLAYER1
  6
CONTINUOUS
 62
     4
100
AcDbLine
 10
297.044385
 20
238.504879
 30
0.0
 11
299.942163
 21
237.728422
 31
0.0
  0
LINE
  5
B3
330
AD
100
AcDbEntity
  8
CSLAYER1
  6
CONTINUOUS
 62
     4
100
AcDbLine
 10
333.044385
 20
238.504879
 30
0.0
 11
330.146608
 21
239.2813359999999
 31
0.0
  0
LINE
  5
B4
330
AD
100
AcDbEntity
  8
CSLAYER1
  6
CONTINUOUS
 62
     4
100
AcDbLine
 10
333.044385
 20
238.504879
 30
0.0
 11
330.146608
 21
237.728422
 31
0.0
  0
LINE
  5
B5
330
AD
100
AcDbEntity
  8
CSLAYER1
  6
CONTINUOUS
 62
     4
100
AcDbLine
 10
297.044385
 20
220.9313279999999
 30
0.0
 11
297.044385
 21
239.504879
 31
0.0
  0
LINE
  5
B6
330
AD
100
AcDbEntity
  8
CSLAYER1
  6
CONTINUOUS
 62
     4
100
AcDbLine
 10
333.044385
 20
220.121014
 30
0.0
 11
333.044385
 21
239.504879
 31
0.0
  0
ENDBLK
  5
B7
330
AD
100
AcDbEntity
  8
0
100
AcDbBlockEnd
  0
BLOCK
  5
B9
330
B8
100
AcDbEntity
  8
CSLAYER1
100
AcDbBlockBegin
  2
*D13
 70
     1
 10
0.0
 20
0.0
 30
0.0
  3
*D13
  1

  0
TEXT
  5
BA
330
B8
100
AcDbEntity
  8
CSLAYER1
 62
     4
100
AcDbText
 10
262.306091
 20
124.9258699999999
 30
0.0
 40
3.2
  1
87
 50
90.0
 41
1.200000000000003
 51
15.0
  7
FX_FONT
 72
     5
 11
262.306091
 21
131.32587
 31
0.0
100
AcDbText
  0
LINE
  5
BB
330
B8
100
AcDbEntity
  8
CSLAYER1
  6
CONTINUOUS
 62
     4
100
AcDbLine
 10
262.806068
 20
84.625874
 30
0.0
 11
262.806068
 21
171.625874
 31
0.0
  0
LINE
  5
BC
330
B8
100
AcDbEntity
  8
CSLAYER1
  6
CONTINUOUS
 62
     4
100
AcDbLine
 10
262.806068
 20
84.625874
 30
0.0
 11
262.0296109999999
 21
87.523651
 31
0.0
  0
LINE
  5
BD
330
B8
100
AcDbEntity
  8
CSLAYER1
  6
CONTINUOUS
 62
     4
100
AcDbLine
 10
262.806068
 20
84.625874
 30
0.0
 11
263.5825249999999
 21
87.523651
 31
0.0
  0
LINE
  5
BE
330
B8
100
AcDbEntity
  8
CSLAYER1
  6
CONTINUOUS
 62
     4
100
AcDbLine
 10
262.806068
 20
171.625874
 30
0.0
 11
262.0296109999999
 21
168.728096
 31
0.0
  0
LINE
  5
BF
330
B8
100
AcDbEntity
  8
CSLAYER1
  6
CONTINUOUS
 62
     4
100
AcDbLine
 10
262.806068
 20
171.625874
 30
0.0
 11
263.5825249999999
 21
168.728096
 31
0.0
  0
LINE
  5
C0
330
B8
100
AcDbEntity
  8
CSLAYER1
  6
CONTINUOUS
 62
     4
100
AcDbLine
 10
271.044385
 20
84.625874
 30
0.0
 11
261.806068
 21
84.625874
 31
0.0
  0
LINE
  5
C1
330
B8
100
AcDbEntity
  8
CSLAYER1
  6
CONTINUOUS
 62
     4
100
AcDbLine
 10
264.6534759999999
 20
171.625874
 30
0.0
 11
261.806068
 21
171.625874
 31
0.0
  0
ENDBLK
  5
C2
330
B8
100
AcDbEntity
  8
0
100
AcDbBlockEnd
  0
BLOCK
  5
C4
330
C3
100
AcDbEntity
  8
CSLAYER1
100
AcDbBlockBegin
  2
*D14
 70
     1
 10
0.0
 20
0.0
 30
0.0
  3
*D14
  1

  0
TEXT
  5
C5
330
C3
100
AcDbEntity
  8
CSLAYER1
 62
     4
100
AcDbText
 10
262.306091
 20
189.4258699999999
 30
0.0
 40
3.2
  1
42
 50
90.0
 41
1.200000000000001
 51
15.0
  7
FX_FONT
 72
     5
 11
262.306091
 21
195.82587
 31
0.0
100
AcDbText
  0
LINE
  5
C6
330
C3
100
AcDbEntity
  8
CSLAYER1
  6
CONTINUOUS
 62
     4
100
AcDbLine
 10
262.806068
 20
171.625874
 30
0.0
 11
262.806068
 21
213.625874
 31
0.0
  0
LINE
  5
C7
330
C3
100
AcDbEntity
  8
CSLAYER1
  6
CONTINUOUS
 62
     4
100
AcDbLine
 10
262.806068
 20
171.625874
 30
0.0
 11
262.0296109999999
 21
174.5236509999999
 31
0.0
  0
LINE
  5
C8
330
C3
100
AcDbEntity
  8
CSLAYER1
  6
CONTINUOUS
 62
     4
100
AcDbLine
 10
262.806068
 20
171.625874
 30
0.0
 11
263.5825249999999
 21
174.5236509999999
 31
0.0
  0
LINE
  5
C9
330
C3
100
AcDbEntity
  8
CSLAYER1
  6
CONTINUOUS
 62
     4
100
AcDbLine
 10
262.806068
 20
213.625874
 30
0.0
 11
262.0296109999999
 21
210.7280959999999
 31
0.0
  0
LINE
  5
CA
330
C3
100
AcDbEntity
  8
CSLAYER1
  6
CONTINUOUS
 62
     4
100
AcDbLine
 10
262.806068
 20
213.625874
 30
0.0
 11
263.5825249999999
 21
210.7280959999999
 31
0.0
  0
LINE
  5
CB
330
C3
100
AcDbEntity
  8
CSLAYER1
  6
CONTINUOUS
 62
     4
100
AcDbLine
 10
289.458931
 20
213.625874
 30
0.0
 11
261.806068
 21
213.625874
 31
0.0
  0
ENDBLK
  5
CC
330
C3
100
AcDbEntity
  8
0
100
AcDbBlockEnd
  0
BLOCK
  5
CE
330
CD
100
AcDbEntity
  8
CSLAYER1
100
AcDbBlockBegin
  2
*D15
 70
     1
 10
0.0
 20
0.0
 30
0.0
  3
*D15
  1

  0
TEXT
  5
CF
330
CD
100
AcDbEntity
  8
CSLAYER1
 62
     4
100
AcDbText
 10
20.558985
 20
57.22803599999999
 30
0.0
 40
3.2
  1
86
 50
90.0
 41
1.200000000000001
 51
15.0
  7
FX_FONT
 72
     5
 11
20.558985
 21
63.628036
 31
0.0
100
AcDbText
  0
LINE
  5
D0
330
CD
100
AcDbEntity
  8
CSLAYER1
  6
CONTINUOUS
 62
     4
100
AcDbLine
 10
21.058984
 20
17.428035
 30
0.0
 11
21.058984
 21
103.4280349999999
 31
0.0
  0
LINE
  5
D1
330
CD
100
AcDbEntity
  8
CSLAYER1
  6
CONTINUOUS
 62
     4
100
AcDbLine
 10
21.058984
 20
17.428035
 30
0.0
 11
20.28252699999999
 21
20.325812
 31
0.0
  0
LINE
  5
D2
330
CD
100
AcDbEntity
  8
CSLAYER1
  6
CONTINUOUS
 62
     4
100
AcDbLine
 10
21.058984
 20
17.428035
 30
0.0
 11
21.835441
 21
20.325812
 31
0.0
  0
LINE
  5
D3
330
CD
100
AcDbEntity
  8
CSLAYER1
  6
CONTINUOUS
 62
     4
100
AcDbLine
 10
21.058984
 20
103.4280349999999
 30
0.0
 11
20.28252699999999
 21
100.530257
 31
0.0
  0
LINE
  5
D4
330
CD
100
AcDbEntity
  8
CSLAYER1
  6
CONTINUOUS
 62
     4
100
AcDbLine
 10
21.058984
 20
103.4280349999999
 30
0.0
 11
21.835441
 21
100.530257
 31
0.0
  0
LINE
  5
D5
330
CD
100
AcDbEntity
  8
CSLAYER1
  6
CONTINUOUS
 62
     4
100
AcDbLine
 10
61.195567
 20
17.428035
 30
0.0
 11
20.05898399999999
 21
17.428035
 31
0.0
  0
LINE
  5
D6
330
CD
100
AcDbEntity
  8
CSLAYER1
  6
CONTINUOUS
 62
     4
100
AcDbLine
 10
61.195567
 20
103.4280349999999
 30
0.0
 11
20.05898399999999
 21
103.4280349999999
 31
0.0
  0
ENDBLK
  5
D7
330
CD
100
AcDbEntity
  8
0
100
AcDbBlockEnd
  0
BLOCK
  5
D9
330
D8
100
AcDbEntity
  8
CSLAYER1
100
AcDbBlockBegin
  2
*D16
 70
     1
 10
0.0
 20
0.0
 30
0.0
  3
*D16
  1

  0
TEXT
  5
DA
330
D8
100
AcDbEntity
  8
CSLAYER1
 62
     4
100
AcDbText
 10
26.55898499999999
 20
57.22803599999999
 30
0.0
 40
3.2
  1
68
 50
90.0
 41
1.200000000000001
 51
15.0
  7
FX_FONT
 72
     5
 11
26.55898499999999
 21
63.628036
 31
0.0
100
AcDbText
  0
LINE
  5
DB
330
D8
100
AcDbEntity
  8
CSLAYER1
  6
CONTINUOUS
 62
     4
100
AcDbLine
 10
27.058984
 20
26.42803499999999
 30
0.0
 11
27.058984
 21
94.428035
 31
0.0
  0
LINE
  5
DC
330
D8
100
AcDbEntity
  8
CSLAYER1
  6
CONTINUOUS
 62
     4
100
AcDbLine
 10
27.058984
 20
26.42803499999999
 30
0.0
 11
26.282527
 21
29.32581199999999
 31
0.0
  0
LINE
  5
DD
330
D8
100
AcDbEntity
  8
CSLAYER1
  6
CONTINUOUS
 62
     4
100
AcDbLine
 10
27.058984
 20
26.42803499999999
 30
0.0
 11
27.83544099999999
 21
29.32581199999999
 31
0.0
  0
LINE
  5
DE
330
D8
100
AcDbEntity
  8
CSLAYER1
  6
CONTINUOUS
 62
     4
100
AcDbLine
 10
27.058984
 20
94.428035
 30
0.0
 11
26.282527
 21
91.53025699999998
 31
0.0
  0
LINE
  5
DF
330
D8
100
AcDbEntity
  8
CSLAYER1
  6
CONTINUOUS
 62
     4
100
AcDbLine
 10
27.058984
 20
94.428035
 30
0.0
 11
27.83544099999999
 21
91.53025699999998
 31
0.0
  0
LINE
  5
E0
330
D8
100
AcDbEntity
  8
CSLAYER1
  6
CONTINUOUS
 62
     4
100
AcDbLine
 10
55.940449
 20
26.42803499999999
 30
0.0
 11
26.058984
 21
26.42803499999999
 31
0.0
  0
LINE
  5
E1
330
D8
100
AcDbEntity
  8
CSLAYER1
  6
CONTINUOUS
 62
     4
100
AcDbLine
 10
55.118267
 20
94.428035
 30
0.0
 11
26.058984
 21
94.428035
 31
0.0
  0
ENDBLK
  5
E2
330
D8
100
AcDbEntity
  8
0
100
AcDbBlockEnd
  0
BLOCK
  5
E4
330
E3
100
AcDbEntity
  8
CSLAYER1
100
AcDbBlockBegin
  2
*D17
 70
     1
 10
0.0
 20
0.0
 30
0.0
  3
*D17
  1

  0
TEXT
  5
E5
330
E3
100
AcDbEntity
  8
CSLAYER1
 62
     4
100
AcDbText
 10
87.995564
 20
118.4490659999999
 30
0.0
 40
3.2
  1
49
 41
1.200000000000001
 51
15.0
  7
FX_FONT
 72
     5
 11
94.395564
 21
118.4490659999999
 31
0.0
100
AcDbText
  0
LINE
  5
E6
330
E3
100
AcDbEntity
  8
CSLAYER1
  6
CONTINUOUS
 62
     4
100
AcDbLine
 10
66.69556700000001
 20
117.949064
 30
0.0
 11
115.695567
 21
117.949064
 31
0.0
  0
LINE
  5
E7
330
E3
100
AcDbEntity
  8
CSLAYER1
  6
CONTINUOUS
 62
     4
100
AcDbLine
 10
66.69556700000001
 20
117.949064
 30
0.0
 11
69.593345
 21
118.725521
 31
0.0
  0
LINE
  5
E8
330
E3
100
AcDbEntity
  8
CSLAYER1
  6
CONTINUOUS
 62
     4
100
AcDbLine
 10
66.69556700000001
 20
117.949064
 30
0.0
 11
69.593345
 21
117.172607
 31
0.0
  0
LINE
  5
E9
330
E3
100
AcDbEntity
  8
CSLAYER1
  6
CONTINUOUS
 62
     4
100
AcDbLine
 10
115.695567
 20
117.949064
 30
0.0
 11
112.7977899999999
 21
118.725521
 31
0.0
  0
LINE
  5
EA
330
E3
100
AcDbEntity
  8
CSLAYER1
  6
CONTINUOUS
 62
     4
100
AcDbLine
 10
115.695567
 20
117.949064
 30
0.0
 11
112.7977899999999
 21
117.172607
 31
0.0
  0
LINE
  5
EB
330
E3
100
AcDbEntity
  8
CSLAYER1
  6
CONTINUOUS
 62
     4
100
AcDbLine
 10
66.69556700000001
 20
108.7170689999999
 30
0.0
 11
66.69556700000001
 21
118.949064
 31
0.0
  0
LINE
  5
EC
330
E3
100
AcDbEntity
  8
CSLAYER1
  6
CONTINUOUS
 62
     4
100
AcDbLine
 10
115.695567
 20
104.4280349999999
 30
0.0
 11
115.695567
 21
118.949064
 31
0.0
  0
ENDBLK
  5
ED
330
E3
100
AcDbEntity
  8
0
100
AcDbBlockEnd
  0
BLOCK
  5
EF
330
EE
100
AcDbEntity
  8
CSLAYER1
100
AcDbBlockBegin
  2
*D18
 70
     1
 10
0.0
 20
0.0
 30
0.0
  3
*D18
  1

  0
TEXT
  5
F0
330
EE
100
AcDbEntity
  8
CSLAYER1
 62
     4
100
AcDbText
 10
112.095564
 20
112.4490659999999
 30
0.0
 40
3.2
  1
4
 41
1.499999999999994
 51
15.0
  7
FX_FONT
 72
     5
 11
115.2955639999999
 21
112.4490659999999
 31
0.0
100
AcDbText
  0
LINE
  5
F1
330
EE
100
AcDbEntity
  8
CSLAYER1
  6
CONTINUOUS
 62
     4
100
AcDbLine
 10
111.695567
 20
111.9490639999999
 30
0.0
 11
115.695567
 21
111.9490639999999
 31
0.0
  0
LINE
  5
F2
330
EE
100
AcDbEntity
  8
CSLAYER1
  6
CONTINUOUS
 62
     4
100
AcDbLine
 10
111.695567
 20
104.4280349999999
 30
0.0
 11
111.695567
 21
112.9490639999999
 31
0.0
  0
LINE
  5
F3
330
EE
100
AcDbEntity
  8
CSLAYER1
  6
CONTINUOUS
 62
     4
100
AcDbLine
 10
108.695567
 20
111.9490639999999
 30
0.0
 11
111.695567
 21
111.9490639999999
 31
0.0
  0
LINE
  5
F4
330
EE
100
AcDbEntity
  8
CSLAYER1
  6
CONTINUOUS
 62
     4
100
AcDbLine
 10
111.695567
 20
111.9490639999999
 30
0.0
 11
108.79779
 21
112.7255209999999
 31
0.0
  0
LINE
  5
F5
330
EE
100
AcDbEntity
  8
CSLAYER1
  6
CONTINUOUS
 62
     4
100
AcDbLine
 10
111.695567
 20
111.9490639999999
 30
0.0
 11
108.79779
 21
111.172607
 31
0.0
  0
LINE
  5
F6
330
EE
100
AcDbEntity
  8
CSLAYER1
  6
CONTINUOUS
 62
     4
100
AcDbLine
 10
115.695567
 20
111.9490639999999
 30
0.0
 11
118.6955669999999
 21
111.9490639999999
 31
0.0
  0
LINE
  5
F7
330
EE
100
AcDbEntity
  8
CSLAYER1
  6
CONTINUOUS
 62
     4
100
AcDbLine
 10
115.695567
 20
111.9490639999999
 30
0.0
 11
118.593345
 21
112.7255209999999
 31
0.0
  0
LINE
  5
F8
330
EE
100
AcDbEntity
  8
CSLAYER1
  6
CONTINUOUS
 62
     4
100
AcDbLine
 10
115.695567
 20
111.9490639999999
 30
0.0
 11
118.593345
 21
111.172607
 31
0.0
  0
ENDBLK
  5
F9
330
EE
100
AcDbEntity
  8
0
100
AcDbBlockEnd
  0
BLOCK
  5
FB
330
FA
100
AcDbEntity
  8
CSLAYER1
100
AcDbBlockBegin
  2
*D19
 70
     1
 10
0.0
 20
0.0
 30
0.0
  3
*D19
  1

  0
TEXT
  5
FC
330
FA
100
AcDbEntity
  8
CSLAYER1
 62
     4
100
AcDbText
 10
162.934216
 20
261.4888609999999
 30
0.0
 40
3.2
  1
17
 41
1.200000000000001
 51
15.0
  7
FX_FONT
 72
     5
 11
169.334216
 21
261.4888609999999
 31
0.0
100
AcDbText
  0
LINE
  5
FD
330
FA
100
AcDbEntity
  8
CSLAYER1
  6
CONTINUOUS
 62
     4
100
AcDbLine
 10
161.5377409999999
 20
260.988853
 30
0.0
 11
178.5377409999999
 21
260.988853
 31
0.0
  0
LINE
  5
FE
330
FA
100
AcDbEntity
  8
CSLAYER1
  6
CONTINUOUS
 62
     4
100
AcDbLine
 10
161.5377409999999
 20
260.988853
 30
0.0
 11
164.4355179999999
 21
261.76531
 31
0.0
  0
LINE
  5
FF
330
FA
100
AcDbEntity
  8
CSLAYER1
  6
CONTINUOUS
 62
     4
100
AcDbLine
 10
161.5377409999999
 20
260.988853
 30
0.0
 11
164.4355179999999
 21
260.212396
 31
0.0
  0
LINE
  5
100
330
FA
100
AcDbEntity
  8
CSLAYER1
  6
CONTINUOUS
 62
     4
100
AcDbLine
 10
178.5377409999999
 20
260.988853
 30
0.0
 11
175.6399629999999
 21
261.76531
 31
0.0
  0
LINE
  5
101
330
FA
100
AcDbEntity
  8
CSLAYER1
  6
CONTINUOUS
 62
     4
100
AcDbLine
 10
178.5377409999999
 20
260.988853
 30
0.0
 11
175.6399629999999
 21
260.212396
 31
0.0
  0
ENDBLK
  5
102
330
FA
100
AcDbEntity
  8
0
100
AcDbBlockEnd
  0
BLOCK
  5
104
330
103
100
AcDbEntity
  8
CSLAYER1
100
AcDbBlockBegin
  2
*D20
 70
     1
 10
0.0
 20
0.0
 30
0.0
  3
*D20
  1

  0
TEXT
  5
105
330
103
100
AcDbEntity
  8
CSLAYER1
 62
     4
100
AcDbText
 10
231.387735
 20
270.06369
 30
0.0
 40
3.2
  1
28.5
 41
1.090909090909089
 51
15.0
  7
FX_FONT
 72
     5
 11
244.1877349999999
 21
270.06369
 31
0.0
100
AcDbText
  0
LINE
  5
106
330
103
100
AcDbEntity
  8
CSLAYER1
  6
CONTINUOUS
 62
     4
100
AcDbLine
 10
223.537741
 20
269.5637029999999
 30
0.0
 11
252.037741
 21
269.5637029999999
 31
0.0
  0
LINE
  5
107
330
103
100
AcDbEntity
  8
CSLAYER1
  6
CONTINUOUS
 62
     4
100
AcDbLine
 10
223.537741
 20
269.5637029999999
 30
0.0
 11
226.435518
 21
270.34016
 31
0.0
  0
LINE
  5
108
330
103
100
AcDbEntity
  8
CSLAYER1
  6
CONTINUOUS
 62
     4
100
AcDbLine
 10
223.537741
 20
269.5637029999999
 30
0.0
 11
226.435518
 21
268.7872459999999
 31
0.0
  0
LINE
  5
109
330
103
100
AcDbEntity
  8
CSLAYER1
  6
CONTINUOUS
 62
     4
100
AcDbLine
 10
252.037741
 20
269.5637029999999
 30
0.0
 11
249.139963
 21
270.34016
 31
0.0
  0
LINE
  5
10A
330
103
100
AcDbEntity
  8
CSLAYER1
  6
CONTINUOUS
 62
     4
100
AcDbLine
 10
252.037741
 20
269.5637029999999
 30
0.0
 11
249.139963
 21
268.7872459999999
 31
0.0
  0
LINE
  5
10B
330
103
100
AcDbEntity
  8
CSLAYER1
  6
CONTINUOUS
 62
     4
100
AcDbLine
 10
252.037741
 20
187.125874
 30
0.0
 11
252.037741
 21
270.5637029999999
 31
0.0
  0
ENDBLK
  5
10C
330
103
100
AcDbEntity
  8
0
100
AcDbBlockEnd
  0
BLOCK
  5
10E
330
10D
100
AcDbEntity
  8
CSLAYER1
100
AcDbBlockBegin
  2
*D21
 70
     1
 10
0.0
 20
0.0
 30
0.0
  3
*D21
  1

  0
TEXT
  5
10F
330
10D
100
AcDbEntity
  8
CSLAYER1
 62
     4
100
AcDbText
 10
229.180746
 20
259.5539549999999
 30
0.0
 40
3.2
  1
4
 41
1.499999999999994
 51
15.0
  7
FX_FONT
 72
     5
 11
232.3807459999999
 21
259.5539549999999
 31
0.0
100
AcDbText
  0
LINE
  5
110
330
10D
100
AcDbEntity
  8
CSLAYER1
  6
CONTINUOUS
 62
     4
100
AcDbLine
 10
219.537741
 20
269.5637029999999
 30
0.0
 11
223.537741
 21
269.5637029999999
 31
0.0
  0
LINE
  5
111
330
10D
100
AcDbEntity
  8
CSLAYER1
  6
CONTINUOUS
 62
     4
100
AcDbLine
 10
223.537741
 20
227.1258739999999
 30
0.0
 11
223.537741
 21
270.5637029999999
 31
0.0
  0
LINE
  5
112
330
10D
100
AcDbEntity
  8
CSLAYER1
  6
CONTINUOUS
 62
     4
100
AcDbLine
 10
221.537741
 20
269.5637029999999
 30
0.0
 11
228.180753
 21
259.053946
 31
0.0
  0
LINE
  5
113
330
10D
100
AcDbEntity
  8
CSLAYER1
  6
CONTINUOUS
 62
     4
100
AcDbLine
 10
228.180753
 20
259.053946
 30
0.0
 11
233.3807529999999
 21
259.053946
 31
0.0
  0
ENDBLK
  5
114
330
10D
100
AcDbEntity
  8
0
100
AcDbBlockEnd
  0
BLOCK
  5
116
330
115
100
AcDbEntity
  8
CSLAYER1
100
AcDbBlockBegin
  2
*D22
 70
     1
 10
0.0
 20
0.0
 30
0.0
  3
*D22
  1

  0
TEXT
  5
117
330
115
100
AcDbEntity
  8
CSLAYER1
 62
     4
100
AcDbText
 10
166.837735
 20
270.06369
 30
0.0
 40
3.2
  1
56
 41
1.200000000000001
 51
15.0
  7
FX_FONT
 72
     5
 11
173.237735
 21
270.06369
 31
0.0
100
AcDbText
  0
LINE
  5
118
330
115
100
AcDbEntity
  8
CSLAYER1
  6
CONTINUOUS
 62
     4
100
AcDbLine
 10
142.0377409999999
 20
269.5637029999999
 30
0.0
 11
198.0377409999999
 21
269.5637029999999
 31
0.0
  0
LINE
  5
119
330
115
100
AcDbEntity
  8
CSLAYER1
  6
CONTINUOUS
 62
     4
100
AcDbLine
 10
142.0377409999999
 20
269.5637029999999
 30
0.0
 11
144.9355179999999
 21
270.34016
 31
0.0
  0
LINE
  5
11A
330
115
100
AcDbEntity
  8
CSLAYER1
  6
CONTINUOUS
 62
     4
100
AcDbLine
 10
142.0377409999999
 20
269.5637029999999
 30
0.0
 11
144.9355179999999
 21
268.7872459999999
 31
0.0
  0
LINE
  5
11B
330
115
100
AcDbEntity
  8
CSLAYER1
  6
CONTINUOUS
 62
     4
100
AcDbLine
 10
198.0377409999999
 20
269.5637029999999
 30
0.0
 11
195.139963
 21
270.34016
 31
0.0
  0
LINE
  5
11C
330
115
100
AcDbEntity
  8
CSLAYER1
  6
CONTINUOUS
 62
     4
100
AcDbLine
 10
198.0377409999999
 20
269.5637029999999
 30
0.0
 11
195.139963
 21
268.7872459999999
 31
0.0
  0
LINE
  5
11D
330
115
100
AcDbEntity
  8
CSLAYER1
  6
CONTINUOUS
 62
     4
100
AcDbLine
 10
142.0377409999999
 20
232.625874
 30
0.0
 11
142.0377409999999
 21
270.5637029999999
 31
0.0
  0
LINE
  5
11E
330
115
100
AcDbEntity
  8
CSLAYER1
  6
CONTINUOUS
 62
     4
100
AcDbLine
 10
198.0377409999999
 20
232.625874
 30
0.0
 11
198.0377409999999
 21
270.5637029999999
 31
0.0
  0
ENDBLK
  5
11F
330
115
100
AcDbEntity
  8
0
100
AcDbBlockEnd
  0
BLOCK
  5
121
330
120
100
AcDbEntity
  8
CSLAYER1
100
AcDbBlockBegin
  2
*D23
 70
     1
 10
0.0
 20
0.0
 30
0.0
  3
*D23
  1

  0
TEXT
  5
122
330
120
100
AcDbEntity
  8
CSLAYER1
 62
     4
100
AcDbText
 10
202.387735
 20
270.06369
 30
0.0
 40
3.2
  1
21.5
 41
1.090909090909089
 51
15.0
  7
FX_FONT
 72
     5
 11
215.1877349999999
 21
270.06369
 31
0.0
100
AcDbText
  0
LINE
  5
123
330
120
100
AcDbEntity
  8
CSLAYER1
  6
CONTINUOUS
 62
     4
100
AcDbLine
 10
198.0377409999999
 20
269.5637029999999
 30
0.0
 11
219.537741
 21
269.5637029999999
 31
0.0
  0
LINE
  5
124
330
120
100
AcDbEntity
  8
CSLAYER1
  6
CONTINUOUS
 62
     4
100
AcDbLine
 10
198.0377409999999
 20
269.5637029999999
 30
0.0
 11
200.935518
 21
270.34016
 31
0.0
  0
LINE
  5
125
330
120
100
AcDbEntity
  8
CSLAYER1
  6
CONTINUOUS
 62
     4
100
AcDbLine
 10
198.0377409999999
 20
269.5637029999999
 30
0.0
 11
200.935518
 21
268.7872459999999
 31
0.0
  0
LINE
  5
126
330
120
100
AcDbEntity
  8
CSLAYER1
  6
CONTINUOUS
 62
     4
100
AcDbLine
 10
219.537741
 20
269.5637029999999
 30
0.0
 11
216.6399629999999
 21
270.34016
 31
0.0
  0
LINE
  5
127
330
120
100
AcDbEntity
  8
CSLAYER1
  6
CONTINUOUS
 62
     4
100
AcDbLine
 10
219.537741
 20
269.5637029999999
 30
0.0
 11
216.6399629999999
 21
268.7872459999999
 31
0.0
  0
LINE
  5
128
330
120
100
AcDbEntity
  8
CSLAYER1
  6
CONTINUOUS
 62
     4
100
AcDbLine
 10
219.537741
 20
227.1258739999999
 30
0.0
 11
219.537741
 21
270.5637029999999
 31
0.0
  0
ENDBLK
  5
129
330
120
100
AcDbEntity
  8
0
100
AcDbBlockEnd
  0
BLOCK
  5
12B
330
12A
100
AcDbEntity
  8
CSLAYER1
100
AcDbBlockBegin
  2
*D24
 70
     1
 10
0.0
 20
0.0
 30
0.0
  3
*D24
  1

  0
TEXT
  5
12C
330
12A
100
AcDbEntity
  8
CSLAYER1
 62
     4
100
AcDbText
 10
127.078308
 20
80.425879
 30
0.0
 40
3.2
  1
4
 50
90.0
 41
1.499999999999994
 51
15.0
  7
FX_FONT
 72
     5
 11
127.078308
 21
83.62587899999999
 31
0.0
100
AcDbText
  0
LINE
  5
12D
330
12A
100
AcDbEntity
  8
CSLAYER1
  6
CONTINUOUS
 62
     4
100
AcDbLine
 10
127.5783169999999
 20
84.625874
 30
0.0
 11
127.5783169999999
 21
88.625874
 31
0.0
  0
LINE
  5
12E
330
12A
100
AcDbEntity
  8
CSLAYER1
  6
CONTINUOUS
 62
     4
100
AcDbLine
 10
143.5377409999999
 20
88.625874
 30
0.0
 11
126.5783169999999
 21
88.625874
 31
0.0
  0
LINE
  5
12F
330
12A
100
AcDbEntity
  8
CSLAYER1
  6
CONTINUOUS
 62
     4
100
AcDbLine
 10
127.5783169999999
 20
79.42587399999999
 30
0.0
 11
127.5783169999999
 21
84.625874
 31
0.0
  0
LINE
  5
130
330
12A
100
AcDbEntity
  8
CSLAYER1
  6
CONTINUOUS
 62
     4
100
AcDbLine
 10
127.5783169999999
 20
84.625874
 30
0.0
 11
126.8018599999999
 21
81.72809599999999
 31
0.0
  0
LINE
  5
131
330
12A
100
AcDbEntity
  8
CSLAYER1
  6
CONTINUOUS
 62
     4
100
AcDbLine
 10
127.5783169999999
 20
84.625874
 30
0.0
 11
128.3547739999999
 21
81.72809599999999
 31
0.0
  0
ENDBLK
  5
132
330
12A
100
AcDbEntity
  8
0
100
AcDbBlockEnd
  0
BLOCK
  5
134
330
133
100
AcDbEntity
  8
CSLAYER1
100
AcDbBlockBegin
  2
*D25
 70
     1
 10
0.0
 20
0.0
 30
0.0
  3
*D25
  1

  0
TEXT
  5
135
330
133
100
AcDbEntity
  8
CSLAYER1
 62
     4
100
AcDbText
 10
121.0783159999999
 20
170.82587
 30
0.0
 40
3.2
  1
182
 50
90.0
 41
1.124999999999999
 51
15.0
  7
FX_FONT
 72
     5
 11
121.0783159999999
 21
180.42587
 31
0.0
100
AcDbText
  0
LINE
  5
136
330
133
100
AcDbEntity
  8
CSLAYER1
  6
CONTINUOUS
 62
     4
100
AcDbLine
 10
121.5783169999999
 20
84.625874
 30
0.0
 11
121.5783169999999
 21
266.6258739999999
 31
0.0
  0
LINE
  5
137
330
133
100
AcDbEntity
  8
CSLAYER1
  6
CONTINUOUS
 62
     4
100
AcDbLine
 10
121.5783169999999
 20
84.625874
 30
0.0
 11
120.80186
 21
87.523651
 31
0.0
  0
LINE
  5
138
330
133
100
AcDbEntity
  8
CSLAYER1
  6
CONTINUOUS
 62
     4
100
AcDbLine
 10
121.5783169999999
 20
84.625874
 30
0.0
 11
122.354774
 21
87.523651
 31
0.0
  0
LINE
  5
139
330
133
100
AcDbEntity
  8
CSLAYER1
  6
CONTINUOUS
 62
     4
100
AcDbLine
 10
121.5783169999999
 20
266.6258739999999
 30
0.0
 11
120.80186
 21
263.728096
 31
0.0
  0
LINE
  5
13A
330
133
100
AcDbEntity
  8
CSLAYER1
  6
CONTINUOUS
 62
     4
100
AcDbLine
 10
121.5783169999999
 20
266.6258739999999
 30
0.0
 11
122.354774
 21
263.728096
 31
0.0
  0
LINE
  5
13B
330
133
100
AcDbEntity
  8
CSLAYER1
  6
CONTINUOUS
 62
     4
100
AcDbLine
 10
143.5377409999999
 20
84.625874
 30
0.0
 11
120.5783169999999
 21
84.625874
 31
0.0
  0
LINE
  5
13C
330
133
100
AcDbEntity
  8
CSLAYER1
  6
CONTINUOUS
 62
     4
100
AcDbLine
 10
151.0377409999999
 20
266.6258739999999
 30
0.0
 11
120.5783169999999
 21
266.6258739999999
 31
0.0
  0
ENDBLK
  5
13D
330
133
100
AcDbEntity
  8
0
100
AcDbBlockEnd
  0
BLOCK
  5
13F
330
13E
100
AcDbEntity
  8
CSLAYER1
100
AcDbBlockBegin
  2
*D26
 70
     1
 10
0.0
 20
0.0
 30
0.0
  3
*D26
  1

  0
TEXT
  5
140
330
13E
100
AcDbEntity
  8
CSLAYER1
 62
     4
100
AcDbText
 10
133.078323
 20
255.925885
 30
0.0
 40
3.2
  1
15
 50
90.0
 41
1.200000000000001
 51
15.0
  7
FX_FONT
 72
     5
 11
133.078323
 21
262.325885
 31
0.0
100
AcDbText
  0
LINE
  5
141
330
13E
100
AcDbEntity
  8
CSLAYER1
  6
CONTINUOUS
 62
     4
100
AcDbLine
 10
133.578317
 20
251.625874
 30
0.0
 11
133.578317
 21
266.6258739999999
 31
0.0
  0
LINE
  5
142
330
13E
100
AcDbEntity
  8
CSLAYER1
  6
CONTINUOUS
 62
     4
100
AcDbLine
 10
133.578317
 20
251.625874
 30
0.0
 11
132.80186
 21
254.5236509999999
 31
0.0
  0
LINE
  5
143
330
13E
100
AcDbEntity
  8
CSLAYER1
  6
CONTINUOUS
 62
     4
100
AcDbLine
 10
133.578317
 20
251.625874
 30
0.0
 11
134.3547739999999
 21
254.5236509999999
 31
0.0
  0
LINE
  5
144
330
13E
100
AcDbEntity
  8
CSLAYER1
  6
CONTINUOUS
 62
     4
100
AcDbLine
 10
133.578317
 20
266.6258739999999
 30
0.0
 11
132.80186
 21
263.728096
 31
0.0
  0
LINE
  5
145
330
13E
100
AcDbEntity
  8
CSLAYER1
  6
CONTINUOUS
 62
     4
100
AcDbLine
 10
133.578317
 20
266.6258739999999
 30
0.0
 11
134.3547739999999
 21
263.728096
 31
0.0
  0
LINE
  5
146
330
13E
100
AcDbEntity
  8
CSLAYER1
  6
CONTINUOUS
 62
     4
100
AcDbLine
 10
143.7946969999999
 20
251.625874
 30
0.0
 11
132.578317
 21
251.625874
 31
0.0
  0
ENDBLK
  5
147
330
13E
100
AcDbEntity
  8
0
100
AcDbBlockEnd
  0
BLOCK
  5
149
330
148
100
AcDbEntity
  8
CSLAYER1
100
AcDbBlockBegin
  2
*D27
 70
     1
 10
0.0
 20
0.0
 30
0.0
  3
*D27
  1

  0
TEXT
  5
14A
330
148
100
AcDbEntity
  8
CSLAYER1
 62
     4
100
AcDbText
 10
127.0783159999999
 20
186.82587
 30
0.0
 40
3.2
  1
150
 50
90.0
 41
1.124999999999999
 51
15.0
  7
FX_FONT
 72
     5
 11
127.0783159999999
 21
196.42587
 31
0.0
100
AcDbText
  0
LINE
  5
14B
330
148
100
AcDbEntity
  8
CSLAYER1
  6
CONTINUOUS
 62
     4
100
AcDbLine
 10
127.5783169999999
 20
116.6258739999999
 30
0.0
 11
127.5783169999999
 21
266.6258739999999
 31
0.0
  0
LINE
  5
14C
330
148
100
AcDbEntity
  8
CSLAYER1
  6
CONTINUOUS
 62
     4
100
AcDbLine
 10
127.5783169999999
 20
116.6258739999999
 30
0.0
 11
126.8018599999999
 21
119.5236509999999
 31
0.0
  0
LINE
  5
14D
330
148
100
AcDbEntity
  8
CSLAYER1
  6
CONTINUOUS
 62
     4
100
AcDbLine
 10
127.5783169999999
 20
116.6258739999999
 30
0.0
 11
128.3547739999999
 21
119.5236509999999
 31
0.0
  0
LINE
  5
14E
330
148
100
AcDbEntity
  8
CSLAYER1
  6
CONTINUOUS
 62
     4
100
AcDbLine
 10
127.5783169999999
 20
266.6258739999999
 30
0.0
 11
126.8018599999999
 21
263.728096
 31
0.0
  0
LINE
  5
14F
330
148
100
AcDbEntity
  8
CSLAYER1
  6
CONTINUOUS
 62
     4
100
AcDbLine
 10
127.5783169999999
 20
266.6258739999999
 30
0.0
 11
128.3547739999999
 21
263.728096
 31
0.0
  0
ENDBLK
  5
150
330
148
100
AcDbEntity
  8
0
100
AcDbBlockEnd
  0
BLOCK
  5
152
330
151
100
AcDbEntity
  8
CSLAYER1
100
AcDbBlockBegin
  2
*D28
 70
     1
 10
0.0
 20
0.0
 30
0.0
  3
*D28
  1

  0
TEXT
  5
153
330
151
100
AcDbEntity
  8
CSLAYER1
 62
     4
100
AcDbText
 10
127.0783159999999
 20
103.425877
 30
0.0
 40
3.2
  1
20
 50
90.0
 41
1.200000000000001
 51
15.0
  7
FX_FONT
 72
     5
 11
127.0783159999999
 21
109.825877
 31
0.0
100
AcDbText
  0
LINE
  5
154
330
151
100
AcDbEntity
  8
CSLAYER1
  6
CONTINUOUS
 62
     4
100
AcDbLine
 10
127.5783169999999
 20
96.62587399999999
 30
0.0
 11
127.5783169999999
 21
116.6258739999999
 31
0.0
  0
LINE
  5
155
330
151
100
AcDbEntity
  8
CSLAYER1
  6
CONTINUOUS
 62
     4
100
AcDbLine
 10
127.5783169999999
 20
96.62587399999999
 30
0.0
 11
126.8018599999999
 21
99.52365100000001
 31
0.0
  0
LINE
  5
156
330
151
100
AcDbEntity
  8
CSLAYER1
  6
CONTINUOUS
 62
     4
100
AcDbLine
 10
127.5783169999999
 20
96.62587399999999
 30
0.0
 11
128.3547739999999
 21
99.52365100000001
 31
0.0
  0
LINE
  5
157
330
151
100
AcDbEntity
  8
CSLAYER1
  6
CONTINUOUS
 62
     4
100
AcDbLine
 10
127.5783169999999
 20
116.6258739999999
 30
0.0
 11
126.8018599999999
 21
113.728096
 31
0.0
  0
LINE
  5
158
330
151
100
AcDbEntity
  8
CSLAYER1
  6
CONTINUOUS
 62
     4
100
AcDbLine
 10
127.5783169999999
 20
116.6258739999999
 30
0.0
 11
128.3547739999999
 21
113.728096
 31
0.0
  0
LINE
  5
159
330
151
100
AcDbEntity
  8
CSLAYER1
  6
CONTINUOUS
 62
     4
100
AcDbLine
 10
141.0377409999999
 20
116.6258739999999
 30
0.0
 11
126.5783169999999
 21
116.6258739999999
 31
0.0
  0
ENDBLK
  5
15A
330
151
100
AcDbEntity
  8
0
100
AcDbBlockEnd
  0
BLOCK
  5
15C
330
15B
100
AcDbEntity
  8
CSLAYER1
100
AcDbBlockBegin
  2
*D29
 70
     1
 10
0.0
 20
0.0
 30
0.0
  3
*D29
  1

  0
TEXT
  5
15D
330
15B
100
AcDbEntity
  8
CSLAYER1
 62
     4
100
AcDbText
 10
127.0783159999999
 20
87.825877
 30
0.0
 40
3.2
  1
(8)
 50
90.0
 41
1.285714285714284
 51
15.0
  7
FX_FONT
 72
     5
 11
127.0783159999999
 21
97.42587700000001
 31
0.0
100
AcDbText
  0
LINE
  5
15E
330
15B
100
AcDbEntity
  8
CSLAYER1
  6
CONTINUOUS
 62
     4
100
AcDbLine
 10
127.5783169999999
 20
88.625874
 30
0.0
 11
127.5783169999999
 21
96.62587399999999
 31
0.0
  0
CIRCLE
  5
15F
330
15B
100
AcDbEntity
  8
CSLAYER1
  6
CONTINUOUS
 62
     4
100
AcDbCircle
 10
127.5783169999999
 20
88.625874
 30
0.0
 40
0.3
  0
CIRCLE
  5
160
330
15B
100
AcDbEntity
  8
CSLAYER1
  6
CONTINUOUS
 62
     4
100
AcDbCircle
 10
127.5783169999999
 20
88.625874
 30
0.0
 40
0.15
  0
LINE
  5
161
330
15B
100
AcDbEntity
  8
CSLAYER1
  6
CONTINUOUS
 62
     4
100
AcDbLine
 10
147.5377409999999
 20
96.62587399999999
 30
0.0
 11
126.5783169999999
 21
96.62587399999999
 31
0.0
  0
ENDBLK
  5
162
330
15B
100
AcDbEntity
  8
0
100
AcDbBlockEnd
  0
BLOCK
  5
164
330
163
100
AcDbEntity
  8
CSLAYER1
100
AcDbBlockBegin
  2
FXDIM0006
 70
     0
 10
0.0
 20
0.0
 30
0.0
  3
FXDIM0006
  1

  0
LINE
  5
165
330
163
100
AcDbEntity
  8
CSLAYER1
  6
CONTINUOUS
 62
     4
100
AcDbLine
 10
320.092642
 20
166.109358
 30
0.0
 11
365.666656
 21
137.967949
 31
0.0
  0
CIRCLE
  5
166
330
163
100
AcDbEntity
  8
CSLAYER1
  6
CONTINUOUS
 62
     4
100
AcDbCircle
 10
320.092642
 20
166.109358
 30
0.0
 40
0.3
  0
CIRCLE
  5
167
330
163
100
AcDbEntity
  8
CSLAYER1
  6
CONTINUOUS
 62
     4
100
AcDbCircle
 10
320.092642
 20
166.109358
 30
0.0
 40
0.15
  0
LINE
  5
168
330
163
100
AcDbEntity
  8
CSLAYER1
  6
CONTINUOUS
 62
     4
100
AcDbLine
 10
365.666656
 20
137.967949
 30
0.0
 11
390.066656
 21
137.967949
 31
0.0
  0
TEXT
  5
169
330
163
100
AcDbEntity
  8
CSLAYER1
 62
     4
100
AcDbText
 10
366.640106
 20
138.467957
 30
0.0
 40
3.2
  1
薄型シリンダー
 41
0.8677686337809905
 51
15.0
  7
FX_FONT
 72
     5
 11
389.0401069999999
 21
138.467957
 31
0.0
100
AcDbText
  0
ENDBLK
  5
16A
330
163
100
AcDbEntity
  8
0
100
AcDbBlockEnd
  0
ENDSEC
  0
SECTION
  2
ENTITIES
  0
ARC
  5
16B
330
1E
100
AcDbEntity
  8
CSLAYER1
  6
CONTINUOUS
 62
     3
100
AcDbCircle
 10
40.69556699999999
 20
36.42803499999999
 30
0.0
 40
4.0
100
AcDbArc
 50
180.0
 51
270.0
  0
LINE
  5
16C
330
1E
100
AcDbEntity
  8
CSLAYER1
  6
CONTINUOUS
 62
     3
100
AcDbLine
 10
40.69556699999999
 20
32.42803499999999
 30
0.0
 11
49.195567
 21
32.42803499999999
 31
0.0
  0
ARC
  5
16D
330
1E
100
AcDbEntity
  8
CSLAYER1
  6
CONTINUOUS
 62
     3
100
AcDbCircle
 10
49.195567
 20
28.428035
 30
0.0
 40
4.0
100
AcDbArc
 50
0.0
 51
90.0
  0
LINE
  5
16E
330
1E
100
AcDbEntity
  8
CSLAYER1
  6
CONTINUOUS
 62
     3
100
AcDbLine
 10
53.195567
 20
28.428035
 30
0.0
 11
53.195567
 21
26.42803499999999
 31
0.0
  0
ARC
  5
16F
330
1E
100
AcDbEntity
  8
CSLAYER1
  6
CONTINUOUS
 62
     3
100
AcDbCircle
 10
62.195567
 20
26.42803499999999
 30
0.0
 40
9.0
100
AcDbArc
 50
180.0
 51
270.0
  0
LINE
  5
170
330
1E
100
AcDbEntity
  8
CSLAYER1
  6
CONTINUOUS
 62
     3
100
AcDbLine
 10
62.195567
 20
17.428035
 30
0.0
 11
71.19556700000001
 21
17.428035
 31
0.0
  0
ARC
  5
171
330
1E
100
AcDbEntity
  8
CSLAYER1
  6
CONTINUOUS
 62
     3
100
AcDbCircle
 10
71.19556700000001
 20
26.42803499999999
 30
0.0
 40
9.0
100
AcDbArc
 50
270.0
 51
0.0
  0
LINE
  5
172
330
1E
100
AcDbEntity
  8
CSLAYER1
  6
CONTINUOUS
 62
     3
100
AcDbLine
 10
80.195567
 20
26.42803499999999
 30
0.0
 11
80.195567
 21
28.428035
 31
0.0
  0
ARC
  5
173
330
1E
100
AcDbEntity
  8
CSLAYER1
  6
CONTINUOUS
 62
     3
100
AcDbCircle
 10
84.19556700000001
 20
28.428035
 30
0.0
 40
4.0
100
AcDbArc
 50
90.0
 51
180.0
  0
LINE
  5
174
330
1E
100
AcDbEntity
  8
CSLAYER1
  6
CONTINUOUS
 62
     3
100
AcDbLine
 10
84.19556700000001
 20
32.42803499999999
 30
0.0
 11
111.695567
 21
32.42803499999999
 31
0.0
  0
LINE
  5
175
330
1E
100
AcDbEntity
  8
CSLAYER1
  6
CONTINUOUS
 62
     3
100
AcDbLine
 10
111.695567
 20
32.42803499999999
 30
0.0
 11
111.695567
 21
17.428035
 31
0.0
  0
LINE
  5
176
330
1E
100
AcDbEntity
  8
CSLAYER1
  6
CONTINUOUS
 62
     3
100
AcDbLine
 10
111.695567
 20
17.428035
 30
0.0
 11
115.695567
 21
17.428035
 31
0.0
  0
LINE
  5
177
330
1E
100
AcDbEntity
  8
CSLAYER1
  6
CONTINUOUS
 62
     3
100
AcDbLine
 10
115.695567
 20
17.428035
 30
0.0
 11
115.695567
 21
103.4280349999999
 31
0.0
  0
LINE
  5
178
330
1E
100
AcDbEntity
  8
CSLAYER1
  6
CONTINUOUS
 62
     3
100
AcDbLine
 10
115.695567
 20
103.4280349999999
 30
0.0
 11
111.695567
 21
103.4280349999999
 31
0.0
  0
LINE
  5
179
330
1E
100
AcDbEntity
  8
CSLAYER1
  6
CONTINUOUS
 62
     3
100
AcDbLine
 10
111.695567
 20
103.4280349999999
 30
0.0
 11
111.695567
 21
88.428035
 31
0.0
  0
LINE
  5
17A
330
1E
100
AcDbEntity
  8
CSLAYER1
  6
CONTINUOUS
 62
     3
100
AcDbLine
 10
111.695567
 20
88.428035
 30
0.0
 11
84.19556700000001
 21
88.428035
 31
0.0
  0
ARC
  5
17B
330
1E
100
AcDbEntity
  8
CSLAYER1
  6
CONTINUOUS
 62
     3
100
AcDbCircle
 10
84.19556700000001
 20
92.42803499999999
 30
0.0
 40
4.0
100
AcDbArc
 50
180.0
 51
270.0
  0
LINE
  5
17C
330
1E
100
AcDbEntity
  8
CSLAYER1
  6
CONTINUOUS
 62
     3
100
AcDbLine
 10
80.195567
 20
92.42803499999999
 30
0.0
 11
80.195567
 21
94.428035
 31
0.0
  0
ARC
  5
17D
330
1E
100
AcDbEntity
  8
CSLAYER1
  6
CONTINUOUS
 62
     3
100
AcDbCircle
 10
71.19556700000001
 20
94.428035
 30
0.0
 40
9.0
100
AcDbArc
 50
0.0
 51
90.0
  0
LINE
  5
17E
330
1E
100
AcDbEntity
  8
CSLAYER1
  6
CONTINUOUS
 62
     3
100
AcDbLine
 10
71.19556700000001
 20
103.4280349999999
 30
0.0
 11
62.195567
 21
103.4280349999999
 31
0.0
  0
ARC
  5
17F
330
1E
100
AcDbEntity
  8
CSLAYER1
  6
CONTINUOUS
 62
     3
100
AcDbCircle
 10
62.195567
 20
94.428035
 30
0.0
 40
9.0
100
AcDbArc
 50
90.0
 51
180.0
  0
LINE
  5
180
330
1E
100
AcDbEntity
  8
CSLAYER1
  6
CONTINUOUS
 62
     3
100
AcDbLine
 10
53.195567
 20
94.428035
 30
0.0
 11
53.195567
 21
92.42803499999999
 31
0.0
  0
ARC
  5
181
330
1E
100
AcDbEntity
  8
CSLAYER1
  6
CONTINUOUS
 62
     3
100
AcDbCircle
 10
49.195567
 20
92.42803499999999
 30
0.0
 40
4.0
100
AcDbArc
 50
270.0
 51
0.0
  0
LINE
  5
182
330
1E
100
AcDbEntity
  8
CSLAYER1
  6
CONTINUOUS
 62
     3
100
AcDbLine
 10
49.195567
 20
88.428035
 30
0.0
 11
40.69556699999999
 21
88.428035
 31
0.0
  0
ARC
  5
183
330
1E
100
AcDbEntity
  8
CSLAYER1
  6
CONTINUOUS
 62
     3
100
AcDbCircle
 10
40.69556699999999
 20
84.428035
 30
0.0
 40
4.0
100
AcDbArc
 50
90.0
 51
180.0
  0
LINE
  5
184
330
1E
100
AcDbEntity
  8
CSLAYER1
  6
CONTINUOUS
 62
     3
100
AcDbLine
 10
36.69556699999999
 20
84.428035
 30
0.0
 11
36.69556699999999
 21
36.42803499999999
 31
0.0
  0
ARC
  5
185
330
1E
100
AcDbEntity
  8
CSLAYER1
  6
CONTINUOUS
 62
     3
100
AcDbCircle
 10
62.195567
 20
60.42803499999999
 30
0.0
 40
28.0
100
AcDbArc
 50
155.6042479999999
 51
204.395752
  0
LINE
  5
186
330
1E
100
AcDbEntity
  8
CSLAYER1
  6
CONTINUOUS
 62
     3
100
AcDbLine
 10
63.846336
 20
29.62803499999999
 30
0.0
 11
69.544798
 21
29.62803499999999
 31
0.0
  0
ARC
  5
187
330
1E
100
AcDbEntity
  8
CSLAYER1
  6
CONTINUOUS
 62
     3
100
AcDbCircle
 10
69.49518199999999
 20
26.42803499999999
 30
0.0
 40
3.200384999999999
100
AcDbArc
 50
269.1117109999999
 51
90.88828900000001
  0
LINE
  5
188
330
1E
100
AcDbEntity
  8
CSLAYER1
  6
CONTINUOUS
 62
     3
100
AcDbLine
 10
69.544798
 20
23.228035
 30
0.0
 11
63.846336
 21
23.228035
 31
0.0
  0
ARC
  5
189
330
1E
100
AcDbEntity
  8
CSLAYER1
  6
CONTINUOUS
 62
     3
100
AcDbCircle
 10
63.895952
 20
26.42803499999999
 30
0.0
 40
3.200384999999999
100
AcDbArc
 50
89.111711
 51
270.8882889999999
  0
LINE
  5
18A
330
1E
100
AcDbEntity
  8
CSLAYER1
  6
CONTINUOUS
 62
     3
100
AcDbLine
 10
115.695567
 20
39.42803499999999
 30
0.0
 11
124.6955669999999
 21
39.42803499999999
 31
0.0
  0
LINE
  5
18B
330
1E
100
AcDbEntity
  8
CSLAYER1
  6
CONTINUOUS
 62
     3
100
AcDbLine
 10
124.6955669999999
 20
39.42803499999999
 30
0.0
 11
124.6955669999999
 21
43.42803499999999
 31
0.0
  0
LINE
  5
18C
330
1E
100
AcDbEntity
  8
CSLAYER1
  6
CONTINUOUS
 62
     3
100
AcDbLine
 10
124.6955669999999
 20
43.42803499999999
 30
0.0
 11
125.195567
 21
42.92803499999999
 31
0.0
  0
LINE
  5
18D
330
1E
100
AcDbEntity
  8
CSLAYER1
  6
CONTINUOUS
 62
     3
100
AcDbLine
 10
125.195567
 20
42.92803499999999
 30
0.0
 11
125.195567
 21
39.92803499999999
 31
0.0
  0
LINE
  5
18E
330
1E
100
AcDbEntity
  8
CSLAYER1
  6
CONTINUOUS
 62
     3
100
AcDbLine
 10
125.195567
 20
39.92803499999999
 30
0.0
 11
124.6955669999999
 21
39.42803499999999
 31
0.0
  0
LINE
  5
18F
330
1E
100
AcDbEntity
  8
CSLAYER1
  6
CONTINUOUS
 62
     3
100
AcDbLine
 10
124.6955669999999
 20
43.42803499999999
 30
0.0
 11
115.695567
 21
43.42803499999999
 31
0.0
  0
LINE
  5
190
330
1E
100
AcDbEntity
  8
CSLAYER1
  6
CONTINUOUS
 62
     3
100
AcDbLine
 10
115.695567
 20
45.92803499999999
 30
0.0
 11
144.1955669999999
 21
45.92803499999999
 31
0.0
  0
LINE
  5
191
330
1E
100
AcDbEntity
  8
CSLAYER1
  6
CONTINUOUS
 62
     3
100
AcDbLine
 10
144.1955669999999
 20
45.92803499999999
 30
0.0
 11
144.1955669999999
 21
74.92803499999999
 31
0.0
  0
LINE
  5
192
330
1E
100
AcDbEntity
  8
CSLAYER1
  6
CONTINUOUS
 62
     3
100
AcDbLine
 10
144.1955669999999
 20
74.92803499999999
 30
0.0
 11
115.695567
 21
74.92803499999999
 31
0.0
  0
LINE
  5
193
330
1E
100
AcDbEntity
  8
CSLAYER1
  6
CONTINUOUS
 62
     3
100
AcDbLine
 10
144.5377409999999
 20
84.625874
 30
0.0
 11
220.537741
 21
84.625874
 31
0.0
  0
ARC
  5
194
330
1E
100
AcDbEntity
  8
CSLAYER1
  6
CONTINUOUS
 62
     3
100
AcDbCircle
 10
220.537741
 20
87.62587399999999
 30
0.0
 40
3.0
100
AcDbArc
 50
270.0
 51
0.0
  0
LINE
  5
195
330
1E
100
AcDbEntity
  8
CSLAYER1
  6
CONTINUOUS
 62
     3
100
AcDbLine
 10
223.537741
 20
87.62587399999999
 30
0.0
 11
223.537741
 21
226.125874
 31
0.0
  0
LINE
  5
196
330
1E
100
AcDbEntity
  8
CSLAYER1
  6
CONTINUOUS
 62
     3
100
AcDbLine
 10
223.537741
 20
226.125874
 30
0.0
 11
219.537741
 21
226.125874
 31
0.0
  0
LINE
  5
197
330
1E
100
AcDbEntity
  8
CSLAYER1
  6
CONTINUOUS
 62
     3
100
AcDbLine
 10
219.537741
 20
226.125874
 30
0.0
 11
219.537741
 21
88.625874
 31
0.0
  0
LINE
  5
198
330
1E
100
AcDbEntity
  8
CSLAYER1
  6
CONTINUOUS
 62
     3
100
AcDbLine
 10
219.537741
 20
88.625874
 30
0.0
 11
144.5377409999999
 21
88.625874
 31
0.0
  0
LINE
  5
199
330
1E
100
AcDbEntity
  8
CSLAYER1
  6
CONTINUOUS
 62
     3
100
AcDbLine
 10
144.5377409999999
 20
88.625874
 30
0.0
 11
144.5377409999999
 21
84.625874
 31
0.0
  0
LINE
  5
19A
330
1E
100
AcDbEntity
  8
CSLAYER1
  6
CONTINUOUS
 62
     3
100
AcDbLine
 10
148.5377409999999
 20
96.62587399999999
 30
0.0
 11
191.5377409999999
 21
96.62587399999999
 31
0.0
  0
LINE
  5
19B
330
1E
100
AcDbEntity
  8
CSLAYER1
  6
CONTINUOUS
 62
     3
100
AcDbLine
 10
191.5377409999999
 20
96.62587399999999
 30
0.0
 11
193.037741
 21
98.12587399999999
 31
0.0
  0
LINE
  5
19C
330
1E
100
AcDbEntity
  8
CSLAYER1
  6
CONTINUOUS
 62
     3
100
AcDbLine
 10
193.037741
 20
98.12587399999999
 30
0.0
 11
193.037741
 21
109.6258739999999
 31
0.0
  0
ARC
  5
19D
330
1E
100
AcDbEntity
  8
CSLAYER1
  6
CONTINUOUS
 62
     3
100
AcDbCircle
 10
195.0377409999999
 20
109.6258739999999
 30
0.0
 40
2.0
100
AcDbArc
 50
90.0
 51
180.0
  0
LINE
  5
19E
330
1E
100
AcDbEntity
  8
CSLAYER1
  6
CONTINUOUS
 62
     3
100
AcDbLine
 10
195.0377409999999
 20
111.6258739999999
 30
0.0
 11
198.0377409999999
 21
111.6258739999999
 31
0.0
  0
LINE
  5
19F
330
1E
100
AcDbEntity
  8
CSLAYER1
  6
CONTINUOUS
 62
     3
100
AcDbLine
 10
198.0377409999999
 20
111.6258739999999
 30
0.0
 11
198.0377409999999
 21
231.625874
 31
0.0
  0
ARC
  5
1A0
330
1E
100
AcDbEntity
  8
CSLAYER1
  6
CONTINUOUS
 62
     3
100
AcDbCircle
 10
202.037741
 20
245.0422819999999
 30
0.0
 40
14.0
100
AcDbArc
 50
180.0
 51
253.3984499999999
  0
LINE
  5
1A1
330
1E
100
AcDbEntity
  8
CSLAYER1
  6
CONTINUOUS
 62
     3
100
AcDbLine
 10
188.0377409999999
 20
245.0422819999999
 30
0.0
 11
188.0377409999999
 21
266.6258739999999
 31
0.0
  0
LINE
  5
1A2
330
1E
100
AcDbEntity
  8
CSLAYER1
  6
CONTINUOUS
 62
     3
100
AcDbLine
 10
188.0377409999999
 20
266.6258739999999
 30
0.0
 11
178.5377409999999
 21
266.6258739999999
 31
0.0
  0
LINE
  5
1A3
330
1E
100
AcDbEntity
  8
CSLAYER1
  6
CONTINUOUS
 62
     3
100
AcDbLine
 10
178.5377409999999
 20
266.6258739999999
 30
0.0
 11
178.5377409999999
 21
220.425874
 31
0.0
  0
LINE
  5
1A4
330
1E
100
AcDbEntity
  8
CSLAYER1
  6
CONTINUOUS
 62
     3
100
AcDbLine
 10
178.5377409999999
 20
220.425874
 30
0.0
 11
161.5377409999999
 21
220.425874
 31
0.0
  0
LINE
  5
1A5
330
1E
100
AcDbEntity
  8
CSLAYER1
  6
CONTINUOUS
 62
     3
100
AcDbLine
 10
161.5377409999999
 20
220.425874
 30
0.0
 11
161.5377409999999
 21
266.6258739999999
 31
0.0
  0
LINE
  5
1A6
330
1E
100
AcDbEntity
  8
CSLAYER1
  6
CONTINUOUS
 62
     3
100
AcDbLine
 10
161.5377409999999
 20
266.6258739999999
 30
0.0
 11
152.0377409999999
 21
266.6258739999999
 31
0.0
  0
LINE
  5
1A7
330
1E
100
AcDbEntity
  8
CSLAYER1
  6
CONTINUOUS
 62
     3
100
AcDbLine
 10
152.0377409999999
 20
266.6258739999999
 30
0.0
 11
152.0377409999999
 21
245.0422819999999
 31
0.0
  0
ARC
  5
1A8
330
1E
100
AcDbEntity
  8
CSLAYER1
  6
CONTINUOUS
 62
     3
100
AcDbCircle
 10
138.0377409999999
 20
245.0422819999999
 30
0.0
 40
14.0
100
AcDbArc
 50
286.6015499999999
 51
0.0
  0
LINE
  5
1A9
330
1E
100
AcDbEntity
  8
CSLAYER1
  6
CONTINUOUS
 62
     3
100
AcDbLine
 10
142.0377409999999
 20
231.625874
 30
0.0
 11
142.0377409999999
 21
111.6258739999999
 31
0.0
  0
LINE
  5
1AA
330
1E
100
AcDbEntity
  8
CSLAYER1
  6
CONTINUOUS
 62
     3
100
AcDbLine
 10
142.0377409999999
 20
111.6258739999999
 30
0.0
 11
145.0377409999999
 21
111.6258739999999
 31
0.0
  0
ARC
  5
1AB
330
1E
100
AcDbEntity
  8
CSLAYER1
  6
CONTINUOUS
 62
     3
100
AcDbCircle
 10
145.0377409999999
 20
109.6258739999999
 30
0.0
 40
2.0
100
AcDbArc
 50
0.0
 51
90.0
  0
LINE
  5
1AC
330
1E
100
AcDbEntity
  8
CSLAYER1
  6
CONTINUOUS
 62
     3
100
AcDbLine
 10
147.0377409999999
 20
109.6258739999999
 30
0.0
 11
147.0377409999999
 21
98.12587399999999
 31
0.0
  0
LINE
  5
1AD
330
1E
100
AcDbEntity
  8
CSLAYER1
  6
CONTINUOUS
 62
     3
100
AcDbLine
 10
147.0377409999999
 20
98.12587399999999
 30
0.0
 11
148.5377409999999
 21
96.62587399999999
 31
0.0
  0
LINE
  5
1AE
330
1E
100
AcDbEntity
  8
CSLAYER1
  6
CONTINUOUS
 62
     3
100
AcDbLine
 10
147.0377409999999
 20
98.12587399999999
 30
0.0
 11
193.037741
 21
98.12587399999999
 31
0.0
  0
LINE
  5
1AF
330
1E
100
AcDbEntity
  8
CSLAYER1
  6
CONTINUOUS
 62
     3
100
AcDbLine
 10
188.0377409999999
 20
88.625874
 30
0.0
 11
188.0377409999999
 21
84.625874
 31
0.0
  0
LINE
  5
1B0
330
1E
100
AcDbEntity
  8
CSLAYER1
  6
CONTINUOUS
 62
     3
100
AcDbLine
 10
161.0377409999999
 20
84.625874
 30
0.0
 11
161.0377409999999
 21
88.625874
 31
0.0
  0
LINE
  5
1B1
330
1E
100
AcDbEntity
  8
CSLAYER1
  6
CONTINUOUS
 62
     3
100
AcDbLine
 10
160.267411
 20
116.6258739999999
 30
0.0
 11
159.267411
 21
117.6258739999999
 31
0.0
  0
LINE
  5
1B2
330
1E
100
AcDbEntity
  8
CSLAYER1
  6
CONTINUOUS
 62
     3
100
AcDbLine
 10
159.267411
 20
117.6258739999999
 30
0.0
 11
180.8080699999999
 21
117.6258739999999
 31
0.0
  0
LINE
  5
1B3
330
1E
100
AcDbEntity
  8
CSLAYER1
  6
CONTINUOUS
 62
     3
100
AcDbLine
 10
180.8080699999999
 20
117.6258739999999
 30
0.0
 11
180.8080699999999
 21
129.625874
 31
0.0
  0
ARC
  5
1B4
330
1E
100
AcDbEntity
  8
CSLAYER1
  6
CONTINUOUS
 62
     3
100
AcDbCircle
 10
182.8080699999999
 20
129.625874
 30
0.0
 40
2.0
100
AcDbArc
 50
90.0
 51
180.0
  0
LINE
  5
1B5
330
1E
100
AcDbEntity
  8
CSLAYER1
  6
CONTINUOUS
 62
     3
100
AcDbLine
 10
182.8080699999999
 20
131.625874
 30
0.0
 11
204.037741
 21
131.625874
 31
0.0
  0
LINE
  5
1B6
330
1E
100
AcDbEntity
  8
CSLAYER1
  6
CONTINUOUS
 62
     3
100
AcDbLine
 10
204.037741
 20
131.625874
 30
0.0
 11
204.037741
 21
211.625874
 31
0.0
  0
LINE
  5
1B7
330
1E
100
AcDbEntity
  8
CSLAYER1
  6
CONTINUOUS
 62
     3
100
AcDbLine
 10
204.037741
 20
211.625874
 30
0.0
 11
198.0377409999999
 21
211.625874
 31
0.0
  0
CIRCLE
  5
1B8
330
1E
100
AcDbEntity
  8
CSLAYER1
  6
CONTINUOUS
 62
     3
100
AcDbCircle
 10
193.037741
 20
206.625874
 30
0.0
 40
2.1
  0
ARC
  5
1B9
330
1E
100
AcDbEntity
  8
CSLAYER1
  6
CONTINUOUS
 62
     3
100
AcDbCircle
 10
204.3268879999999
 20
207.3258739999999
 30
0.0
 40
0.3
100
AcDbArc
 50
0.0
 51
180.0
  0
LINE
  5
1BA
330
1E
100
AcDbEntity
  8
CSLAYER1
  6
CONTINUOUS
 62
     3
100
AcDbLine
 10
204.6268879999999
 20
207.3258739999999
 30
0.0
 11
204.6268879999999
 21
200.875874
 31
0.0
  0
LINE
  5
1BB
330
1E
100
AcDbEntity
  8
CSLAYER1
  6
CONTINUOUS
 62
     3
100
AcDbLine
 10
204.037741
 20
200.875874
 30
0.0
 11
208.737741
 21
200.875874
 31
0.0
  0
LINE
  5
1BC
330
1E
100
AcDbEntity
  8
CSLAYER1
  6
CONTINUOUS
 62
     3
100
AcDbLine
 10
208.737741
 20
200.875874
 30
0.0
 11
208.737741
 21
192.375874
 31
0.0
  0
LINE
  5
1BD
330
1E
100
AcDbEntity
  8
CSLAYER1
  6
CONTINUOUS
 62
     3
100
AcDbLine
 10
208.737741
 20
192.375874
 30
0.0
 11
204.037741
 21
192.375874
 31
0.0
  0
LINE
  5
1BE
330
1E
100
AcDbEntity
  8
CSLAYER1
  6
CONTINUOUS
 62
     3
100
AcDbLine
 10
208.737741
 20
192.375874
 30
0.0
 11
209.0377409999999
 21
192.8954889999999
 31
0.0
  0
LINE
  5
1BF
330
1E
100
AcDbEntity
  8
CSLAYER1
  6
CONTINUOUS
 62
     3
100
AcDbLine
 10
209.0377409999999
 20
192.8954889999999
 30
0.0
 11
209.0377409999999
 21
200.356259
 31
0.0
  0
LINE
  5
1C0
330
1E
100
AcDbEntity
  8
CSLAYER1
  6
CONTINUOUS
 62
     3
100
AcDbLine
 10
209.0377409999999
 20
200.356259
 30
0.0
 11
208.737741
 21
200.875874
 31
0.0
  0
LINE
  5
1C1
330
1E
100
AcDbEntity
  8
CSLAYER1
  6
CONTINUOUS
 62
     3
100
AcDbLine
 10
209.0264159999999
 20
200.375874
 30
0.0
 11
210.2479509999999
 21
200.375874
 31
0.0
  0
ARC
  5
1C2
330
1E
100
AcDbEntity
  8
CSLAYER1
  6
CONTINUOUS
 62
     3
100
AcDbCircle
 10
210.6423529999999
 20
199.9258739999999
 30
0.0
 40
0.3
100
AcDbArc
 50
206.0846689999999
 51
347.880409
  0
LINE
  5
1C3
330
1E
100
AcDbEntity
  8
CSLAYER1
  6
CONTINUOUS
 62
     3
100
AcDbLine
 10
210.9356669999999
 20
199.862888
 30
0.0
 11
211.045825
 21
200.375874
 31
0.0
  0
LINE
  5
1C4
330
1E
100
AcDbEntity
  8
CSLAYER1
  6
CONTINUOUS
 62
     3
100
AcDbLine
 10
210.861629
 20
200.375874
 30
0.0
 11
213.4079509999999
 21
200.375874
 31
0.0
  0
ARC
  5
1C5
330
1E
100
AcDbEntity
  8
CSLAYER1
  6
CONTINUOUS
 62
     3
100
AcDbCircle
 10
213.8023529999999
 20
199.9258739999999
 30
0.0
 40
0.3
100
AcDbArc
 50
206.0846689999999
 51
347.880409
  0
LINE
  5
1C6
330
1E
100
AcDbEntity
  8
CSLAYER1
  6
CONTINUOUS
 62
     3
100
AcDbLine
 10
214.095667
 20
199.862888
 30
0.0
 11
214.205825
 21
200.375874
 31
0.0
  0
LINE
  5
1C7
330
1E
100
AcDbEntity
  8
CSLAYER1
  6
CONTINUOUS
 62
     3
100
AcDbLine
 10
214.021629
 20
200.375874
 30
0.0
 11
216.5679509999999
 21
200.375874
 31
0.0
  0
ARC
  5
1C8
330
1E
100
AcDbEntity
  8
CSLAYER1
  6
CONTINUOUS
 62
     3
100
AcDbCircle
 10
216.971422
 20
199.9258739999999
 30
0.0
 40
0.3
100
AcDbArc
 50
192.1195909999999
 51
12.119591
  0
LINE
  5
1C9
330
1E
100
AcDbEntity
  8
CSLAYER1
  6
CONTINUOUS
 62
     3
100
AcDbLine
 10
217.264736
 20
199.98886
 30
0.0
 11
215.675667
 21
207.38886
 31
0.0
  0
ARC
  5
1CA
330
1E
100
AcDbEntity
  8
CSLAYER1
  6
CONTINUOUS
 62
     3
100
AcDbCircle
 10
215.3823529999999
 20
207.3258739999999
 30
0.0
 40
0.3
100
AcDbArc
 50
12.119591
 51
192.1195909999999
  0
LINE
  5
1CB
330
1E
100
AcDbEntity
  8
CSLAYER1
  6
CONTINUOUS
 62
     3
100
AcDbLine
 10
215.0890399999999
 20
207.2628879999999
 30
0.0
 11
216.6781089999999
 21
199.862888
 31
0.0
  0
LINE
  5
1CC
330
1E
100
AcDbEntity
  8
CSLAYER1
  6
CONTINUOUS
 62
     3
100
AcDbLine
 10
217.271273
 20
199.9163949999999
 30
0.0
 11
217.4120009999999
 21
200.375874
 31
0.0
  0
LINE
  5
1CD
330
1E
100
AcDbEntity
  8
CSLAYER1
  6
CONTINUOUS
 62
     3
100
AcDbLine
 10
217.181629
 20
200.375874
 30
0.0
 11
218.9268879999999
 21
200.375874
 31
0.0
  0
LINE
  5
1CE
330
1E
100
AcDbEntity
  8
CSLAYER1
  6
CONTINUOUS
 62
     3
100
AcDbLine
 10
218.9268879999999
 20
199.9258739999999
 30
0.0
 11
218.9268879999999
 21
207.370786
 31
0.0
  0
LINE
  5
1CF
330
1E
100
AcDbEntity
  8
CSLAYER1
  6
CONTINUOUS
 62
     3
100
AcDbLine
 10
218.9400399999999
 20
207.413729
 30
0.0
 11
218.7753059999999
 21
206.875874
 31
0.0
  0
LINE
  5
1D0
330
1E
100
AcDbEntity
  8
CSLAYER1
  6
CONTINUOUS
 62
     3
100
AcDbLine
 10
218.9268879999999
 20
206.875874
 30
0.0
 11
215.7858249999999
 21
206.875874
 31
0.0
  0
LINE
  5
1D1
330
1E
100
AcDbEntity
  8
CSLAYER1
  6
CONTINUOUS
 62
     3
100
AcDbLine
 10
215.172147
 20
206.875874
 30
0.0
 11
212.6258249999999
 21
206.875874
 31
0.0
  0
LINE
  5
1D2
330
1E
100
AcDbEntity
  8
CSLAYER1
  6
CONTINUOUS
 62
     3
100
AcDbLine
 10
212.5156669999999
 20
207.38886
 30
0.0
 11
214.113727
 21
199.946991
 31
0.0
  0
LINE
  5
1D3
330
1E
100
AcDbEntity
  8
CSLAYER1
  6
CONTINUOUS
 62
     3
100
AcDbLine
 10
213.53291
 20
199.793964
 30
0.0
 11
211.920049
 21
207.3047569999999
 31
0.0
  0
LINE
  5
1D4
330
1E
100
AcDbEntity
  8
CSLAYER1
  6
CONTINUOUS
 62
     3
100
AcDbLine
 10
211.920049
 20
207.3047569999999
 30
0.0
 11
211.8279509999999
 21
206.875874
 31
0.0
  0
LINE
  5
1D5
330
1E
100
AcDbEntity
  8
CSLAYER1
  6
CONTINUOUS
 62
     3
100
AcDbLine
 10
212.012147
 20
206.875874
 30
0.0
 11
209.465825
 21
206.875874
 31
0.0
  0
LINE
  5
1D6
330
1E
100
AcDbEntity
  8
CSLAYER1
  6
CONTINUOUS
 62
     3
100
AcDbLine
 10
209.3556669999999
 20
207.38886
 30
0.0
 11
210.953727
 21
199.946991
 31
0.0
  0
LINE
  5
1D7
330
1E
100
AcDbEntity
  8
CSLAYER1
  6
CONTINUOUS
 62
     3
100
AcDbLine
 10
210.37291
 20
199.793964
 30
0.0
 11
208.760049
 21
207.3047569999999
 31
0.0
  0
LINE
  5
1D8
330
1E
100
AcDbEntity
  8
CSLAYER1
  6
CONTINUOUS
 62
     3
100
AcDbLine
 10
208.760049
 20
207.3047569999999
 30
0.0
 11
208.6679509999999
 21
206.875874
 31
0.0
  0
LINE
  5
1D9
330
1E
100
AcDbEntity
  8
CSLAYER1
  6
CONTINUOUS
 62
     3
100
AcDbLine
 10
208.8521469999999
 20
206.875874
 30
0.0
 11
206.305825
 21
206.875874
 31
0.0
  0
LINE
  5
1DA
330
1E
100
AcDbEntity
  8
CSLAYER1
  6
CONTINUOUS
 62
     3
100
AcDbLine
 10
206.1956669999999
 20
207.38886
 30
0.0
 11
207.594259
 21
200.875874
 31
0.0
  0
LINE
  5
1DB
330
1E
100
AcDbEntity
  8
CSLAYER1
  6
CONTINUOUS
 62
     3
100
AcDbLine
 10
206.980581
 20
200.875874
 30
0.0
 11
205.600049
 21
207.3047569999999
 31
0.0
  0
LINE
  5
1DC
330
1E
100
AcDbEntity
  8
CSLAYER1
  6
CONTINUOUS
 62
     3
100
AcDbLine
 10
205.600049
 20
207.3047569999999
 30
0.0
 11
205.507951
 21
206.875874
 31
0.0
  0
LINE
  5
1DD
330
1E
100
AcDbEntity
  8
CSLAYER1
  6
CONTINUOUS
 62
     3
100
AcDbLine
 10
205.692147
 20
206.875874
 30
0.0
 11
204.6268879999999
 21
206.875874
 31
0.0
  0
ARC
  5
1DE
330
1E
100
AcDbEntity
  8
CSLAYER1
  6
CONTINUOUS
 62
     3
100
AcDbCircle
 10
205.902353
 20
207.3258739999999
 30
0.0
 40
0.3
100
AcDbArc
 50
12.119591
 51
192.1195909999999
  0
ARC
  5
1DF
330
1E
100
AcDbEntity
  8
CSLAYER1
  6
CONTINUOUS
 62
     3
100
AcDbCircle
 10
209.062353
 20
207.3258739999999
 30
0.0
 40
0.3
100
AcDbArc
 50
12.119591
 51
192.1195909999999
  0
LINE
  5
1E0
330
1E
100
AcDbEntity
  8
CSLAYER1
  6
CONTINUOUS
 62
     3
100
AcDbLine
 10
198.0377409999999
 20
191.625874
 30
0.0
 11
142.0377409999999
 21
191.625874
 31
0.0
  0
CIRCLE
  5
1E1
330
1E
100
AcDbEntity
  8
CSLAYER1
  6
CONTINUOUS
 62
     3
100
AcDbCircle
 10
147.0377409999999
 20
206.625874
 30
0.0
 40
2.1
  0
LINE
  5
1E2
330
1E
100
AcDbEntity
  8
CSLAYER1
  6
CONTINUOUS
 62
     3
100
AcDbLine
 10
142.0377409999999
 20
151.625874
 30
0.0
 11
198.0377409999999
 21
151.625874
 31
0.0
  0
LINE
  5
1E3
330
1E
100
AcDbEntity
  8
CSLAYER1
  6
CONTINUOUS
 62
     3
100
AcDbLine
 10
204.484323
 20
165.852371
 30
0.0
 11
208.791159
 21
165.852371
 31
0.0
  0
LINE
  5
1E4
330
1E
100
AcDbEntity
  8
CSLAYER1
  6
CONTINUOUS
 62
     3
100
AcDbLine
 10
208.791159
 20
165.852371
 30
0.0
 11
209.237741
 21
166.625874
 31
0.0
  0
LINE
  5
1E5
330
1E
100
AcDbEntity
  8
CSLAYER1
  6
CONTINUOUS
 62
     3
100
AcDbLine
 10
209.237741
 20
166.625874
 30
0.0
 11
209.237741
 21
176.625874
 31
0.0
  0
LINE
  5
1E6
330
1E
100
AcDbEntity
  8
CSLAYER1
  6
CONTINUOUS
 62
     3
100
AcDbLine
 10
209.237741
 20
176.625874
 30
0.0
 11
208.791159
 21
177.3993759999999
 31
0.0
  0
LINE
  5
1E7
330
1E
100
AcDbEntity
  8
CSLAYER1
  6
CONTINUOUS
 62
     3
100
AcDbLine
 10
208.791159
 20
177.3993759999999
 30
0.0
 11
204.484323
 21
177.3993759999999
 31
0.0
  0
LINE
  5
1E8
330
1E
100
AcDbEntity
  8
CSLAYER1
  6
CONTINUOUS
 62
     3
100
AcDbLine
 10
204.484323
 20
177.3993759999999
 30
0.0
 11
204.037741
 21
176.625874
 31
0.0
  0
ARC
  5
1E9
330
1E
100
AcDbEntity
  8
CSLAYER1
  6
CONTINUOUS
 62
     3
100
AcDbCircle
 10
209.037518
 20
176.5786399999999
 30
0.0
 40
5.0
100
AcDbArc
 50
179.458729
 51
204.406196
  0
LINE
  5
1EA
330
1E
100
AcDbEntity
  8
CSLAYER1
  6
CONTINUOUS
 62
     3
100
AcDbLine
 10
204.484323
 20
174.512625
 30
0.0
 11
208.791159
 21
174.512625
 31
0.0
  0
ARC
  5
1EB
330
1E
100
AcDbEntity
  8
CSLAYER1
  6
CONTINUOUS
 62
     3
100
AcDbCircle
 10
199.6843229999999
 20
171.625874
 30
0.0
 40
9.553417999999998
100
AcDbArc
 50
342.412046
 51
17.587954
  0
LINE
  5
1EC
330
1E
100
AcDbEntity
  8
CSLAYER1
  6
CONTINUOUS
 62
     3
100
AcDbLine
 10
208.791159
 20
168.739122
 30
0.0
 11
204.484323
 21
168.739122
 31
0.0
  0
ARC
  5
1ED
330
1E
100
AcDbEntity
  8
CSLAYER1
  6
CONTINUOUS
 62
     3
100
AcDbCircle
 10
213.5911589999999
 20
171.625874
 30
0.0
 40
9.553417999999998
100
AcDbArc
 50
162.412046
 51
197.5879539999999
  0
ARC
  5
1EE
330
1E
100
AcDbEntity
  8
CSLAYER1
  6
CONTINUOUS
 62
     3
100
AcDbCircle
 10
204.2379639999999
 20
176.5786399999999
 30
0.0
 40
5.0
100
AcDbArc
 50
335.593804
 51
0.5412710000000001
  0
LINE
  5
1EF
330
1E
100
AcDbEntity
  8
CSLAYER1
  6
CONTINUOUS
 62
     3
100
AcDbLine
 10
209.237741
 20
174.625874
 30
0.0
 11
210.037741
 21
174.625874
 31
0.0
  0
LINE
  5
1F0
330
1E
100
AcDbEntity
  8
CSLAYER1
  6
CONTINUOUS
 62
     3
100
AcDbLine
 10
210.037741
 20
174.625874
 30
0.0
 11
210.037741
 21
168.625874
 31
0.0
  0
LINE
  5
1F1
330
1E
100
AcDbEntity
  8
CSLAYER1
  6
CONTINUOUS
 62
     3
100
AcDbLine
 10
210.037741
 20
168.625874
 30
0.0
 11
211.037741
 21
167.625874
 31
0.0
  0
LINE
  5
1F2
330
1E
100
AcDbEntity
  8
CSLAYER1
  6
CONTINUOUS
 62
     3
100
AcDbLine
 10
211.037741
 20
167.625874
 30
0.0
 11
219.537741
 21
167.625874
 31
0.0
  0
LINE
  5
1F3
330
1E
100
AcDbEntity
  8
CSLAYER1
  6
CONTINUOUS
 62
     3
100
AcDbLine
 10
223.537741
 20
166.6165789999999
 30
0.0
 11
252.037741
 21
166.6165789999999
 31
0.0
  0
LINE
  5
1F4
330
1E
100
AcDbEntity
  8
CSLAYER1
  6
CONTINUOUS
 62
     3
100
AcDbLine
 10
252.037741
 20
164.116579
 30
0.0
 11
223.537741
 21
164.116579
 31
0.0
  0
LINE
  5
1F5
330
1E
100
AcDbEntity
  8
CSLAYER1
  6
CONTINUOUS
 62
     3
100
AcDbLine
 10
223.537741
 20
159.347845
 30
0.0
 11
252.037741
 21
159.347845
 31
0.0
  0
LINE
  5
1F6
330
1E
100
AcDbEntity
  8
CSLAYER1
  6
CONTINUOUS
 62
     3
100
AcDbLine
 10
252.037741
 20
157.125874
 30
0.0
 11
252.037741
 21
186.125874
 31
0.0
  0
LINE
  5
1F7
330
1E
100
AcDbEntity
  8
CSLAYER1
  6
CONTINUOUS
 62
     3
100
AcDbLine
 10
252.037741
 20
186.125874
 30
0.0
 11
223.537741
 21
186.125874
 31
0.0
  0
LINE
  5
1F8
330
1E
100
AcDbEntity
  8
CSLAYER1
  6
CONTINUOUS
 62
     3
100
AcDbLine
 10
223.537741
 20
183.903903
 30
0.0
 11
252.037741
 21
183.903903
 31
0.0
  0
LINE
  5
1F9
330
1E
100
AcDbEntity
  8
CSLAYER1
  6
CONTINUOUS
 62
     3
100
AcDbLine
 10
252.037741
 20
179.135168
 30
0.0
 11
223.537741
 21
179.135168
 31
0.0
  0
LINE
  5
1FA
330
1E
100
AcDbEntity
  8
CSLAYER1
  6
CONTINUOUS
 62
     3
100
AcDbLine
 10
223.537741
 20
176.6351679999999
 30
0.0
 11
252.037741
 21
176.6351679999999
 31
0.0
  0
LINE
  5
1FB
330
1E
100
AcDbEntity
  8
CSLAYER1
  6
CONTINUOUS
 62
     3
100
AcDbLine
 10
247.787741
 20
172.347562
 30
0.0
 11
247.787741
 21
170.904186
 31
0.0
  0
LINE
  5
1FC
330
1E
100
AcDbEntity
  8
CSLAYER1
  6
CONTINUOUS
 62
     3
100
AcDbLine
 10
247.787741
 20
170.904186
 30
0.0
 11
246.537741
 21
170.182498
 31
0.0
  0
LINE
  5
1FD
330
1E
100
AcDbEntity
  8
CSLAYER1
  6
CONTINUOUS
 62
     3
100
AcDbLine
 10
246.537741
 20
170.182498
 30
0.0
 11
245.287741
 21
170.904186
 31
0.0
  0
LINE
  5
1FE
330
1E
100
AcDbEntity
  8
CSLAYER1
  6
CONTINUOUS
 62
     3
100
AcDbLine
 10
245.287741
 20
170.904186
 30
0.0
 11
245.287741
 21
172.347562
 31
0.0
  0
LINE
  5
1FF
330
1E
100
AcDbEntity
  8
CSLAYER1
  6
CONTINUOUS
 62
     3
100
AcDbLine
 10
245.287741
 20
172.347562
 30
0.0
 11
246.537741
 21
173.0692489999999
 31
0.0
  0
LINE
  5
200
330
1E
100
AcDbEntity
  8
CSLAYER1
  6
CONTINUOUS
 62
     3
100
AcDbLine
 10
246.537741
 20
173.0692489999999
 30
0.0
 11
247.787741
 21
172.347562
 31
0.0
  0
CIRCLE
  5
201
330
1E
100
AcDbEntity
  8
CSLAYER1
  6
CONTINUOUS
 62
     3
100
AcDbCircle
 10
246.537741
 20
171.625874
 30
0.0
 40
2.5
  0
CIRCLE
  5
202
330
1E
100
AcDbEntity
  8
CSLAYER1
  6
CONTINUOUS
 62
     3
100
AcDbCircle
 10
231.5377409999999
 20
171.625874
 30
0.0
 40
2.1
  0
LINE
  5
203
330
1E
100
AcDbEntity
  8
CSLAYER1
  6
CONTINUOUS
 62
     3
100
AcDbLine
 10
219.537741
 20
175.6258739999999
 30
0.0
 11
211.037741
 21
175.6258739999999
 31
0.0
  0
LINE
  5
204
330
1E
100
AcDbEntity
  8
CSLAYER1
  6
CONTINUOUS
 62
     3
100
AcDbLine
 10
211.037741
 20
175.6258739999999
 30
0.0
 11
210.037741
 21
174.625874
 31
0.0
  0
LINE
  5
205
330
1E
100
AcDbEntity
  8
CSLAYER1
  6
CONTINUOUS
 62
     3
100
AcDbLine
 10
211.037741
 20
175.6258739999999
 30
0.0
 11
211.037741
 21
167.625874
 31
0.0
  0
LINE
  5
206
330
1E
100
AcDbEntity
  8
CSLAYER1
  6
CONTINUOUS
 62
     3
100
AcDbLine
 10
210.037741
 20
168.625874
 30
0.0
 11
209.237741
 21
168.625874
 31
0.0
  0
ARC
  5
207
330
1E
100
AcDbEntity
  8
CSLAYER1
  6
CONTINUOUS
 62
     3
100
AcDbCircle
 10
204.2379639999999
 20
166.673108
 30
0.0
 40
5.0
100
AcDbArc
 50
359.458729
 51
24.40619599999999
  0
LINE
  5
208
330
1E
100
AcDbEntity
  8
CSLAYER1
  6
CONTINUOUS
 62
     3
100
AcDbLine
 10
204.484323
 20
165.852371
 30
0.0
 11
204.037741
 21
166.625874
 31
0.0
  0
ARC
  5
209
330
1E
100
AcDbEntity
  8
CSLAYER1
  6
CONTINUOUS
 62
     3
100
AcDbCircle
 10
209.037518
 20
166.673108
 30
0.0
 40
5.0
100
AcDbArc
 50
155.593804
 51
180.5412709999999
  0
LINE
  5
20A
330
1E
100
AcDbEntity
  8
CSLAYER1
  6
CONTINUOUS
 62
     3
100
AcDbLine
 10
223.537741
 20
157.125874
 30
0.0
 11
252.037741
 21
157.125874
 31
0.0
  0
LINE
  5
20B
330
1E
100
AcDbEntity
  8
CSLAYER1
  6
CONTINUOUS
 62
     3
100
AcDbLine
 10
272.044385
 20
167.125874
 30
0.0
 11
272.044385
 21
176.125874
 31
0.0
  0
ARC
  5
20C
330
1E
100
AcDbEntity
  8
CSLAYER1
  6
CONTINUOUS
 62
     3
100
AcDbCircle
 10
281.044385
 20
176.125874
 30
0.0
 40
9.0
100
AcDbArc
 50
90.0
 51
180.0
  0
LINE
  5
20D
330
1E
100
AcDbEntity
  8
CSLAYER1
  6
CONTINUOUS
 62
     3
100
AcDbLine
 10
281.044385
 20
185.125874
 30
0.0
 11
291.044385
 21
185.125874
 31
0.0
  0
ARC
  5
20E
330
1E
100
AcDbEntity
  8
CSLAYER1
  6
CONTINUOUS
 62
     3
100
AcDbCircle
 10
291.044385
 20
189.625874
 30
0.0
 40
4.5
100
AcDbArc
 50
270.0
 51
0.0
  0
LINE
  5
20F
330
1E
100
AcDbEntity
  8
CSLAYER1
  6
CONTINUOUS
 62
     3
100
AcDbLine
 10
295.544385
 20
189.625874
 30
0.0
 11
295.544385
 21
199.125874
 31
0.0
  0
ARC
  5
210
330
1E
100
AcDbEntity
  8
CSLAYER1
  6
CONTINUOUS
 62
     3
100
AcDbCircle
 10
291.044385
 20
199.125874
 30
0.0
 40
4.5
100
AcDbArc
 50
0.0
 51
90.0
  0
ARC
  5
211
330
1E
100
AcDbEntity
  8
CSLAYER1
  6
CONTINUOUS
 62
     3
100
AcDbCircle
 10
291.044385
 20
207.625874
 30
0.0
 40
4.0
100
AcDbArc
 50
180.0
 51
270.0
  0
LINE
  5
212
330
1E
100
AcDbEntity
  8
CSLAYER1
  6
CONTINUOUS
 62
     3
100
AcDbLine
 10
292.044385
 20
198.9352749999999
 30
0.0
 11
290.044385
 21
197.7805739999999
 31
0.0
  0
LINE
  5
213
330
1E
100
AcDbEntity
  8
CSLAYER1
  6
CONTINUOUS
 62
     3
100
AcDbLine
 10
290.044385
 20
197.7805739999999
 30
0.0
 11
290.044385
 21
195.4711729999999
 31
0.0
  0
LINE
  5
214
330
1E
100
AcDbEntity
  8
CSLAYER1
  6
CONTINUOUS
 62
     3
100
AcDbLine
 10
290.044385
 20
195.4711729999999
 30
0.0
 11
292.044385
 21
194.316473
 31
0.0
  0
LINE
  5
215
330
1E
100
AcDbEntity
  8
CSLAYER1
  6
CONTINUOUS
 62
     3
100
AcDbLine
 10
292.044385
 20
194.316473
 30
0.0
 11
294.044385
 21
195.4711729999999
 31
0.0
  0
LINE
  5
216
330
1E
100
AcDbEntity
  8
CSLAYER1
  6
CONTINUOUS
 62
     3
100
AcDbLine
 10
294.044385
 20
195.4711729999999
 30
0.0
 11
294.044385
 21
197.7805739999999
 31
0.0
  0
LINE
  5
217
330
1E
100
AcDbEntity
  8
CSLAYER1
  6
CONTINUOUS
 62
     3
100
AcDbLine
 10
294.044385
 20
197.7805739999999
 30
0.0
 11
292.044385
 21
198.9352749999999
 31
0.0
  0
ARC
  5
218
330
1E
100
AcDbEntity
  8
CSLAYER1
  6
CONTINUOUS
 62
     3
100
AcDbCircle
 10
292.044385
 20
196.625874
 30
0.0
 40
4.25
100
AcDbArc
 50
35.537678
 51
325.4396779999999
  0
ARC
  5
219
330
1E
100
AcDbEntity
  8
CSLAYER1
  6
CONTINUOUS
 62
     3
100
AcDbCircle
 10
292.044385
 20
196.625874
 30
0.0
 40
3.730385
100
AcDbArc
 50
20.241774
 51
339.758226
  0
LINE
  5
21A
330
1E
100
AcDbEntity
  8
CSLAYER1
  6
CONTINUOUS
 62
     3
100
AcDbLine
 10
302.766356
 20
186.125874
 30
0.0
 11
307.535091
 21
186.125874
 31
0.0
  0
LINE
  5
21B
330
1E
100
AcDbEntity
  8
CSLAYER1
  6
CONTINUOUS
 62
     3
100
AcDbLine
 10
307.535091
 20
186.125874
 30
0.0
 11
310.035091
 21
183.625874
 31
0.0
  0
LINE
  5
21C
330
1E
100
AcDbEntity
  8
CSLAYER1
  6
CONTINUOUS
 62
     3
100
AcDbLine
 10
310.035091
 20
183.625874
 30
0.0
 11
320.05368
 21
183.625874
 31
0.0
  0
LINE
  5
21D
330
1E
100
AcDbEntity
  8
CSLAYER1
  6
CONTINUOUS
 62
     3
100
AcDbLine
 10
320.05368
 20
183.625874
 30
0.0
 11
322.5536799999999
 21
186.125874
 31
0.0
  0
LINE
  5
21E
330
1E
100
AcDbEntity
  8
CSLAYER1
  6
CONTINUOUS
 62
     3
100
AcDbLine
 10
322.5536799999999
 20
186.125874
 30
0.0
 11
327.3224149999999
 21
186.125874
 31
0.0
  0
ARC
  5
21F
330
1E
100
AcDbEntity
  8
CSLAYER1
  6
CONTINUOUS
 62
     3
100
AcDbCircle
 10
315.044385
 20
171.625874
 30
0.0
 40
19.0
100
AcDbArc
 50
40.256613
 51
49.743387
  0
LINE
  5
220
330
1E
100
AcDbEntity
  8
CSLAYER1
  6
CONTINUOUS
 62
     3
100
AcDbLine
 10
329.544385
 20
183.903903
 30
0.0
 11
329.544385
 21
179.135168
 31
0.0
  0
LINE
  5
221
330
1E
100
AcDbEntity
  8
CSLAYER1
  6
CONTINUOUS
 62
     3
100
AcDbLine
 10
329.544385
 20
179.135168
 30
0.0
 11
327.044385
 21
176.6351679999999
 31
0.0
  0
LINE
  5
222
330
1E
100
AcDbEntity
  8
CSLAYER1
  6
CONTINUOUS
 62
     3
100
AcDbLine
 10
327.044385
 20
176.6351679999999
 30
0.0
 11
327.044385
 21
166.6165789999999
 31
0.0
  0
LINE
  5
223
330
1E
100
AcDbEntity
  8
CSLAYER1
  6
CONTINUOUS
 62
     3
100
AcDbLine
 10
327.044385
 20
166.6165789999999
 30
0.0
 11
329.544385
 21
164.116579
 31
0.0
  0
LINE
  5
224
330
1E
100
AcDbEntity
  8
CSLAYER1
  6
CONTINUOUS
 62
     3
100
AcDbLine
 10
329.544385
 20
164.116579
 30
0.0
 11
329.544385
 21
159.347845
 31
0.0
  0
ARC
  5
225
330
1E
100
AcDbEntity
  8
CSLAYER1
  6
CONTINUOUS
 62
     3
100
AcDbCircle
 10
315.044385
 20
171.625874
 30
0.0
 40
19.0
100
AcDbArc
 50
310.256613
 51
319.7433869999999
  0
LINE
  5
226
330
1E
100
AcDbEntity
  8
CSLAYER1
  6
CONTINUOUS
 62
     3
100
AcDbLine
 10
327.3224149999999
 20
157.125874
 30
0.0
 11
322.5536799999999
 21
157.125874
 31
0.0
  0
LINE
  5
227
330
1E
100
AcDbEntity
  8
CSLAYER1
  6
CONTINUOUS
 62
     3
100
AcDbLine
 10
322.5536799999999
 20
157.125874
 30
0.0
 11
320.05368
 21
159.625874
 31
0.0
  0
LINE
  5
228
330
1E
100
AcDbEntity
  8
CSLAYER1
  6
CONTINUOUS
 62
     3
100
AcDbLine
 10
320.05368
 20
159.625874
 30
0.0
 11
310.035091
 21
159.625874
 31
0.0
  0
LINE
  5
229
330
1E
100
AcDbEntity
  8
CSLAYER1
  6
CONTINUOUS
 62
     3
100
AcDbLine
 10
310.035091
 20
159.625874
 30
0.0
 11
307.535091
 21
157.125874
 31
0.0
  0
LINE
  5
22A
330
1E
100
AcDbEntity
  8
CSLAYER1
  6
CONTINUOUS
 62
     3
100
AcDbLine
 10
307.535091
 20
157.125874
 30
0.0
 11
302.766356
 21
157.125874
 31
0.0
  0
ARC
  5
22B
330
1E
100
AcDbEntity
  8
CSLAYER1
  6
CONTINUOUS
 62
     3
100
AcDbCircle
 10
315.044385
 20
171.625874
 30
0.0
 40
19.0
100
AcDbArc
 50
220.256613
 51
229.7433869999999
  0
LINE
  5
22C
330
1E
100
AcDbEntity
  8
CSLAYER1
  6
CONTINUOUS
 62
     3
100
AcDbLine
 10
300.544385
 20
159.347845
 30
0.0
 11
300.544385
 21
164.116579
 31
0.0
  0
LINE
  5
22D
330
1E
100
AcDbEntity
  8
CSLAYER1
  6
CONTINUOUS
 62
     3
100
AcDbLine
 10
300.544385
 20
164.116579
 30
0.0
 11
303.044385
 21
166.6165789999999
 31
0.0
  0
LINE
  5
22E
330
1E
100
AcDbEntity
  8
CSLAYER1
  6
CONTINUOUS
 62
     3
100
AcDbLine
 10
303.044385
 20
166.6165789999999
 30
0.0
 11
300.544385
 21
166.625874
 31
0.0
  0
LINE
  5
22F
330
1E
100
AcDbEntity
  8
CSLAYER1
  6
CONTINUOUS
 62
     3
100
AcDbLine
 10
300.544385
 20
166.625874
 30
0.0
 11
300.544385
 21
176.625874
 31
0.0
  0
LINE
  5
230
330
1E
100
AcDbEntity
  8
CSLAYER1
  6
CONTINUOUS
 62
     3
100
AcDbLine
 10
300.544385
 20
176.625874
 30
0.0
 11
303.044385
 21
176.6351679999999
 31
0.0
  0
LINE
  5
231
330
1E
100
AcDbEntity
  8
CSLAYER1
  6
CONTINUOUS
 62
     3
100
AcDbLine
 10
303.044385
 20
176.6351679999999
 30
0.0
 11
300.544385
 21
179.135168
 31
0.0
  0
LINE
  5
232
330
1E
100
AcDbEntity
  8
CSLAYER1
  6
CONTINUOUS
 62
     3
100
AcDbLine
 10
300.544385
 20
179.135168
 30
0.0
 11
300.544385
 21
183.903903
 31
0.0
  0
ARC
  5
233
330
1E
100
AcDbEntity
  8
CSLAYER1
  6
CONTINUOUS
 62
     3
100
AcDbCircle
 10
315.044385
 20
171.625874
 30
0.0
 40
19.0
100
AcDbArc
 50
130.2566129999999
 51
139.743387
  0
LINE
  5
234
330
1E
100
AcDbEntity
  8
CSLAYER1
  6
CONTINUOUS
 62
     3
100
AcDbLine
 10
305.044385
 20
183.125874
 30
0.0
 11
306.3434229999999
 21
182.375874
 31
0.0
  0
LINE
  5
235
330
1E
100
AcDbEntity
  8
CSLAYER1
  6
CONTINUOUS
 62
     3
100
AcDbLine
 10
306.3434229999999
 20
182.375874
 30
0.0
 11
306.3434229999999
 21
180.875874
 31
0.0
  0
LINE
  5
236
330
1E
100
AcDbEntity
  8
CSLAYER1
  6
CONTINUOUS
 62
     3
100
AcDbLine
 10
306.3434229999999
 20
180.875874
 30
0.0
 11
305.044385
 21
180.125874
 31
0.0
  0
LINE
  5
237
330
1E
100
AcDbEntity
  8
CSLAYER1
  6
CONTINUOUS
 62
     3
100
AcDbLine
 10
305.044385
 20
180.125874
 30
0.0
 11
303.745347
 21
180.875874
 31
0.0
  0
LINE
  5
238
330
1E
100
AcDbEntity
  8
CSLAYER1
  6
CONTINUOUS
 62
     3
100
AcDbLine
 10
303.745347
 20
180.875874
 30
0.0
 11
303.745347
 21
182.375874
 31
0.0
  0
LINE
  5
239
330
1E
100
AcDbEntity
  8
CSLAYER1
  6
CONTINUOUS
 62
     3
100
AcDbLine
 10
303.745347
 20
182.375874
 30
0.0
 11
305.044385
 21
183.125874
 31
0.0
  0
CIRCLE
  5
23A
330
1E
100
AcDbEntity
  8
CSLAYER1
  6
CONTINUOUS
 62
     3
100
AcDbCircle
 10
305.044385
 20
181.625874
 30
0.0
 40
2.75
  0
CIRCLE
  5
23B
330
1E
100
AcDbEntity
  8
CSLAYER1
  6
CONTINUOUS
 62
     3
100
AcDbCircle
 10
305.044385
 20
181.625874
 30
0.0
 40
3.25
  0
CIRCLE
  5
23C
330
1E
100
AcDbEntity
  8
CSLAYER1
  6
CONTINUOUS
 62
     3
100
AcDbCircle
 10
296.044385
 20
171.625874
 30
0.0
 40
3.0
  0
LINE
  5
23D
330
1E
100
AcDbEntity
  8
CSLAYER1
  6
CONTINUOUS
 62
     3
100
AcDbLine
 10
303.745347
 20
162.375874
 30
0.0
 11
305.044385
 21
163.1258739999999
 31
0.0
  0
LINE
  5
23E
330
1E
100
AcDbEntity
  8
CSLAYER1
  6
CONTINUOUS
 62
     3
100
AcDbLine
 10
305.044385
 20
163.1258739999999
 30
0.0
 11
306.3434229999999
 21
162.375874
 31
0.0
  0
LINE
  5
23F
330
1E
100
AcDbEntity
  8
CSLAYER1
  6
CONTINUOUS
 62
     3
100
AcDbLine
 10
306.3434229999999
 20
162.375874
 30
0.0
 11
306.3434229999999
 21
160.875874
 31
0.0
  0
LINE
  5
240
330
1E
100
AcDbEntity
  8
CSLAYER1
  6
CONTINUOUS
 62
     3
100
AcDbLine
 10
306.3434229999999
 20
160.875874
 30
0.0
 11
305.044385
 21
160.125874
 31
0.0
  0
LINE
  5
241
330
1E
100
AcDbEntity
  8
CSLAYER1
  6
CONTINUOUS
 62
     3
100
AcDbLine
 10
305.044385
 20
160.125874
 30
0.0
 11
303.745347
 21
160.875874
 31
0.0
  0
LINE
  5
242
330
1E
100
AcDbEntity
  8
CSLAYER1
  6
CONTINUOUS
 62
     3
100
AcDbLine
 10
303.745347
 20
160.875874
 30
0.0
 11
303.745347
 21
162.375874
 31
0.0
  0
CIRCLE
  5
243
330
1E
100
AcDbEntity
  8
CSLAYER1
  6
CONTINUOUS
 62
     3
100
AcDbCircle
 10
305.044385
 20
161.625874
 30
0.0
 40
2.75
  0
CIRCLE
  5
244
330
1E
100
AcDbEntity
  8
CSLAYER1
  6
CONTINUOUS
 62
     3
100
AcDbCircle
 10
305.044385
 20
161.625874
 30
0.0
 40
3.25
  0
ARC
  5
245
330
1E
100
AcDbEntity
  8
CSLAYER1
  6
CONTINUOUS
 62
     3
100
AcDbCircle
 10
283.044385
 20
154.125874
 30
0.0
 40
4.0
100
AcDbArc
 50
0.0
 51
90.0
  0
LINE
  5
246
330
1E
100
AcDbEntity
  8
CSLAYER1
  6
CONTINUOUS
 62
     3
100
AcDbLine
 10
283.044385
 20
158.125874
 30
0.0
 11
281.044385
 21
158.125874
 31
0.0
  0
ARC
  5
247
330
1E
100
AcDbEntity
  8
CSLAYER1
  6
CONTINUOUS
 62
     3
100
AcDbCircle
 10
281.044385
 20
167.125874
 30
0.0
 40
9.0
100
AcDbArc
 50
180.0
 51
270.0
  0
LINE
  5
248
330
1E
100
AcDbEntity
  8
CSLAYER1
  6
CONTINUOUS
 62
     3
100
AcDbLine
 10
277.8443849999999
 20
168.776643
 30
0.0
 11
277.8443849999999
 21
174.475105
 31
0.0
  0
ARC
  5
249
330
1E
100
AcDbEntity
  8
CSLAYER1
  6
CONTINUOUS
 62
     3
100
AcDbCircle
 10
281.044385
 20
174.425489
 30
0.0
 40
3.200384999999999
100
AcDbArc
 50
359.1117109999999
 51
180.8882889999999
  0
LINE
  5
24A
330
1E
100
AcDbEntity
  8
CSLAYER1
  6
CONTINUOUS
 62
     3
100
AcDbLine
 10
284.244385
 20
174.475105
 30
0.0
 11
284.244385
 21
168.776643
 31
0.0
  0
ARC
  5
24B
330
1E
100
AcDbEntity
  8
CSLAYER1
  6
CONTINUOUS
 62
     3
100
AcDbCircle
 10
281.044385
 20
168.8262579999999
 30
0.0
 40
3.200384999999999
100
AcDbArc
 50
179.111711
 51
0.8882889999999999
  0
LINE
  5
24C
330
1E
100
AcDbEntity
  8
CSLAYER1
  6
CONTINUOUS
 62
     3
100
AcDbLine
 10
287.044385
 20
154.125874
 30
0.0
 11
287.044385
 21
88.625874
 31
0.0
  0
LINE
  5
24D
330
1E
100
AcDbEntity
  8
CSLAYER1
  6
CONTINUOUS
 62
     3
100
AcDbLine
 10
287.044385
 20
88.625874
 30
0.0
 11
272.044385
 21
88.625874
 31
0.0
  0
LINE
  5
24E
330
1E
100
AcDbEntity
  8
CSLAYER1
  6
CONTINUOUS
 62
     3
100
AcDbLine
 10
272.044385
 20
88.625874
 30
0.0
 11
272.044385
 21
84.625874
 31
0.0
  0
LINE
  5
24F
330
1E
100
AcDbEntity
  8
CSLAYER1
  6
CONTINUOUS
 62
     3
100
AcDbLine
 10
272.044385
 20
84.625874
 30
0.0
 11
358.044385
 21
84.625874
 31
0.0
  0
LINE
  5
250
330
1E
100
AcDbEntity
  8
CSLAYER1
  6
CONTINUOUS
 62
     3
100
AcDbLine
 10
358.044385
 20
84.625874
 30
0.0
 11
358.044385
 21
88.625874
 31
0.0
  0
LINE
  5
251
330
1E
100
AcDbEntity
  8
CSLAYER1
  6
CONTINUOUS
 62
     3
100
AcDbLine
 10
358.044385
 20
88.625874
 30
0.0
 11
343.044385
 21
88.625874
 31
0.0
  0
LINE
  5
252
330
1E
100
AcDbEntity
  8
CSLAYER1
  6
CONTINUOUS
 62
     3
100
AcDbLine
 10
343.044385
 20
88.625874
 30
0.0
 11
343.044385
 21
154.125874
 31
0.0
  0
ARC
  5
253
330
1E
100
AcDbEntity
  8
CSLAYER1
  6
CONTINUOUS
 62
     3
100
AcDbCircle
 10
347.044385
 20
154.125874
 30
0.0
 40
4.0
100
AcDbArc
 50
90.0
 51
180.0
  0
LINE
  5
254
330
1E
100
AcDbEntity
  8
CSLAYER1
  6
CONTINUOUS
 62
     3
100
AcDbLine
 10
347.044385
 20
158.125874
 30
0.0
 11
349.044385
 21
158.125874
 31
0.0
  0
ARC
  5
255
330
1E
100
AcDbEntity
  8
CSLAYER1
  6
CONTINUOUS
 62
     3
100
AcDbCircle
 10
349.044385
 20
167.125874
 30
0.0
 40
9.0
100
AcDbArc
 50
270.0
 51
0.0
  0
LINE
  5
256
330
1E
100
AcDbEntity
  8
CSLAYER1
  6
CONTINUOUS
 62
     3
100
AcDbLine
 10
358.044385
 20
167.125874
 30
0.0
 11
358.044385
 21
176.125874
 31
0.0
  0
ARC
  5
257
330
1E
100
AcDbEntity
  8
CSLAYER1
  6
CONTINUOUS
 62
     3
100
AcDbCircle
 10
349.044385
 20
176.125874
 30
0.0
 40
9.0
100
AcDbArc
 50
0.0
 51
90.0
  0
LINE
  5
258
330
1E
100
AcDbEntity
  8
CSLAYER1
  6
CONTINUOUS
 62
     3
100
AcDbLine
 10
349.044385
 20
185.125874
 30
0.0
 11
339.044385
 21
185.125874
 31
0.0
  0
ARC
  5
259
330
1E
100
AcDbEntity
  8
CSLAYER1
  6
CONTINUOUS
 62
     3
100
AcDbCircle
 10
339.044385
 20
189.625874
 30
0.0
 40
4.5
100
AcDbArc
 50
180.0
 51
270.0
  0
LINE
  5
25A
330
1E
100
AcDbEntity
  8
CSLAYER1
  6
CONTINUOUS
 62
     3
100
AcDbLine
 10
334.544385
 20
189.625874
 30
0.0
 11
334.544385
 21
199.125874
 31
0.0
  0
ARC
  5
25B
330
1E
100
AcDbEntity
  8
CSLAYER1
  6
CONTINUOUS
 62
     3
100
AcDbCircle
 10
339.044385
 20
199.125874
 30
0.0
 40
4.5
100
AcDbArc
 50
90.0
 51
180.0
  0
ARC
  5
25C
330
1E
100
AcDbEntity
  8
CSLAYER1
  6
CONTINUOUS
 62
     3
100
AcDbCircle
 10
339.044385
 20
207.625874
 30
0.0
 40
4.0
100
AcDbArc
 50
270.0
 51
0.0
  0
LINE
  5
25D
330
1E
100
AcDbEntity
  8
CSLAYER1
  6
CONTINUOUS
 62
     3
100
AcDbLine
 10
338.044385
 20
198.9352749999999
 30
0.0
 11
340.044385
 21
197.7805739999999
 31
0.0
  0
LINE
  5
25E
330
1E
100
AcDbEntity
  8
CSLAYER1
  6
CONTINUOUS
 62
     3
100
AcDbLine
 10
340.044385
 20
197.7805739999999
 30
0.0
 11
340.044385
 21
195.4711729999999
 31
0.0
  0
LINE
  5
25F
330
1E
100
AcDbEntity
  8
CSLAYER1
  6
CONTINUOUS
 62
     3
100
AcDbLine
 10
340.044385
 20
195.4711729999999
 30
0.0
 11
338.044385
 21
194.316473
 31
0.0
  0
LINE
  5
260
330
1E
100
AcDbEntity
  8
CSLAYER1
  6
CONTINUOUS
 62
     3
100
AcDbLine
 10
338.044385
 20
194.316473
 30
0.0
 11
336.044385
 21
195.4711729999999
 31
0.0
  0
LINE
  5
261
330
1E
100
AcDbEntity
  8
CSLAYER1
  6
CONTINUOUS
 62
     3
100
AcDbLine
 10
336.044385
 20
195.4711729999999
 30
0.0
 11
336.044385
 21
197.7805739999999
 31
0.0
  0
LINE
  5
262
330
1E
100
AcDbEntity
  8
CSLAYER1
  6
CONTINUOUS
 62
     3
100
AcDbLine
 10
336.044385
 20
197.7805739999999
 30
0.0
 11
338.044385
 21
198.9352749999999
 31
0.0
  0
ARC
  5
263
330
1E
100
AcDbEntity
  8
CSLAYER1
  6
CONTINUOUS
 62
     3
100
AcDbCircle
 10
338.044385
 20
196.625874
 30
0.0
 40
4.25
100
AcDbArc
 50
214.5603219999999
 51
144.4623219999999
  0
ARC
  5
264
330
1E
100
AcDbEntity
  8
CSLAYER1
  6
CONTINUOUS
 62
     3
100
AcDbCircle
 10
338.044385
 20
196.625874
 30
0.0
 40
3.730385
100
AcDbArc
 50
200.2417739999999
 51
159.758226
  0
LINE
  5
265
330
1E
100
AcDbEntity
  8
CSLAYER1
  6
CONTINUOUS
 62
     3
100
AcDbLine
 10
343.044385
 20
185.125874
 30
0.0
 11
343.044385
 21
231.625874
 31
0.0
  0
LINE
  5
266
330
1E
100
AcDbEntity
  8
CSLAYER1
  6
CONTINUOUS
 62
     3
100
AcDbLine
 10
343.044385
 20
231.625874
 30
0.0
 11
329.044385
 21
266.6258739999999
 31
0.0
  0
LINE
  5
267
330
1E
100
AcDbEntity
  8
CSLAYER1
  6
CONTINUOUS
 62
     3
100
AcDbLine
 10
329.044385
 20
266.6258739999999
 30
0.0
 11
301.044385
 21
266.6258739999999
 31
0.0
  0
LINE
  5
268
330
1E
100
AcDbEntity
  8
CSLAYER1
  6
CONTINUOUS
 62
     3
100
AcDbLine
 10
301.044385
 20
266.6258739999999
 30
0.0
 11
287.044385
 21
231.625874
 31
0.0
  0
LINE
  5
269
330
1E
100
AcDbEntity
  8
CSLAYER1
  6
CONTINUOUS
 62
     3
100
AcDbLine
 10
287.044385
 20
231.625874
 30
0.0
 11
343.044385
 21
231.625874
 31
0.0
  0
ARC
  5
26A
330
1E
100
AcDbEntity
  8
CSLAYER1
  6
CONTINUOUS
 62
     3
100
AcDbCircle
 10
339.044385
 20
222.125874
 30
0.0
 40
4.0
100
AcDbArc
 50
0.0
 51
90.0
  0
CIRCLE
  5
26B
330
1E
100
AcDbEntity
  8
CSLAYER1
  6
CONTINUOUS
 62
     3
100
AcDbCircle
 10
333.044385
 20
213.625874
 30
0.0
 40
2.1
  0
LINE
  5
26C
330
1E
100
AcDbEntity
  8
CSLAYER1
  6
CONTINUOUS
 62
     3
100
AcDbLine
 10
317.03047
 20
203.625874
 30
0.0
 11
316.0374279999999
 21
201.905874
 31
0.0
  0
LINE
  5
26D
330
1E
100
AcDbEntity
  8
CSLAYER1
  6
CONTINUOUS
 62
     3
100
AcDbLine
 10
316.0374279999999
 20
201.905874
 30
0.0
 11
314.051343
 21
201.905874
 31
0.0
  0
LINE
  5
26E
330
1E
100
AcDbEntity
  8
CSLAYER1
  6
CONTINUOUS
 62
     3
100
AcDbLine
 10
314.051343
 20
201.905874
 30
0.0
 11
313.0582999999999
 21
203.625874
 31
0.0
  0
LINE
  5
26F
330
1E
100
AcDbEntity
  8
CSLAYER1
  6
CONTINUOUS
 62
     3
100
AcDbLine
 10
313.0582999999999
 20
203.625874
 30
0.0
 11
314.051343
 21
205.3458739999999
 31
0.0
  0
LINE
  5
270
330
1E
100
AcDbEntity
  8
CSLAYER1
  6
CONTINUOUS
 62
     3
100
AcDbLine
 10
314.051343
 20
205.3458739999999
 30
0.0
 11
316.0374279999999
 21
205.3458739999999
 31
0.0
  0
LINE
  5
271
330
1E
100
AcDbEntity
  8
CSLAYER1
  6
CONTINUOUS
 62
     3
100
AcDbLine
 10
316.0374279999999
 20
205.3458739999999
 30
0.0
 11
317.03047
 21
203.625874
 31
0.0
  0
CIRCLE
  5
272
330
1E
100
AcDbEntity
  8
CSLAYER1
  6
CONTINUOUS
 62
     3
100
AcDbCircle
 10
315.044385
 20
203.625874
 30
0.0
 40
6.5
  0
CIRCLE
  5
273
330
1E
100
AcDbEntity
  8
CSLAYER1
  6
CONTINUOUS
 62
     3
100
AcDbCircle
 10
315.044385
 20
203.625874
 30
0.0
 40
5.7
  0
CIRCLE
  5
274
330
1E
100
AcDbEntity
  8
CSLAYER1
  6
CONTINUOUS
 62
     3
100
AcDbCircle
 10
315.044385
 20
203.625874
 30
0.0
 40
4.5
  0
CIRCLE
  5
275
330
1E
100
AcDbEntity
  8
CSLAYER1
  6
CONTINUOUS
 62
     3
100
AcDbCircle
 10
315.044385
 20
203.625874
 30
0.0
 40
5.0
  0
LINE
  5
276
330
1E
100
AcDbEntity
  8
CSLAYER1
  6
CONTINUOUS
 62
     3
100
AcDbLine
 10
325.044385
 20
183.125874
 30
0.0
 11
326.3434229999999
 21
182.375874
 31
0.0
  0
LINE
  5
277
330
1E
100
AcDbEntity
  8
CSLAYER1
  6
CONTINUOUS
 62
     3
100
AcDbLine
 10
326.3434229999999
 20
182.375874
 30
0.0
 11
326.3434229999999
 21
180.875874
 31
0.0
  0
LINE
  5
278
330
1E
100
AcDbEntity
  8
CSLAYER1
  6
CONTINUOUS
 62
     3
100
AcDbLine
 10
326.3434229999999
 20
180.875874
 30
0.0
 11
325.044385
 21
180.125874
 31
0.0
  0
LINE
  5
279
330
1E
100
AcDbEntity
  8
CSLAYER1
  6
CONTINUOUS
 62
     3
100
AcDbLine
 10
325.044385
 20
180.125874
 30
0.0
 11
323.745347
 21
180.875874
 31
0.0
  0
LINE
  5
27A
330
1E
100
AcDbEntity
  8
CSLAYER1
  6
CONTINUOUS
 62
     3
100
AcDbLine
 10
323.745347
 20
180.875874
 30
0.0
 11
323.745347
 21
182.375874
 31
0.0
  0
LINE
  5
27B
330
1E
100
AcDbEntity
  8
CSLAYER1
  6
CONTINUOUS
 62
     3
100
AcDbLine
 10
323.745347
 20
182.375874
 30
0.0
 11
325.044385
 21
183.125874
 31
0.0
  0
CIRCLE
  5
27C
330
1E
100
AcDbEntity
  8
CSLAYER1
  6
CONTINUOUS
 62
     3
100
AcDbCircle
 10
325.044385
 20
181.625874
 30
0.0
 40
2.75
  0
CIRCLE
  5
27D
330
1E
100
AcDbEntity
  8
CSLAYER1
  6
CONTINUOUS
 62
     3
100
AcDbCircle
 10
325.044385
 20
181.625874
 30
0.0
 40
3.25
  0
CIRCLE
  5
27E
330
1E
100
AcDbEntity
  8
CSLAYER1
  6
CONTINUOUS
 62
     3
100
AcDbCircle
 10
334.044385
 20
171.625874
 30
0.0
 40
3.0
  0
CIRCLE
  5
27F
330
1E
100
AcDbEntity
  8
CSLAYER1
  6
CONTINUOUS
 62
     3
100
AcDbCircle
 10
334.044385
 20
171.625874
 30
0.0
 40
2.0
  0
LINE
  5
280
330
1E
100
AcDbEntity
  8
CSLAYER1
  6
CONTINUOUS
 62
     3
100
AcDbLine
 10
326.3434229999999
 20
162.375874
 30
0.0
 11
326.3434229999999
 21
160.875874
 31
0.0
  0
LINE
  5
281
330
1E
100
AcDbEntity
  8
CSLAYER1
  6
CONTINUOUS
 62
     3
100
AcDbLine
 10
326.3434229999999
 20
160.875874
 30
0.0
 11
325.044385
 21
160.125874
 31
0.0
  0
LINE
  5
282
330
1E
100
AcDbEntity
  8
CSLAYER1
  6
CONTINUOUS
 62
     3
100
AcDbLine
 10
325.044385
 20
160.125874
 30
0.0
 11
323.745347
 21
160.875874
 31
0.0
  0
LINE
  5
283
330
1E
100
AcDbEntity
  8
CSLAYER1
  6
CONTINUOUS
 62
     3
100
AcDbLine
 10
323.745347
 20
160.875874
 30
0.0
 11
323.745347
 21
162.375874
 31
0.0
  0
LINE
  5
284
330
1E
100
AcDbEntity
  8
CSLAYER1
  6
CONTINUOUS
 62
     3
100
AcDbLine
 10
323.745347
 20
162.375874
 30
0.0
 11
325.044385
 21
163.1258739999999
 31
0.0
  0
LINE
  5
285
330
1E
100
AcDbEntity
  8
CSLAYER1
  6
CONTINUOUS
 62
     3
100
AcDbLine
 10
325.044385
 20
163.1258739999999
 30
0.0
 11
326.3434229999999
 21
162.375874
 31
0.0
  0
CIRCLE
  5
286
330
1E
100
AcDbEntity
  8
CSLAYER1
  6
CONTINUOUS
 62
     3
100
AcDbCircle
 10
325.044385
 20
161.625874
 30
0.0
 40
2.75
  0
CIRCLE
  5
287
330
1E
100
AcDbEntity
  8
CSLAYER1
  6
CONTINUOUS
 62
     3
100
AcDbCircle
 10
325.044385
 20
161.625874
 30
0.0
 40
3.25
  0
LINE
  5
288
330
1E
100
AcDbEntity
  8
CSLAYER1
  6
CONTINUOUS
 62
     3
100
AcDbLine
 10
345.844385
 20
168.776643
 30
0.0
 11
345.844385
 21
174.475105
 31
0.0
  0
ARC
  5
289
330
1E
100
AcDbEntity
  8
CSLAYER1
  6
CONTINUOUS
 62
     3
100
AcDbCircle
 10
349.044385
 20
174.425489
 30
0.0
 40
3.200384999999999
100
AcDbArc
 50
359.1117109999999
 51
180.8882889999999
  0
LINE
  5
28A
330
1E
100
AcDbEntity
  8
CSLAYER1
  6
CONTINUOUS
 62
     3
100
AcDbLine
 10
352.244385
 20
174.475105
 30
0.0
 11
352.244385
 21
168.776643
 31
0.0
  0
ARC
  5
28B
330
1E
100
AcDbEntity
  8
CSLAYER1
  6
CONTINUOUS
 62
     3
100
AcDbCircle
 10
349.044385
 20
168.8262579999999
 30
0.0
 40
3.200384999999999
100
AcDbArc
 50
179.111711
 51
0.8882889999999999
  0
ARC
  5
28C
330
1E
100
AcDbEntity
  8
CSLAYER1
  6
CONTINUOUS
 62
     3
100
AcDbCircle
 10
339.044385
 20
145.125874
 30
0.0
 40
4.0
100
AcDbArc
 50
270.0
 51
0.0
  0
ARC
  5
28D
330
1E
100
AcDbEntity
  8
CSLAYER1
  6
CONTINUOUS
 62
     3
100
AcDbCircle
 10
339.044385
 20
136.625874
 30
0.0
 40
4.5
100
AcDbArc
 50
90.0
 51
270.0
  0
ARC
  5
28E
330
1E
100
AcDbEntity
  8
CSLAYER1
  6
CONTINUOUS
 62
     3
100
AcDbCircle
 10
339.044385
 20
128.125874
 30
0.0
 40
4.0
100
AcDbArc
 50
0.0
 51
90.0
  0
ARC
  5
28F
330
1E
100
AcDbEntity
  8
CSLAYER1
  6
CONTINUOUS
 62
     3
100
AcDbCircle
 10
338.044385
 20
136.625874
 30
0.0
 40
4.25
100
AcDbArc
 50
261.9691729999999
 51
98.03082700000002
  0
LINE
  5
290
330
1E
100
AcDbEntity
  8
CSLAYER1
  6
CONTINUOUS
 62
     3
100
AcDbLine
 10
338.044385
 20
138.935275
 30
0.0
 11
340.044385
 21
137.780574
 31
0.0
  0
LINE
  5
291
330
1E
100
AcDbEntity
  8
CSLAYER1
  6
CONTINUOUS
 62
     3
100
AcDbLine
 10
340.044385
 20
137.780574
 30
0.0
 11
340.044385
 21
135.471173
 31
0.0
  0
LINE
  5
292
330
1E
100
AcDbEntity
  8
CSLAYER1
  6
CONTINUOUS
 62
     3
100
AcDbLine
 10
340.044385
 20
135.471173
 30
0.0
 11
338.044385
 21
134.316473
 31
0.0
  0
LINE
  5
293
330
1E
100
AcDbEntity
  8
CSLAYER1
  6
CONTINUOUS
 62
     3
100
AcDbLine
 10
338.044385
 20
134.316473
 30
0.0
 11
336.044385
 21
135.471173
 31
0.0
  0
LINE
  5
294
330
1E
100
AcDbEntity
  8
CSLAYER1
  6
CONTINUOUS
 62
     3
100
AcDbLine
 10
336.044385
 20
135.471173
 30
0.0
 11
336.044385
 21
137.780574
 31
0.0
  0
LINE
  5
295
330
1E
100
AcDbEntity
  8
CSLAYER1
  6
CONTINUOUS
 62
     3
100
AcDbLine
 10
336.044385
 20
137.780574
 30
0.0
 11
338.044385
 21
138.935275
 31
0.0
  0
ARC
  5
296
330
1E
100
AcDbEntity
  8
CSLAYER1
  6
CONTINUOUS
 62
     3
100
AcDbCircle
 10
338.044385
 20
136.625874
 30
0.0
 40
3.730385
100
AcDbArc
 50
224.359224
 51
135.6407759999999
  0
LINE
  5
297
330
1E
100
AcDbEntity
  8
CSLAYER1
  6
CONTINUOUS
 62
     3
100
AcDbLine
 10
317.03047
 20
139.625874
 30
0.0
 11
316.0374279999999
 21
137.905874
 31
0.0
  0
LINE
  5
298
330
1E
100
AcDbEntity
  8
CSLAYER1
  6
CONTINUOUS
 62
     3
100
AcDbLine
 10
316.0374279999999
 20
137.905874
 30
0.0
 11
314.051343
 21
137.905874
 31
0.0
  0
LINE
  5
299
330
1E
100
AcDbEntity
  8
CSLAYER1
  6
CONTINUOUS
 62
     3
100
AcDbLine
 10
314.051343
 20
137.905874
 30
0.0
 11
313.0582999999999
 21
139.625874
 31
0.0
  0
LINE
  5
29A
330
1E
100
AcDbEntity
  8
CSLAYER1
  6
CONTINUOUS
 62
     3
100
AcDbLine
 10
313.0582999999999
 20
139.625874
 30
0.0
 11
314.051343
 21
141.345874
 31
0.0
  0
LINE
  5
29B
330
1E
100
AcDbEntity
  8
CSLAYER1
  6
CONTINUOUS
 62
     3
100
AcDbLine
 10
314.051343
 20
141.345874
 30
0.0
 11
316.0374279999999
 21
141.345874
 31
0.0
  0
LINE
  5
29C
330
1E
100
AcDbEntity
  8
CSLAYER1
  6
CONTINUOUS
 62
     3
100
AcDbLine
 10
316.0374279999999
 20
141.345874
 30
0.0
 11
317.03047
 21
139.625874
 31
0.0
  0
CIRCLE
  5
29D
330
1E
100
AcDbEntity
  8
CSLAYER1
  6
CONTINUOUS
 62
     3
100
AcDbCircle
 10
315.044385
 20
139.625874
 30
0.0
 40
4.5
  0
CIRCLE
  5
29E
330
1E
100
AcDbEntity
  8
CSLAYER1
  6
CONTINUOUS
 62
     3
100
AcDbCircle
 10
315.044385
 20
139.625874
 30
0.0
 40
5.0
  0
CIRCLE
  5
29F
330
1E
100
AcDbEntity
  8
CSLAYER1
  6
CONTINUOUS
 62
     3
100
AcDbCircle
 10
315.044385
 20
139.625874
 30
0.0
 40
5.5
  0
ARC
  5
2A0
330
1E
100
AcDbEntity
  8
CSLAYER1
  6
CONTINUOUS
 62
     3
100
AcDbCircle
 10
292.044385
 20
136.625874
 30
0.0
 40
3.730385
100
AcDbArc
 50
44.35922399999999
 51
315.6407759999999
  0
LINE
  5
2A1
330
1E
100
AcDbEntity
  8
CSLAYER1
  6
CONTINUOUS
 62
     3
100
AcDbLine
 10
294.044385
 20
135.471173
 30
0.0
 11
294.044385
 21
137.780574
 31
0.0
  0
LINE
  5
2A2
330
1E
100
AcDbEntity
  8
CSLAYER1
  6
CONTINUOUS
 62
     3
100
AcDbLine
 10
294.044385
 20
137.780574
 30
0.0
 11
292.044385
 21
138.935275
 31
0.0
  0
LINE
  5
2A3
330
1E
100
AcDbEntity
  8
CSLAYER1
  6
CONTINUOUS
 62
     3
100
AcDbLine
 10
292.044385
 20
138.935275
 30
0.0
 11
290.044385
 21
137.780574
 31
0.0
  0
LINE
  5
2A4
330
1E
100
AcDbEntity
  8
CSLAYER1
  6
CONTINUOUS
 62
     3
100
AcDbLine
 10
290.044385
 20
137.780574
 30
0.0
 11
290.044385
 21
135.471173
 31
0.0
  0
LINE
  5
2A5
330
1E
100
AcDbEntity
  8
CSLAYER1
  6
CONTINUOUS
 62
     3
100
AcDbLine
 10
290.044385
 20
135.471173
 30
0.0
 11
292.044385
 21
134.316473
 31
0.0
  0
LINE
  5
2A6
330
1E
100
AcDbEntity
  8
CSLAYER1
  6
CONTINUOUS
 62
     3
100
AcDbLine
 10
292.044385
 20
134.316473
 30
0.0
 11
294.044385
 21
135.471173
 31
0.0
  0
ARC
  5
2A7
330
1E
100
AcDbEntity
  8
CSLAYER1
  6
CONTINUOUS
 62
     3
100
AcDbCircle
 10
292.044385
 20
136.625874
 30
0.0
 40
4.25
100
AcDbArc
 50
81.969173
 51
278.0308269999999
  0
ARC
  5
2A8
330
1E
100
AcDbEntity
  8
CSLAYER1
  6
CONTINUOUS
 62
     3
100
AcDbCircle
 10
291.044385
 20
145.125874
 30
0.0
 40
4.0
100
AcDbArc
 50
180.0
 51
270.0
  0
ARC
  5
2A9
330
1E
100
AcDbEntity
  8
CSLAYER1
  6
CONTINUOUS
 62
     3
100
AcDbCircle
 10
291.044385
 20
136.625874
 30
0.0
 40
4.5
100
AcDbArc
 50
270.0
 51
90.0
  0
ARC
  5
2AA
330
1E
100
AcDbEntity
  8
CSLAYER1
  6
CONTINUOUS
 62
     3
100
AcDbCircle
 10
291.044385
 20
128.125874
 30
0.0
 40
4.0
100
AcDbArc
 50
90.0
 51
180.0
  0
LINE
  5
2AB
330
1E
100
AcDbEntity
  8
CSLAYER1
  6
CONTINUOUS
 62
     3
100
AcDbLine
 10
248.537741
 20
135.125874
 30
0.0
 11
248.537741
 21
144.125874
 31
0.0
  0
ARC
  5
2AC
330
1E
100
AcDbEntity
  8
CSLAYER1
  6
CONTINUOUS
 62
     3
100
AcDbCircle
 10
248.037741
 20
144.125874
 30
0.0
 40
0.5
100
AcDbArc
 50
0.0
 51
90.0
  0
LINE
  5
2AD
330
1E
100
AcDbEntity
  8
CSLAYER1
  6
CONTINUOUS
 62
     3
100
AcDbLine
 10
248.037741
 20
144.625874
 30
0.0
 11
244.0377409999999
 21
144.625874
 31
0.0
  0
LINE
  5
2AE
330
1E
100
AcDbEntity
  8
CSLAYER1
  6
CONTINUOUS
 62
     3
100
AcDbLine
 10
244.0377409999999
 20
144.625874
 30
0.0
 11
244.0377409999999
 21
134.625874
 31
0.0
  0
LINE
  5
2AF
330
1E
100
AcDbEntity
  8
CSLAYER1
  6
CONTINUOUS
 62
     3
100
AcDbLine
 10
244.0377409999999
 20
134.625874
 30
0.0
 11
248.037741
 21
134.625874
 31
0.0
  0
ARC
  5
2B0
330
1E
100
AcDbEntity
  8
CSLAYER1
  6
CONTINUOUS
 62
     3
100
AcDbCircle
 10
248.037741
 20
135.125874
 30
0.0
 40
0.5
100
AcDbArc
 50
270.0
 51
0.0
  0
ARC
  5
2B1
330
1E
100
AcDbEntity
  8
CSLAYER1
  6
CONTINUOUS
 62
     3
100
AcDbCircle
 10
243.787741
 20
136.415874
 30
0.0
 40
0.25
100
AcDbArc
 50
0.0
 51
90.0
  0
LINE
  5
2B2
330
1E
100
AcDbEntity
  8
CSLAYER1
  6
CONTINUOUS
 62
     3
100
AcDbLine
 10
243.787741
 20
136.665874
 30
0.0
 11
241.537741
 21
136.665874
 31
0.0
  0
LINE
  5
2B3
330
1E
100
AcDbEntity
  8
CSLAYER1
  6
CONTINUOUS
 62
     3
100
AcDbLine
 10
241.537741
 20
136.665874
 30
0.0
 11
241.247741
 21
136.375874
 31
0.0
  0
LINE
  5
2B4
330
1E
100
AcDbEntity
  8
CSLAYER1
  6
CONTINUOUS
 62
     3
100
AcDbLine
 10
241.247741
 20
136.375874
 30
0.0
 11
236.037741
 21
136.375874
 31
0.0
  0
LINE
  5
2B5
330
1E
100
AcDbEntity
  8
CSLAYER1
  6
CONTINUOUS
 62
     3
100
AcDbLine
 10
236.037741
 20
133.925874
 30
0.0
 11
236.037741
 21
145.325874
 31
0.0
  0
LINE
  5
2B6
330
1E
100
AcDbEntity
  8
CSLAYER1
  6
CONTINUOUS
 62
     3
100
AcDbLine
 10
236.037741
 20
145.325874
 30
0.0
 11
235.237741
 21
146.125874
 31
0.0
  0
LINE
  5
2B7
330
1E
100
AcDbEntity
  8
CSLAYER1
  6
CONTINUOUS
 62
     3
100
AcDbLine
 10
235.237741
 20
146.125874
 30
0.0
 11
223.537741
 21
146.125874
 31
0.0
  0
ARC
  5
2B8
330
1E
100
AcDbEntity
  8
CSLAYER1
  6
CONTINUOUS
 62
     3
100
AcDbCircle
 10
219.2268879999999
 20
143.325874
 30
0.0
 40
0.3
100
AcDbArc
 50
0.0
 51
162.9712519999999
  0
LINE
  5
2B9
330
1E
100
AcDbEntity
  8
CSLAYER1
  6
CONTINUOUS
 62
     3
100
AcDbLine
 10
218.9400399999999
 20
143.413729
 30
0.0
 11
218.7753059999999
 21
142.875874
 31
0.0
  0
LINE
  5
2BA
330
1E
100
AcDbEntity
  8
CSLAYER1
  6
CONTINUOUS
 62
     3
100
AcDbLine
 10
218.9268879999999
 20
142.875874
 30
0.0
 11
215.7858249999999
 21
142.875874
 31
0.0
  0
LINE
  5
2BB
330
1E
100
AcDbEntity
  8
CSLAYER1
  6
CONTINUOUS
 62
     3
100
AcDbLine
 10
215.675667
 20
143.38886
 30
0.0
 11
217.264736
 21
135.98886
 31
0.0
  0
ARC
  5
2BC
330
1E
100
AcDbEntity
  8
CSLAYER1
  6
CONTINUOUS
 62
     3
100
AcDbCircle
 10
216.971422
 20
135.925874
 30
0.0
 40
0.3
100
AcDbArc
 50
192.1195909999999
 51
12.119591
  0
LINE
  5
2BD
330
1E
100
AcDbEntity
  8
CSLAYER1
  6
CONTINUOUS
 62
     3
100
AcDbLine
 10
216.6781089999999
 20
135.8628879999999
 30
0.0
 11
215.0890399999999
 21
143.2628879999999
 31
0.0
  0
ARC
  5
2BE
330
1E
100
AcDbEntity
  8
CSLAYER1
  6
CONTINUOUS
 62
     3
100
AcDbCircle
 10
215.3823529999999
 20
143.325874
 30
0.0
 40
0.3
100
AcDbArc
 50
12.119591
 51
192.1195909999999
  0
LINE
  5
2BF
330
1E
100
AcDbEntity
  8
CSLAYER1
  6
CONTINUOUS
 62
     3
100
AcDbLine
 10
215.080049
 20
143.304757
 30
0.0
 11
214.9879509999999
 21
142.875874
 31
0.0
  0
LINE
  5
2C0
330
1E
100
AcDbEntity
  8
CSLAYER1
  6
CONTINUOUS
 62
     3
100
AcDbLine
 10
215.172147
 20
142.875874
 30
0.0
 11
212.6258249999999
 21
142.875874
 31
0.0
  0
LINE
  5
2C1
330
1E
100
AcDbEntity
  8
CSLAYER1
  6
CONTINUOUS
 62
     3
100
AcDbLine
 10
212.5156669999999
 20
143.38886
 30
0.0
 11
214.113727
 21
135.946991
 31
0.0
  0
ARC
  5
2C2
330
1E
100
AcDbEntity
  8
CSLAYER1
  6
CONTINUOUS
 62
     3
100
AcDbCircle
 10
213.8023529999999
 20
135.925874
 30
0.0
 40
0.3
100
AcDbArc
 50
206.0846689999999
 51
347.880409
  0
LINE
  5
2C3
330
1E
100
AcDbEntity
  8
CSLAYER1
  6
CONTINUOUS
 62
     3
100
AcDbLine
 10
213.53291
 20
135.7939639999999
 30
0.0
 11
211.920049
 21
143.304757
 31
0.0
  0
LINE
  5
2C4
330
1E
100
AcDbEntity
  8
CSLAYER1
  6
CONTINUOUS
 62
     3
100
AcDbLine
 10
211.920049
 20
143.304757
 30
0.0
 11
211.8279509999999
 21
142.875874
 31
0.0
  0
LINE
  5
2C5
330
1E
100
AcDbEntity
  8
CSLAYER1
  6
CONTINUOUS
 62
     3
100
AcDbLine
 10
212.012147
 20
142.875874
 30
0.0
 11
209.465825
 21
142.875874
 31
0.0
  0
LINE
  5
2C6
330
1E
100
AcDbEntity
  8
CSLAYER1
  6
CONTINUOUS
 62
     3
100
AcDbLine
 10
209.3556669999999
 20
143.38886
 30
0.0
 11
210.953727
 21
135.946991
 31
0.0
  0
LINE
  5
2C7
330
1E
100
AcDbEntity
  8
CSLAYER1
  6
CONTINUOUS
 62
     3
100
AcDbLine
 10
210.9356669999999
 20
135.8628879999999
 30
0.0
 11
211.045825
 21
136.375874
 31
0.0
  0
LINE
  5
2C8
330
1E
100
AcDbEntity
  8
CSLAYER1
  6
CONTINUOUS
 62
     3
100
AcDbLine
 10
210.861629
 20
136.375874
 30
0.0
 11
213.4079509999999
 21
136.375874
 31
0.0
  0
LINE
  5
2C9
330
1E
100
AcDbEntity
  8
CSLAYER1
  6
CONTINUOUS
 62
     3
100
AcDbLine
 10
214.021629
 20
136.375874
 30
0.0
 11
216.5679509999999
 21
136.375874
 31
0.0
  0
LINE
  5
2CA
330
1E
100
AcDbEntity
  8
CSLAYER1
  6
CONTINUOUS
 62
     3
100
AcDbLine
 10
217.181629
 20
136.375874
 30
0.0
 11
218.9268879999999
 21
136.375874
 31
0.0
  0
LINE
  5
2CB
330
1E
100
AcDbEntity
  8
CSLAYER1
  6
CONTINUOUS
 62
     3
100
AcDbLine
 10
218.9268879999999
 20
135.925874
 30
0.0
 11
218.9268879999999
 21
143.370786
 31
0.0
  0
ARC
  5
2CC
330
1E
100
AcDbEntity
  8
CSLAYER1
  6
CONTINUOUS
 62
     3
100
AcDbCircle
 10
212.2223529999999
 20
143.325874
 30
0.0
 40
0.3
100
AcDbArc
 50
12.119591
 51
192.1195909999999
  0
LINE
  5
2CD
330
1E
100
AcDbEntity
  8
CSLAYER1
  6
CONTINUOUS
 62
     3
100
AcDbLine
 10
210.2479509999999
 20
136.375874
 30
0.0
 11
209.0264159999999
 21
136.375874
 31
0.0
  0
LINE
  5
2CE
330
1E
100
AcDbEntity
  8
CSLAYER1
  6
CONTINUOUS
 62
     3
100
AcDbLine
 10
209.0377409999999
 20
132.895489
 30
0.0
 11
209.0377409999999
 21
140.3562589999999
 31
0.0
  0
LINE
  5
2CF
330
1E
100
AcDbEntity
  8
CSLAYER1
  6
CONTINUOUS
 62
     3
100
AcDbLine
 10
209.0377409999999
 20
140.3562589999999
 30
0.0
 11
208.737741
 21
140.875874
 31
0.0
  0
LINE
  5
2D0
330
1E
100
AcDbEntity
  8
CSLAYER1
  6
CONTINUOUS
 62
     3
100
AcDbLine
 10
208.737741
 20
140.875874
 30
0.0
 11
204.037741
 21
140.875874
 31
0.0
  0
LINE
  5
2D1
330
1E
100
AcDbEntity
  8
CSLAYER1
  6
CONTINUOUS
 62
     3
100
AcDbLine
 10
204.6268879999999
 20
140.875874
 30
0.0
 11
204.6268879999999
 21
143.325874
 31
0.0
  0
ARC
  5
2D2
330
1E
100
AcDbEntity
  8
CSLAYER1
  6
CONTINUOUS
 62
     3
100
AcDbCircle
 10
204.3268879999999
 20
143.325874
 30
0.0
 40
0.3
100
AcDbArc
 50
0.0
 51
180.0
  0
LINE
  5
2D3
330
1E
100
AcDbEntity
  8
CSLAYER1
  6
CONTINUOUS
 62
     3
100
AcDbLine
 10
204.6268879999999
 20
142.875874
 30
0.0
 11
205.692147
 21
142.875874
 31
0.0
  0
LINE
  5
2D4
330
1E
100
AcDbEntity
  8
CSLAYER1
  6
CONTINUOUS
 62
     3
100
AcDbLine
 10
205.507951
 20
142.875874
 30
0.0
 11
205.600049
 21
143.304757
 31
0.0
  0
LINE
  5
2D5
330
1E
100
AcDbEntity
  8
CSLAYER1
  6
CONTINUOUS
 62
     3
100
AcDbLine
 10
205.600049
 20
143.304757
 30
0.0
 11
206.121625
 21
140.875874
 31
0.0
  0
LINE
  5
2D6
330
1E
100
AcDbEntity
  8
CSLAYER1
  6
CONTINUOUS
 62
     3
100
AcDbLine
 10
206.735303
 20
140.875874
 30
0.0
 11
206.1956669999999
 21
143.38886
 31
0.0
  0
ARC
  5
2D7
330
1E
100
AcDbEntity
  8
CSLAYER1
  6
CONTINUOUS
 62
     3
100
AcDbCircle
 10
205.902353
 20
143.325874
 30
0.0
 40
0.3
100
AcDbArc
 50
12.119591
 51
192.1195909999999
  0
LINE
  5
2D8
330
1E
100
AcDbEntity
  8
CSLAYER1
  6
CONTINUOUS
 62
     3
100
AcDbLine
 10
206.305825
 20
142.875874
 30
0.0
 11
208.8521469999999
 21
142.875874
 31
0.0
  0
LINE
  5
2D9
330
1E
100
AcDbEntity
  8
CSLAYER1
  6
CONTINUOUS
 62
     3
100
AcDbLine
 10
208.6679509999999
 20
142.875874
 30
0.0
 11
208.760049
 21
143.304757
 31
0.0
  0
LINE
  5
2DA
330
1E
100
AcDbEntity
  8
CSLAYER1
  6
CONTINUOUS
 62
     3
100
AcDbLine
 10
208.760049
 20
143.304757
 30
0.0
 11
210.37291
 21
135.7939639999999
 31
0.0
  0
ARC
  5
2DB
330
1E
100
AcDbEntity
  8
CSLAYER1
  6
CONTINUOUS
 62
     3
100
AcDbCircle
 10
210.6423529999999
 20
135.925874
 30
0.0
 40
0.3
100
AcDbArc
 50
206.0846689999999
 51
347.880409
  0
LINE
  5
2DC
330
1E
100
AcDbEntity
  8
CSLAYER1
  6
CONTINUOUS
 62
     3
100
AcDbLine
 10
214.095667
 20
135.8628879999999
 30
0.0
 11
214.205825
 21
136.375874
 31
0.0
  0
LINE
  5
2DD
330
1E
100
AcDbEntity
  8
CSLAYER1
  6
CONTINUOUS
 62
     3
100
AcDbLine
 10
217.271273
 20
135.9163949999999
 30
0.0
 11
217.4120009999999
 21
136.375874
 31
0.0
  0
ARC
  5
2DE
330
1E
100
AcDbEntity
  8
CSLAYER1
  6
CONTINUOUS
 62
     3
100
AcDbCircle
 10
219.2268879999999
 20
135.925874
 30
0.0
 40
0.3
100
AcDbArc
 50
180.0
 51
0.0
  0
LINE
  5
2DF
330
1E
100
AcDbEntity
  8
CSLAYER1
  6
CONTINUOUS
 62
     3
100
AcDbLine
 10
223.537741
 20
133.125874
 30
0.0
 11
235.237741
 21
133.125874
 31
0.0
  0
LINE
  5
2E0
330
1E
100
AcDbEntity
  8
CSLAYER1
  6
CONTINUOUS
 62
     3
100
AcDbLine
 10
235.237741
 20
133.125874
 30
0.0
 11
236.037741
 21
133.925874
 31
0.0
  0
LINE
  5
2E1
330
1E
100
AcDbEntity
  8
CSLAYER1
  6
CONTINUOUS
 62
     3
100
AcDbLine
 10
235.237741
 20
133.125874
 30
0.0
 11
235.237741
 21
146.125874
 31
0.0
  0
LINE
  5
2E2
330
1E
100
AcDbEntity
  8
CSLAYER1
  6
CONTINUOUS
 62
     3
100
AcDbLine
 10
236.037741
 20
142.875874
 30
0.0
 11
241.247741
 21
142.875874
 31
0.0
  0
LINE
  5
2E3
330
1E
100
AcDbEntity
  8
CSLAYER1
  6
CONTINUOUS
 62
     3
100
AcDbLine
 10
241.247741
 20
142.875874
 30
0.0
 11
241.247741
 21
136.375874
 31
0.0
  0
LINE
  5
2E4
330
1E
100
AcDbEntity
  8
CSLAYER1
  6
CONTINUOUS
 62
     3
100
AcDbLine
 10
241.537741
 20
136.665874
 30
0.0
 11
241.537741
 21
142.5858739999999
 31
0.0
  0
LINE
  5
2E5
330
1E
100
AcDbEntity
  8
CSLAYER1
  6
CONTINUOUS
 62
     3
100
AcDbLine
 10
241.537741
 20
142.5858739999999
 30
0.0
 11
243.787741
 21
142.5858739999999
 31
0.0
  0
ARC
  5
2E6
330
1E
100
AcDbEntity
  8
CSLAYER1
  6
CONTINUOUS
 62
     3
100
AcDbCircle
 10
243.787741
 20
142.835874
 30
0.0
 40
0.25
100
AcDbArc
 50
270.0
 51
0.0
  0
LINE
  5
2E7
330
1E
100
AcDbEntity
  8
CSLAYER1
  6
CONTINUOUS
 62
     3
100
AcDbLine
 10
241.537741
 20
142.5858739999999
 30
0.0
 11
241.247741
 21
142.875874
 31
0.0
  0
ARC
  5
2E8
330
1E
100
AcDbEntity
  8
CSLAYER1
  6
CONTINUOUS
 62
     3
100
AcDbCircle
 10
209.062353
 20
143.325874
 30
0.0
 40
0.3
100
AcDbArc
 50
12.119591
 51
192.1195909999999
  0
LINE
  5
2E9
330
1E
100
AcDbEntity
  8
CSLAYER1
  6
CONTINUOUS
 62
     3
100
AcDbLine
 10
208.737741
 20
140.875874
 30
0.0
 11
208.737741
 21
132.375874
 31
0.0
  0
LINE
  5
2EA
330
1E
100
AcDbEntity
  8
CSLAYER1
  6
CONTINUOUS
 62
     3
100
AcDbLine
 10
208.737741
 20
132.375874
 30
0.0
 11
204.037741
 21
132.375874
 31
0.0
  0
LINE
  5
2EB
330
1E
100
AcDbEntity
  8
CSLAYER1
  6
CONTINUOUS
 62
     3
100
AcDbLine
 10
208.737741
 20
132.375874
 30
0.0
 11
209.0377409999999
 21
132.895489
 31
0.0
  0
LINE
  5
2EC
330
1E
100
AcDbEntity
  8
CSLAYER1
  6
CONTINUOUS
 62
     3
100
AcDbLine
 10
198.0377409999999
 20
116.6258739999999
 30
0.0
 11
142.0377409999999
 21
116.6258739999999
 31
0.0
  0
LINE
  5
2ED
330
1E
100
AcDbEntity
  8
CSLAYER1
  6
CONTINUOUS
 62
     3
100
AcDbLine
 10
142.0377409999999
 20
131.625874
 30
0.0
 11
157.267411
 21
131.625874
 31
0.0
  0
ARC
  5
2EE
330
1E
100
AcDbEntity
  8
CSLAYER1
  6
CONTINUOUS
 62
     3
100
AcDbCircle
 10
157.267411
 20
129.625874
 30
0.0
 40
2.0
100
AcDbArc
 50
0.0
 51
90.0
  0
LINE
  5
2EF
330
1E
100
AcDbEntity
  8
CSLAYER1
  6
CONTINUOUS
 62
     3
100
AcDbLine
 10
159.267411
 20
129.625874
 30
0.0
 11
159.267411
 21
117.6258739999999
 31
0.0
  0
LINE
  5
2F0
330
1E
100
AcDbEntity
  8
CSLAYER1
  6
CONTINUOUS
 62
     3
100
AcDbLine
 10
179.8080699999999
 20
116.6258739999999
 30
0.0
 11
180.8080699999999
 21
117.6258739999999
 31
0.0
  0
CIRCLE
  5
2F1
330
1E
100
AcDbEntity
  8
CSLAYER1
  6
CONTINUOUS
 62
     3
100
AcDbCircle
 10
193.037741
 20
146.625874
 30
0.0
 40
2.1
  0
CIRCLE
  5
2F2
330
1E
100
AcDbEntity
  8
CSLAYER1
  6
CONTINUOUS
 62
     3
100
AcDbCircle
 10
147.0377409999999
 20
146.625874
 30
0.0
 40
2.1
  0
LINE
  5
2F3
330
1E
100
AcDbEntity
  8
CSLAYER1
  6
CONTINUOUS
 62
     3
100
AcDbLine
 10
144.1955669999999
 20
72.706064
 30
0.0
 11
115.695567
 21
72.706064
 31
0.0
  0
LINE
  5
2F4
330
1E
100
AcDbEntity
  8
CSLAYER1
  6
CONTINUOUS
 62
     3
100
AcDbLine
 10
115.695567
 20
67.93733
 30
0.0
 11
144.1955669999999
 21
67.93733
 31
0.0
  0
LINE
  5
2F5
330
1E
100
AcDbEntity
  8
CSLAYER1
  6
CONTINUOUS
 62
     3
100
AcDbLine
 10
144.1955669999999
 20
65.43733
 30
0.0
 11
128.1955669999999
 21
65.43733
 31
0.0
  0
LINE
  5
2F6
330
1E
100
AcDbEntity
  8
CSLAYER1
  6
CONTINUOUS
 62
     3
100
AcDbLine
 10
128.1955669999999
 20
66.128035
 30
0.0
 11
128.1955669999999
 21
54.728035
 31
0.0
  0
LINE
  5
2F7
330
1E
100
AcDbEntity
  8
CSLAYER1
  6
CONTINUOUS
 62
     3
100
AcDbLine
 10
128.1955669999999
 20
54.728035
 30
0.0
 11
127.3955669999999
 21
53.92803499999999
 31
0.0
  0
LINE
  5
2F8
330
1E
100
AcDbEntity
  8
CSLAYER1
  6
CONTINUOUS
 62
     3
100
AcDbLine
 10
127.3955669999999
 20
53.92803499999999
 30
0.0
 11
115.695567
 21
53.92803499999999
 31
0.0
  0
LINE
  5
2F9
330
1E
100
AcDbEntity
  8
CSLAYER1
  6
CONTINUOUS
 62
     3
100
AcDbLine
 10
115.695567
 20
52.91873999999999
 30
0.0
 11
144.1955669999999
 21
52.91873999999999
 31
0.0
  0
LINE
  5
2FA
330
1E
100
AcDbEntity
  8
CSLAYER1
  6
CONTINUOUS
 62
     3
100
AcDbLine
 10
144.1955669999999
 20
55.41873999999999
 30
0.0
 11
128.1955669999999
 21
55.41873999999999
 31
0.0
  0
LINE
  5
2FB
330
1E
100
AcDbEntity
  8
CSLAYER1
  6
CONTINUOUS
 62
     3
100
AcDbLine
 10
127.3955669999999
 20
53.92803499999999
 30
0.0
 11
127.3955669999999
 21
66.928035
 31
0.0
  0
LINE
  5
2FC
330
1E
100
AcDbEntity
  8
CSLAYER1
  6
CONTINUOUS
 62
     3
100
AcDbLine
 10
127.3955669999999
 20
66.928035
 30
0.0
 11
128.1955669999999
 21
66.128035
 31
0.0
  0
LINE
  5
2FD
330
1E
100
AcDbEntity
  8
CSLAYER1
  6
CONTINUOUS
 62
     3
100
AcDbLine
 10
127.3955669999999
 20
66.928035
 30
0.0
 11
115.695567
 21
66.928035
 31
0.0
  0
LINE
  5
2FE
330
1E
100
AcDbEntity
  8
CSLAYER1
  6
CONTINUOUS
 62
     3
100
AcDbLine
 10
128.1955669999999
 20
63.67803499999999
 30
0.0
 11
133.4055669999999
 21
63.67803499999999
 31
0.0
  0
LINE
  5
2FF
330
1E
100
AcDbEntity
  8
CSLAYER1
  6
CONTINUOUS
 62
     3
100
AcDbLine
 10
133.4055669999999
 20
63.67803499999999
 30
0.0
 11
133.4055669999999
 21
57.17803499999999
 31
0.0
  0
LINE
  5
300
330
1E
100
AcDbEntity
  8
CSLAYER1
  6
CONTINUOUS
 62
     3
100
AcDbLine
 10
133.4055669999999
 20
57.17803499999999
 30
0.0
 11
128.1955669999999
 21
57.17803499999999
 31
0.0
  0
LINE
  5
301
330
1E
100
AcDbEntity
  8
CSLAYER1
  6
CONTINUOUS
 62
     3
100
AcDbLine
 10
133.4055669999999
 20
57.17803499999999
 30
0.0
 11
133.6955669999999
 21
57.468035
 31
0.0
  0
LINE
  5
302
330
1E
100
AcDbEntity
  8
CSLAYER1
  6
CONTINUOUS
 62
     3
100
AcDbLine
 10
133.6955669999999
 20
57.468035
 30
0.0
 11
135.9455669999999
 21
57.468035
 31
0.0
  0
ARC
  5
303
330
1E
100
AcDbEntity
  8
CSLAYER1
  6
CONTINUOUS
 62
     3
100
AcDbCircle
 10
135.9455669999999
 20
57.218035
 30
0.0
 40
0.25
100
AcDbArc
 50
0.0
 51
90.0
  0
LINE
  5
304
330
1E
100
AcDbEntity
  8
CSLAYER1
  6
CONTINUOUS
 62
     3
100
AcDbLine
 10
136.1955669999999
 20
55.42803499999999
 30
0.0
 11
136.1955669999999
 21
65.42803499999999
 31
0.0
  0
LINE
  5
305
330
1E
100
AcDbEntity
  8
CSLAYER1
  6
CONTINUOUS
 62
     3
100
AcDbLine
 10
136.1955669999999
 20
65.42803499999999
 30
0.0
 11
140.1955669999999
 21
65.42803499999999
 31
0.0
  0
ARC
  5
306
330
1E
100
AcDbEntity
  8
CSLAYER1
  6
CONTINUOUS
 62
     3
100
AcDbCircle
 10
140.1955669999999
 20
64.92803499999999
 30
0.0
 40
0.5
100
AcDbArc
 50
0.0
 51
90.0
  0
LINE
  5
307
330
1E
100
AcDbEntity
  8
CSLAYER1
  6
CONTINUOUS
 62
     3
100
AcDbLine
 10
140.6955669999999
 20
64.92803499999999
 30
0.0
 11
140.6955669999999
 21
55.92803499999999
 31
0.0
  0
ARC
  5
308
330
1E
100
AcDbEntity
  8
CSLAYER1
  6
CONTINUOUS
 62
     3
100
AcDbCircle
 10
140.1955669999999
 20
55.92803499999999
 30
0.0
 40
0.5
100
AcDbArc
 50
270.0
 51
0.0
  0
LINE
  5
309
330
1E
100
AcDbEntity
  8
CSLAYER1
  6
CONTINUOUS
 62
     3
100
AcDbLine
 10
140.1955669999999
 20
55.42803499999999
 30
0.0
 11
136.1955669999999
 21
55.42803499999999
 31
0.0
  0
LINE
  5
30A
330
1E
100
AcDbEntity
  8
CSLAYER1
  6
CONTINUOUS
 62
     3
100
AcDbLine
 10
133.6955669999999
 20
57.468035
 30
0.0
 11
133.6955669999999
 21
63.388035
 31
0.0
  0
LINE
  5
30B
330
1E
100
AcDbEntity
  8
CSLAYER1
  6
CONTINUOUS
 62
     3
100
AcDbLine
 10
133.6955669999999
 20
63.388035
 30
0.0
 11
133.4055669999999
 21
63.67803499999999
 31
0.0
  0
LINE
  5
30C
330
1E
100
AcDbEntity
  8
CSLAYER1
  6
CONTINUOUS
 62
     3
100
AcDbLine
 10
133.6955669999999
 20
63.388035
 30
0.0
 11
135.9455669999999
 21
63.388035
 31
0.0
  0
ARC
  5
30D
330
1E
100
AcDbEntity
  8
CSLAYER1
  6
CONTINUOUS
 62
     3
100
AcDbCircle
 10
135.9455669999999
 20
63.63803499999999
 30
0.0
 40
0.25
100
AcDbArc
 50
270.0
 51
0.0
  0
LINE
  5
30E
330
1E
100
AcDbEntity
  8
CSLAYER1
  6
CONTINUOUS
 62
     3
100
AcDbLine
 10
144.1955669999999
 20
48.150006
 30
0.0
 11
115.695567
 21
48.150006
 31
0.0
  0
LINE
  5
30F
330
1E
100
AcDbEntity
  8
CSLAYER1
  6
CONTINUOUS
 62
     3
100
AcDbLine
 10
287.044385
 20
185.125874
 30
0.0
 11
287.044385
 21
231.625874
 31
0.0
  0
ARC
  5
310
330
1E
100
AcDbEntity
  8
CSLAYER1
  6
CONTINUOUS
 62
     3
100
AcDbCircle
 10
291.044385
 20
222.125874
 30
0.0
 40
4.0
100
AcDbArc
 50
90.0
 51
180.0
  0
CIRCLE
  5
311
330
1E
100
AcDbEntity
  8
CSLAYER1
  6
CONTINUOUS
 62
     3
100
AcDbCircle
 10
297.044385
 20
213.625874
 30
0.0
 40
2.1
  0
LINE
  5
312
330
1E
100
AcDbEntity
  8
CSLAYER1
  6
CONTINUOUS
 62
     3
100
AcDbLine
 10
248.537741
 20
208.1258739999999
 30
0.0
 11
248.537741
 21
199.125874
 31
0.0
  0
ARC
  5
313
330
1E
100
AcDbEntity
  8
CSLAYER1
  6
CONTINUOUS
 62
     3
100
AcDbCircle
 10
248.037741
 20
199.125874
 30
0.0
 40
0.5
100
AcDbArc
 50
270.0
 51
0.0
  0
LINE
  5
314
330
1E
100
AcDbEntity
  8
CSLAYER1
  6
CONTINUOUS
 62
     3
100
AcDbLine
 10
248.037741
 20
198.625874
 30
0.0
 11
244.0377409999999
 21
198.625874
 31
0.0
  0
LINE
  5
315
330
1E
100
AcDbEntity
  8
CSLAYER1
  6
CONTINUOUS
 62
     3
100
AcDbLine
 10
244.0377409999999
 20
198.625874
 30
0.0
 11
244.0377409999999
 21
208.625874
 31
0.0
  0
LINE
  5
316
330
1E
100
AcDbEntity
  8
CSLAYER1
  6
CONTINUOUS
 62
     3
100
AcDbLine
 10
244.0377409999999
 20
208.625874
 30
0.0
 11
248.037741
 21
208.625874
 31
0.0
  0
ARC
  5
317
330
1E
100
AcDbEntity
  8
CSLAYER1
  6
CONTINUOUS
 62
     3
100
AcDbCircle
 10
248.037741
 20
208.1258739999999
 30
0.0
 40
0.5
100
AcDbArc
 50
0.0
 51
90.0
  0
ARC
  5
318
330
1E
100
AcDbEntity
  8
CSLAYER1
  6
CONTINUOUS
 62
     3
100
AcDbCircle
 10
243.787741
 20
206.8358739999999
 30
0.0
 40
0.25
100
AcDbArc
 50
270.0
 51
0.0
  0
LINE
  5
319
330
1E
100
AcDbEntity
  8
CSLAYER1
  6
CONTINUOUS
 62
     3
100
AcDbLine
 10
243.787741
 20
206.5858739999999
 30
0.0
 11
241.537741
 21
206.5858739999999
 31
0.0
  0
LINE
  5
31A
330
1E
100
AcDbEntity
  8
CSLAYER1
  6
CONTINUOUS
 62
     3
100
AcDbLine
 10
241.537741
 20
206.5858739999999
 30
0.0
 11
241.247741
 21
206.875874
 31
0.0
  0
LINE
  5
31B
330
1E
100
AcDbEntity
  8
CSLAYER1
  6
CONTINUOUS
 62
     3
100
AcDbLine
 10
241.247741
 20
206.875874
 30
0.0
 11
241.247741
 21
200.375874
 31
0.0
  0
LINE
  5
31C
330
1E
100
AcDbEntity
  8
CSLAYER1
  6
CONTINUOUS
 62
     3
100
AcDbLine
 10
241.247741
 20
200.375874
 30
0.0
 11
236.037741
 21
200.375874
 31
0.0
  0
LINE
  5
31D
330
1E
100
AcDbEntity
  8
CSLAYER1
  6
CONTINUOUS
 62
     3
100
AcDbLine
 10
236.037741
 20
197.9258739999999
 30
0.0
 11
236.037741
 21
209.325874
 31
0.0
  0
LINE
  5
31E
330
1E
100
AcDbEntity
  8
CSLAYER1
  6
CONTINUOUS
 62
     3
100
AcDbLine
 10
236.037741
 20
209.325874
 30
0.0
 11
235.237741
 21
210.125874
 31
0.0
  0
LINE
  5
31F
330
1E
100
AcDbEntity
  8
CSLAYER1
  6
CONTINUOUS
 62
     3
100
AcDbLine
 10
235.237741
 20
210.125874
 30
0.0
 11
235.237741
 21
197.125874
 31
0.0
  0
LINE
  5
320
330
1E
100
AcDbEntity
  8
CSLAYER1
  6
CONTINUOUS
 62
     3
100
AcDbLine
 10
235.237741
 20
197.125874
 30
0.0
 11
236.037741
 21
197.9258739999999
 31
0.0
  0
LINE
  5
321
330
1E
100
AcDbEntity
  8
CSLAYER1
  6
CONTINUOUS
 62
     3
100
AcDbLine
 10
235.237741
 20
197.125874
 30
0.0
 11
223.537741
 21
197.125874
 31
0.0
  0
ARC
  5
322
330
1E
100
AcDbEntity
  8
CSLAYER1
  6
CONTINUOUS
 62
     3
100
AcDbCircle
 10
219.2268879999999
 20
199.9258739999999
 30
0.0
 40
0.3
100
AcDbArc
 50
180.0
 51
0.0
  0
ARC
  5
323
330
1E
100
AcDbEntity
  8
CSLAYER1
  6
CONTINUOUS
 62
     3
100
AcDbCircle
 10
219.2268879999999
 20
207.3258739999999
 30
0.0
 40
0.3
100
AcDbArc
 50
0.0
 51
162.9712519999999
  0
LINE
  5
324
330
1E
100
AcDbEntity
  8
CSLAYER1
  6
CONTINUOUS
 62
     3
100
AcDbLine
 10
215.080049
 20
207.3047569999999
 30
0.0
 11
214.9879509999999
 21
206.875874
 31
0.0
  0
ARC
  5
325
330
1E
100
AcDbEntity
  8
CSLAYER1
  6
CONTINUOUS
 62
     3
100
AcDbCircle
 10
212.2223529999999
 20
207.3258739999999
 30
0.0
 40
0.3
100
AcDbArc
 50
12.119591
 51
192.1195909999999
  0
LINE
  5
326
330
1E
100
AcDbEntity
  8
CSLAYER1
  6
CONTINUOUS
 62
     3
100
AcDbLine
 10
223.537741
 20
210.125874
 30
0.0
 11
235.237741
 21
210.125874
 31
0.0
  0
LINE
  5
327
330
1E
100
AcDbEntity
  8
CSLAYER1
  6
CONTINUOUS
 62
     3
100
AcDbLine
 10
236.037741
 20
206.875874
 30
0.0
 11
241.247741
 21
206.875874
 31
0.0
  0
LINE
  5
328
330
1E
100
AcDbEntity
  8
CSLAYER1
  6
CONTINUOUS
 62
     3
100
AcDbLine
 10
241.537741
 20
206.5858739999999
 30
0.0
 11
241.537741
 21
200.665874
 31
0.0
  0
LINE
  5
329
330
1E
100
AcDbEntity
  8
CSLAYER1
  6
CONTINUOUS
 62
     3
100
AcDbLine
 10
241.537741
 20
200.665874
 30
0.0
 11
241.247741
 21
200.375874
 31
0.0
  0
LINE
  5
32A
330
1E
100
AcDbEntity
  8
CSLAYER1
  6
CONTINUOUS
 62
     3
100
AcDbLine
 10
241.537741
 20
200.665874
 30
0.0
 11
243.787741
 21
200.665874
 31
0.0
  0
ARC
  5
32B
330
1E
100
AcDbEntity
  8
CSLAYER1
  6
CONTINUOUS
 62
     3
100
AcDbCircle
 10
243.787741
 20
200.415874
 30
0.0
 40
0.25
100
AcDbArc
 50
0.0
 51
90.0
  0
LINE
  5
32C
330
1E
100
AcDbEntity
  8
CSLAYER1
  6
CONTINUOUS
 62
     3
100
AcDbLine
 10
291.044385
 20
226.125874
 30
0.0
 11
339.044385
 21
226.125874
 31
0.0
  0
LINE
  5
32D
330
1E
100
AcDbEntity
  8
CSLAYER1
  6
CONTINUOUS
 62
     3
100
AcDbLine
 10
198.0377409999999
 20
231.625874
 30
0.0
 11
178.5377409999999
 21
231.625874
 31
0.0
  0
LINE
  5
32E
330
1E
100
AcDbEntity
  8
CSLAYER1
  6
CONTINUOUS
 62
     3
100
AcDbLine
 10
178.5377409999999
 20
249.125874
 30
0.0
 11
161.5377409999999
 21
249.125874
 31
0.0
  0
LINE
  5
32F
330
1E
100
AcDbEntity
  8
CSLAYER1
  6
CONTINUOUS
 62
     3
100
AcDbLine
 10
161.5377409999999
 20
254.1258739999999
 30
0.0
 11
178.5377409999999
 21
254.1258739999999
 31
0.0
  0
LINE
  5
330
330
1E
100
AcDbEntity
  8
CSLAYER1
  6
CONTINUOUS
 62
     3
100
AcDbLine
 10
161.5377409999999
 20
231.625874
 30
0.0
 11
142.0377409999999
 21
231.625874
 31
0.0
  0
LINE
  5
331
330
1E
100
AcDbEntity
  8
CSLAYER1
  6
CONTINUOUS
 62
     3
100
AcDbLine
 10
69.544798
 20
97.628035
 30
0.0
 11
63.846336
 21
97.628035
 31
0.0
  0
ARC
  5
332
330
1E
100
AcDbEntity
  8
CSLAYER1
  6
CONTINUOUS
 62
     3
100
AcDbCircle
 10
63.895952
 20
94.428035
 30
0.0
 40
3.200384999999999
100
AcDbArc
 50
89.111711
 51
270.8882889999999
  0
LINE
  5
333
330
1E
100
AcDbEntity
  8
CSLAYER1
  6
CONTINUOUS
 62
     3
100
AcDbLine
 10
63.846336
 20
91.22803499999999
 30
0.0
 11
69.544798
 21
91.22803499999999
 31
0.0
  0
ARC
  5
334
330
1E
100
AcDbEntity
  8
CSLAYER1
  6
CONTINUOUS
 62
     3
100
AcDbCircle
 10
69.49518199999999
 20
94.428035
 30
0.0
 40
3.200384999999999
100
AcDbArc
 50
269.1117109999999
 51
90.88828900000001
  0
POINT
  5
335
330
1E
100
AcDbEntity
  8
CSLAYER1
 62
     3
100
AcDbPoint
 10
333.044385
 20
213.625874
 30
0.0
  0
POINT
  5
336
330
1E
100
AcDbEntity
  8
CSLAYER1
 62
     3
100
AcDbPoint
 10
315.044385
 20
171.625874
 30
0.0
  0
POINT
  5
337
330
1E
100
AcDbEntity
  8
CSLAYER1
 62
     3
100
AcDbPoint
 10
334.044385
 20
171.625874
 30
0.0
  0
POINT
  5
338
330
1E
100
AcDbEntity
  8
CSLAYER1
 62
     3
100
AcDbPoint
 10
66.69556700000001
 20
94.428035
 30
0.0
  0
POINT
  5
339
330
1E
100
AcDbEntity
  8
CSLAYER1
 62
     3
100
AcDbPoint
 10
297.044385
 20
213.625874
 30
0.0
  0
POINT
  5
33A
330
1E
100
AcDbEntity
  8
CSLAYER1
 62
     3
100
AcDbPoint
 10
296.044385
 20
171.625874
 30
0.0
  0
POINT
  5
33B
330
1E
100
AcDbEntity
  8
CSLAYER1
 62
     3
100
AcDbPoint
 10
66.69556700000001
 20
26.42803499999999
 30
0.0
  0
POINT
  5
33C
330
1E
100
AcDbEntity
  8
CSLAYER1
 62
     3
100
AcDbPoint
 10
305.044385
 20
181.625874
 30
0.0
  0
POINT
  5
33D
330
1E
100
AcDbEntity
  8
CSLAYER1
 62
     3
100
AcDbPoint
 10
325.044385
 20
181.625874
 30
0.0
  0
POINT
  5
33E
330
1E
100
AcDbEntity
  8
CSLAYER1
 62
     3
100
AcDbPoint
 10
325.044385
 20
161.625874
 30
0.0
  0
POINT
  5
33F
330
1E
100
AcDbEntity
  8
CSLAYER1
 62
     3
100
AcDbPoint
 10
305.044385
 20
161.625874
 30
0.0
  0
TEXT
  5
340
330
1E
100
AcDbEntity
  8
CSLAYER1
 62
     3
100
AcDbText
 10
356.1
 20
24.9
 30
0.0
 40
3.2
  1
GT-NB30-10HIKU
 41
1.024390243902437
  7
FX_FONT
 72
     5
 11
400.8999999999999
 21
24.9
 31
0.0
100
AcDbText
  0
POLYLINE
  5
341
330
1E
100
AcDbEntity
  8
CSLAYER1
  6
CONTINUOUS
 62
     3
100
AcDb2dPolyline
 66
     1
 10
0.0
 20
0.0
 30
0.0
  0
VERTEX
  5
342
330
341
100
AcDbEntity
  8
CSLAYER1
  6
CONTINUOUS
 62
     3
100
AcDbVertex
100
AcDb2dVertex
 10
181.534674
 20
106.6258739999999
 30
0.0
  0
VERTEX
  5
343
330
341
100
AcDbEntity
  8
CSLAYER1
  6
CONTINUOUS
 62
     3
100
AcDbVertex
100
AcDb2dVertex
 10
181.518502
 20
106.9836479999999
 30
0.0
  0
VERTEX
  5
344
330
341
100
AcDbEntity
  8
CSLAYER1
  6
CONTINUOUS
 62
     3
100
AcDbVertex
100
AcDb2dVertex
 10
181.470107
 20
107.3387
 30
0.0
  0
VERTEX
  5
345
330
341
100
AcDbEntity
  8
CSLAYER1
  6
CONTINUOUS
 62
     3
100
AcDbVertex
100
AcDb2dVertex
 10
181.3898589999999
 20
107.688326
 30
0.0
  0
VERTEX
  5
346
330
341
100
AcDbEntity
  8
CSLAYER1
  6
CONTINUOUS
 62
     3
100
AcDbVertex
100
AcDb2dVertex
 10
181.278368
 20
108.0298659999999
 30
0.0
  0
VERTEX
  5
347
330
341
100
AcDbEntity
  8
CSLAYER1
  6
CONTINUOUS
 62
     3
100
AcDbVertex
100
AcDb2dVertex
 10
181.136482
 20
108.3607219999999
 30
0.0
  0
VERTEX
  5
348
330
341
100
AcDbEntity
  8
CSLAYER1
  6
CONTINUOUS
 62
     3
100
AcDbVertex
100
AcDb2dVertex
 10
180.965282
 20
108.6783739999999
 30
0.0
  0
VERTEX
  5
349
330
341
100
AcDbEntity
  8
CSLAYER1
  6
CONTINUOUS
 62
     3
100
AcDbVertex
100
AcDb2dVertex
 10
180.7660699999999
 20
108.980405
 30
0.0
  0
VERTEX
  5
34A
330
341
100
AcDbEntity
  8
CSLAYER1
  6
CONTINUOUS
 62
     3
100
AcDbVertex
100
AcDb2dVertex
 10
180.5403629999999
 20
109.2645169999999
 30
0.0
  0
VERTEX
  5
34B
330
341
100
AcDbEntity
  8
CSLAYER1
  6
CONTINUOUS
 62
     3
100
AcDbVertex
100
AcDb2dVertex
 10
180.289878
 20
109.528547
 30
0.0
  0
VERTEX
  5
34C
330
341
100
AcDbEntity
  8
CSLAYER1
  6
CONTINUOUS
 62
     3
100
AcDbVertex
100
AcDb2dVertex
 10
180.0165209999999
 20
109.770486
 30
0.0
  0
VERTEX
  5
34D
330
341
100
AcDbEntity
  8
CSLAYER1
  6
CONTINUOUS
 62
     3
100
AcDbVertex
100
AcDb2dVertex
 10
179.7223739999999
 20
109.9884929999999
 30
0.0
  0
VERTEX
  5
34E
330
341
100
AcDbEntity
  8
CSLAYER1
  6
CONTINUOUS
 62
     3
100
AcDbVertex
100
AcDb2dVertex
 10
179.409674
 20
110.1809079999999
 30
0.0
  0
VERTEX
  5
34F
330
341
100
AcDbEntity
  8
CSLAYER1
  6
CONTINUOUS
 62
     3
100
AcDbVertex
100
AcDb2dVertex
 10
179.080802
 20
110.346267
 30
0.0
  0
VERTEX
  5
350
330
341
100
AcDbEntity
  8
CSLAYER1
  6
CONTINUOUS
 62
     3
100
AcDbVertex
100
AcDb2dVertex
 10
178.7382599999999
 20
110.483312
 30
0.0
  0
VERTEX
  5
351
330
341
100
AcDbEntity
  8
CSLAYER1
  6
CONTINUOUS
 62
     3
100
AcDbVertex
100
AcDb2dVertex
 10
178.3846549999999
 20
110.590999
 30
0.0
  0
VERTEX
  5
352
330
341
100
AcDbEntity
  8
CSLAYER1
  6
CONTINUOUS
 62
     3
100
AcDbVertex
100
AcDb2dVertex
 10
178.022679
 20
110.66851
 30
0.0
  0
VERTEX
  5
353
330
341
100
AcDbEntity
  8
CSLAYER1
  6
CONTINUOUS
 62
     3
100
AcDbVertex
100
AcDb2dVertex
 10
177.655086
 20
110.715253
 30
0.0
  0
VERTEX
  5
354
330
341
100
AcDbEntity
  8
CSLAYER1
  6
CONTINUOUS
 62
     3
100
AcDbVertex
100
AcDb2dVertex
 10
177.284674
 20
110.730874
 30
0.0
  0
VERTEX
  5
355
330
341
100
AcDbEntity
  8
CSLAYER1
  6
CONTINUOUS
 62
     3
100
AcDbVertex
100
AcDb2dVertex
 10
176.914262
 20
110.715253
 30
0.0
  0
VERTEX
  5
356
330
341
100
AcDbEntity
  8
CSLAYER1
  6
CONTINUOUS
 62
     3
100
AcDbVertex
100
AcDb2dVertex
 10
176.546669
 20
110.66851
 30
0.0
  0
VERTEX
  5
357
330
341
100
AcDbEntity
  8
CSLAYER1
  6
CONTINUOUS
 62
     3
100
AcDbVertex
100
AcDb2dVertex
 10
176.1846929999999
 20
110.590999
 30
0.0
  0
VERTEX
  5
358
330
341
100
AcDbEntity
  8
CSLAYER1
  6
CONTINUOUS
 62
     3
100
AcDbVertex
100
AcDb2dVertex
 10
175.8310889999999
 20
110.483312
 30
0.0
  0
VERTEX
  5
359
330
341
100
AcDbEntity
  8
CSLAYER1
  6
CONTINUOUS
 62
     3
100
AcDbVertex
100
AcDb2dVertex
 10
175.488547
 20
110.346267
 30
0.0
  0
VERTEX
  5
35A
330
341
100
AcDbEntity
  8
CSLAYER1
  6
CONTINUOUS
 62
     3
100
AcDbVertex
100
AcDb2dVertex
 10
175.159674
 20
110.1809079999999
 30
0.0
  0
VERTEX
  5
35B
330
341
100
AcDbEntity
  8
CSLAYER1
  6
CONTINUOUS
 62
     3
100
AcDbVertex
100
AcDb2dVertex
 10
174.8469739999999
 20
109.9884929999999
 30
0.0
  0
VERTEX
  5
35C
330
341
100
AcDbEntity
  8
CSLAYER1
  6
CONTINUOUS
 62
     3
100
AcDbVertex
100
AcDb2dVertex
 10
174.552827
 20
109.770486
 30
0.0
  0
VERTEX
  5
35D
330
341
100
AcDbEntity
  8
CSLAYER1
  6
CONTINUOUS
 62
     3
100
AcDbVertex
100
AcDb2dVertex
 10
174.27947
 20
109.528547
 30
0.0
  0
VERTEX
  5
35E
330
341
100
AcDbEntity
  8
CSLAYER1
  6
CONTINUOUS
 62
     3
100
AcDbVertex
100
AcDb2dVertex
 10
174.028985
 20
109.2645169999999
 30
0.0
  0
VERTEX
  5
35F
330
341
100
AcDbEntity
  8
CSLAYER1
  6
CONTINUOUS
 62
     3
100
AcDbVertex
100
AcDb2dVertex
 10
173.803278
 20
108.980405
 30
0.0
  0
VERTEX
  5
360
330
341
100
AcDbEntity
  8
CSLAYER1
  6
CONTINUOUS
 62
     3
100
AcDbVertex
100
AcDb2dVertex
 10
173.604066
 20
108.6783739999999
 30
0.0
  0
VERTEX
  5
361
330
341
100
AcDbEntity
  8
CSLAYER1
  6
CONTINUOUS
 62
     3
100
AcDbVertex
100
AcDb2dVertex
 10
173.4328659999999
 20
108.3607219999999
 30
0.0
  0
VERTEX
  5
362
330
341
100
AcDbEntity
  8
CSLAYER1
  6
CONTINUOUS
 62
     3
100
AcDbVertex
100
AcDb2dVertex
 10
173.2909799999999
 20
108.0298659999999
 30
0.0
  0
VERTEX
  5
363
330
341
100
AcDbEntity
  8
CSLAYER1
  6
CONTINUOUS
 62
     3
100
AcDbVertex
100
AcDb2dVertex
 10
173.1794889999999
 20
107.688326
 30
0.0
  0
VERTEX
  5
364
330
341
100
AcDbEntity
  8
CSLAYER1
  6
CONTINUOUS
 62
     3
100
AcDbVertex
100
AcDb2dVertex
 10
173.0992409999999
 20
107.3387
 30
0.0
  0
VERTEX
  5
365
330
341
100
AcDbEntity
  8
CSLAYER1
  6
CONTINUOUS
 62
     3
100
AcDbVertex
100
AcDb2dVertex
 10
173.050847
 20
106.9836479999999
 30
0.0
  0
VERTEX
  5
366
330
341
100
AcDbEntity
  8
CSLAYER1
  6
CONTINUOUS
 62
     3
100
AcDbVertex
100
AcDb2dVertex
 10
173.0346739999999
 20
106.6258739999999
 30
0.0
  0
VERTEX
  5
367
330
341
100
AcDbEntity
  8
CSLAYER1
  6
CONTINUOUS
 62
     3
100
AcDbVertex
100
AcDb2dVertex
 10
173.050847
 20
106.268099
 30
0.0
  0
VERTEX
  5
368
330
341
100
AcDbEntity
  8
CSLAYER1
  6
CONTINUOUS
 62
     3
100
AcDbVertex
100
AcDb2dVertex
 10
173.0992409999999
 20
105.913048
 30
0.0
  0
VERTEX
  5
369
330
341
100
AcDbEntity
  8
CSLAYER1
  6
CONTINUOUS
 62
     3
100
AcDbVertex
100
AcDb2dVertex
 10
173.1794889999999
 20
105.5634219999999
 30
0.0
  0
VERTEX
  5
36A
330
341
100
AcDbEntity
  8
CSLAYER1
  6
CONTINUOUS
 62
     3
100
AcDbVertex
100
AcDb2dVertex
 10
173.2909799999999
 20
105.221881
 30
0.0
  0
VERTEX
  5
36B
330
341
100
AcDbEntity
  8
CSLAYER1
  6
CONTINUOUS
 62
     3
100
AcDbVertex
100
AcDb2dVertex
 10
173.4328659999999
 20
104.8910259999999
 30
0.0
  0
VERTEX
  5
36C
330
341
100
AcDbEntity
  8
CSLAYER1
  6
CONTINUOUS
 62
     3
100
AcDbVertex
100
AcDb2dVertex
 10
173.604066
 20
104.5733739999999
 30
0.0
  0
VERTEX
  5
36D
330
341
100
AcDbEntity
  8
CSLAYER1
  6
CONTINUOUS
 62
     3
100
AcDbVertex
100
AcDb2dVertex
 10
173.803278
 20
104.271342
 30
0.0
  0
VERTEX
  5
36E
330
341
100
AcDbEntity
  8
CSLAYER1
  6
CONTINUOUS
 62
     3
100
AcDbVertex
100
AcDb2dVertex
 10
174.028985
 20
103.987231
 30
0.0
  0
VERTEX
  5
36F
330
341
100
AcDbEntity
  8
CSLAYER1
  6
CONTINUOUS
 62
     3
100
AcDbVertex
100
AcDb2dVertex
 10
174.27947
 20
103.7232
 30
0.0
  0
VERTEX
  5
370
330
341
100
AcDbEntity
  8
CSLAYER1
  6
CONTINUOUS
 62
     3
100
AcDbVertex
100
AcDb2dVertex
 10
174.552827
 20
103.481261
 30
0.0
  0
VERTEX
  5
371
330
341
100
AcDbEntity
  8
CSLAYER1
  6
CONTINUOUS
 62
     3
100
AcDbVertex
100
AcDb2dVertex
 10
174.8469739999999
 20
103.2632549999999
 30
0.0
  0
VERTEX
  5
372
330
341
100
AcDbEntity
  8
CSLAYER1
  6
CONTINUOUS
 62
     3
100
AcDbVertex
100
AcDb2dVertex
 10
175.159674
 20
103.070839
 30
0.0
  0
VERTEX
  5
373
330
341
100
AcDbEntity
  8
CSLAYER1
  6
CONTINUOUS
 62
     3
100
AcDbVertex
100
AcDb2dVertex
 10
175.488547
 20
102.90548
 30
0.0
  0
VERTEX
  5
374
330
341
100
AcDbEntity
  8
CSLAYER1
  6
CONTINUOUS
 62
     3
100
AcDbVertex
100
AcDb2dVertex
 10
175.8310889999999
 20
102.7684359999999
 30
0.0
  0
VERTEX
  5
375
330
341
100
AcDbEntity
  8
CSLAYER1
  6
CONTINUOUS
 62
     3
100
AcDbVertex
100
AcDb2dVertex
 10
176.1846929999999
 20
102.660748
 30
0.0
  0
VERTEX
  5
376
330
341
100
AcDbEntity
  8
CSLAYER1
  6
CONTINUOUS
 62
     3
100
AcDbVertex
100
AcDb2dVertex
 10
176.546669
 20
102.5832379999999
 30
0.0
  0
VERTEX
  5
377
330
341
100
AcDbEntity
  8
CSLAYER1
  6
CONTINUOUS
 62
     3
100
AcDbVertex
100
AcDb2dVertex
 10
176.914262
 20
102.5364949999999
 30
0.0
  0
VERTEX
  5
378
330
341
100
AcDbEntity
  8
CSLAYER1
  6
CONTINUOUS
 62
     3
100
AcDbVertex
100
AcDb2dVertex
 10
177.284674
 20
102.5208739999999
 30
0.0
  0
VERTEX
  5
379
330
341
100
AcDbEntity
  8
CSLAYER1
  6
CONTINUOUS
 62
     3
100
AcDbVertex
100
AcDb2dVertex
 10
177.655086
 20
102.5364949999999
 30
0.0
  0
VERTEX
  5
37A
330
341
100
AcDbEntity
  8
CSLAYER1
  6
CONTINUOUS
 62
     3
100
AcDbVertex
100
AcDb2dVertex
 10
178.022679
 20
102.5832379999999
 30
0.0
  0
VERTEX
  5
37B
330
341
100
AcDbEntity
  8
CSLAYER1
  6
CONTINUOUS
 62
     3
100
AcDbVertex
100
AcDb2dVertex
 10
178.3846549999999
 20
102.660748
 30
0.0
  0
VERTEX
  5
37C
330
341
100
AcDbEntity
  8
CSLAYER1
  6
CONTINUOUS
 62
     3
100
AcDbVertex
100
AcDb2dVertex
 10
178.7382599999999
 20
102.7684359999999
 30
0.0
  0
VERTEX
  5
37D
330
341
100
AcDbEntity
  8
CSLAYER1
  6
CONTINUOUS
 62
     3
100
AcDbVertex
100
AcDb2dVertex
 10
179.080802
 20
102.90548
 30
0.0
  0
VERTEX
  5
37E
330
341
100
AcDbEntity
  8
CSLAYER1
  6
CONTINUOUS
 62
     3
100
AcDbVertex
100
AcDb2dVertex
 10
179.409674
 20
103.070839
 30
0.0
  0
VERTEX
  5
37F
330
341
100
AcDbEntity
  8
CSLAYER1
  6
CONTINUOUS
 62
     3
100
AcDbVertex
100
AcDb2dVertex
 10
179.7223739999999
 20
103.2632549999999
 30
0.0
  0
VERTEX
  5
380
330
341
100
AcDbEntity
  8
CSLAYER1
  6
CONTINUOUS
 62
     3
100
AcDbVertex
100
AcDb2dVertex
 10
180.0165209999999
 20
103.481261
 30
0.0
  0
VERTEX
  5
381
330
341
100
AcDbEntity
  8
CSLAYER1
  6
CONTINUOUS
 62
     3
100
AcDbVertex
100
AcDb2dVertex
 10
180.289878
 20
103.7232
 30
0.0
  0
VERTEX
  5
382
330
341
100
AcDbEntity
  8
CSLAYER1
  6
CONTINUOUS
 62
     3
100
AcDbVertex
100
AcDb2dVertex
 10
180.5403629999999
 20
103.987231
 30
0.0
  0
VERTEX
  5
383
330
341
100
AcDbEntity
  8
CSLAYER1
  6
CONTINUOUS
 62
     3
100
AcDbVertex
100
AcDb2dVertex
 10
180.7660699999999
 20
104.271342
 30
0.0
  0
VERTEX
  5
384
330
341
100
AcDbEntity
  8
CSLAYER1
  6
CONTINUOUS
 62
     3
100
AcDbVertex
100
AcDb2dVertex
 10
180.965282
 20
104.5733739999999
 30
0.0
  0
VERTEX
  5
385
330
341
100
AcDbEntity
  8
CSLAYER1
  6
CONTINUOUS
 62
     3
100
AcDbVertex
100
AcDb2dVertex
 10
181.136482
 20
104.8910259999999
 30
0.0
  0
VERTEX
  5
386
330
341
100
AcDbEntity
  8
CSLAYER1
  6
CONTINUOUS
 62
     3
100
AcDbVertex
100
AcDb2dVertex
 10
181.278368
 20
105.221881
 30
0.0
  0
VERTEX
  5
387
330
341
100
AcDbEntity
  8
CSLAYER1
  6
CONTINUOUS
 62
     3
100
AcDbVertex
100
AcDb2dVertex
 10
181.3898589999999
 20
105.5634219999999
 30
0.0
  0
VERTEX
  5
388
330
341
100
AcDbEntity
  8
CSLAYER1
  6
CONTINUOUS
 62
     3
100
AcDbVertex
100
AcDb2dVertex
 10
181.470107
 20
105.913048
 30
0.0
  0
VERTEX
  5
389
330
341
100
AcDbEntity
  8
CSLAYER1
  6
CONTINUOUS
 62
     3
100
AcDbVertex
100
AcDb2dVertex
 10
181.518502
 20
106.268099
 30
0.0
  0
VERTEX
  5
38A
330
341
100
AcDbEntity
  8
CSLAYER1
  6
CONTINUOUS
 62
     3
100
AcDbVertex
100
AcDb2dVertex
 10
181.534674
 20
106.6258739999999
 30
0.0
  0
SEQEND
  5
38B
330
341
100
AcDbEntity
  8
CSLAYER1
 62
     3
  0
LINE
  5
38C
330
1E
100
AcDbEntity
  8
CSLAYER1
  6
CENTER
 62
     4
100
AcDbLine
 10
56.940449
 20
26.42803499999999
 30
0.0
 11
75.934363
 21
26.42803499999999
 31
0.0
  0
LINE
  5
38D
330
1E
100
AcDbEntity
  8
CSLAYER1
  6
CENTER
 62
     4
100
AcDbLine
 10
69.94556700000001
 20
21.66258
 30
0.0
 11
69.94556700000001
 21
31.96803499999999
 31
0.0
  0
LINE
  5
38E
330
1E
100
AcDbEntity
  8
CSLAYER1
  6
CENTER
 62
     4
100
AcDbLine
 10
63.445567
 20
31.230783
 30
0.0
 11
63.445567
 21
21.851671
 31
0.0
  0
LINE
  5
38F
330
1E
100
AcDbEntity
  8
CSLAYER1
  6
CENTER
 62
     4
100
AcDbLine
 10
66.69556700000001
 20
14.10232099999999
 30
0.0
 11
66.69556700000001
 21
107.7170689999999
 31
0.0
  0
LINE
  5
390
330
1E
100
AcDbEntity
  8
CSLAYER1
  6
CENTER
 62
     4
100
AcDbLine
 10
69.94556700000001
 20
99.19348900000001
 30
0.0
 11
69.94556700000001
 21
88.88803499999999
 31
0.0
  0
LINE
  5
391
330
1E
100
AcDbEntity
  8
CSLAYER1
  6
CENTER
 62
     4
100
AcDbLine
 10
63.445567
 20
89.625287
 30
0.0
 11
63.445567
 21
99.004399
 31
0.0
  0
LINE
  5
392
330
1E
100
AcDbEntity
  8
CSLAYER1
  6
CENTER
 62
     4
100
AcDbLine
 10
56.118267
 20
94.428035
 30
0.0
 11
77.606634
 21
94.428035
 31
0.0
  0
LINE
  5
393
330
1E
100
AcDbEntity
  8
CSLAYER1
  6
DASHED
 62
     4
100
AcDbLine
 10
111.695567
 20
88.428035
 30
0.0
 11
111.695567
 21
32.42803499999999
 31
0.0
  0
LINE
  5
394
330
1E
100
AcDbEntity
  8
CSLAYER1
  6
CONTINUOUS
 62
     4
100
AcDbLine
 10
115.695567
 20
39.77803499999999
 30
0.0
 11
125.045567
 21
39.77803499999999
 31
0.0
  0
LINE
  5
395
330
1E
100
AcDbEntity
  8
CSLAYER1
  6
CENTER
 62
     4
100
AcDbLine
 10
127.6641649999999
 20
41.42803499999999
 30
0.0
 11
109.536449
 21
41.42803499999999
 31
0.0
  0
LINE
  5
396
330
1E
100
AcDbEntity
  8
CSLAYER1
  6
CONTINUOUS
 62
     4
100
AcDbLine
 10
115.695567
 20
43.078035
 30
0.0
 11
125.045567
 21
43.078035
 31
0.0
  0
LINE
  5
397
330
1E
100
AcDbEntity
  8
CSLAYER1
  6
CONTINUOUS
 62
     4
100
AcDbLine
 10
121.799131
 20
18.42035
 30
0.0
 11
139.4974169999999
 21
18.42035
 31
0.0
  0
LINE
  5
398
330
1E
100
AcDbEntity
  8
CSLAYER1
  6
CONTINUOUS
 62
     4
100
AcDbLine
 10
175.5282959999999
 20
58.344143
 30
0.0
 11
175.5282959999999
 21
70.85166
 31
0.0
  0
LINE
  5
399
330
1E
100
AcDbEntity
  8
CSLAYER1
  6
CONTINUOUS
 62
     4
100
AcDbLine
 10
175.5282959999999
 20
70.85166
 30
0.0
 11
174.7518389999999
 21
67.95388299999999
 31
0.0
  0
LINE
  5
39A
330
1E
100
AcDbEntity
  8
CSLAYER1
  6
CONTINUOUS
 62
     4
100
AcDbLine
 10
175.5282959999999
 20
70.85166
 30
0.0
 11
176.304754
 21
67.95388299999999
 31
0.0
  0
LINE
  5
39B
330
1E
100
AcDbEntity
  8
CSLAYER1
  6
CENTER
 62
     4
100
AcDbLine
 10
148.991959
 20
60.42803499999999
 30
0.0
 11
28.116983
 21
60.42803499999999
 31
0.0
  0
LINE
  5
39C
330
1E
100
AcDbEntity
  8
CSLAYER1
  6
CENTER
 62
     4
100
AcDbLine
 10
139.57321
 20
146.625874
 30
0.0
 11
152.2167129999999
 21
146.625874
 31
0.0
  0
CIRCLE
  5
39D
330
1E
100
AcDbEntity
  8
CSLAYER1
  6
CONTINUOUS
 62
     4
100
AcDbCircle
 10
147.0377409999999
 20
146.625874
 30
0.0
 40
2.5
  0
LINE
  5
39E
330
1E
100
AcDbEntity
  8
CSLAYER1
  6
CENTER
 62
     4
100
AcDbLine
 10
147.0377409999999
 20
140.0345259999999
 30
0.0
 11
147.0377409999999
 21
211.699712
 31
0.0
  0
CIRCLE
  5
39F
330
1E
100
AcDbEntity
  8
CSLAYER1
  6
CONTINUOUS
 62
     4
100
AcDbCircle
 10
147.0377409999999
 20
206.625874
 30
0.0
 40
2.5
  0
LINE
  5
3A0
330
1E
100
AcDbEntity
  8
CSLAYER1
  6
CENTER
 62
     4
100
AcDbLine
 10
151.991351
 20
206.625874
 30
0.0
 11
140.0136569999999
 21
206.625874
 31
0.0
  0
LINE
  5
3A1
330
1E
100
AcDbEntity
  8
CSLAYER1
  6
CENTER
 62
     4
100
AcDbLine
 10
188.084131
 20
206.625874
 30
0.0
 11
199.694176
 21
206.625874
 31
0.0
  0
LINE
  5
3A2
330
1E
100
AcDbEntity
  8
CSLAYER1
  6
CENTER
 62
     4
100
AcDbLine
 10
202.4085209999999
 20
207.3047569999999
 30
0.0
 11
220.432351
 21
207.3047569999999
 31
0.0
  0
LINE
  5
3A3
330
1E
100
AcDbEntity
  8
CSLAYER1
  6
CENTER
 62
     4
100
AcDbLine
 10
220.432351
 20
199.946991
 30
0.0
 11
202.4085209999999
 21
199.946991
 31
0.0
  0
LINE
  5
3A4
330
1E
100
AcDbEntity
  8
CSLAYER1
  6
CENTER
 62
     4
100
AcDbLine
 10
201.715075
 20
196.625874
 30
0.0
 11
211.155456
 21
196.625874
 31
0.0
  0
LINE
  5
3A5
330
1E
100
AcDbEntity
  8
CSLAYER1
  6
CENTER
 62
     4
100
AcDbLine
 10
231.5377409999999
 20
175.648315
 30
0.0
 11
231.5377409999999
 21
167.6483889999999
 31
0.0
  0
CIRCLE
  5
3A6
330
1E
100
AcDbEntity
  8
CSLAYER1
  6
CONTINUOUS
 62
     4
100
AcDbCircle
 10
231.5377409999999
 20
171.625874
 30
0.0
 40
2.5
  0
CIRCLE
  5
3A7
330
1E
100
AcDbEntity
  8
CSLAYER1
  6
CONTINUOUS
 62
     4
100
AcDbCircle
 10
246.537741
 20
171.625874
 30
0.0
 40
2.1
  0
LINE
  5
3A8
330
1E
100
AcDbEntity
  8
CSLAYER1
  6
CENTER
 62
     4
100
AcDbLine
 10
246.537741
 20
167.741955
 30
0.0
 11
246.537741
 21
175.695098
 31
0.0
  0
LINE
  5
3A9
330
1E
100
AcDbEntity
  8
CSLAYER1
  6
CENTER
 62
     4
100
AcDbLine
 10
256.23121
 20
171.625874
 30
0.0
 11
195.8737539999999
 21
171.625874
 31
0.0
  0
LINE
  5
3AA
330
1E
100
AcDbEntity
  8
CSLAYER1
  6
CENTER
 62
     4
100
AcDbLine
 10
196.046826
 20
203.625874
 30
0.0
 11
249.864912
 21
203.625874
 31
0.0
  0
LINE
  5
3AB
330
1E
100
AcDbEntity
  8
CSLAYER1
  6
CENTER
 62
     4
100
AcDbLine
 10
284.321434
 20
196.625874
 30
0.0
 11
344.59115
 21
196.625874
 31
0.0
  0
LINE
  5
3AC
330
1E
100
AcDbEntity
  8
CSLAYER1
  6
CENTER
 62
     4
100
AcDbLine
 10
338.044385
 20
190.3837499999999
 30
0.0
 11
338.044385
 21
204.6374179999999
 31
0.0
  0
LINE
  5
3AD
330
1E
100
AcDbEntity
  8
CSLAYER1
  6
CENTER
 62
     4
100
AcDbLine
 10
333.044385
 20
208.559427
 30
0.0
 11
333.044385
 21
219.1210139999999
 31
0.0
  0
CIRCLE
  5
3AE
330
1E
100
AcDbEntity
  8
CSLAYER1
  6
CONTINUOUS
 62
     4
100
AcDbCircle
 10
333.044385
 20
213.625874
 30
0.0
 40
2.5
  0
LINE
  5
3AF
330
1E
100
AcDbEntity
  8
CSLAYER1
  6
CENTER
 62
     4
100
AcDbLine
 10
340.728022
 20
213.625874
 30
0.0
 11
290.458931
 21
213.625874
 31
0.0
  0
CIRCLE
  5
3B0
330
1E
100
AcDbEntity
  8
CSLAYER1
  6
CONTINUOUS
 62
     4
100
AcDbCircle
 10
297.044385
 20
213.625874
 30
0.0
 40
2.5
  0
LINE
  5
3B1
330
1E
100
AcDbEntity
  8
CSLAYER1
  6
CENTER
 62
     4
100
AcDbLine
 10
297.044385
 20
207.7131459999999
 30
0.0
 11
297.044385
 21
219.9313279999999
 31
0.0
  0
LINE
  5
3B2
330
1E
100
AcDbEntity
  8
CSLAYER1
  6
CENTER
 62
     4
100
AcDbLine
 10
292.044385
 20
204.914726
 30
0.0
 11
292.044385
 21
190.4946739999999
 31
0.0
  0
LINE
  5
3B3
330
1E
100
AcDbEntity
  8
CSLAYER1
  6
CENTER
 62
     4
100
AcDbLine
 10
299.315384
 20
181.625874
 30
0.0
 11
330.7805969999999
 21
181.625874
 31
0.0
  0
LINE
  5
3B4
330
1E
100
AcDbEntity
  8
CSLAYER1
  6
CENTER
 62
     4
100
AcDbLine
 10
334.044385
 20
176.568559
 30
0.0
 11
334.044385
 21
166.807501
 31
0.0
  0
CIRCLE
  5
3B5
330
1E
100
AcDbEntity
  8
CSLAYER1
  6
CONTINUOUS
 62
     4
100
AcDbCircle
 10
334.044385
 20
171.625874
 30
0.0
 40
1.649999999999999
  0
LINE
  5
3B6
330
1E
100
AcDbEntity
  8
CSLAYER1
  6
CENTER
 62
     4
100
AcDbLine
 10
343.2858979999999
 20
174.425489
 30
0.0
 11
354.3415749999999
 21
174.425489
 31
0.0
  0
LINE
  5
3B7
330
1E
100
AcDbEntity
  8
CSLAYER1
  6
CENTER
 62
     4
100
AcDbLine
 10
354.3415749999999
 20
168.8262579999999
 30
0.0
 11
343.2858979999999
 21
168.8262579999999
 31
0.0
  0
LINE
  5
3B8
330
1E
100
AcDbEntity
  8
CSLAYER1
  6
CENTER
 62
     4
100
AcDbLine
 10
349.044385
 20
160.6603489999999
 30
0.0
 11
349.044385
 21
180.588851
 31
0.0
  0
LINE
  5
3B9
330
1E
100
AcDbEntity
  8
CSLAYER1
  6
CENTER
 62
     4
100
AcDbLine
 10
361.552634
 20
171.625874
 30
0.0
 11
266.6534759999999
 21
171.625874
 31
0.0
  0
LINE
  5
3BA
330
1E
100
AcDbEntity
  8
CSLAYER1
  6
CENTER
 62
     4
100
AcDbLine
 10
275.7471959999999
 20
168.8262579999999
 30
0.0
 11
286.8028729999999
 21
168.8262579999999
 31
0.0
  0
LINE
  5
3BB
330
1E
100
AcDbEntity
  8
CSLAYER1
  6
CENTER
 62
     4
100
AcDbLine
 10
286.8028729999999
 20
174.425489
 30
0.0
 11
275.7471959999999
 21
174.425489
 31
0.0
  0
LINE
  5
3BC
330
1E
100
AcDbEntity
  8
CSLAYER1
  6
CENTER
 62
     4
100
AcDbLine
 10
281.044385
 20
180.2322159999999
 30
0.0
 11
281.044385
 21
160.6603489999999
 31
0.0
  0
LINE
  5
3BD
330
1E
100
AcDbEntity
  8
CSLAYER1
  6
CENTER
 62
     4
100
AcDbLine
 10
296.044385
 20
166.4588919999999
 30
0.0
 11
296.044385
 21
176.3593939999999
 31
0.0
  0
LINE
  5
3BE
330
1E
100
AcDbEntity
  8
CSLAYER1
  6
CENTER
 62
     4
100
AcDbLine
 10
305.044385
 20
187.4309649999999
 30
0.0
 11
305.044385
 21
155.53945
 31
0.0
  0
LINE
  5
3BF
330
1E
100
AcDbEntity
  8
CSLAYER1
  6
CENTER
 62
     4
100
AcDbLine
 10
298.9093819999999
 20
161.625874
 30
0.0
 11
331.024199
 21
161.625874
 31
0.0
  0
LINE
  5
3C0
330
1E
100
AcDbEntity
  8
CSLAYER1
  6
CENTER
 62
     4
100
AcDbLine
 10
325.044385
 20
155.417649
 30
0.0
 11
325.044385
 21
188.1617699999999
 31
0.0
  0
LINE
  5
3C1
330
1E
100
AcDbEntity
  8
CSLAYER1
  6
CENTER
 62
     4
100
AcDbLine
 10
323.650572
 20
203.625874
 30
0.0
 11
305.603195
 21
203.625874
 31
0.0
  0
LINE
  5
3C2
330
1E
100
AcDbEntity
  8
CSLAYER1
  6
CENTER
 62
     4
100
AcDbLine
 10
315.044385
 20
272.324487
 30
0.0
 11
315.044385
 21
78.088306
 31
0.0
  0
LINE
  5
3C3
330
1E
100
AcDbEntity
  8
CSLAYER1
  6
DASHED
 62
     4
100
AcDbLine
 10
343.044385
 20
88.625874
 30
0.0
 11
287.044385
 21
88.625874
 31
0.0
  0
LINE
  5
3C4
330
1E
100
AcDbEntity
  8
CSLAYER1
  6
CENTER
 62
     4
100
AcDbLine
 10
281.044385
 20
92.32136
 30
0.0
 11
281.044385
 21
80.207817
 31
0.0
  0
LINE
  5
3C5
330
1E
100
AcDbEntity
  8
CSLAYER1
  6
CENTER
 62
     4
100
AcDbLine
 10
292.044385
 20
130.3837499999999
 30
0.0
 11
292.044385
 21
142.579008
 31
0.0
  0
LINE
  5
3C6
330
1E
100
AcDbEntity
  8
CSLAYER1
  6
CENTER
 62
     4
100
AcDbLine
 10
297.0369839999999
 20
136.625874
 30
0.0
 11
286.1086359999999
 21
136.625874
 31
0.0
  0
LINE
  5
3C7
330
1E
100
AcDbEntity
  8
CSLAYER1
  6
CENTER
 62
     4
100
AcDbLine
 10
307.421004
 20
139.625874
 30
0.0
 11
322.7065559999999
 21
139.625874
 31
0.0
  0
LINE
  5
3C8
330
1E
100
AcDbEntity
  8
CSLAYER1
  6
CENTER
 62
     4
100
AcDbLine
 10
333.0517869999999
 20
136.625874
 30
0.0
 11
343.980135
 21
136.625874
 31
0.0
  0
LINE
  5
3C9
330
1E
100
AcDbEntity
  8
CSLAYER1
  6
CENTER
 62
     4
100
AcDbLine
 10
338.044385
 20
142.579008
 30
0.0
 11
338.044385
 21
130.3837499999999
 31
0.0
  0
LINE
  5
3CA
330
1E
100
AcDbEntity
  8
CSLAYER1
  6
CENTER
 62
     4
100
AcDbLine
 10
349.044385
 20
92.32136
 30
0.0
 11
349.044385
 21
80.207817
 31
0.0
  0
LINE
  5
3CB
330
1E
100
AcDbEntity
  8
CSLAYER1
  6
CENTER
 62
     4
100
AcDbLine
 10
251.741055
 20
139.625874
 30
0.0
 11
200.0121409999999
 21
139.625874
 31
0.0
  0
LINE
  5
3CC
330
1E
100
AcDbEntity
  8
CSLAYER1
  6
CENTER
 62
     4
100
AcDbLine
 10
201.715075
 20
136.625874
 30
0.0
 11
211.155456
 21
136.625874
 31
0.0
  0
LINE
  5
3CD
330
1E
100
AcDbEntity
  8
CSLAYER1
  6
CENTER
 62
     4
100
AcDbLine
 10
220.432351
 20
135.946991
 30
0.0
 11
202.4085209999999
 21
135.946991
 31
0.0
  0
LINE
  5
3CE
330
1E
100
AcDbEntity
  8
CSLAYER1
  6
CENTER
 62
     4
100
AcDbLine
 10
202.4085209999999
 20
143.304757
 30
0.0
 11
220.432351
 21
143.304757
 31
0.0
  0
LINE
  5
3CF
330
1E
100
AcDbEntity
  8
CSLAYER1
  6
CENTER
 62
     4
100
AcDbLine
 10
199.9144
 20
146.625874
 30
0.0
 11
187.8587689999999
 21
146.625874
 31
0.0
  0
CIRCLE
  5
3D0
330
1E
100
AcDbEntity
  8
CSLAYER1
  6
CONTINUOUS
 62
     4
100
AcDbCircle
 10
193.037741
 20
146.625874
 30
0.0
 40
2.5
  0
LINE
  5
3D1
330
1E
100
AcDbEntity
  8
CSLAYER1
  6
CENTER
 62
     4
100
AcDbLine
 10
193.037741
 20
140.0345259999999
 30
0.0
 11
193.037741
 21
211.699712
 31
0.0
  0
CIRCLE
  5
3D2
330
1E
100
AcDbEntity
  8
CSLAYER1
  6
CONTINUOUS
 62
     4
100
AcDbCircle
 10
193.037741
 20
206.625874
 30
0.0
 40
2.5
  0
LINE
  5
3D3
330
1E
100
AcDbEntity
  8
CSLAYER1
  6
CENTER
 62
     4
100
AcDbLine
 10
194.01035
 20
251.625874
 30
0.0
 11
144.7946969999999
 21
251.625874
 31
0.0
  0
LINE
  5
3D4
330
1E
100
AcDbEntity
  8
CSLAYER1
  6
CENTER
 62
     4
100
AcDbLine
 10
170.0377409999999
 20
264.251772
 30
0.0
 11
170.0377409999999
 21
82.017302
 31
0.0
  0
LINE
  5
3D5
330
1E
100
AcDbEntity
  8
CSLAYER1
  6
CENTER
 62
     4
100
AcDbLine
 10
171.738125
 20
83.180721
 30
0.0
 11
171.738125
 21
89.971598
 31
0.0
  0
LINE
  5
3D6
330
1E
100
AcDbEntity
  8
CSLAYER1
  6
CENTER
 62
     4
100
AcDbLine
 10
174.5377409999999
 20
89.971598
 30
0.0
 11
174.5377409999999
 21
83.180721
 31
0.0
  0
LINE
  5
3D7
330
1E
100
AcDbEntity
  8
CSLAYER1
  6
CENTER
 62
     4
100
AcDbLine
 10
177.337356
 20
83.180721
 30
0.0
 11
177.337356
 21
89.971598
 31
0.0
  0
LINE
  5
3D8
330
1E
100
AcDbEntity
  8
CSLAYER1
  6
CENTER
 62
     4
100
AcDbLine
 10
177.284674
 20
99.35766200000001
 30
0.0
 11
177.284674
 21
113.94908
 31
0.0
  0
LINE
  5
3D9
330
1E
100
AcDbEntity
  8
CSLAYER1
  6
CENTER
 62
     4
100
AcDbLine
 10
184.260418
 20
106.6258739999999
 30
0.0
 11
170.1760379999999
 21
106.6258739999999
 31
0.0
  0
TEXT
  5
3DA
330
1E
100
AcDbEntity
  8
CSLAYER1
 62
     4
100
AcDbText
 10
123.9431399999999
 20
19.26148999999999
 30
0.0
 40
3.2
  1
A矢視図
 41
0.9374999999999996
  7
FX_FONT
 72
     5
 11
136.7431399999999
 21
19.26148999999999
 31
0.0
100
AcDbText
  0
POLYLINE
  5
3DB
330
1E
100
AcDbEntity
  8
CSLAYER1
  6
CONTINUOUS
 62
     4
100
AcDb2dPolyline
 66
     1
 10
0.0
 20
0.0
 30
0.0
  0
VERTEX
  5
3DC
330
3DB
100
AcDbEntity
  8
CSLAYER1
  6
CONTINUOUS
 62
     4
100
AcDbVertex
100
AcDb2dVertex
 10
182.0346739999999
 20
106.6258739999999
 30
0.0
  0
VERTEX
  5
3DD
330
3DB
100
AcDbEntity
  8
CSLAYER1
  6
CONTINUOUS
 62
     4
100
AcDbVertex
100
AcDb2dVertex
 10
182.0165989999999
 20
107.025483
 30
0.0
  0
VERTEX
  5
3DE
330
3DB
100
AcDbEntity
  8
CSLAYER1
  6
CONTINUOUS
 62
     4
100
AcDbVertex
100
AcDb2dVertex
 10
181.962511
 20
107.4220509999999
 30
0.0
  0
VERTEX
  5
3DF
330
3DB
100
AcDbEntity
  8
CSLAYER1
  6
CONTINUOUS
 62
     4
100
AcDbVertex
100
AcDb2dVertex
 10
181.8728219999999
 20
107.812559
 30
0.0
  0
VERTEX
  5
3E0
330
3DB
100
AcDbEntity
  8
CSLAYER1
  6
CONTINUOUS
 62
     4
100
AcDbVertex
100
AcDb2dVertex
 10
181.7482139999999
 20
108.194036
 30
0.0
  0
VERTEX
  5
3E1
330
3DB
100
AcDbEntity
  8
CSLAYER1
  6
CONTINUOUS
 62
     4
100
AcDbVertex
100
AcDb2dVertex
 10
181.589636
 20
108.563578
 30
0.0
  0
VERTEX
  5
3E2
330
3DB
100
AcDbEntity
  8
CSLAYER1
  6
CONTINUOUS
 62
     4
100
AcDbVertex
100
AcDb2dVertex
 10
181.3982949999999
 20
108.9183739999999
 30
0.0
  0
VERTEX
  5
3E3
330
3DB
100
AcDbEntity
  8
CSLAYER1
  6
CONTINUOUS
 62
     4
100
AcDbVertex
100
AcDb2dVertex
 10
181.1756459999999
 20
109.2557219999999
 30
0.0
  0
VERTEX
  5
3E4
330
3DB
100
AcDbEntity
  8
CSLAYER1
  6
CONTINUOUS
 62
     4
100
AcDbVertex
100
AcDb2dVertex
 10
180.923385
 20
109.573055
 30
0.0
  0
VERTEX
  5
3E5
330
3DB
100
AcDbEntity
  8
CSLAYER1
  6
CONTINUOUS
 62
     4
100
AcDbVertex
100
AcDb2dVertex
 10
180.643431
 20
109.8679579999999
 30
0.0
  0
VERTEX
  5
3E6
330
3DB
100
AcDbEntity
  8
CSLAYER1
  6
CONTINUOUS
 62
     4
100
AcDbVertex
100
AcDb2dVertex
 10
180.3379149999999
 20
110.1381879999999
 30
0.0
  0
VERTEX
  5
3E7
330
3DB
100
AcDbEntity
  8
CSLAYER1
  6
CONTINUOUS
 62
     4
100
AcDbVertex
100
AcDb2dVertex
 10
180.009162
 20
110.381686
 30
0.0
  0
VERTEX
  5
3E8
330
3DB
100
AcDbEntity
  8
CSLAYER1
  6
CONTINUOUS
 62
     4
100
AcDbVertex
100
AcDb2dVertex
 10
179.659674
 20
110.5966
 30
0.0
  0
VERTEX
  5
3E9
330
3DB
100
AcDbEntity
  8
CSLAYER1
  6
CONTINUOUS
 62
     4
100
AcDbVertex
100
AcDb2dVertex
 10
179.2921109999999
 20
110.781295
 30
0.0
  0
VERTEX
  5
3EA
330
3DB
100
AcDbEntity
  8
CSLAYER1
  6
CONTINUOUS
 62
     4
100
AcDbVertex
100
AcDb2dVertex
 10
178.9092699999999
 20
110.9343639999999
 30
0.0
  0
VERTEX
  5
3EB
330
3DB
100
AcDbEntity
  8
CSLAYER1
  6
CONTINUOUS
 62
     4
100
AcDbVertex
100
AcDb2dVertex
 10
178.5140649999999
 20
111.054644
 30
0.0
  0
VERTEX
  5
3EC
330
3DB
100
AcDbEntity
  8
CSLAYER1
  6
CONTINUOUS
 62
     4
100
AcDbVertex
100
AcDb2dVertex
 10
178.1095029999999
 20
111.1412169999999
 30
0.0
  0
VERTEX
  5
3ED
330
3DB
100
AcDbEntity
  8
CSLAYER1
  6
CONTINUOUS
 62
     4
100
AcDbVertex
100
AcDb2dVertex
 10
177.6986639999999
 20
111.1934259999999
 30
0.0
  0
VERTEX
  5
3EE
330
3DB
100
AcDbEntity
  8
CSLAYER1
  6
CONTINUOUS
 62
     4
100
AcDbVertex
100
AcDb2dVertex
 10
177.284674
 20
111.210874
 30
0.0
  0
VERTEX
  5
3EF
330
3DB
100
AcDbEntity
  8
CSLAYER1
  6
CONTINUOUS
 62
     4
100
AcDbVertex
100
AcDb2dVertex
 10
176.870684
 20
111.1934259999999
 30
0.0
  0
VERTEX
  5
3F0
330
3DB
100
AcDbEntity
  8
CSLAYER1
  6
CONTINUOUS
 62
     4
100
AcDbVertex
100
AcDb2dVertex
 10
176.459845
 20
111.1412169999999
 30
0.0
  0
VERTEX
  5
3F1
330
3DB
100
AcDbEntity
  8
CSLAYER1
  6
CONTINUOUS
 62
     4
100
AcDbVertex
100
AcDb2dVertex
 10
176.055284
 20
111.054644
 30
0.0
  0
VERTEX
  5
3F2
330
3DB
100
AcDbEntity
  8
CSLAYER1
  6
CONTINUOUS
 62
     4
100
AcDbVertex
100
AcDb2dVertex
 10
175.660078
 20
110.9343639999999
 30
0.0
  0
VERTEX
  5
3F3
330
3DB
100
AcDbEntity
  8
CSLAYER1
  6
CONTINUOUS
 62
     4
100
AcDbVertex
100
AcDb2dVertex
 10
175.277237
 20
110.781295
 30
0.0
  0
VERTEX
  5
3F4
330
3DB
100
AcDbEntity
  8
CSLAYER1
  6
CONTINUOUS
 62
     4
100
AcDbVertex
100
AcDb2dVertex
 10
174.9096739999999
 20
110.5966
 30
0.0
  0
VERTEX
  5
3F5
330
3DB
100
AcDbEntity
  8
CSLAYER1
  6
CONTINUOUS
 62
     4
100
AcDbVertex
100
AcDb2dVertex
 10
174.560186
 20
110.381686
 30
0.0
  0
VERTEX
  5
3F6
330
3DB
100
AcDbEntity
  8
CSLAYER1
  6
CONTINUOUS
 62
     4
100
AcDbVertex
100
AcDb2dVertex
 10
174.231433
 20
110.1381879999999
 30
0.0
  0
VERTEX
  5
3F7
330
3DB
100
AcDbEntity
  8
CSLAYER1
  6
CONTINUOUS
 62
     4
100
AcDbVertex
100
AcDb2dVertex
 10
173.9259169999999
 20
109.8679579999999
 30
0.0
  0
VERTEX
  5
3F8
330
3DB
100
AcDbEntity
  8
CSLAYER1
  6
CONTINUOUS
 62
     4
100
AcDbVertex
100
AcDb2dVertex
 10
173.6459629999999
 20
109.573055
 30
0.0
  0
VERTEX
  5
3F9
330
3DB
100
AcDbEntity
  8
CSLAYER1
  6
CONTINUOUS
 62
     4
100
AcDbVertex
100
AcDb2dVertex
 10
173.3937019999999
 20
109.2557219999999
 30
0.0
  0
VERTEX
  5
3FA
330
3DB
100
AcDbEntity
  8
CSLAYER1
  6
CONTINUOUS
 62
     4
100
AcDbVertex
100
AcDb2dVertex
 10
173.1710529999999
 20
108.9183739999999
 30
0.0
  0
VERTEX
  5
3FB
330
3DB
100
AcDbEntity
  8
CSLAYER1
  6
CONTINUOUS
 62
     4
100
AcDbVertex
100
AcDb2dVertex
 10
172.979712
 20
108.563578
 30
0.0
  0
VERTEX
  5
3FC
330
3DB
100
AcDbEntity
  8
CSLAYER1
  6
CONTINUOUS
 62
     4
100
AcDbVertex
100
AcDb2dVertex
 10
172.821134
 20
108.194036
 30
0.0
  0
VERTEX
  5
3FD
330
3DB
100
AcDbEntity
  8
CSLAYER1
  6
CONTINUOUS
 62
     4
100
AcDbVertex
100
AcDb2dVertex
 10
172.696526
 20
107.812559
 30
0.0
  0
VERTEX
  5
3FE
330
3DB
100
AcDbEntity
  8
CSLAYER1
  6
CONTINUOUS
 62
     4
100
AcDbVertex
100
AcDb2dVertex
 10
172.606837
 20
107.4220509999999
 30
0.0
  0
VERTEX
  5
3FF
330
3DB
100
AcDbEntity
  8
CSLAYER1
  6
CONTINUOUS
 62
     4
100
AcDbVertex
100
AcDb2dVertex
 10
172.552749
 20
107.025483
 30
0.0
  0
VERTEX
  5
400
330
3DB
100
AcDbEntity
  8
CSLAYER1
  6
CONTINUOUS
 62
     4
100
AcDbVertex
100
AcDb2dVertex
 10
172.5346739999999
 20
106.6258739999999
 30
0.0
  0
VERTEX
  5
401
330
3DB
100
AcDbEntity
  8
CSLAYER1
  6
CONTINUOUS
 62
     4
100
AcDbVertex
100
AcDb2dVertex
 10
172.552749
 20
106.2262649999999
 30
0.0
  0
VERTEX
  5
402
330
3DB
100
AcDbEntity
  8
CSLAYER1
  6
CONTINUOUS
 62
     4
100
AcDbVertex
100
AcDb2dVertex
 10
172.606837
 20
105.829697
 30
0.0
  0
VERTEX
  5
403
330
3DB
100
AcDbEntity
  8
CSLAYER1
  6
CONTINUOUS
 62
     4
100
AcDbVertex
100
AcDb2dVertex
 10
172.696526
 20
105.4391879999999
 30
0.0
  0
VERTEX
  5
404
330
3DB
100
AcDbEntity
  8
CSLAYER1
  6
CONTINUOUS
 62
     4
100
AcDbVertex
100
AcDb2dVertex
 10
172.821134
 20
105.057711
 30
0.0
  0
VERTEX
  5
405
330
3DB
100
AcDbEntity
  8
CSLAYER1
  6
CONTINUOUS
 62
     4
100
AcDbVertex
100
AcDb2dVertex
 10
172.979712
 20
104.6881689999999
 30
0.0
  0
VERTEX
  5
406
330
3DB
100
AcDbEntity
  8
CSLAYER1
  6
CONTINUOUS
 62
     4
100
AcDbVertex
100
AcDb2dVertex
 10
173.1710529999999
 20
104.333374
 30
0.0
  0
VERTEX
  5
407
330
3DB
100
AcDbEntity
  8
CSLAYER1
  6
CONTINUOUS
 62
     4
100
AcDbVertex
100
AcDb2dVertex
 10
173.3937019999999
 20
103.9960259999999
 30
0.0
  0
VERTEX
  5
408
330
3DB
100
AcDbEntity
  8
CSLAYER1
  6
CONTINUOUS
 62
     4
100
AcDbVertex
100
AcDb2dVertex
 10
173.6459629999999
 20
103.678693
 30
0.0
  0
VERTEX
  5
409
330
3DB
100
AcDbEntity
  8
CSLAYER1
  6
CONTINUOUS
 62
     4
100
AcDbVertex
100
AcDb2dVertex
 10
173.9259169999999
 20
103.383789
 30
0.0
  0
VERTEX
  5
40A
330
3DB
100
AcDbEntity
  8
CSLAYER1
  6
CONTINUOUS
 62
     4
100
AcDbVertex
100
AcDb2dVertex
 10
174.231433
 20
103.11356
 30
0.0
  0
VERTEX
  5
40B
330
3DB
100
AcDbEntity
  8
CSLAYER1
  6
CONTINUOUS
 62
     4
100
AcDbVertex
100
AcDb2dVertex
 10
174.560186
 20
102.8700619999999
 30
0.0
  0
VERTEX
  5
40C
330
3DB
100
AcDbEntity
  8
CSLAYER1
  6
CONTINUOUS
 62
     4
100
AcDbVertex
100
AcDb2dVertex
 10
174.9096739999999
 20
102.655147
 30
0.0
  0
VERTEX
  5
40D
330
3DB
100
AcDbEntity
  8
CSLAYER1
  6
CONTINUOUS
 62
     4
100
AcDbVertex
100
AcDb2dVertex
 10
175.277237
 20
102.470453
 30
0.0
  0
VERTEX
  5
40E
330
3DB
100
AcDbEntity
  8
CSLAYER1
  6
CONTINUOUS
 62
     4
100
AcDbVertex
100
AcDb2dVertex
 10
175.660078
 20
102.3173829999999
 30
0.0
  0
VERTEX
  5
40F
330
3DB
100
AcDbEntity
  8
CSLAYER1
  6
CONTINUOUS
 62
     4
100
AcDbVertex
100
AcDb2dVertex
 10
176.055284
 20
102.197104
 30
0.0
  0
VERTEX
  5
410
330
3DB
100
AcDbEntity
  8
CSLAYER1
  6
CONTINUOUS
 62
     4
100
AcDbVertex
100
AcDb2dVertex
 10
176.459845
 20
102.11053
 30
0.0
  0
VERTEX
  5
411
330
3DB
100
AcDbEntity
  8
CSLAYER1
  6
CONTINUOUS
 62
     4
100
AcDbVertex
100
AcDb2dVertex
 10
176.870684
 20
102.0583209999999
 30
0.0
  0
VERTEX
  5
412
330
3DB
100
AcDbEntity
  8
CSLAYER1
  6
CONTINUOUS
 62
     4
100
AcDbVertex
100
AcDb2dVertex
 10
177.284674
 20
102.040874
 30
0.0
  0
VERTEX
  5
413
330
3DB
100
AcDbEntity
  8
CSLAYER1
  6
CONTINUOUS
 62
     4
100
AcDbVertex
100
AcDb2dVertex
 10
177.6986639999999
 20
102.0583209999999
 30
0.0
  0
VERTEX
  5
414
330
3DB
100
AcDbEntity
  8
CSLAYER1
  6
CONTINUOUS
 62
     4
100
AcDbVertex
100
AcDb2dVertex
 10
178.1095029999999
 20
102.11053
 30
0.0
  0
VERTEX
  5
415
330
3DB
100
AcDbEntity
  8
CSLAYER1
  6
CONTINUOUS
 62
     4
100
AcDbVertex
100
AcDb2dVertex
 10
178.5140649999999
 20
102.197104
 30
0.0
  0
VERTEX
  5
416
330
3DB
100
AcDbEntity
  8
CSLAYER1
  6
CONTINUOUS
 62
     4
100
AcDbVertex
100
AcDb2dVertex
 10
178.9092699999999
 20
102.3173829999999
 30
0.0
  0
VERTEX
  5
417
330
3DB
100
AcDbEntity
  8
CSLAYER1
  6
CONTINUOUS
 62
     4
100
AcDbVertex
100
AcDb2dVertex
 10
179.2921109999999
 20
102.470453
 30
0.0
  0
VERTEX
  5
418
330
3DB
100
AcDbEntity
  8
CSLAYER1
  6
CONTINUOUS
 62
     4
100
AcDbVertex
100
AcDb2dVertex
 10
179.659674
 20
102.655147
 30
0.0
  0
VERTEX
  5
419
330
3DB
100
AcDbEntity
  8
CSLAYER1
  6
CONTINUOUS
 62
     4
100
AcDbVertex
100
AcDb2dVertex
 10
180.009162
 20
102.8700619999999
 30
0.0
  0
VERTEX
  5
41A
330
3DB
100
AcDbEntity
  8
CSLAYER1
  6
CONTINUOUS
 62
     4
100
AcDbVertex
100
AcDb2dVertex
 10
180.3379149999999
 20
103.11356
 30
0.0
  0
VERTEX
  5
41B
330
3DB
100
AcDbEntity
  8
CSLAYER1
  6
CONTINUOUS
 62
     4
100
AcDbVertex
100
AcDb2dVertex
 10
180.643431
 20
103.383789
 30
0.0
  0
VERTEX
  5
41C
330
3DB
100
AcDbEntity
  8
CSLAYER1
  6
CONTINUOUS
 62
     4
100
AcDbVertex
100
AcDb2dVertex
 10
180.923385
 20
103.678693
 30
0.0
  0
VERTEX
  5
41D
330
3DB
100
AcDbEntity
  8
CSLAYER1
  6
CONTINUOUS
 62
     4
100
AcDbVertex
100
AcDb2dVertex
 10
181.1756459999999
 20
103.9960259999999
 30
0.0
  0
VERTEX
  5
41E
330
3DB
100
AcDbEntity
  8
CSLAYER1
  6
CONTINUOUS
 62
     4
100
AcDbVertex
100
AcDb2dVertex
 10
181.3982949999999
 20
104.333374
 30
0.0
  0
VERTEX
  5
41F
330
3DB
100
AcDbEntity
  8
CSLAYER1
  6
CONTINUOUS
 62
     4
100
AcDbVertex
100
AcDb2dVertex
 10
181.589636
 20
104.6881689999999
 30
0.0
  0
VERTEX
  5
420
330
3DB
100
AcDbEntity
  8
CSLAYER1
  6
CONTINUOUS
 62
     4
100
AcDbVertex
100
AcDb2dVertex
 10
181.7482139999999
 20
105.057711
 30
0.0
  0
VERTEX
  5
421
330
3DB
100
AcDbEntity
  8
CSLAYER1
  6
CONTINUOUS
 62
     4
100
AcDbVertex
100
AcDb2dVertex
 10
181.8728219999999
 20
105.4391879999999
 30
0.0
  0
VERTEX
  5
422
330
3DB
100
AcDbEntity
  8
CSLAYER1
  6
CONTINUOUS
 62
     4
100
AcDbVertex
100
AcDb2dVertex
 10
181.962511
 20
105.829697
 30
0.0
  0
VERTEX
  5
423
330
3DB
100
AcDbEntity
  8
CSLAYER1
  6
CONTINUOUS
 62
     4
100
AcDbVertex
100
AcDb2dVertex
 10
182.0165989999999
 20
106.2262649999999
 30
0.0
  0
VERTEX
  5
424
330
3DB
100
AcDbEntity
  8
CSLAYER1
  6
CONTINUOUS
 62
     4
100
AcDbVertex
100
AcDb2dVertex
 10
182.0346739999999
 20
106.6258739999999
 30
0.0
  0
SEQEND
  5
425
330
3DB
100
AcDbEntity
  8
CSLAYER1
 62
     4
  0
TEXT
  5
426
330
1E
100
AcDbEntity
  8
CSLAYER1
 62
     4
100
AcDbText
 10
175.02829
 20
62.372523
 30
0.0
 40
3.2
  1
A
 50
90.0
 41
1.500000000000001
  7
FX_FONT
 72
     5
 11
175.02829
 21
65.572523
 31
0.0
100
AcDbText
  0
TEXT
  5
427
330
1E
100
AcDbEntity
  8
CSLAYER1
 62
     4
100
AcDbText
 10
366.591766
 20
134.059906
 30
0.0
 40
3.2
  1
10HIKU
 41
1.058823584558822
 51
15.0
  7
FX_FONT
 72
     5
 11
385.7917669999999
 21
134.059906
 31
0.0
100
AcDbText
  0
DIMENSION
  5
428
330
1E
100
AcDbEntity
  8
CSLAYER1
 62
     4
100
AcDbDimension
  2
*D0
 10
369.0360999999999
 20
177.625874
 30
0.0
 11
368.536102
 21
171.62587
 31
0.0
 70
     1
100
AcDbAlignedDimension
 13
349.044385
 23
165.625874
 33
0.0
 14
349.044385
 24
177.625874
 34
0.0
  0
INSERT
  5
429
330
1E
100
AcDbEntity
  8
CSLAYER1
100
AcDbBlockReference
  2
FXDIM0000
 10
0.0
 20
0.0
 30
0.0
  0
DIMENSION
  5
42A
330
1E
100
AcDbEntity
  8
CSLAYER1
 62
     4
100
AcDbDimension
  2
*D2
 10
358.044385
 20
107.4966279999999
 30
0.0
 11
310.063416
 21
107.996635
 31
0.0
 70
     1
 52
270.0
100
AcDbAlignedDimension
 13
272.044385
 23
167.125874
 33
0.0
 14
358.044385
 24
167.125874
 34
0.0
  0
DIMENSION
  5
42B
330
1E
100
AcDbEntity
  8
CSLAYER1
 62
     4
100
AcDbDimension
  2
*D3
 10
349.044385
 20
113.4966279999999
 30
0.0
 11
309.24646
 21
113.996635
 31
0.0
 70
     1
 52
270.0
100
AcDbAlignedDimension
 13
281.044385
 23
160.6603489999999
 33
0.0
 14
349.044385
 24
160.6603489999999
 34
0.0
  0
DIMENSION
  5
42C
330
1E
100
AcDbEntity
  8
CSLAYER1
 62
     4
100
AcDbDimension
  2
*D4
 10
352.244385
 20
188.5294169999999
 30
0.0
 11
349.2773129999999
 21
190.16333
 31
0.0
 70
     1
100
AcDbAlignedDimension
 13
345.844385
 23
174.475105
 33
0.0
 14
352.244385
 24
174.475105
 34
0.0
  0
INSERT
  5
42D
330
1E
100
AcDbEntity
  8
CSLAYER1
100
AcDbBlockReference
  2
FXDIM0001
 10
0.0
 20
0.0
 30
0.0
  0
DIMENSION
  5
42E
330
1E
100
AcDbEntity
  8
CSLAYER1
 62
     4
100
AcDbDimension
  2
*D6
 10
72.69556700000001
 20
35.782876
 30
0.0
 11
66.69556400000001
 21
36.28287499999999
 31
0.0
 70
     1
100
AcDbAlignedDimension
 13
60.695567
 23
26.42803499999999
 33
0.0
 14
72.69556700000001
 24
26.42803499999999
 34
0.0
  0
DIMENSION
  5
42F
330
1E
100
AcDbEntity
  8
CSLAYER1
 62
     4
100
AcDbDimension
  2
*D7
 10
84.66054699999999
 20
29.62803499999999
 30
0.0
 11
90.715248
 21
25.81032
 31
0.0
 70
     1
100
AcDbAlignedDimension
 13
69.544798
 23
23.228035
 33
0.0
 14
69.544798
 24
29.62803499999999
 34
0.0
  0
INSERT
  5
430
330
1E
100
AcDbEntity
  8
CSLAYER1
100
AcDbBlockReference
  2
FXDIM0002
 10
0.0
 20
0.0
 30
0.0
  0
INSERT
  5
431
330
1E
100
AcDbEntity
  8
CSLAYER1
100
AcDbBlockReference
  2
FXDIM0003
 10
0.0
 20
0.0
 30
0.0
  0
INSERT
  5
432
330
1E
100
AcDbEntity
  8
CSLAYER1
100
AcDbBlockReference
  2
FXDIM0004
 10
0.0
 20
0.0
 30
0.0
  0
INSERT
  5
433
330
1E
100
AcDbEntity
  8
CSLAYER1
100
AcDbBlockReference
  2
FXDIM0005
 10
0.0
 20
0.0
 30
0.0
  0
DIMENSION
  5
434
330
1E
100
AcDbEntity
  8
CSLAYER1
 62
     4
100
AcDbDimension
  2
*D12
 10
333.044385
 20
238.504879
 30
0.0
 11
315.044403
 21
239.004883
 31
0.0
100
AcDbAlignedDimension
 13
297.044385
 23
219.9313279999999
 33
0.0
 14
333.044385
 24
219.1210139999999
 34
0.0
100
AcDbRotatedDimension
  0
DIMENSION
  5
435
330
1E
100
AcDbEntity
  8
CSLAYER1
 62
     4
100
AcDbDimension
  2
*D13
 10
262.806068
 20
171.625874
 30
0.0
 11
262.306091
 21
128.1258699999999
 31
0.0
100
AcDbAlignedDimension
 13
272.044385
 23
84.625874
 33
0.0
 14
265.6534759999999
 24
171.625874
 34
0.0
 50
90.0
100
AcDbRotatedDimension
  0
DIMENSION
  5
436
330
1E
100
AcDbEntity
  8
CSLAYER1
 62
     4
100
AcDbDimension
  2
*D14
 10
262.806068
 20
213.625874
 30
0.0
 11
262.306091
 21
192.6258699999999
 31
0.0
100
AcDbAlignedDimension
 13
265.6534759999999
 23
171.625874
 33
0.0
 14
290.458931
 24
213.625874
 34
0.0
 50
90.0
100
AcDbRotatedDimension
  0
DIMENSION
  5
437
330
1E
100
AcDbEntity
  8
CSLAYER1
 62
     4
100
AcDbDimension
  2
*D15
 10
21.058984
 20
103.4280349999999
 30
0.0
 11
20.558985
 21
60.428036
 31
0.0
 70
     1
100
AcDbAlignedDimension
 13
62.195567
 23
17.428035
 33
0.0
 14
62.195567
 24
103.4280349999999
 34
0.0
  0
DIMENSION
  5
438
330
1E
100
AcDbEntity
  8
CSLAYER1
 62
     4
100
AcDbDimension
  2
*D16
 10
27.058984
 20
94.428035
 30
0.0
 11
26.55898499999999
 21
60.428036
 31
0.0
100
AcDbAlignedDimension
 13
56.940449
 23
26.42803499999999
 33
0.0
 14
56.118267
 24
94.428035
 34
0.0
 50
90.0
100
AcDbRotatedDimension
  0
DIMENSION
  5
439
330
1E
100
AcDbEntity
  8
CSLAYER1
 62
     4
100
AcDbDimension
  2
*D17
 10
115.695567
 20
117.949064
 30
0.0
 11
91.195564
 21
118.4490659999999
 31
0.0
100
AcDbAlignedDimension
 13
66.69556700000001
 23
107.7170689999999
 33
0.0
 14
115.695567
 24
103.4280349999999
 34
0.0
100
AcDbRotatedDimension
  0
DIMENSION
  5
43A
330
1E
100
AcDbEntity
  8
CSLAYER1
 62
     4
100
AcDbDimension
  2
*D18
 10
115.695567
 20
111.9490639999999
 30
0.0
 11
113.6955639999999
 21
112.4490659999999
 31
0.0
 70
     1
100
AcDbAlignedDimension
 13
111.695567
 23
103.4280349999999
 33
0.0
 14
115.695567
 24
103.4280349999999
 34
0.0
  0
DIMENSION
  5
43B
330
1E
100
AcDbEntity
  8
CSLAYER1
 62
     4
100
AcDbDimension
  2
*D19
 10
178.5377409999999
 20
260.988853
 30
0.0
 11
166.1342159999999
 21
261.4888609999999
 31
0.0
 70
     1
 52
270.0
100
AcDbAlignedDimension
 13
161.5377409999999
 23
266.6258739999999
 33
0.0
 14
178.5377409999999
 24
266.6258739999999
 34
0.0
  0
DIMENSION
  5
43C
330
1E
100
AcDbEntity
  8
CSLAYER1
 62
     4
100
AcDbDimension
  2
*D20
 10
252.037741
 20
269.5637029999999
 30
0.0
 11
237.7877349999999
 21
270.06369
 31
0.0
100
AcDbAlignedDimension
 13
223.537741
 23
226.125874
 33
0.0
 14
252.037741
 24
186.125874
 34
0.0
100
AcDbRotatedDimension
  0
DIMENSION
  5
43D
330
1E
100
AcDbEntity
  8
CSLAYER1
 62
     4
100
AcDbDimension
  2
*D21
 10
223.537741
 20
269.5637029999999
 30
0.0
 11
230.7807459999999
 21
259.5539549999999
 31
0.0
 70
     1
100
AcDbAlignedDimension
 13
219.537741
 23
226.125874
 33
0.0
 14
223.537741
 24
226.125874
 34
0.0
  0
DIMENSION
  5
43E
330
1E
100
AcDbEntity
  8
CSLAYER1
 62
     4
100
AcDbDimension
  2
*D22
 10
198.0377409999999
 20
269.5637029999999
 30
0.0
 11
170.037735
 21
270.06369
 31
0.0
 70
     1
100
AcDbAlignedDimension
 13
142.0377409999999
 23
231.625874
 33
0.0
 14
198.0377409999999
 24
231.625874
 34
0.0
  0
DIMENSION
  5
43F
330
1E
100
AcDbEntity
  8
CSLAYER1
 62
     4
100
AcDbDimension
  2
*D23
 10
219.537741
 20
269.5637029999999
 30
0.0
 11
208.7877349999999
 21
270.06369
 31
0.0
100
AcDbAlignedDimension
 13
198.0377409999999
 23
231.625874
 33
0.0
 14
219.537741
 24
226.125874
 34
0.0
100
AcDbRotatedDimension
  0
DIMENSION
  5
440
330
1E
100
AcDbEntity
  8
CSLAYER1
 62
     4
100
AcDbDimension
  2
*D24
 10
127.5783169999999
 20
88.625874
 30
0.0
 11
127.078308
 21
82.02587900000001
 31
0.0
 70
     1
100
AcDbAlignedDimension
 13
144.5377409999999
 23
84.625874
 33
0.0
 14
144.5377409999999
 24
88.625874
 34
0.0
  0
DIMENSION
  5
441
330
1E
100
AcDbEntity
  8
CSLAYER1
 62
     4
100
AcDbDimension
  2
*D25
 10
121.5783169999999
 20
266.6258739999999
 30
0.0
 11
121.0783159999999
 21
175.62587
 31
0.0
100
AcDbAlignedDimension
 13
144.5377409999999
 23
84.625874
 33
0.0
 14
152.0377409999999
 24
266.6258739999999
 34
0.0
 50
90.0
100
AcDbRotatedDimension
  0
DIMENSION
  5
442
330
1E
100
AcDbEntity
  8
CSLAYER1
 62
     4
100
AcDbDimension
  2
*D26
 10
133.578317
 20
266.6258739999999
 30
0.0
 11
133.078323
 21
259.125885
 31
0.0
100
AcDbAlignedDimension
 13
144.7946969999999
 23
251.625874
 33
0.0
 14
152.0377409999999
 24
266.6258739999999
 34
0.0
 50
90.0
100
AcDbRotatedDimension
  0
DIMENSION
  5
443
330
1E
100
AcDbEntity
  8
CSLAYER1
 62
     4
100
AcDbDimension
  2
*D27
 10
127.5783169999999
 20
266.6258739999999
 30
0.0
 11
127.0783159999999
 21
191.62587
 31
0.0
100
AcDbAlignedDimension
 13
142.0377409999999
 23
116.6258739999999
 33
0.0
 14
152.0377409999999
 24
266.6258739999999
 34
0.0
 50
90.0
100
AcDbRotatedDimension
  0
DIMENSION
  5
444
330
1E
100
AcDbEntity
  8
CSLAYER1
 62
     4
100
AcDbDimension
  2
*D28
 10
127.5783169999999
 20
116.6258739999999
 30
0.0
 11
127.0783159999999
 21
106.625877
 31
0.0
100
AcDbAlignedDimension
 13
148.5377409999999
 23
96.62587399999999
 33
0.0
 14
142.0377409999999
 24
116.6258739999999
 34
0.0
 50
90.0
100
AcDbRotatedDimension
  0
DIMENSION
  5
445
330
1E
100
AcDbEntity
  8
CSLAYER1
 62
     4
100
AcDbDimension
  2
*D29
 10
127.5783169999999
 20
96.62587399999999
 30
0.0
 11
127.0783159999999
 21
92.625877
 31
0.0
100
AcDbAlignedDimension
 13
144.5377409999999
 23
88.625874
 33
0.0
 14
148.5377409999999
 24
96.62587399999999
 34
0.0
 50
90.0
100
AcDbRotatedDimension
  0
INSERT
  5
446
330
1E
100
AcDbEntity
  8
CSLAYER1
100
AcDbBlockReference
  2
FXDIM0006
 10
0.0
 20
0.0
 30
0.0
  0
LINE
  5
447
330
1E
100
AcDbEntity
  8
CSLAYER1
  6
CONTINUOUS
 62
     3
100
AcDbLine
 10
308.2871729999999
 20
247.625874
 30
0.0
 11
310.160122
 21
249.197464
 31
0.0
  0
ARC
  5
448
330
1E
100
AcDbEntity
  8
CSLAYER1
  6
CONTINUOUS
 62
     3
100
AcDbCircle
 10
311.3371669999999
 20
247.7947169999999
 30
0.0
 40
1.831156999999999
100
AcDbArc
 50
45.941912
 51
130.0
  0
ARC
  5
449
330
1E
100
AcDbEntity
  8
CSLAYER1
  6
CONTINUOUS
 62
     3
100
AcDbCircle
 10
315.044385
 20
251.625874
 30
0.0
 40
3.5
100
AcDbArc
 50
229.24837
 51
309.4129069999999
  0
ARC
  5
44A
330
1E
100
AcDbEntity
  8
CSLAYER1
  6
CONTINUOUS
 62
     3
100
AcDbCircle
 10
319.2322369999999
 20
246.5298409999999
 30
0.0
 40
3.096032
100
AcDbArc
 50
65.59546800000001
 51
129.412907
  0
ARC
  5
44B
330
1E
100
AcDbEntity
  8
CSLAYER1
  6
CONTINUOUS
 62
     3
100
AcDbCircle
 10
321.544385
 20
251.625874
 30
0.0
 40
2.5
100
AcDbArc
 50
245.595468
 51
154.6230659999999
  0
ARC
  5
44C
330
1E
100
AcDbEntity
  8
CSLAYER1
  6
CONTINUOUS
 62
     3
100
AcDbCircle
 10
318.382108
 20
253.125874
 30
0.0
 40
1.0
100
AcDbArc
 50
270.0
 51
334.6230659999999
  0
LINE
  5
44D
330
1E
100
AcDbEntity
  8
CSLAYER1
  6
CONTINUOUS
 62
     3
100
AcDbLine
 10
318.382108
 20
252.1258739999999
 30
0.0
 11
317.4938749999999
 21
252.1258739999999
 31
0.0
  0
LINE
  5
44E
330
1E
100
AcDbEntity
  8
CSLAYER1
  6
CONTINUOUS
 62
     3
100
AcDbLine
 10
317.4938749999999
 20
251.125874
 30
0.0
 11
318.382108
 21
251.125874
 31
0.0
  0
ARC
  5
44F
330
1E
100
AcDbEntity
  8
CSLAYER1
  6
CONTINUOUS
 62
     3
100
AcDbCircle
 10
318.382108
 20
253.125874
 30
0.0
 40
2.0
100
AcDbArc
 50
270.0
 51
334.6230659999999
  0
ARC
  5
450
330
1E
100
AcDbEntity
  8
CSLAYER1
  6
CONTINUOUS
 62
     3
100
AcDbCircle
 10
321.544385
 20
251.625874
 30
0.0
 40
1.5
100
AcDbArc
 50
245.595468
 51
154.6230659999999
  0
ARC
  5
451
330
1E
100
AcDbEntity
  8
CSLAYER1
  6
CONTINUOUS
 62
     3
100
AcDbCircle
 10
319.2322369999999
 20
246.5298409999999
 30
0.0
 40
4.096032
100
AcDbArc
 50
65.59546800000001
 51
129.412907
  0
CIRCLE
  5
452
330
1E
100
AcDbEntity
  8
CSLAYER1
  6
CONTINUOUS
 62
     3
100
AcDbCircle
 10
315.044385
 20
251.625874
 30
0.0
 40
2.5
  0
CIRCLE
  5
453
330
1E
100
AcDbEntity
  8
CSLAYER1
  6
CONTINUOUS
 62
     3
100
AcDbCircle
 10
315.044385
 20
251.625874
 30
0.0
 40
2.0
  0
LINE
  5
454
330
1E
100
AcDbEntity
  8
CSLAYER1
  6
CONTINUOUS
 62
     3
100
AcDbLine
 10
312.594896
 20
251.125874
 30
0.0
 11
306.1443849999999
 21
251.125874
 31
0.0
  0
LINE
  5
455
330
1E
100
AcDbEntity
  8
CSLAYER1
  6
CONTINUOUS
 62
     3
100
AcDbLine
 10
306.1443849999999
 20
251.125874
 30
0.0
 11
306.1443849999999
 21
252.1258739999999
 31
0.0
  0
LINE
  5
456
330
1E
100
AcDbEntity
  8
CSLAYER1
  6
CONTINUOUS
 62
     3
100
AcDbLine
 10
306.1443849999999
 20
252.1258739999999
 30
0.0
 11
312.594896
 21
252.1258739999999
 31
0.0
  0
ARC
  5
457
330
1E
100
AcDbEntity
  8
CSLAYER1
  6
CONTINUOUS
 62
     3
100
AcDbCircle
 10
311.3371669999999
 20
247.7947169999999
 30
0.0
 40
2.831157
100
AcDbArc
 50
45.941912
 51
130.0
  0
LINE
  5
458
330
1E
100
AcDbEntity
  8
CSLAYER1
  6
CONTINUOUS
 62
     3
100
AcDbLine
 10
309.517334
 20
249.9635089999999
 30
0.0
 11
307.6443849999999
 21
248.391918
 31
0.0
  0
LINE
  5
459
330
1E
100
AcDbEntity
  8
CSLAYER1
  6
CONTINUOUS
 62
     3
100
AcDbLine
 10
307.6443849999999
 20
248.391918
 30
0.0
 11
308.2871729999999
 21
247.625874
 31
0.0
  0
ARC
  5
45A
330
1E
100
AcDbEntity
  8
CSLAYER1
  6
CONTINUOUS
 62
     3
100
AcDbCircle
 10
315.044385
 20
251.625874
 30
0.0
 40
6.5
100
AcDbArc
 50
208.649435
 51
337.825022
  0
ARC
  5
45B
330
1E
100
AcDbEntity
  8
CSLAYER1
  6
CONTINUOUS
 62
     3
100
AcDbCircle
 10
315.044385
 20
251.625874
 30
0.0
 40
6.2
100
AcDbArc
 50
208.092363
 51
337.45418
  0
ARC
  5
45C
330
1E
100
AcDbEntity
  8
CSLAYER1
  6
CONTINUOUS
 62
     3
100
AcDbCircle
 10
315.044385
 20
251.625874
 30
0.0
 40
6.5
100
AcDbArc
 50
184.4117259999999
 51
199.4724559999999
  0
ARC
  5
45D
330
1E
100
AcDbEntity
  8
CSLAYER1
  6
CONTINUOUS
 62
     3
100
AcDbCircle
 10
315.044385
 20
251.625874
 30
0.0
 40
6.2
100
AcDbArc
 50
184.625651
 51
198.430784
  0
ARC
  5
45E
330
1E
100
AcDbEntity
  8
CSLAYER1
  6
CONTINUOUS
 62
     3
100
AcDbCircle
 10
315.044385
 20
251.625874
 30
0.0
 40
6.2
100
AcDbArc
 50
22.54582
 51
175.3743489999999
  0
ARC
  5
45F
330
1E
100
AcDbEntity
  8
CSLAYER1
  6
CONTINUOUS
 62
     3
100
AcDbCircle
 10
315.044385
 20
251.625874
 30
0.0
 40
6.5
100
AcDbArc
 50
22.17497799999999
 51
175.588274
  0
ARC
  5
460
330
1E
100
AcDbEntity
  8
CSLAYER1
  6
CONTINUOUS
 62
     3
100
AcDbCircle
 10
315.044385
 20
251.625874
 30
0.0
 40
6.2
100
AcDbArc
 50
346.70551
 51
13.29448999999999
  0
ARC
  5
461
330
1E
100
AcDbEntity
  8
CSLAYER1
  6
CONTINUOUS
 62
     3
100
AcDbCircle
 10
315.044385
 20
251.625874
 30
0.0
 40
6.5
100
AcDbArc
 50
346.748381
 51
13.25161899999999
  0
LINE
  5
462
330
1E
100
AcDbEntity
  8
CSLAYER1
  6
CENTER
 62
     4
100
AcDbLine
 10
303.933724
 20
251.625874
 30
0.0
 11
326.019228
 21
251.625874
 31
0.0
  0
LINE
  5
463
330
1E
100
AcDbEntity
  8
CSLAYER1
  6
CONTINUOUS
 62
     3
100
AcDbLine
 10
151.3377409999999
 20
245.125874
 30
0.0
 11
151.0377409999999
 21
245.425874
 31
0.0
  0
LINE
  5
464
330
1E
100
AcDbEntity
  8
CSLAYER1
  6
CONTINUOUS
 62
     3
100
AcDbLine
 10
151.0377409999999
 20
245.425874
 30
0.0
 11
151.0377409999999
 21
257.8258739999999
 31
0.0
  0
LINE
  5
465
330
1E
100
AcDbEntity
  8
CSLAYER1
  6
CONTINUOUS
 62
     3
100
AcDbLine
 10
151.0377409999999
 20
257.8258739999999
 30
0.0
 11
151.3377409999999
 21
258.1258739999999
 31
0.0
  0
LINE
  5
466
330
1E
100
AcDbEntity
  8
CSLAYER1
  6
CONTINUOUS
 62
     3
100
AcDbLine
 10
151.3377409999999
 20
258.1258739999999
 30
0.0
 11
152.0377409999999
 21
258.1258739999999
 31
0.0
  0
LINE
  5
467
330
1E
100
AcDbEntity
  8
CSLAYER1
  6
CONTINUOUS
 62
     3
100
AcDbLine
 10
151.3377409999999
 20
258.1258739999999
 30
0.0
 11
151.3377409999999
 21
245.125874
 31
0.0
  0
LINE
  5
468
330
1E
100
AcDbEntity
  8
CSLAYER1
  6
CONTINUOUS
 62
     3
100
AcDbLine
 10
151.3377409999999
 20
245.125874
 30
0.0
 11
152.0377409999999
 21
245.125874
 31
0.0
  0
LINE
  5
469
330
1E
100
AcDbEntity
  8
CSLAYER1
  6
CONTINUOUS
 62
     3
100
AcDbLine
 10
188.737741
 20
245.125874
 30
0.0
 11
188.0377409999999
 21
245.125874
 31
0.0
  0
LINE
  5
46A
330
1E
100
AcDbEntity
  8
CSLAYER1
  6
CONTINUOUS
 62
     3
100
AcDbLine
 10
188.737741
 20
245.125874
 30
0.0
 11
188.737741
 21
258.1258739999999
 31
0.0
  0
LINE
  5
46B
330
1E
100
AcDbEntity
  8
CSLAYER1
  6
CONTINUOUS
 62
     3
100
AcDbLine
 10
188.737741
 20
258.1258739999999
 30
0.0
 11
188.0377409999999
 21
258.1258739999999
 31
0.0
  0
LINE
  5
46C
330
1E
100
AcDbEntity
  8
CSLAYER1
  6
CONTINUOUS
 62
     3
100
AcDbLine
 10
188.737741
 20
258.1258739999999
 30
0.0
 11
189.0377409999999
 21
257.8258739999999
 31
0.0
  0
LINE
  5
46D
330
1E
100
AcDbEntity
  8
CSLAYER1
  6
CONTINUOUS
 62
     3
100
AcDbLine
 10
189.0377409999999
 20
257.8258739999999
 30
0.0
 11
189.0377409999999
 21
245.425874
 31
0.0
  0
LINE
  5
46E
330
1E
100
AcDbEntity
  8
CSLAYER1
  6
CONTINUOUS
 62
     3
100
AcDbLine
 10
189.0377409999999
 20
245.425874
 30
0.0
 11
188.737741
 21
245.125874
 31
0.0
  0
LINE
  5
46F
330
1E
100
AcDbEntity
  8
CSLAYER1
  6
CONTINUOUS
 62
     3
100
AcDbLine
 10
148.0377409999999
 20
249.625874
 30
0.0
 11
148.5377409999999
 21
249.125874
 31
0.0
  0
LINE
  5
470
330
1E
100
AcDbEntity
  8
CSLAYER1
  6
CONTINUOUS
 62
     3
100
AcDbLine
 10
148.5377409999999
 20
249.125874
 30
0.0
 11
149.5377409999999
 21
249.125874
 31
0.0
  0
LINE
  5
471
330
1E
100
AcDbEntity
  8
CSLAYER1
  6
CONTINUOUS
 62
     3
100
AcDbLine
 10
149.5377409999999
 20
249.125874
 30
0.0
 11
149.5377409999999
 21
253.125874
 31
0.0
  0
ARC
  5
472
330
1E
100
AcDbEntity
  8
CSLAYER1
  6
CONTINUOUS
 62
     3
100
AcDbCircle
 10
150.0377409999999
 20
253.125874
 30
0.0
 40
0.5
100
AcDbArc
 50
0.0
 51
180.0
  0
LINE
  5
473
330
1E
100
AcDbEntity
  8
CSLAYER1
  6
CONTINUOUS
 62
     3
100
AcDbLine
 10
150.5377409999999
 20
253.125874
 30
0.0
 11
150.5377409999999
 21
249.125874
 31
0.0
  0
LINE
  5
474
330
1E
100
AcDbEntity
  8
CSLAYER1
  6
CONTINUOUS
 62
     3
100
AcDbLine
 10
150.5377409999999
 20
249.125874
 30
0.0
 11
151.0377409999999
 21
249.125874
 31
0.0
  0
ARC
  5
475
330
1E
100
AcDbEntity
  8
CSLAYER1
  6
CONTINUOUS
 62
     3
100
AcDbCircle
 10
150.0377409999999
 20
249.125874
 30
0.0
 40
0.5
100
AcDbArc
 50
180.0
 51
0.0
  0
LINE
  5
476
330
1E
100
AcDbEntity
  8
CSLAYER1
  6
CONTINUOUS
 62
     3
100
AcDbLine
 10
148.5377409999999
 20
249.125874
 30
0.0
 11
148.5377409999999
 21
254.1258739999999
 31
0.0
  0
LINE
  5
477
330
1E
100
AcDbEntity
  8
CSLAYER1
  6
CONTINUOUS
 62
     3
100
AcDbLine
 10
148.5377409999999
 20
254.1258739999999
 30
0.0
 11
148.0377409999999
 21
253.625874
 31
0.0
  0
LINE
  5
478
330
1E
100
AcDbEntity
  8
CSLAYER1
  6
CONTINUOUS
 62
     3
100
AcDbLine
 10
148.0377409999999
 20
253.625874
 30
0.0
 11
148.0377409999999
 21
249.625874
 31
0.0
  0
ARC
  5
479
330
1E
100
AcDbEntity
  8
CSLAYER1
  6
CONTINUOUS
 62
     3
100
AcDbCircle
 10
150.0377409999999
 20
251.625874
 30
0.0
 40
0.6
100
AcDbArc
 50
146.44269
 51
213.55731
  0
ARC
  5
47A
330
1E
100
AcDbEntity
  8
CSLAYER1
  6
CONTINUOUS
 62
     3
100
AcDbCircle
 10
150.0377409999999
 20
251.625874
 30
0.0
 40
0.6
100
AcDbArc
 50
326.44269
 51
33.55731
  0
LINE
  5
47B
330
1E
100
AcDbEntity
  8
CSLAYER1
  6
CONTINUOUS
 62
     3
100
AcDbLine
 10
151.0377409999999
 20
254.1258739999999
 30
0.0
 11
148.5377409999999
 21
254.1258739999999
 31
0.0
  0
LINE
  5
47C
330
1E
100
AcDbEntity
  8
CSLAYER1
  6
CONTINUOUS
 62
     3
100
AcDbLine
 10
189.0377409999999
 20
249.125874
 30
0.0
 11
189.5377409999999
 21
249.125874
 31
0.0
  0
ARC
  5
47D
330
1E
100
AcDbEntity
  8
CSLAYER1
  6
CONTINUOUS
 62
     3
100
AcDbCircle
 10
190.0377409999999
 20
250.125874
 30
0.0
 40
0.5
100
AcDbArc
 50
0.0
 51
180.0
  0
LINE
  5
47E
330
1E
100
AcDbEntity
  8
CSLAYER1
  6
CONTINUOUS
 62
     3
100
AcDbLine
 10
190.5377409999999
 20
250.125874
 30
0.0
 11
190.5377409999999
 21
248.125874
 31
0.0
  0
CIRCLE
  5
47F
330
1E
100
AcDbEntity
  8
CSLAYER1
  6
CONTINUOUS
 62
     3
100
AcDbCircle
 10
190.0377409999999
 20
248.125874
 30
0.0
 40
0.5
  0
LINE
  5
480
330
1E
100
AcDbEntity
  8
CSLAYER1
  6
CONTINUOUS
 62
     3
100
AcDbLine
 10
189.5377409999999
 20
248.125874
 30
0.0
 11
189.5377409999999
 21
250.125874
 31
0.0
  0
LINE
  5
481
330
1E
100
AcDbEntity
  8
CSLAYER1
  6
CONTINUOUS
 62
     3
100
AcDbLine
 10
190.5377409999999
 20
249.125874
 30
0.0
 11
191.5377409999999
 21
249.125874
 31
0.0
  0
LINE
  5
482
330
1E
100
AcDbEntity
  8
CSLAYER1
  6
CONTINUOUS
 62
     3
100
AcDbLine
 10
191.5377409999999
 20
249.125874
 30
0.0
 11
192.037741
 21
249.625874
 31
0.0
  0
LINE
  5
483
330
1E
100
AcDbEntity
  8
CSLAYER1
  6
CONTINUOUS
 62
     3
100
AcDbLine
 10
192.037741
 20
249.625874
 30
0.0
 11
192.037741
 21
253.625874
 31
0.0
  0
LINE
  5
484
330
1E
100
AcDbEntity
  8
CSLAYER1
  6
CONTINUOUS
 62
     3
100
AcDbLine
 10
192.037741
 20
253.625874
 30
0.0
 11
191.5377409999999
 21
254.1258739999999
 31
0.0
  0
LINE
  5
485
330
1E
100
AcDbEntity
  8
CSLAYER1
  6
CONTINUOUS
 62
     3
100
AcDbLine
 10
191.5377409999999
 20
254.1258739999999
 30
0.0
 11
189.0377409999999
 21
254.1258739999999
 31
0.0
  0
LINE
  5
486
330
1E
100
AcDbEntity
  8
CSLAYER1
  6
CONTINUOUS
 62
     3
100
AcDbLine
 10
191.5377409999999
 20
254.1258739999999
 30
0.0
 11
191.5377409999999
 21
249.125874
 31
0.0
  0
CIRCLE
  5
487
330
1E
100
AcDbEntity
  8
CSLAYER1
  6
CONTINUOUS
 62
     3
100
AcDbCircle
 10
190.0377409999999
 20
251.625874
 30
0.0
 40
0.6
  0
CIRCLE
  5
488
330
1E
100
AcDbEntity
  8
CSLAYER1
  6
CONTINUOUS
 62
     3
100
AcDbCircle
 10
190.0377409999999
 20
251.625874
 30
0.0
 40
0.5
  0
LINE
  5
489
330
1E
100
AcDbEntity
  8
CSLAYER1
  6
DOT
 62
     3
100
AcDbLine
 10
12.5
 20
9.0
 30
0.0
 11
403.0
 21
9.0
 31
0.0
  0
LINE
  5
48A
330
1E
100
AcDbEntity
  8
CSLAYER1
  6
DOT
 62
     3
100
AcDbLine
 10
403.0
 20
9.0
 30
0.0
 11
403.0
 21
275.0
 31
0.0
  0
LINE
  5
48B
330
1E
100
AcDbEntity
  8
CSLAYER1
  6
DOT
 62
     3
100
AcDbLine
 10
403.0
 20
275.0
 30
0.0
 11
12.5
 21
275.0
 31
0.0
  0
LINE
  5
48C
330
1E
100
AcDbEntity
  8
CSLAYER1
  6
DOT
 62
     3
100
AcDbLine
 10
12.5
 20
275.0
 30
0.0
 11
12.5
 21
9.0
 31
0.0
  0
ENDSEC
  0
SECTION
  2
OBJECTS
  0
DICTIONARY
  5
C
330
0
100
AcDbDictionary
  3
ACAD_GROUP
350
D
  3
ACAD_LAYOUT
350
19
  3
ACAD_MLINESTYLE
350
16
  3
ACAD_PLOTSETTINGS
350
18
1001
ACAD
1000
TREAT_AS_HARD
1070
     0
  0
DICTIONARY
  5
496
330
1E
100
AcDbDictionary
  3
ACAD_LAYOUTSELFREF
350
497
  0
DICTIONARY
  5
494
330
1A
100
AcDbDictionary
  3
ACAD_LAYOUTSELFREF
350
495
  0
DICTIONARY
  5
D
102
{ACAD_REACTORS
330
C
102
}
330
C
100
AcDbDictionary
1001
ACAD
1000
TREAT_AS_HARD
1070
     0
  0
DICTIONARY
  5
19
102
{ACAD_REACTORS
330
C
102
}
330
C
100
AcDbDictionary
1001
ACAD
1000
TREAT_AS_HARD
1070
     0
  0
DICTIONARY
  5
16
102
{ACAD_REACTORS
330
C
102
}
330
C
100
AcDbDictionary
  3
STANDARD
350
17
1001
ACAD
1000
TREAT_AS_HARD
1070
     0
  0
DICTIONARY
  5
18
102
{ACAD_REACTORS
330
C
102
}
330
C
100
AcDbDictionary
1001
ACAD
1000
TREAT_AS_HARD
1070
     0
  0
XRECORD
  5
497
102
{ACAD_REACTORS
330
496
102
}
330
496
100
AcDbXrecord
340
1E
  0
XRECORD
  5
495
102
{ACAD_REACTORS
330
494
102
}
330
494
100
AcDbXrecord
340
1A
  0
MLINESTYLE
  5
17
102
{ACAD_REACTORS
330
16
102
}
330
16
100
AcDbMlineStyle
  2
STANDARD
 70
     0
  3

 62
   256
 51
90.0
 52
90.0
 71
     2
 49
0.5
 62
   256
  6
BYLAYER
 49
-0.5
 62
   256
  6
BYLAYER
  0
ENDSEC
  0
EOF
