  0
SECTION
  2
HEADER
  9
$ACADVER
  1
AC1012
  9
$DWGCODEPAGE
  3
dos932
  9
$INSBASE
 10
0.0
 20
0.0
 30
0.0
  9
$EXTMIN
 10
9.98474220045
 20
2.981964806306564
 30
-0.0015258207003583
  9
$EXTMAX
 10
395.0189218472444
 20
275.0068823797708
 30
0.0000000349246037
  9
$LIMMIN
 10
0.0
 20
0.0
  9
$LIMMAX
 10
420.0
 20
297.0
  9
$ORTHOMODE
 70
     0
  9
$REGENMODE
 70
     1
  9
$FILLMODE
 70
     1
  9
$QTEXTMODE
 70
     0
  9
$MIRRTEXT
 70
     1
  9
$DRAGMODE
 70
     2
  9
$LTSCALE
 40
15.0
  9
$OSMODE
 70
    37
  9
$ATTMODE
 70
     1
  9
$TEXTSIZE
 40
0.2
  9
$TRACEWID
 40
0.05
  9
$TEXTSTYLE
  7
GOTHIC
  9
$CLAYER
  8
CSLAYER1
  9
$CELTYPE
  6
BYLAYER
  9
$CECOLOR
 62
   256
  9
$CELTSCALE
 40
1.0
  9
$DELOBJ
 70
     1
  9
$DISPSILH
 70
     0
  9
$DIMSCALE
 40
1.0
  9
$DIMASZ
 40
0.18
  9
$DIMEXO
 40
0.0625
  9
$DIMDLI
 40
0.38
  9
$DIMRND
 40
0.0
  9
$DIMDLE
 40
0.0
  9
$DIMEXE
 40
0.18
  9
$DIMTP
 40
0.0
  9
$DIMTM
 40
0.0
  9
$DIMTXT
 40
0.18
  9
$DIMCEN
 40
0.09
  9
$DIMTSZ
 40
0.0
  9
$DIMTOL
 70
     0
  9
$DIMLIM
 70
     0
  9
$DIMTIH
 70
     1
  9
$DIMTOH
 70
     1
  9
$DIMSE1
 70
     0
  9
$DIMSE2
 70
     0
  9
$DIMTAD
 70
     0
  9
$DIMZIN
 70
     0
  9
$DIMBLK
  1

  9
$DIMASO
 70
     1
  9
$DIMSHO
 70
     1
  9
$DIMPOST
  1

  9
$DIMAPOST
  1

  9
$DIMALT
 70
     0
  9
$DIMALTD
 70
     2
  9
$DIMALTF
 40
25.4
  9
$DIMLFAC
 40
1.0
  9
$DIMTOFL
 70
     0
  9
$DIMTVP
 40
0.0
  9
$DIMTIX
 70
     0
  9
$DIMSOXD
 70
     0
  9
$DIMSAH
 70
     0
  9
$DIMBLK1
  1

  9
$DIMBLK2
  1

  9
$DIMSTYLE
  2
STANDARD
  9
$DIMCLRD
 70
     0
  9
$DIMCLRE
 70
     0
  9
$DIMCLRT
 70
     0
  9
$DIMTFAC
 40
1.0
  9
$DIMGAP
 40
0.09
  9
$DIMJUST
 70
     0
  9
$DIMSD1
 70
     0
  9
$DIMSD2
 70
     0
  9
$DIMTOLJ
 70
     1
  9
$DIMTZIN
 70
     0
  9
$DIMALTZ
 70
     0
  9
$DIMALTTZ
 70
     0
  9
$DIMFIT
 70
     3
  9
$DIMUPT
 70
     0
  9
$DIMUNIT
 70
     2
  9
$DIMDEC
 70
     4
  9
$DIMTDEC
 70
     4
  9
$DIMALTU
 70
     2
  9
$DIMALTTD
 70
     2
  9
$DIMTXSTY
  7
STANDARD
  9
$DIMAUNIT
 70
     0
  9
$LUNITS
 70
     2
  9
$LUPREC
 70
     4
  9
$SKETCHINC
 40
0.1
  9
$FILLETRAD
 40
0.0
  9
$AUNITS
 70
     0
  9
$AUPREC
 70
     0
  9
$MENU
  1
ACAD
  9
$ELEVATION
 40
0.0
  9
$PELEVATION
 40
0.0
  9
$THICKNESS
 40
0.0
  9
$LIMCHECK
 70
     0
  9
$BLIPMODE
 70
     1
  9
$CHAMFERA
 40
0.0
  9
$CHAMFERB
 40
0.0
  9
$CHAMFERC
 40
0.0
  9
$CHAMFERD
 40
0.0
  9
$SKPOLY
 70
     0
  9
$TDCREATE
 40
2453482.000000000
  9
$TDUPDATE
 40
2453516.459748669
  9
$TDINDWG
 40
0.0001962269
  9
$TDUSRTIMER
 40
0.0001962269
  9
$USRTIMER
 70
     1
  9
$ANGBASE
 50
0.0
  9
$ANGDIR
 70
     0
  9
$PDMODE
 70
     0
  9
$PDSIZE
 40
0.0
  9
$PLINEWID
 40
0.0
  9
$COORDS
 70
     0
  9
$SPLFRAME
 70
     0
  9
$SPLINETYPE
 70
     6
  9
$SPLINESEGS
 70
     8
  9
$ATTDIA
 70
     0
  9
$ATTREQ
 70
     1
  9
$HANDLING
 70
-16383
  9
$HANDSEED
  5
30D
  9
$SURFTAB1
 70
     6
  9
$SURFTAB2
 70
     6
  9
$SURFTYPE
 70
     6
  9
$SURFU
 70
     6
  9
$SURFV
 70
     6
  9
$UCSNAME
  2

  9
$UCSORG
 10
0.0
 20
0.0
 30
0.0
  9
$UCSXDIR
 10
1.0
 20
0.0
 30
0.0
  9
$UCSYDIR
 10
0.0
 20
1.0
 30
0.0
  9
$PUCSNAME
  2

  9
$PUCSORG
 10
0.0
 20
0.0
 30
0.0
  9
$PUCSXDIR
 10
1.0
 20
0.0
 30
0.0
  9
$PUCSYDIR
 10
0.0
 20
1.0
 30
0.0
  9
$USERI1
 70
     0
  9
$USERI2
 70
     0
  9
$USERI3
 70
     0
  9
$USERI4
 70
     0
  9
$USERI5
 70
     0
  9
$USERR1
 40
0.0
  9
$USERR2
 40
0.0
  9
$USERR3
 40
0.0
  9
$USERR4
 40
0.0
  9
$USERR5
 40
0.0
  9
$WORLDVIEW
 70
     1
  9
$SHADEDGE
 70
     3
  9
$SHADEDIF
 70
    70
  9
$TILEMODE
 70
     1
  9
$MAXACTVP
 70
    64
  9
$PINSBASE
 10
0.0
 20
0.0
 30
0.0
  9
$PLIMCHECK
 70
     0
  9
$PEXTMIN
 10
1.000000000000000E+20
 20
1.000000000000000E+20
 30
1.000000000000000E+20
  9
$PEXTMAX
 10
-1.000000000000000E+20
 20
-1.000000000000000E+20
 30
-1.000000000000000E+20
  9
$PLIMMIN
 10
0.0
 20
0.0
  9
$PLIMMAX
 10
12.0
 20
9.0
  9
$UNITMODE
 70
     0
  9
$VISRETAIN
 70
     1
  9
$PLINEGEN
 70
     0
  9
$PSLTSCALE
 70
     1
  9
$TREEDEPTH
 70
  3020
  9
$PICKSTYLE
 70
     3
  9
$CMLSTYLE
  2
STANDARD
  9
$CMLJUST
 70
     0
  9
$CMLSCALE
 40
1.0
  9
$SAVEIMAGES
 70
     1
  0
ENDSEC
  0
SECTION
  2
CLASSES
  0
CLASS
  1
ACDBDICTIONARYWDFLT
  2
AcDbDictionaryWithDefault
  3
AutoCAD 2000
 90
    32768
280
     0
281
     0
  0
CLASS
  1
ACDBPLACEHOLDER
  2
AcDbPlaceHolder
  3
AutoCAD 2000
 90
    32768
280
     0
281
     0
  0
CLASS
  1
LAYOUT
  2
AcDbLayout
  3
AutoCAD 2000
 90
    32768
280
     0
281
     0
  0
CLASS
  1
DICTIONARYVAR
  2
AcDbDictionaryVar
  3
AutoCAD 2000
 90
    32768
280
     0
281
     0
  0
CLASS
  1
LONG_TRANSACTION
  2
AcDbLongTransaction
  3
AutoCAD 2000
 90
    32768
280
     0
281
     0
  0
CLASS
  1
LWPOLYLINE
  2
AcDbPolyline
  3
AutoCAD 2000
 90
    32768
280
     0
281
     1
  0
CLASS
  1
HATCH
  2
AcDbHatch
  3
AutoCAD 2000
 90
    32768
280
     0
281
     1
  0
CLASS
  1
XRECORD
  2
AcDbXrecord
  3
AutoCAD 2000
 90
    32768
280
     0
281
     0
  0
CLASS
  1
LONG_TRANSACTION
  2
AcDbLongTransaction
  3
AutoCAD 2000
 90
    32768
280
     0
281
     0
  0
CLASS
  1
LWPOLYLINE
  2
AcDbPolyline
  3
AutoCAD 2000
 90
    32768
280
     0
281
     1
  0
CLASS
  1
HATCH
  2
AcDbHatch
  3
AutoCAD 2000
 90
    32768
280
     0
281
     1
  0
CLASS
  1
XRECORD
  2
AcDbXrecord
  3
AutoCAD 2000
 90
    32768
280
     0
281
     0
  0
ENDSEC
  0
SECTION
  2
TABLES
  0
TABLE
  2
VPORT
  5
8
330
0
100
AcDbSymbolTable
 70
     2
  0
VPORT
  5
30A
330
8
100
AcDbSymbolTableRecord
100
AcDbViewportTableRecord
  2
*ACTIVE
 70
     0
 10
0.0
 20
0.0
 11
1.0
 21
1.0
 12
202.5018320238472
 22
138.9944235930387
 13
0.0
 23
0.0
 14
1.0
 24
1.0
 15
0.0
 25
0.0
 16
0.0
 26
0.0
 36
1.0
 17
0.0
 27
0.0
 37
0.0
 40
274.0676578806492
 41
1.510025062656641
 42
50.0
 43
0.0
 44
0.0
 50
0.0
 51
0.0
 71
     0
 72
   100
 73
     1
 74
     1
 75
     0
 76
     0
 77
     0
 78
     0
  0
ENDTAB
  0
TABLE
  2
LTYPE
  5
5
330
0
100
AcDbSymbolTable
 70
     3
  0
LTYPE
  5
13
330
5
100
AcDbSymbolTableRecord
100
AcDbLinetypeTableRecord
  2
BYBLOCK
 70
     0
  3

 72
    65
 73
     0
 40
0.0
  0
LTYPE
  5
14
330
5
100
AcDbSymbolTableRecord
100
AcDbLinetypeTableRecord
  2
BYLAYER
 70
     0
  3

 72
    65
 73
     0
 40
0.0
  0
LTYPE
  5
15
330
5
100
AcDbSymbolTableRecord
100
AcDbLinetypeTableRecord
  2
CONTINUOUS
 70
     0
  3
Solid line
 72
    65
 73
     0
 40
0.0
  0
LTYPE
  5
25
330
5
100
AcDbSymbolTableRecord
100
AcDbLinetypeTableRecord
  2
DOT
 70
     0
  3
...............................................
 72
    65
 73
     2
 40
0.25
 49
0.0
 74
     0
 49
-0.25
 74
     0
  0
LTYPE
  5
28
330
5
100
AcDbSymbolTableRecord
100
AcDbLinetypeTableRecord
  2
CENTER
 70
     0
  3
____ _ ____ _ ____ _ ____ _ ____ _ ____ _ ____ 
 72
    65
 73
     4
 40
2.0
 49
1.25
 74
     0
 49
-0.25
 74
     0
 49
0.25
 74
     0
 49
-0.25
 74
     0
  0
ENDTAB
  0
TABLE
  2
LAYER
  5
2
330
0
100
AcDbSymbolTable
 70
     3
  0
LAYER
  5
10
330
2
100
AcDbSymbolTableRecord
100
AcDbLayerTableRecord
  2
0
 70
     0
 62
     7
  6
CONTINUOUS
  0
LAYER
  5
22
330
2
100
AcDbSymbolTableRecord
100
AcDbLayerTableRecord
  2
CSLAYER1
 70
     0
 62
     7
  6
CONTINUOUS
  0
LAYER
  5
2EF
330
2
100
AcDbSymbolTableRecord
100
AcDbLayerTableRecord
  2
DEFPOINTS
 70
     0
 62
     7
  6
CONTINUOUS
  0
ENDTAB
  0
TABLE
  2
STYLE
  5
3
330
0
100
AcDbSymbolTable
 70
     3
  0
STYLE
  5
11
330
3
100
AcDbSymbolTableRecord
100
AcDbTextStyleTableRecord
  2
STANDARD
 70
     0
 40
0.0
 41
1.0
 50
0.0
 71
     0
 42
0.2
  3
txt
  4
extfont.shx
  0
STYLE
  5
3A
330
3
100
AcDbSymbolTableRecord
100
AcDbTextStyleTableRecord
  2
FX_FONT
 70
     0
 40
1.0
 41
1.0
 50
0.0
 71
     0
 42
1.0
  3
monotxt
  4
bigfont
  0
STYLE
  5
2E7
330
3
100
AcDbSymbolTableRecord
100
AcDbTextStyleTableRecord
  2
GOTHIC
 70
     0
 40
0.0
 41
1.0
 50
0.0
 71
     0
 42
0.2
  3
txt.shx
  4
extfont.shx
  0
ENDTAB
  0
TABLE
  2
VIEW
  5
6
330
0
100
AcDbSymbolTable
 70
     0
  0
ENDTAB
  0
TABLE
  2
UCS
  5
7
330
0
100
AcDbSymbolTable
 70
     0
  0
ENDTAB
  0
TABLE
  2
APPID
  5
9
330
0
100
AcDbSymbolTable
 70
     1
  0
APPID
  5
12
330
9
100
AcDbSymbolTableRecord
100
AcDbRegAppTableRecord
  2
ACAD
 70
     0
  0
ENDTAB
  0
TABLE
  2
DIMSTYLE
  5
A
330
0
100
AcDbSymbolTable
 70
     1
  0
DIMSTYLE
105
2E4
330
A
100
AcDbSymbolTableRecord
100
AcDbDimStyleTableRecord
  2
STANDARD
 70
     0
  3

  4

  5

  6

  7

 40
1.0
 41
0.18
 42
0.0625
 43
0.38
 44
0.18
 45
0.0
 46
0.0
 47
0.0
 48
0.0
140
0.18
141
0.09
142
0.0
143
25.4
144
1.0
145
0.0
146
1.0
147
0.09
 71
     0
 72
     0
 73
     1
 74
     1
 75
     0
 76
     0
 77
     0
 78
     0
170
     0
171
     2
172
     0
173
     0
174
     0
175
     0
176
     0
177
     0
178
     0
270
     2
271
     4
272
     4
273
     2
274
     2
340
11
275
     0
280
     0
281
     0
282
     0
283
     1
284
     0
285
     0
286
     0
287
     3
288
     0
  0
ENDTAB
  0
TABLE
  2
BLOCK_RECORD
  5
1
330
0
100
AcDbSymbolTable
 70
    32
  0
BLOCK_RECORD
  5
1E
102
{ACAD_XDICTIONARY
360
2ED
102
}
330
1
100
AcDbSymbolTableRecord
100
AcDbBlockTableRecord
  2
*MODEL_SPACE
  0
BLOCK_RECORD
  5
1A
102
{ACAD_XDICTIONARY
360
2EB
102
}
330
1
100
AcDbSymbolTableRecord
100
AcDbBlockTableRecord
  2
*PAPER_SPACE
  0
BLOCK_RECORD
  5
3F
330
1
100
AcDbSymbolTableRecord
100
AcDbBlockTableRecord
  2
*D0
  0
BLOCK_RECORD
  5
4A
330
1
100
AcDbSymbolTableRecord
100
AcDbBlockTableRecord
  2
*D1
  0
BLOCK_RECORD
  5
55
330
1
100
AcDbSymbolTableRecord
100
AcDbBlockTableRecord
  2
*D2
  0
BLOCK_RECORD
  5
60
330
1
100
AcDbSymbolTableRecord
100
AcDbBlockTableRecord
  2
*D3
  0
BLOCK_RECORD
  5
6A
330
1
100
AcDbSymbolTableRecord
100
AcDbBlockTableRecord
  2
*D4
  0
BLOCK_RECORD
  5
74
330
1
100
AcDbSymbolTableRecord
100
AcDbBlockTableRecord
  2
*D5
  0
BLOCK_RECORD
  5
7F
330
1
100
AcDbSymbolTableRecord
100
AcDbBlockTableRecord
  2
*D6
  0
BLOCK_RECORD
  5
88
330
1
100
AcDbSymbolTableRecord
100
AcDbBlockTableRecord
  2
*D7
  0
BLOCK_RECORD
  5
92
330
1
100
AcDbSymbolTableRecord
100
AcDbBlockTableRecord
  2
*D8
  0
BLOCK_RECORD
  5
9D
330
1
100
AcDbSymbolTableRecord
100
AcDbBlockTableRecord
  2
*D9
  0
BLOCK_RECORD
  5
A7
330
1
100
AcDbSymbolTableRecord
100
AcDbBlockTableRecord
  2
*D10
  0
BLOCK_RECORD
  5
B1
330
1
100
AcDbSymbolTableRecord
100
AcDbBlockTableRecord
  2
FXDIM0000
  0
BLOCK_RECORD
  5
B5
330
1
100
AcDbSymbolTableRecord
100
AcDbBlockTableRecord
  2
*D12
  0
BLOCK_RECORD
  5
BE
330
1
100
AcDbSymbolTableRecord
100
AcDbBlockTableRecord
  2
*D13
  0
BLOCK_RECORD
  5
C9
330
1
100
AcDbSymbolTableRecord
100
AcDbBlockTableRecord
  2
*D14
  0
BLOCK_RECORD
  5
D2
330
1
100
AcDbSymbolTableRecord
100
AcDbBlockTableRecord
  2
*D15
  0
BLOCK_RECORD
  5
DD
330
1
100
AcDbSymbolTableRecord
100
AcDbBlockTableRecord
  2
*D16
  0
BLOCK_RECORD
  5
E8
330
1
100
AcDbSymbolTableRecord
100
AcDbBlockTableRecord
  2
*D17
  0
BLOCK_RECORD
  5
F3
330
1
100
AcDbSymbolTableRecord
100
AcDbBlockTableRecord
  2
*D18
  0
BLOCK_RECORD
  5
FA
330
1
100
AcDbSymbolTableRecord
100
AcDbBlockTableRecord
  2
*D19
  0
BLOCK_RECORD
  5
105
330
1
100
AcDbSymbolTableRecord
100
AcDbBlockTableRecord
  2
*D20
  0
BLOCK_RECORD
  5
110
330
1
100
AcDbSymbolTableRecord
100
AcDbBlockTableRecord
  2
FXDIM0001
  0
BLOCK_RECORD
  5
118
330
1
100
AcDbSymbolTableRecord
100
AcDbBlockTableRecord
  2
*D22
  0
BLOCK_RECORD
  5
121
330
1
100
AcDbSymbolTableRecord
100
AcDbBlockTableRecord
  2
*D23
  0
BLOCK_RECORD
  5
12C
330
1
100
AcDbSymbolTableRecord
100
AcDbBlockTableRecord
  2
*D24
  0
BLOCK_RECORD
  5
137
330
1
100
AcDbSymbolTableRecord
100
AcDbBlockTableRecord
  2
*D25
  0
BLOCK_RECORD
  5
142
330
1
100
AcDbSymbolTableRecord
100
AcDbBlockTableRecord
  2
FXDIM0002
  0
BLOCK_RECORD
  5
14A
330
1
100
AcDbSymbolTableRecord
100
AcDbBlockTableRecord
  2
FXDIM0003
  0
BLOCK_RECORD
  5
152
330
1
100
AcDbSymbolTableRecord
100
AcDbBlockTableRecord
  2
FXDIM0004
  0
BLOCK_RECORD
  5
15A
330
1
100
AcDbSymbolTableRecord
100
AcDbBlockTableRecord
  2
*D29
  0
BLOCK_RECORD
  5
165
330
1
100
AcDbSymbolTableRecord
100
AcDbBlockTableRecord
  2
*D30
  0
BLOCK_RECORD
  5
2F0
330
1
100
AcDbSymbolTableRecord
100
AcDbBlockTableRecord
  2
*D31
  0
ENDTAB
  0
ENDSEC
  0
SECTION
  2
BLOCKS
  0
BLOCK
  5
1F
330
1E
100
AcDbEntity
  8
0
100
AcDbBlockBegin
  2
*MODEL_SPACE
 70
     0
 10
0.0
 20
0.0
 30
0.0
  3
*MODEL_SPACE
  1

  0
ENDBLK
  5
20
330
1E
100
AcDbEntity
  8
0
100
AcDbBlockEnd
  0
BLOCK
  5
1B
330
1A
100
AcDbEntity
 67
     1
  8
0
100
AcDbBlockBegin
  2
*PAPER_SPACE
 70
     0
 10
0.0
 20
0.0
 30
0.0
  3
*PAPER_SPACE
  1

  0
ENDBLK
  5
1C
330
1A
100
AcDbEntity
 67
     1
  8
0
100
AcDbBlockEnd
  0
BLOCK
  5
40
330
3F
100
AcDbEntity
  8
0
100
AcDbBlockBegin
  2
*D0
 70
     1
 10
0.0
 20
0.0
 30
0.0
  3
*D0
  1

  0
TEXT
  5
41
330
3F
100
AcDbEntity
  8
CSLAYER1
 62
     4
100
AcDbText
 10
54.354801
 20
191.0628629999999
 30
0.0
 40
3.2
  1
36
 50
90.0
 41
1.199999999999995
 51
15.0
  7
FX_FONT
 72
     5
 11
54.354801
 21
197.4628629999999
 31
0.0
100
AcDbText
  0
LINE
  5
42
330
3F
100
AcDbEntity
  8
CSLAYER1
  6
CONTINUOUS
 62
     4
100
AcDbLine
 10
66.70857099999999
 20
176.2628569999999
 30
0.0
 11
53.854812
 21
176.2628569999999
 31
0.0
  0
LINE
  5
43
330
3F
100
AcDbEntity
  8
CSLAYER1
  6
CONTINUOUS
 62
     4
100
AcDbLine
 10
66.70857099999999
 20
212.2628569999998
 30
0.0
 11
53.854812
 21
212.2628569999998
 31
0.0
  0
LINE
  5
44
330
3F
100
AcDbEntity
  8
CSLAYER1
  6
CONTINUOUS
 62
     4
100
AcDbLine
 10
54.854812
 20
176.2628569999999
 30
0.0
 11
54.854812
 21
212.2628569999998
 31
0.0
  0
LINE
  5
45
330
3F
100
AcDbEntity
  8
CSLAYER1
  6
CONTINUOUS
 62
     4
100
AcDbLine
 10
54.854812
 20
176.2628569999999
 30
0.0
 11
54.078355
 21
179.160635
 31
0.0
  0
LINE
  5
46
330
3F
100
AcDbEntity
  8
CSLAYER1
  6
CONTINUOUS
 62
     4
100
AcDbLine
 10
54.854812
 20
176.2628569999999
 30
0.0
 11
55.631269
 21
179.160635
 31
0.0
  0
LINE
  5
47
330
3F
100
AcDbEntity
  8
CSLAYER1
  6
CONTINUOUS
 62
     4
100
AcDbLine
 10
54.854812
 20
212.2628569999998
 30
0.0
 11
54.078355
 21
209.36508
 31
0.0
  0
LINE
  5
48
330
3F
100
AcDbEntity
  8
CSLAYER1
  6
CONTINUOUS
 62
     4
100
AcDbLine
 10
54.854812
 20
212.2628569999998
 30
0.0
 11
55.631269
 21
209.36508
 31
0.0
  0
ENDBLK
  5
49
330
3F
100
AcDbEntity
  8
0
100
AcDbBlockEnd
  0
BLOCK
  5
4B
330
4A
100
AcDbEntity
  8
0
100
AcDbBlockBegin
  2
*D1
 70
     1
 10
0.0
 20
0.0
 30
0.0
  3
*D1
  1

  0
TEXT
  5
4C
330
4A
100
AcDbEntity
  8
CSLAYER1
 62
     4
100
AcDbText
 10
82.50858800000001
 20
233.14386
 30
0.0
 40
3.2
  1
36
 41
1.199999999999995
 51
15.0
  7
FX_FONT
 72
     5
 11
88.908588
 21
233.14386
 31
0.0
100
AcDbText
  0
LINE
  5
4D
330
4A
100
AcDbEntity
  8
CSLAYER1
  6
CONTINUOUS
 62
     4
100
AcDbLine
 10
67.70857099999999
 20
213.262857
 30
0.0
 11
67.70857099999999
 21
233.643855
 31
0.0
  0
LINE
  5
4E
330
4A
100
AcDbEntity
  8
CSLAYER1
  6
CONTINUOUS
 62
     4
100
AcDbLine
 10
103.7085709999999
 20
213.262857
 30
0.0
 11
103.7085709999999
 21
233.643855
 31
0.0
  0
LINE
  5
4F
330
4A
100
AcDbEntity
  8
CSLAYER1
  6
CONTINUOUS
 62
     4
100
AcDbLine
 10
67.70857099999999
 20
232.6438549999999
 30
0.0
 11
103.7085709999999
 21
232.6438549999999
 31
0.0
  0
LINE
  5
50
330
4A
100
AcDbEntity
  8
CSLAYER1
  6
CONTINUOUS
 62
     4
100
AcDbLine
 10
67.70857099999999
 20
232.6438549999999
 30
0.0
 11
70.606349
 21
233.420312
 31
0.0
  0
LINE
  5
51
330
4A
100
AcDbEntity
  8
CSLAYER1
  6
CONTINUOUS
 62
     4
100
AcDbLine
 10
67.70857099999999
 20
232.6438549999999
 30
0.0
 11
70.606349
 21
231.867398
 31
0.0
  0
LINE
  5
52
330
4A
100
AcDbEntity
  8
CSLAYER1
  6
CONTINUOUS
 62
     4
100
AcDbLine
 10
103.7085709999999
 20
232.6438549999999
 30
0.0
 11
100.8107939999999
 21
233.420312
 31
0.0
  0
LINE
  5
53
330
4A
100
AcDbEntity
  8
CSLAYER1
  6
CONTINUOUS
 62
     4
100
AcDbLine
 10
103.7085709999999
 20
232.6438549999999
 30
0.0
 11
100.8107939999999
 21
231.867398
 31
0.0
  0
ENDBLK
  5
54
330
4A
100
AcDbEntity
  8
0
100
AcDbBlockEnd
  0
BLOCK
  5
56
330
55
100
AcDbEntity
  8
0
100
AcDbBlockBegin
  2
*D2
 70
     1
 10
0.0
 20
0.0
 30
0.0
  3
*D2
  1

  0
TEXT
  5
57
330
55
100
AcDbEntity
  8
CSLAYER1
 62
     4
100
AcDbText
 10
148.850128
 20
191.0628629999999
 30
0.0
 40
3.2
  1
15
 50
90.0
 41
1.199999999999995
 51
15.0
  7
FX_FONT
 72
     5
 11
148.850128
 21
197.4628629999999
 31
0.0
100
AcDbText
  0
LINE
  5
58
330
55
100
AcDbEntity
  8
CSLAYER1
  6
CONTINUOUS
 62
     4
100
AcDbLine
 10
160.574286
 20
186.7628569999999
 30
0.0
 11
148.350147
 21
186.7628569999999
 31
0.0
  0
LINE
  5
59
330
55
100
AcDbEntity
  8
CSLAYER1
  6
CONTINUOUS
 62
     4
100
AcDbLine
 10
160.574286
 20
201.7628569999998
 30
0.0
 11
148.350147
 21
201.7628569999998
 31
0.0
  0
LINE
  5
5A
330
55
100
AcDbEntity
  8
CSLAYER1
  6
CONTINUOUS
 62
     4
100
AcDbLine
 10
149.3501469999999
 20
186.7628569999999
 30
0.0
 11
149.3501469999999
 21
201.7628569999998
 31
0.0
  0
LINE
  5
5B
330
55
100
AcDbEntity
  8
CSLAYER1
  6
CONTINUOUS
 62
     4
100
AcDbLine
 10
149.3501469999999
 20
186.7628569999999
 30
0.0
 11
148.57369
 21
189.660635
 31
0.0
  0
LINE
  5
5C
330
55
100
AcDbEntity
  8
CSLAYER1
  6
CONTINUOUS
 62
     4
100
AcDbLine
 10
149.3501469999999
 20
186.7628569999999
 30
0.0
 11
150.126604
 21
189.660635
 31
0.0
  0
LINE
  5
5D
330
55
100
AcDbEntity
  8
CSLAYER1
  6
CONTINUOUS
 62
     4
100
AcDbLine
 10
149.3501469999999
 20
201.7628569999998
 30
0.0
 11
148.57369
 21
198.86508
 31
0.0
  0
LINE
  5
5E
330
55
100
AcDbEntity
  8
CSLAYER1
  6
CONTINUOUS
 62
     4
100
AcDbLine
 10
149.3501469999999
 20
201.7628569999998
 30
0.0
 11
150.126604
 21
198.86508
 31
0.0
  0
ENDBLK
  5
5F
330
55
100
AcDbEntity
  8
0
100
AcDbBlockEnd
  0
BLOCK
  5
61
330
60
100
AcDbEntity
  8
0
100
AcDbBlockBegin
  2
*D3
 70
     1
 10
0.0
 20
0.0
 30
0.0
  3
*D3
  1

  0
TEXT
  5
62
330
60
100
AcDbEntity
  8
CSLAYER1
 62
     4
100
AcDbText
 10
204.87431
 20
231.7097019999999
 30
0.0
 40
3.2
  1
93
 41
1.200000000000001
 51
15.0
  7
FX_FONT
 72
     5
 11
211.27431
 21
231.7097019999999
 31
0.0
100
AcDbText
  0
LINE
  5
63
330
60
100
AcDbEntity
  8
CSLAYER1
  6
CONTINUOUS
 62
     4
100
AcDbLine
 10
254.574286
 20
212.9628569999999
 30
0.0
 11
254.574286
 21
232.209693
 31
0.0
  0
LINE
  5
64
330
60
100
AcDbEntity
  8
CSLAYER1
  6
CONTINUOUS
 62
     4
100
AcDbLine
 10
161.574286
 20
231.209693
 30
0.0
 11
254.574286
 21
231.209693
 31
0.0
  0
LINE
  5
65
330
60
100
AcDbEntity
  8
CSLAYER1
  6
CONTINUOUS
 62
     4
100
AcDbLine
 10
161.574286
 20
231.209693
 30
0.0
 11
164.4720629999999
 21
231.9861509999999
 31
0.0
  0
LINE
  5
66
330
60
100
AcDbEntity
  8
CSLAYER1
  6
CONTINUOUS
 62
     4
100
AcDbLine
 10
161.574286
 20
231.209693
 30
0.0
 11
164.4720629999999
 21
230.433236
 31
0.0
  0
LINE
  5
67
330
60
100
AcDbEntity
  8
CSLAYER1
  6
CONTINUOUS
 62
     4
100
AcDbLine
 10
254.574286
 20
231.209693
 30
0.0
 11
251.676508
 21
231.9861509999999
 31
0.0
  0
LINE
  5
68
330
60
100
AcDbEntity
  8
CSLAYER1
  6
CONTINUOUS
 62
     4
100
AcDbLine
 10
254.574286
 20
231.209693
 30
0.0
 11
251.676508
 21
230.433236
 31
0.0
  0
ENDBLK
  5
69
330
60
100
AcDbEntity
  8
0
100
AcDbBlockEnd
  0
BLOCK
  5
6B
330
6A
100
AcDbEntity
  8
0
100
AcDbBlockBegin
  2
*D4
 70
     1
 10
0.0
 20
0.0
 30
0.0
  3
*D4
  1

  0
TEXT
  5
6C
330
6A
100
AcDbEntity
  8
CSLAYER1
 62
     4
100
AcDbText
 10
214.77431
 20
225.7097019999999
 30
0.0
 40
3.2
  1
70 
 41
1.153846153846153
 51
15.0
  7
FX_FONT
 72
     5
 11
224.37431
 21
225.7097019999999
 31
0.0
100
AcDbText
  0
LINE
  5
6D
330
6A
100
AcDbEntity
  8
CSLAYER1
  6
CONTINUOUS
 62
     4
100
AcDbLine
 10
184.574286
 20
213.262857
 30
0.0
 11
184.574286
 21
226.209693
 31
0.0
  0
LINE
  5
6E
330
6A
100
AcDbEntity
  8
CSLAYER1
  6
CONTINUOUS
 62
     4
100
AcDbLine
 10
184.574286
 20
225.2096929999999
 30
0.0
 11
254.574286
 21
225.2096929999999
 31
0.0
  0
LINE
  5
6F
330
6A
100
AcDbEntity
  8
CSLAYER1
  6
CONTINUOUS
 62
     4
100
AcDbLine
 10
184.574286
 20
225.2096929999999
 30
0.0
 11
187.4720629999999
 21
225.9861509999999
 31
0.0
  0
LINE
  5
70
330
6A
100
AcDbEntity
  8
CSLAYER1
  6
CONTINUOUS
 62
     4
100
AcDbLine
 10
184.574286
 20
225.2096929999999
 30
0.0
 11
187.4720629999999
 21
224.433236
 31
0.0
  0
LINE
  5
71
330
6A
100
AcDbEntity
  8
CSLAYER1
  6
CONTINUOUS
 62
     4
100
AcDbLine
 10
254.574286
 20
225.2096929999999
 30
0.0
 11
251.676508
 21
225.9861509999999
 31
0.0
  0
LINE
  5
72
330
6A
100
AcDbEntity
  8
CSLAYER1
  6
CONTINUOUS
 62
     4
100
AcDbLine
 10
254.574286
 20
225.2096929999999
 30
0.0
 11
251.676508
 21
224.433236
 31
0.0
  0
ENDBLK
  5
73
330
6A
100
AcDbEntity
  8
0
100
AcDbBlockEnd
  0
BLOCK
  5
75
330
74
100
AcDbEntity
  8
0
100
AcDbBlockBegin
  2
*D5
 70
     1
 10
0.0
 20
0.0
 30
0.0
  3
*D5
  1

  0
TEXT
  5
76
330
74
100
AcDbEntity
  8
CSLAYER1
 62
     4
100
AcDbText
 10
218.3742799999999
 20
219.7096859999999
 30
0.0
 40
3.2
  1
30
 41
1.200000000000001
 51
15.0
  7
FX_FONT
 72
     5
 11
224.7742799999999
 21
219.7096859999999
 31
0.0
100
AcDbText
  0
LINE
  5
77
330
74
100
AcDbEntity
  8
CSLAYER1
  6
CONTINUOUS
 62
     4
100
AcDbLine
 10
206.5742859999999
 20
219.209693
 30
0.0
 11
236.574286
 21
219.209693
 31
0.0
  0
LINE
  5
78
330
74
100
AcDbEntity
  8
CSLAYER1
  6
CONTINUOUS
 62
     4
100
AcDbLine
 10
206.5742859999999
 20
219.209693
 30
0.0
 11
209.4720629999999
 21
219.9861509999999
 31
0.0
  0
LINE
  5
79
330
74
100
AcDbEntity
  8
CSLAYER1
  6
CONTINUOUS
 62
     4
100
AcDbLine
 10
206.5742859999999
 20
219.209693
 30
0.0
 11
209.4720629999999
 21
218.4332359999999
 31
0.0
  0
LINE
  5
7A
330
74
100
AcDbEntity
  8
CSLAYER1
  6
CONTINUOUS
 62
     4
100
AcDbLine
 10
236.574286
 20
219.209693
 30
0.0
 11
233.676508
 21
219.9861509999999
 31
0.0
  0
LINE
  5
7B
330
74
100
AcDbEntity
  8
CSLAYER1
  6
CONTINUOUS
 62
     4
100
AcDbLine
 10
236.574286
 20
219.209693
 30
0.0
 11
233.676508
 21
218.4332359999999
 31
0.0
  0
LINE
  5
7C
330
74
100
AcDbEntity
  8
CSLAYER1
  6
CONTINUOUS
 62
     4
100
AcDbLine
 10
206.5742859999999
 20
215.435143
 30
0.0
 11
206.5742859999999
 21
220.209693
 31
0.0
  0
LINE
  5
7D
330
74
100
AcDbEntity
  8
CSLAYER1
  6
CONTINUOUS
 62
     4
100
AcDbLine
 10
236.574286
 20
215.2314259999999
 30
0.0
 11
236.574286
 21
220.209693
 31
0.0
  0
ENDBLK
  5
7E
330
74
100
AcDbEntity
  8
0
100
AcDbBlockEnd
  0
BLOCK
  5
80
330
7F
100
AcDbEntity
  8
0
100
AcDbBlockBegin
  2
*D6
 70
     1
 10
0.0
 20
0.0
 30
0.0
  3
*D6
  1

  0
TEXT
  5
81
330
7F
100
AcDbEntity
  8
CSLAYER1
 62
     4
100
AcDbText
 10
242.37431
 20
219.709702
 30
0.0
 40
3.2
  1
18
 41
1.200000000000001
 51
15.0
  7
FX_FONT
 72
     5
 11
248.77431
 21
219.709702
 31
0.0
100
AcDbText
  0
LINE
  5
82
330
7F
100
AcDbEntity
  8
CSLAYER1
  6
CONTINUOUS
 62
     4
100
AcDbLine
 10
236.574286
 20
219.209693
 30
0.0
 11
254.574286
 21
219.209693
 31
0.0
  0
LINE
  5
83
330
7F
100
AcDbEntity
  8
CSLAYER1
  6
CONTINUOUS
 62
     4
100
AcDbLine
 10
236.574286
 20
219.209693
 30
0.0
 11
239.472063
 21
219.9861509999999
 31
0.0
  0
LINE
  5
84
330
7F
100
AcDbEntity
  8
CSLAYER1
  6
CONTINUOUS
 62
     4
100
AcDbLine
 10
236.574286
 20
219.209693
 30
0.0
 11
239.472063
 21
218.4332359999999
 31
0.0
  0
LINE
  5
85
330
7F
100
AcDbEntity
  8
CSLAYER1
  6
CONTINUOUS
 62
     4
100
AcDbLine
 10
254.574286
 20
219.209693
 30
0.0
 11
251.676508
 21
219.9861509999999
 31
0.0
  0
LINE
  5
86
330
7F
100
AcDbEntity
  8
CSLAYER1
  6
CONTINUOUS
 62
     4
100
AcDbLine
 10
254.574286
 20
219.209693
 30
0.0
 11
251.676508
 21
218.4332359999999
 31
0.0
  0
ENDBLK
  5
87
330
7F
100
AcDbEntity
  8
0
100
AcDbBlockEnd
  0
BLOCK
  5
89
330
88
100
AcDbEntity
  8
0
100
AcDbBlockBegin
  2
*D7
 70
     1
 10
0.0
 20
0.0
 30
0.0
  3
*D7
  1

  0
TEXT
  5
8A
330
88
100
AcDbEntity
  8
CSLAYER1
 62
     4
100
AcDbText
 10
163.47431
 20
226.0837399999999
 30
0.0
 40
3.2
  1
7
 41
1.500000000000008
 51
15.0
  7
FX_FONT
 72
     5
 11
166.67431
 21
226.0837399999999
 31
0.0
100
AcDbText
  0
LINE
  5
8B
330
88
100
AcDbEntity
  8
CSLAYER1
  6
CONTINUOUS
 62
     4
100
AcDbLine
 10
168.5742859999999
 20
197.2628569999999
 30
0.0
 11
168.5742859999999
 21
226.5837459999999
 31
0.0
  0
LINE
  5
8C
330
88
100
AcDbEntity
  8
CSLAYER1
  6
CONTINUOUS
 62
     4
100
AcDbLine
 10
161.574286
 20
225.5837459999999
 30
0.0
 11
168.5742859999999
 21
225.5837459999999
 31
0.0
  0
LINE
  5
8D
330
88
100
AcDbEntity
  8
CSLAYER1
  6
CONTINUOUS
 62
     4
100
AcDbLine
 10
161.574286
 20
225.5837459999999
 30
0.0
 11
164.4720629999999
 21
226.3602029999999
 31
0.0
  0
LINE
  5
8E
330
88
100
AcDbEntity
  8
CSLAYER1
  6
CONTINUOUS
 62
     4
100
AcDbLine
 10
161.574286
 20
225.5837459999999
 30
0.0
 11
164.4720629999999
 21
224.807289
 31
0.0
  0
LINE
  5
8F
330
88
100
AcDbEntity
  8
CSLAYER1
  6
CONTINUOUS
 62
     4
100
AcDbLine
 10
168.5742859999999
 20
225.5837459999999
 30
0.0
 11
165.676508
 21
226.3602029999999
 31
0.0
  0
LINE
  5
90
330
88
100
AcDbEntity
  8
CSLAYER1
  6
CONTINUOUS
 62
     4
100
AcDbLine
 10
168.5742859999999
 20
225.5837459999999
 30
0.0
 11
165.676508
 21
224.807289
 31
0.0
  0
ENDBLK
  5
91
330
88
100
AcDbEntity
  8
0
100
AcDbBlockEnd
  0
BLOCK
  5
93
330
92
100
AcDbEntity
  8
0
100
AcDbBlockBegin
  2
*D8
 70
     1
 10
0.0
 20
0.0
 30
0.0
  3
*D8
  1

  0
TEXT
  5
94
330
92
100
AcDbEntity
  8
CSLAYER1
 62
     4
100
AcDbText
 10
215.87431
 20
164.151428
 30
0.0
 40
3.2
  1
17
 41
1.200000000000001
 51
15.0
  7
FX_FONT
 72
     5
 11
222.27431
 21
164.151428
 31
0.0
100
AcDbText
  0
LINE
  5
95
330
92
100
AcDbEntity
  8
CSLAYER1
  6
CONTINUOUS
 62
     4
100
AcDbLine
 10
210.5742859999998
 20
175.2628569999999
 30
0.0
 11
210.5742859999998
 21
162.651432
 31
0.0
  0
LINE
  5
96
330
92
100
AcDbEntity
  8
CSLAYER1
  6
CONTINUOUS
 62
     4
100
AcDbLine
 10
227.574286
 20
175.2628569999999
 30
0.0
 11
227.574286
 21
162.651432
 31
0.0
  0
LINE
  5
97
330
92
100
AcDbEntity
  8
CSLAYER1
  6
CONTINUOUS
 62
     4
100
AcDbLine
 10
210.5742859999998
 20
163.651432
 30
0.0
 11
227.574286
 21
163.651432
 31
0.0
  0
LINE
  5
98
330
92
100
AcDbEntity
  8
CSLAYER1
  6
CONTINUOUS
 62
     4
100
AcDbLine
 10
210.5742859999998
 20
163.651432
 30
0.0
 11
213.4720629999999
 21
164.427889
 31
0.0
  0
LINE
  5
99
330
92
100
AcDbEntity
  8
CSLAYER1
  6
CONTINUOUS
 62
     4
100
AcDbLine
 10
210.5742859999998
 20
163.651432
 30
0.0
 11
213.4720629999999
 21
162.874975
 31
0.0
  0
LINE
  5
9A
330
92
100
AcDbEntity
  8
CSLAYER1
  6
CONTINUOUS
 62
     4
100
AcDbLine
 10
227.574286
 20
163.651432
 30
0.0
 11
224.676508
 21
164.427889
 31
0.0
  0
LINE
  5
9B
330
92
100
AcDbEntity
  8
CSLAYER1
  6
CONTINUOUS
 62
     4
100
AcDbLine
 10
227.574286
 20
163.651432
 30
0.0
 11
224.676508
 21
162.874975
 31
0.0
  0
ENDBLK
  5
9C
330
92
100
AcDbEntity
  8
0
100
AcDbBlockEnd
  0
BLOCK
  5
9E
330
9D
100
AcDbEntity
  8
0
100
AcDbBlockBegin
  2
*D9
 70
     1
 10
0.0
 20
0.0
 30
0.0
  3
*D9
  1

  0
TEXT
  5
9F
330
9D
100
AcDbEntity
  8
CSLAYER1
 62
     4
100
AcDbText
 10
237.87431
 20
164.151428
 30
0.0
 40
3.2
  1
27
 41
1.200000000000001
 51
15.0
  7
FX_FONT
 72
     5
 11
244.27431
 21
164.151428
 31
0.0
100
AcDbText
  0
LINE
  5
A0
330
9D
100
AcDbEntity
  8
CSLAYER1
  6
CONTINUOUS
 62
     4
100
AcDbLine
 10
254.574286
 20
175.2628569999999
 30
0.0
 11
254.574286
 21
162.651432
 31
0.0
  0
LINE
  5
A1
330
9D
100
AcDbEntity
  8
CSLAYER1
  6
CONTINUOUS
 62
     4
100
AcDbLine
 10
227.574286
 20
163.651432
 30
0.0
 11
254.574286
 21
163.651432
 31
0.0
  0
LINE
  5
A2
330
9D
100
AcDbEntity
  8
CSLAYER1
  6
CONTINUOUS
 62
     4
100
AcDbLine
 10
227.574286
 20
163.651432
 30
0.0
 11
230.4720629999999
 21
164.427889
 31
0.0
  0
LINE
  5
A3
330
9D
100
AcDbEntity
  8
CSLAYER1
  6
CONTINUOUS
 62
     4
100
AcDbLine
 10
227.574286
 20
163.651432
 30
0.0
 11
230.4720629999999
 21
162.874975
 31
0.0
  0
LINE
  5
A4
330
9D
100
AcDbEntity
  8
CSLAYER1
  6
CONTINUOUS
 62
     4
100
AcDbLine
 10
254.574286
 20
163.651432
 30
0.0
 11
251.676508
 21
164.427889
 31
0.0
  0
LINE
  5
A5
330
9D
100
AcDbEntity
  8
CSLAYER1
  6
CONTINUOUS
 62
     4
100
AcDbLine
 10
254.574286
 20
163.651432
 30
0.0
 11
251.676508
 21
162.874975
 31
0.0
  0
ENDBLK
  5
A6
330
9D
100
AcDbEntity
  8
0
100
AcDbBlockEnd
  0
BLOCK
  5
A8
330
A7
100
AcDbEntity
  8
0
100
AcDbBlockBegin
  2
*D10
 70
     1
 10
0.0
 20
0.0
 30
0.0
  3
*D10
  1

  0
TEXT
  5
A9
330
A7
100
AcDbEntity
  8
CSLAYER1
 62
     4
100
AcDbText
 10
244.37431
 20
170.151428
 30
0.0
 40
3.2
  1
14
 41
1.200000000000001
 51
15.0
  7
FX_FONT
 72
     5
 11
250.77431
 21
170.151428
 31
0.0
100
AcDbText
  0
LINE
  5
AA
330
A7
100
AcDbEntity
  8
CSLAYER1
  6
CONTINUOUS
 62
     4
100
AcDbLine
 10
240.574286
 20
175.2628569999999
 30
0.0
 11
240.574286
 21
168.651432
 31
0.0
  0
LINE
  5
AB
330
A7
100
AcDbEntity
  8
CSLAYER1
  6
CONTINUOUS
 62
     4
100
AcDbLine
 10
240.574286
 20
169.651432
 30
0.0
 11
254.574286
 21
169.651432
 31
0.0
  0
LINE
  5
AC
330
A7
100
AcDbEntity
  8
CSLAYER1
  6
CONTINUOUS
 62
     4
100
AcDbLine
 10
240.574286
 20
169.651432
 30
0.0
 11
243.472063
 21
170.4278889999999
 31
0.0
  0
LINE
  5
AD
330
A7
100
AcDbEntity
  8
CSLAYER1
  6
CONTINUOUS
 62
     4
100
AcDbLine
 10
240.574286
 20
169.651432
 30
0.0
 11
243.472063
 21
168.874975
 31
0.0
  0
LINE
  5
AE
330
A7
100
AcDbEntity
  8
CSLAYER1
  6
CONTINUOUS
 62
     4
100
AcDbLine
 10
254.574286
 20
169.651432
 30
0.0
 11
251.676508
 21
170.4278889999999
 31
0.0
  0
LINE
  5
AF
330
A7
100
AcDbEntity
  8
CSLAYER1
  6
CONTINUOUS
 62
     4
100
AcDbLine
 10
254.574286
 20
169.651432
 30
0.0
 11
251.676508
 21
168.874975
 31
0.0
  0
ENDBLK
  5
B0
330
A7
100
AcDbEntity
  8
0
100
AcDbBlockEnd
  0
BLOCK
  5
B2
330
B1
100
AcDbEntity
  8
0
100
AcDbBlockBegin
  2
FXDIM0000
 70
     0
 10
0.0
 20
0.0
 30
0.0
  3
FXDIM0000
  1

  0
LINE
  5
B3
330
B1
100
AcDbEntity
  8
CSLAYER1
  6
CONTINUOUS
 62
     4
100
AcDbLine
 10
259.5742859999999
 20
213.262857
 30
0.0
 11
259.5742859999999
 21
226.9782859999998
 31
0.0
  0
ENDBLK
  5
B4
330
B1
100
AcDbEntity
  8
0
100
AcDbBlockEnd
  0
BLOCK
  5
B6
330
B5
100
AcDbEntity
  8
0
100
AcDbBlockBegin
  2
*D12
 70
     1
 10
0.0
 20
0.0
 30
0.0
  3
*D12
  1

  0
TEXT
  5
B7
330
B5
100
AcDbEntity
  8
CSLAYER1
 62
     4
100
AcDbText
 10
263.874249
 20
225.7096859999999
 30
0.0
 40
3.2
  1
15
 41
1.199999999999985
 51
15.0
  7
FX_FONT
 72
     5
 11
270.2742489999999
 21
225.7096859999999
 31
0.0
100
AcDbText
  0
LINE
  5
B8
330
B5
100
AcDbEntity
  8
CSLAYER1
  6
CONTINUOUS
 62
     4
100
AcDbLine
 10
259.5742859999999
 20
225.2096929999999
 30
0.0
 11
274.5742859999999
 21
225.2096929999999
 31
0.0
  0
LINE
  5
B9
330
B5
100
AcDbEntity
  8
CSLAYER1
  6
CONTINUOUS
 62
     4
100
AcDbLine
 10
259.5742859999999
 20
225.2096929999999
 30
0.0
 11
262.472063
 21
225.9861509999999
 31
0.0
  0
LINE
  5
BA
330
B5
100
AcDbEntity
  8
CSLAYER1
  6
CONTINUOUS
 62
     4
100
AcDbLine
 10
259.5742859999999
 20
225.2096929999999
 30
0.0
 11
262.472063
 21
224.433236
 31
0.0
  0
LINE
  5
BB
330
B5
100
AcDbEntity
  8
CSLAYER1
  6
CONTINUOUS
 62
     4
100
AcDbLine
 10
274.5742859999999
 20
225.2096929999999
 30
0.0
 11
271.676508
 21
225.9861509999999
 31
0.0
  0
LINE
  5
BC
330
B5
100
AcDbEntity
  8
CSLAYER1
  6
CONTINUOUS
 62
     4
100
AcDbLine
 10
274.5742859999999
 20
225.2096929999999
 30
0.0
 11
271.676508
 21
224.433236
 31
0.0
  0
ENDBLK
  5
BD
330
B5
100
AcDbEntity
  8
0
100
AcDbBlockEnd
  0
BLOCK
  5
BF
330
BE
100
AcDbEntity
  8
0
100
AcDbBlockBegin
  2
*D13
 70
     1
 10
0.0
 20
0.0
 30
0.0
  3
*D13
  1

  0
TEXT
  5
C0
330
BE
100
AcDbEntity
  8
CSLAYER1
 62
     4
100
AcDbText
 10
197.053925
 20
191.0628629999999
 30
0.0
 40
3.2
  1
28
 50
90.0
 41
1.199999999999995
 51
15.0
  7
FX_FONT
 72
     5
 11
197.053925
 21
197.4628629999999
 31
0.0
100
AcDbText
  0
LINE
  5
C1
330
BE
100
AcDbEntity
  8
CSLAYER1
  6
CONTINUOUS
 62
     4
100
AcDbLine
 10
200.6954289999999
 20
180.2628569999999
 30
0.0
 11
196.553922
 21
180.2628569999999
 31
0.0
  0
LINE
  5
C2
330
BE
100
AcDbEntity
  8
CSLAYER1
  6
CONTINUOUS
 62
     4
100
AcDbLine
 10
200.6954289999999
 20
208.2628569999999
 30
0.0
 11
196.553922
 21
208.2628569999999
 31
0.0
  0
LINE
  5
C3
330
BE
100
AcDbEntity
  8
CSLAYER1
  6
CONTINUOUS
 62
     4
100
AcDbLine
 10
197.553922
 20
180.2628569999999
 30
0.0
 11
197.553922
 21
208.2628569999999
 31
0.0
  0
LINE
  5
C4
330
BE
100
AcDbEntity
  8
CSLAYER1
  6
CONTINUOUS
 62
     4
100
AcDbLine
 10
197.553922
 20
180.2628569999999
 30
0.0
 11
196.7774649999999
 21
183.160635
 31
0.0
  0
LINE
  5
C5
330
BE
100
AcDbEntity
  8
CSLAYER1
  6
CONTINUOUS
 62
     4
100
AcDbLine
 10
197.553922
 20
180.2628569999999
 30
0.0
 11
198.33038
 21
183.160635
 31
0.0
  0
LINE
  5
C6
330
BE
100
AcDbEntity
  8
CSLAYER1
  6
CONTINUOUS
 62
     4
100
AcDbLine
 10
197.553922
 20
208.2628569999999
 30
0.0
 11
196.7774649999999
 21
205.36508
 31
0.0
  0
LINE
  5
C7
330
BE
100
AcDbEntity
  8
CSLAYER1
  6
CONTINUOUS
 62
     4
100
AcDbLine
 10
197.553922
 20
208.2628569999999
 30
0.0
 11
198.33038
 21
205.36508
 31
0.0
  0
ENDBLK
  5
C8
330
BE
100
AcDbEntity
  8
0
100
AcDbBlockEnd
  0
BLOCK
  5
CA
330
C9
100
AcDbEntity
  8
0
100
AcDbBlockBegin
  2
*D14
 70
     1
 10
0.0
 20
0.0
 30
0.0
  3
*D14
  1

  0
TEXT
  5
CB
330
C9
100
AcDbEntity
  8
CSLAYER1
 62
     4
100
AcDbText
 10
222.55014
 20
113.842862
 30
0.0
 40
3.2
  1
28
 50
90.0
 41
1.200000000000001
 51
15.0
  7
FX_FONT
 72
     5
 11
222.55014
 21
120.242862
 31
0.0
100
AcDbText
  0
LINE
  5
CC
330
C9
100
AcDbEntity
  8
CSLAYER1
  6
CONTINUOUS
 62
     4
100
AcDbLine
 10
223.0501339999999
 20
103.0428569999999
 30
0.0
 11
223.0501339999999
 21
131.042857
 31
0.0
  0
LINE
  5
CD
330
C9
100
AcDbEntity
  8
CSLAYER1
  6
CONTINUOUS
 62
     4
100
AcDbLine
 10
223.0501339999999
 20
103.0428569999999
 30
0.0
 11
222.273677
 21
105.940635
 31
0.0
  0
LINE
  5
CE
330
C9
100
AcDbEntity
  8
CSLAYER1
  6
CONTINUOUS
 62
     4
100
AcDbLine
 10
223.0501339999999
 20
103.0428569999999
 30
0.0
 11
223.8265909999999
 21
105.940635
 31
0.0
  0
LINE
  5
CF
330
C9
100
AcDbEntity
  8
CSLAYER1
  6
CONTINUOUS
 62
     4
100
AcDbLine
 10
223.0501339999999
 20
131.042857
 30
0.0
 11
222.273677
 21
128.14508
 31
0.0
  0
LINE
  5
D0
330
C9
100
AcDbEntity
  8
CSLAYER1
  6
CONTINUOUS
 62
     4
100
AcDbLine
 10
223.0501339999999
 20
131.042857
 30
0.0
 11
223.8265909999999
 21
128.14508
 31
0.0
  0
ENDBLK
  5
D1
330
C9
100
AcDbEntity
  8
0
100
AcDbBlockEnd
  0
BLOCK
  5
D3
330
D2
100
AcDbEntity
  8
0
100
AcDbBlockBegin
  2
*D15
 70
     1
 10
0.0
 20
0.0
 30
0.0
  3
*D15
  1

  0
TEXT
  5
D4
330
D2
100
AcDbEntity
  8
CSLAYER1
 62
     4
100
AcDbText
 10
213.37431
 20
86.970039
 30
0.0
 40
3.2
  1
30
 41
1.200000000000001
 51
15.0
  7
FX_FONT
 72
     5
 11
219.77431
 21
86.970039
 31
0.0
100
AcDbText
  0
LINE
  5
D5
330
D2
100
AcDbEntity
  8
CSLAYER1
  6
CONTINUOUS
 62
     4
100
AcDbLine
 10
201.574286
 20
94.36057099999999
 30
0.0
 11
201.574286
 21
85.470041
 31
0.0
  0
LINE
  5
D6
330
D2
100
AcDbEntity
  8
CSLAYER1
  6
CONTINUOUS
 62
     4
100
AcDbLine
 10
231.5742859999999
 20
94.80285700000001
 30
0.0
 11
231.5742859999999
 21
85.470041
 31
0.0
  0
LINE
  5
D7
330
D2
100
AcDbEntity
  8
CSLAYER1
  6
CONTINUOUS
 62
     4
100
AcDbLine
 10
201.574286
 20
86.47004100000001
 30
0.0
 11
231.5742859999999
 21
86.47004100000001
 31
0.0
  0
LINE
  5
D8
330
D2
100
AcDbEntity
  8
CSLAYER1
  6
CONTINUOUS
 62
     4
100
AcDbLine
 10
201.574286
 20
86.47004100000001
 30
0.0
 11
204.472063
 21
87.24649799999998
 31
0.0
  0
LINE
  5
D9
330
D2
100
AcDbEntity
  8
CSLAYER1
  6
CONTINUOUS
 62
     4
100
AcDbLine
 10
201.574286
 20
86.47004100000001
 30
0.0
 11
204.472063
 21
85.693584
 31
0.0
  0
LINE
  5
DA
330
D2
100
AcDbEntity
  8
CSLAYER1
  6
CONTINUOUS
 62
     4
100
AcDbLine
 10
231.5742859999999
 20
86.47004100000001
 30
0.0
 11
228.676508
 21
87.24649799999998
 31
0.0
  0
LINE
  5
DB
330
D2
100
AcDbEntity
  8
CSLAYER1
  6
CONTINUOUS
 62
     4
100
AcDbLine
 10
231.5742859999999
 20
86.47004100000001
 30
0.0
 11
228.676508
 21
85.693584
 31
0.0
  0
ENDBLK
  5
DC
330
D2
100
AcDbEntity
  8
0
100
AcDbBlockEnd
  0
BLOCK
  5
DE
330
DD
100
AcDbEntity
  8
0
100
AcDbBlockBegin
  2
*D16
 70
     1
 10
0.0
 20
0.0
 30
0.0
  3
*D16
  1

  0
TEXT
  5
DF
330
DD
100
AcDbEntity
  8
CSLAYER1
 62
     4
100
AcDbText
 10
218.2742859999999
 20
143.921432
 30
0.0
 40
3.2
  1
59.8
 41
1.090909090909089
 51
15.0
  7
FX_FONT
 72
     5
 11
231.0742859999999
 21
143.921432
 31
0.0
100
AcDbText
  0
LINE
  5
E0
330
DD
100
AcDbEntity
  8
CSLAYER1
  6
CONTINUOUS
 62
     4
100
AcDbLine
 10
194.774286
 20
124.042857
 30
0.0
 11
194.774286
 21
144.421429
 31
0.0
  0
LINE
  5
E1
330
DD
100
AcDbEntity
  8
CSLAYER1
  6
CONTINUOUS
 62
     4
100
AcDbLine
 10
254.574286
 20
136.042857
 30
0.0
 11
254.574286
 21
144.421429
 31
0.0
  0
LINE
  5
E2
330
DD
100
AcDbEntity
  8
CSLAYER1
  6
CONTINUOUS
 62
     4
100
AcDbLine
 10
194.774286
 20
143.421429
 30
0.0
 11
254.574286
 21
143.421429
 31
0.0
  0
LINE
  5
E3
330
DD
100
AcDbEntity
  8
CSLAYER1
  6
CONTINUOUS
 62
     4
100
AcDbLine
 10
194.774286
 20
143.421429
 30
0.0
 11
197.6720629999999
 21
144.197886
 31
0.0
  0
LINE
  5
E4
330
DD
100
AcDbEntity
  8
CSLAYER1
  6
CONTINUOUS
 62
     4
100
AcDbLine
 10
194.774286
 20
143.421429
 30
0.0
 11
197.6720629999999
 21
142.6449709999999
 31
0.0
  0
LINE
  5
E5
330
DD
100
AcDbEntity
  8
CSLAYER1
  6
CONTINUOUS
 62
     4
100
AcDbLine
 10
254.574286
 20
143.421429
 30
0.0
 11
251.676508
 21
144.197886
 31
0.0
  0
LINE
  5
E6
330
DD
100
AcDbEntity
  8
CSLAYER1
  6
CONTINUOUS
 62
     4
100
AcDbLine
 10
254.574286
 20
143.421429
 30
0.0
 11
251.676508
 21
142.6449709999999
 31
0.0
  0
ENDBLK
  5
E7
330
DD
100
AcDbEntity
  8
0
100
AcDbBlockEnd
  0
BLOCK
  5
E9
330
E8
100
AcDbEntity
  8
0
100
AcDbBlockBegin
  2
*D17
 70
     1
 10
0.0
 20
0.0
 30
0.0
  3
*D17
  1

  0
TEXT
  5
EA
330
E8
100
AcDbEntity
  8
CSLAYER1
 62
     4
100
AcDbText
 10
290.67514
 20
189.4628629999999
 30
0.0
 40
3.2
  1
%%c36
 50
90.0
 41
1.125000000000002
 51
15.0
  7
FX_FONT
 72
     5
 11
290.67514
 21
199.0628629999999
 31
0.0
100
AcDbText
  0
LINE
  5
EB
330
E8
100
AcDbEntity
  8
CSLAYER1
  6
CONTINUOUS
 62
     4
100
AcDbLine
 10
260.5742859999998
 20
176.2628569999999
 30
0.0
 11
292.175143
 21
176.2628569999999
 31
0.0
  0
LINE
  5
EC
330
E8
100
AcDbEntity
  8
CSLAYER1
  6
CONTINUOUS
 62
     4
100
AcDbLine
 10
260.5742859999998
 20
212.2628569999998
 30
0.0
 11
292.175143
 21
212.2628569999998
 31
0.0
  0
LINE
  5
ED
330
E8
100
AcDbEntity
  8
CSLAYER1
  6
CONTINUOUS
 62
     4
100
AcDbLine
 10
291.1751429999998
 20
176.2628569999999
 30
0.0
 11
291.1751429999998
 21
212.2628569999998
 31
0.0
  0
LINE
  5
EE
330
E8
100
AcDbEntity
  8
CSLAYER1
  6
CONTINUOUS
 62
     4
100
AcDbLine
 10
291.1751429999998
 20
176.2628569999999
 30
0.0
 11
290.3986859999998
 21
179.160635
 31
0.0
  0
LINE
  5
EF
330
E8
100
AcDbEntity
  8
CSLAYER1
  6
CONTINUOUS
 62
     4
100
AcDbLine
 10
291.1751429999998
 20
176.2628569999999
 30
0.0
 11
291.9515999999998
 21
179.160635
 31
0.0
  0
LINE
  5
F0
330
E8
100
AcDbEntity
  8
CSLAYER1
  6
CONTINUOUS
 62
     4
100
AcDbLine
 10
291.1751429999998
 20
212.2628569999998
 30
0.0
 11
290.3986859999998
 21
209.36508
 31
0.0
  0
LINE
  5
F1
330
E8
100
AcDbEntity
  8
CSLAYER1
  6
CONTINUOUS
 62
     4
100
AcDbLine
 10
291.1751429999998
 20
212.2628569999998
 30
0.0
 11
291.9515999999998
 21
209.36508
 31
0.0
  0
ENDBLK
  5
F2
330
E8
100
AcDbEntity
  8
0
100
AcDbBlockEnd
  0
BLOCK
  5
F4
330
F3
100
AcDbEntity
  8
0
100
AcDbBlockBegin
  2
*D18
 70
     1
 10
0.0
 20
0.0
 30
0.0
  3
*D18
  1

  0
TEXT
  5
F5
330
F3
100
AcDbEntity
  8
CSLAYER1
 62
     4
100
AcDbText
 10
174.387577
 20
93.12568400000001
 30
0.0
 40
3.2
  1
R14
 50
63.75695722450775
 41
1.125000022396924
 51
15.0
  7
FX_FONT
 72
     5
 11
178.632503
 21
101.736178
 31
0.0
100
AcDbText
  0
LINE
  5
F6
330
F3
100
AcDbEntity
  8
CSLAYER1
  6
CONTINUOUS
 62
     4
100
AcDbLine
 10
180.0537779999999
 20
103.488324
 30
0.0
 11
173.863261
 21
90.93135399999999
 31
0.0
  0
LINE
  5
F7
330
F3
100
AcDbEntity
  8
CSLAYER1
  6
CONTINUOUS
 62
     4
100
AcDbLine
 10
180.0537779999999
 20
103.488324
 30
0.0
 11
179.4688649999999
 21
100.545897
 31
0.0
  0
LINE
  5
F8
330
F3
100
AcDbEntity
  8
CSLAYER1
  6
CONTINUOUS
 62
     4
100
AcDbLine
 10
180.0537779999999
 20
103.488324
 30
0.0
 11
178.0760149999999
 21
101.232565
 31
0.0
  0
ENDBLK
  5
F9
330
F3
100
AcDbEntity
  8
0
100
AcDbBlockEnd
  0
BLOCK
  5
FB
330
FA
100
AcDbEntity
  8
0
100
AcDbBlockBegin
  2
*D19
 70
     1
 10
0.0
 20
0.0
 30
0.0
  3
*D19
  1

  0
TEXT
  5
FC
330
FA
100
AcDbEntity
  8
CSLAYER1
 62
     4
100
AcDbText
 10
82.50858800000001
 20
227.3303529999999
 30
0.0
 40
3.2
  1
23
 41
1.199999999999995
 51
15.0
  7
FX_FONT
 72
     5
 11
88.908588
 21
227.3303529999999
 31
0.0
100
AcDbText
  0
LINE
  5
FD
330
FA
100
AcDbEntity
  8
CSLAYER1
  6
CONTINUOUS
 62
     4
100
AcDbLine
 10
74.20857099999998
 20
200.4412669999999
 30
0.0
 11
74.20857099999998
 21
227.830354
 31
0.0
  0
LINE
  5
FE
330
FA
100
AcDbEntity
  8
CSLAYER1
  6
CONTINUOUS
 62
     4
100
AcDbLine
 10
97.20857100000001
 20
200.4412669999999
 30
0.0
 11
97.20857100000001
 21
227.830354
 31
0.0
  0
LINE
  5
FF
330
FA
100
AcDbEntity
  8
CSLAYER1
  6
CONTINUOUS
 62
     4
100
AcDbLine
 10
74.20857099999998
 20
226.830354
 30
0.0
 11
97.20857100000001
 21
226.830354
 31
0.0
  0
LINE
  5
100
330
FA
100
AcDbEntity
  8
CSLAYER1
  6
CONTINUOUS
 62
     4
100
AcDbLine
 10
74.20857099999998
 20
226.830354
 30
0.0
 11
77.10634899999998
 21
227.606811
 31
0.0
  0
LINE
  5
101
330
FA
100
AcDbEntity
  8
CSLAYER1
  6
CONTINUOUS
 62
     4
100
AcDbLine
 10
74.20857099999998
 20
226.830354
 30
0.0
 11
77.10634899999998
 21
226.053897
 31
0.0
  0
LINE
  5
102
330
FA
100
AcDbEntity
  8
CSLAYER1
  6
CONTINUOUS
 62
     4
100
AcDbLine
 10
97.20857100000001
 20
226.830354
 30
0.0
 11
94.31079399999999
 21
227.606811
 31
0.0
  0
LINE
  5
103
330
FA
100
AcDbEntity
  8
CSLAYER1
  6
CONTINUOUS
 62
     4
100
AcDbLine
 10
97.20857100000001
 20
226.830354
 30
0.0
 11
94.31079399999999
 21
226.053897
 31
0.0
  0
ENDBLK
  5
104
330
FA
100
AcDbEntity
  8
0
100
AcDbBlockEnd
  0
BLOCK
  5
106
330
105
100
AcDbEntity
  8
0
100
AcDbBlockBegin
  2
*D20
 70
     1
 10
0.0
 20
0.0
 30
0.0
  3
*D20
  1

  0
TEXT
  5
107
330
105
100
AcDbEntity
  8
CSLAYER1
 62
     4
100
AcDbText
 10
84.10858799999997
 20
221.3303529999999
 30
0.0
 40
3.2
  1
9
 41
1.500000000000007
 51
15.0
  7
FX_FONT
 72
     5
 11
87.308588
 21
221.3303529999999
 31
0.0
100
AcDbText
  0
LINE
  5
108
330
105
100
AcDbEntity
  8
CSLAYER1
  6
CONTINUOUS
 62
     4
100
AcDbLine
 10
81.208571
 20
213.262857
 30
0.0
 11
81.208571
 21
221.8303539999999
 31
0.0
  0
LINE
  5
109
330
105
100
AcDbEntity
  8
CSLAYER1
  6
CONTINUOUS
 62
     4
100
AcDbLine
 10
90.20857099999998
 20
213.262857
 30
0.0
 11
90.20857099999998
 21
221.8303539999999
 31
0.0
  0
LINE
  5
10A
330
105
100
AcDbEntity
  8
CSLAYER1
  6
CONTINUOUS
 62
     4
100
AcDbLine
 10
81.208571
 20
220.830354
 30
0.0
 11
90.20857099999998
 21
220.830354
 31
0.0
  0
LINE
  5
10B
330
105
100
AcDbEntity
  8
CSLAYER1
  6
CONTINUOUS
 62
     4
100
AcDbLine
 10
81.208571
 20
220.830354
 30
0.0
 11
84.10634899999998
 21
221.606811
 31
0.0
  0
LINE
  5
10C
330
105
100
AcDbEntity
  8
CSLAYER1
  6
CONTINUOUS
 62
     4
100
AcDbLine
 10
81.208571
 20
220.830354
 30
0.0
 11
84.10634899999998
 21
220.053897
 31
0.0
  0
LINE
  5
10D
330
105
100
AcDbEntity
  8
CSLAYER1
  6
CONTINUOUS
 62
     4
100
AcDbLine
 10
90.20857099999998
 20
220.830354
 30
0.0
 11
87.310794
 21
221.606811
 31
0.0
  0
LINE
  5
10E
330
105
100
AcDbEntity
  8
CSLAYER1
  6
CONTINUOUS
 62
     4
100
AcDbLine
 10
90.20857099999998
 20
220.830354
 30
0.0
 11
87.310794
 21
220.053897
 31
0.0
  0
ENDBLK
  5
10F
330
105
100
AcDbEntity
  8
0
100
AcDbBlockEnd
  0
BLOCK
  5
111
330
110
100
AcDbEntity
  8
0
100
AcDbBlockBegin
  2
FXDIM0001
 70
     0
 10
0.0
 20
0.0
 30
0.0
  3
FXDIM0001
  1

  0
LINE
  5
112
330
110
100
AcDbEntity
  8
CSLAYER1
  6
CONTINUOUS
 62
     4
100
AcDbLine
 10
205.635343
 20
178.496962
 30
0.0
 11
197.7513889999999
 21
163.669401
 31
0.0
  0
LINE
  5
113
330
110
100
AcDbEntity
  8
CSLAYER1
  6
CONTINUOUS
 62
     4
100
AcDbLine
 10
205.635343
 20
178.496962
 30
0.0
 11
204.9604889999999
 21
175.5738519999999
 31
0.0
  0
LINE
  5
114
330
110
100
AcDbEntity
  8
CSLAYER1
  6
CONTINUOUS
 62
     4
100
AcDbLine
 10
205.635343
 20
178.496962
 30
0.0
 11
203.5893479999999
 21
176.3029009999999
 31
0.0
  0
LINE
  5
115
330
110
100
AcDbEntity
  8
CSLAYER1
  6
CONTINUOUS
 62
     4
100
AcDbLine
 10
197.7513889999999
 20
163.669401
 30
0.0
 11
147.7513879999999
 21
163.669401
 31
0.0
  0
TEXT
  5
116
330
110
100
AcDbEntity
  8
CSLAYER1
 62
     4
100
AcDbText
 10
148.7514029999998
 20
164.169403
 30
0.0
 40
3.2
  1
16-M4X0.7ネジ深5.5
 41
0.9825327715611377
 51
15.0
  7
FX_FONT
 72
     5
 11
196.751404
 21
164.169403
 31
0.0
100
AcDbText
  0
ENDBLK
  5
117
330
110
100
AcDbEntity
  8
0
100
AcDbBlockEnd
  0
BLOCK
  5
119
330
118
100
AcDbEntity
  8
0
100
AcDbBlockBegin
  2
*D22
 70
     1
 10
0.0
 20
0.0
 30
0.0
  3
*D22
  1

  0
TEXT
  5
11A
330
118
100
AcDbEntity
  8
CSLAYER1
 62
     4
100
AcDbText
 10
261.37428
 20
231.7096859999999
 30
0.0
 40
3.2
  1
20
 41
1.199999999999985
 51
15.0
  7
FX_FONT
 72
     5
 11
267.7742799999999
 21
231.7096859999999
 31
0.0
100
AcDbText
  0
LINE
  5
11B
330
118
100
AcDbEntity
  8
CSLAYER1
  6
CONTINUOUS
 62
     4
100
AcDbLine
 10
254.574286
 20
231.209693
 30
0.0
 11
274.5742859999999
 21
231.209693
 31
0.0
  0
LINE
  5
11C
330
118
100
AcDbEntity
  8
CSLAYER1
  6
CONTINUOUS
 62
     4
100
AcDbLine
 10
254.574286
 20
231.209693
 30
0.0
 11
257.4720629999999
 21
231.9861509999999
 31
0.0
  0
LINE
  5
11D
330
118
100
AcDbEntity
  8
CSLAYER1
  6
CONTINUOUS
 62
     4
100
AcDbLine
 10
254.574286
 20
231.209693
 30
0.0
 11
257.4720629999999
 21
230.433236
 31
0.0
  0
LINE
  5
11E
330
118
100
AcDbEntity
  8
CSLAYER1
  6
CONTINUOUS
 62
     4
100
AcDbLine
 10
274.5742859999999
 20
231.209693
 30
0.0
 11
271.676508
 21
231.9861509999999
 31
0.0
  0
LINE
  5
11F
330
118
100
AcDbEntity
  8
CSLAYER1
  6
CONTINUOUS
 62
     4
100
AcDbLine
 10
274.5742859999999
 20
231.209693
 30
0.0
 11
271.676508
 21
230.433236
 31
0.0
  0
ENDBLK
  5
120
330
118
100
AcDbEntity
  8
0
100
AcDbBlockEnd
  0
BLOCK
  5
122
330
121
100
AcDbEntity
  8
0
100
AcDbBlockBegin
  2
*D23
 70
     1
 10
0.0
 20
0.0
 30
0.0
  3
*D23
  1

  0
TEXT
  5
123
330
121
100
AcDbEntity
  8
CSLAYER1
 62
     4
100
AcDbText
 10
213.2742799999999
 20
237.804764
 30
0.0
 40
3.2
  1
113
 41
1.124999999999999
 51
15.0
  7
FX_FONT
 72
     5
 11
222.8742799999999
 21
237.804764
 31
0.0
100
AcDbText
  0
LINE
  5
124
330
121
100
AcDbEntity
  8
CSLAYER1
  6
CONTINUOUS
 62
     4
100
AcDbLine
 10
161.574286
 20
237.3047689999999
 30
0.0
 11
274.5742859999999
 21
237.3047689999999
 31
0.0
  0
LINE
  5
125
330
121
100
AcDbEntity
  8
CSLAYER1
  6
CONTINUOUS
 62
     4
100
AcDbLine
 10
161.574286
 20
237.3047689999999
 30
0.0
 11
164.4720629999999
 21
238.0812259999999
 31
0.0
  0
LINE
  5
126
330
121
100
AcDbEntity
  8
CSLAYER1
  6
CONTINUOUS
 62
     4
100
AcDbLine
 10
161.574286
 20
237.3047689999999
 30
0.0
 11
164.4720629999999
 21
236.5283119999999
 31
0.0
  0
LINE
  5
127
330
121
100
AcDbEntity
  8
CSLAYER1
  6
CONTINUOUS
 62
     4
100
AcDbLine
 10
274.5742859999999
 20
237.3047689999999
 30
0.0
 11
271.676508
 21
238.0812259999999
 31
0.0
  0
LINE
  5
128
330
121
100
AcDbEntity
  8
CSLAYER1
  6
CONTINUOUS
 62
     4
100
AcDbLine
 10
274.5742859999999
 20
237.3047689999999
 30
0.0
 11
271.676508
 21
236.5283119999999
 31
0.0
  0
LINE
  5
129
330
121
100
AcDbEntity
  8
CSLAYER1
  6
CONTINUOUS
 62
     4
100
AcDbLine
 10
161.574286
 20
202.762857
 30
0.0
 11
161.574286
 21
238.304769
 31
0.0
  0
LINE
  5
12A
330
121
100
AcDbEntity
  8
CSLAYER1
  6
CONTINUOUS
 62
     4
100
AcDbLine
 10
274.5742859999999
 20
208.762857
 30
0.0
 11
274.5742859999999
 21
238.304769
 31
0.0
  0
ENDBLK
  5
12B
330
121
100
AcDbEntity
  8
0
100
AcDbBlockEnd
  0
BLOCK
  5
12D
330
12C
100
AcDbEntity
  8
0
100
AcDbBlockBegin
  2
*D24
 70
     1
 10
0.0
 20
0.0
 30
0.0
  3
*D24
  1

  0
TEXT
  5
12E
330
12C
100
AcDbEntity
  8
CSLAYER1
 62
     4
100
AcDbText
 10
369.0787349999998
 20
189.4628629999999
 30
0.0
 40
3.2
  1
30 
 50
90.0
 41
1.153846153846156
 51
15.0
  7
FX_FONT
 72
     5
 11
369.0787349999998
 21
199.0628629999999
 31
0.0
100
AcDbText
  0
LINE
  5
12F
330
12C
100
AcDbEntity
  8
CSLAYER1
  6
CONTINUOUS
 62
     4
100
AcDbLine
 10
350.157215
 20
179.2628569999999
 30
0.0
 11
370.5787029999998
 21
179.2628569999999
 31
0.0
  0
LINE
  5
130
330
12C
100
AcDbEntity
  8
CSLAYER1
  6
CONTINUOUS
 62
     4
100
AcDbLine
 10
350.157215
 20
209.262857
 30
0.0
 11
370.5787029999998
 21
209.262857
 31
0.0
  0
LINE
  5
131
330
12C
100
AcDbEntity
  8
CSLAYER1
  6
CONTINUOUS
 62
     4
100
AcDbLine
 10
369.5787029999998
 20
179.2628569999999
 30
0.0
 11
369.5787029999998
 21
209.262857
 31
0.0
  0
LINE
  5
132
330
12C
100
AcDbEntity
  8
CSLAYER1
  6
CONTINUOUS
 62
     4
100
AcDbLine
 10
369.5787029999998
 20
179.2628569999999
 30
0.0
 11
368.8022459999998
 21
182.160635
 31
0.0
  0
LINE
  5
133
330
12C
100
AcDbEntity
  8
CSLAYER1
  6
CONTINUOUS
 62
     4
100
AcDbLine
 10
369.5787029999998
 20
179.2628569999999
 30
0.0
 11
370.355161
 21
182.160635
 31
0.0
  0
LINE
  5
134
330
12C
100
AcDbEntity
  8
CSLAYER1
  6
CONTINUOUS
 62
     4
100
AcDbLine
 10
369.5787029999998
 20
209.262857
 30
0.0
 11
368.8022459999998
 21
206.36508
 31
0.0
  0
LINE
  5
135
330
12C
100
AcDbEntity
  8
CSLAYER1
  6
CONTINUOUS
 62
     4
100
AcDbLine
 10
369.5787029999998
 20
209.262857
 30
0.0
 11
370.355161
 21
206.36508
 31
0.0
  0
ENDBLK
  5
136
330
12C
100
AcDbEntity
  8
0
100
AcDbBlockEnd
  0
BLOCK
  5
138
330
137
100
AcDbEntity
  8
0
100
AcDbBlockBegin
  2
*D25
 70
     1
 10
0.0
 20
0.0
 30
0.0
  3
*D25
  1

  0
TEXT
  5
139
330
137
100
AcDbEntity
  8
CSLAYER1
 62
     4
100
AcDbText
 10
314.1763509999999
 20
214.5126509999999
 30
0.0
 40
3.2
  1
24
 50
45.37908942018683
 41
1.199999908324832
 51
15.0
  7
FX_FONT
 72
     5
 11
318.671793
 21
219.067977
 31
0.0
100
AcDbText
  0
LINE
  5
13A
330
137
100
AcDbEntity
  8
CSLAYER1
  6
CONTINUOUS
 62
     4
100
AcDbLine
 10
308.3508819999999
 20
207.8977829999999
 30
0.0
 11
325.208952
 21
224.980421
 31
0.0
  0
LINE
  5
13B
330
137
100
AcDbEntity
  8
CSLAYER1
  6
CONTINUOUS
 62
     4
100
AcDbLine
 10
308.3508819999999
 20
207.8977829999999
 30
0.0
 11
309.83366
 21
210.505727
 31
0.0
  0
LINE
  5
13C
330
137
100
AcDbEntity
  8
CSLAYER1
  6
CONTINUOUS
 62
     4
100
AcDbLine
 10
308.3508819999999
 20
207.8977829999999
 30
0.0
 11
310.938977
 21
209.41494
 31
0.0
  0
LINE
  5
13D
330
137
100
AcDbEntity
  8
CSLAYER1
  6
CONTINUOUS
 62
     4
100
AcDbLine
 10
325.208952
 20
224.980421
 30
0.0
 11
323.726175
 21
222.372477
 31
0.0
  0
LINE
  5
13E
330
137
100
AcDbEntity
  8
CSLAYER1
  6
CONTINUOUS
 62
     4
100
AcDbLine
 10
325.208952
 20
224.980421
 30
0.0
 11
322.620857
 21
223.463264
 31
0.0
  0
LINE
  5
13F
330
137
100
AcDbEntity
  8
CSLAYER1
  6
CONTINUOUS
 62
     4
100
AcDbLine
 10
326.73
 20
189.7602769999999
 30
0.0
 11
307.639113
 21
208.6001959999999
 31
0.0
  0
LINE
  5
140
330
137
100
AcDbEntity
  8
CSLAYER1
  6
CONTINUOUS
 62
     4
100
AcDbLine
 10
343.619858
 20
206.811545
 30
0.0
 11
324.4971819999999
 21
225.6828339999999
 31
0.0
  0
ENDBLK
  5
141
330
137
100
AcDbEntity
  8
0
100
AcDbBlockEnd
  0
BLOCK
  5
143
330
142
100
AcDbEntity
  8
0
100
AcDbBlockBegin
  2
FXDIM0002
 70
     0
 10
0.0
 20
0.0
 30
0.0
  3
FXDIM0002
  1

  0
LINE
  5
144
330
142
100
AcDbEntity
  8
CSLAYER1
  6
CONTINUOUS
 62
     4
100
AcDbLine
 10
331.31444
 20
183.843314
 30
0.0
 11
335.2043959999998
 21
160.921973
 31
0.0
  0
LINE
  5
145
330
142
100
AcDbEntity
  8
CSLAYER1
  6
CONTINUOUS
 62
     4
100
AcDbLine
 10
331.31444
 20
183.843314
 30
0.0
 11
332.5647979999998
 21
181.1163
 31
0.0
  0
LINE
  5
146
330
142
100
AcDbEntity
  8
CSLAYER1
  6
CONTINUOUS
 62
     4
100
AcDbLine
 10
331.31444
 20
183.843314
 30
0.0
 11
331.0337749999998
 21
180.8564709999999
 31
0.0
  0
LINE
  5
147
330
142
100
AcDbEntity
  8
CSLAYER1
  6
CONTINUOUS
 62
     4
100
AcDbLine
 10
335.2043959999998
 20
160.921973
 30
0.0
 11
359.604397
 21
160.921973
 31
0.0
  0
TEXT
  5
148
330
142
100
AcDbEntity
  8
CSLAYER1
 62
     4
100
AcDbText
 10
336.2723389999998
 20
161.421982
 30
0.0
 40
3.2
  1
M4ネジ深１０
 41
0.9292035398230149
 51
15.0
  7
FX_FONT
 72
     5
 11
358.672339
 21
161.421982
 31
0.0
100
AcDbText
  0
ENDBLK
  5
149
330
142
100
AcDbEntity
  8
0
100
AcDbBlockEnd
  0
BLOCK
  5
14B
330
14A
100
AcDbEntity
  8
0
100
AcDbBlockBegin
  2
FXDIM0003
 70
     0
 10
0.0
 20
0.0
 30
0.0
  3
FXDIM0003
  1

  0
LINE
  5
14C
330
14A
100
AcDbEntity
  8
CSLAYER1
  6
CONTINUOUS
 62
     4
100
AcDbLine
 10
341.3699859999998
 20
198.491978
 30
0.0
 11
350.4172849999998
 21
221.2963409999999
 31
0.0
  0
LINE
  5
14D
330
14A
100
AcDbEntity
  8
CSLAYER1
  6
CONTINUOUS
 62
     4
100
AcDbLine
 10
341.3699859999998
 20
198.491978
 30
0.0
 11
341.7168769999999
 21
201.4718549999999
 31
0.0
  0
LINE
  5
14E
330
14A
100
AcDbEntity
  8
CSLAYER1
  6
CONTINUOUS
 62
     4
100
AcDbLine
 10
341.3699859999998
 20
198.491978
 30
0.0
 11
343.160341
 21
200.8991809999999
 31
0.0
  0
LINE
  5
14F
330
14A
100
AcDbEntity
  8
CSLAYER1
  6
CONTINUOUS
 62
     4
100
AcDbLine
 10
350.4172849999998
 20
221.2963409999999
 30
0.0
 11
374.8172859999998
 21
221.2963409999999
 31
0.0
  0
TEXT
  5
150
330
14A
100
AcDbEntity
  8
CSLAYER1
 62
     4
100
AcDbText
 10
351.4173089999999
 20
221.796341
 30
0.0
 40
3.2
  1
Rc1/8ネジ
 41
0.9813084550233707
 51
15.0
  7
FX_FONT
 72
     5
 11
373.81731
 21
221.796341
 31
0.0
100
AcDbText
  0
ENDBLK
  5
151
330
14A
100
AcDbEntity
  8
0
100
AcDbBlockEnd
  0
BLOCK
  5
153
330
152
100
AcDbEntity
  8
0
100
AcDbBlockBegin
  2
FXDIM0004
 70
     0
 10
0.0
 20
0.0
 30
0.0
  3
FXDIM0004
  1

  0
LINE
  5
154
330
152
100
AcDbEntity
  8
CSLAYER1
  6
CONTINUOUS
 62
     4
100
AcDbLine
 10
266.7369319999999
 20
204.3154059999999
 30
0.0
 11
285.102208
 21
229.705049
 31
0.0
  0
LINE
  5
155
330
152
100
AcDbEntity
  8
CSLAYER1
  6
CONTINUOUS
 62
     4
100
AcDbLine
 10
266.7369319999999
 20
204.3154059999999
 30
0.0
 11
267.806149
 21
207.1184
 31
0.0
  0
LINE
  5
156
330
152
100
AcDbEntity
  8
CSLAYER1
  6
CONTINUOUS
 62
     4
100
AcDbLine
 10
266.7369319999999
 20
204.3154059999999
 30
0.0
 11
269.0643979999999
 21
206.208262
 31
0.0
  0
LINE
  5
157
330
152
100
AcDbEntity
  8
CSLAYER1
  6
CONTINUOUS
 62
     4
100
AcDbLine
 10
285.102208
 20
229.705049
 30
0.0
 11
309.502209
 21
229.705049
 31
0.0
  0
TEXT
  5
158
330
152
100
AcDbEntity
  8
CSLAYER1
 62
     4
100
AcDbText
 10
286.102246
 20
230.205048
 30
0.0
 40
3.2
  1
Rc1/8ネジ
 41
0.981308411214955
 51
15.0
  7
FX_FONT
 72
     5
 11
308.502246
 21
230.205048
 31
0.0
100
AcDbText
  0
ENDBLK
  5
159
330
152
100
AcDbEntity
  8
0
100
AcDbBlockEnd
  0
BLOCK
  5
15B
330
15A
100
AcDbEntity
  8
0
100
AcDbBlockBegin
  2
*D29
 70
     1
 10
0.0
 20
0.0
 30
0.0
  3
*D29
  1

  0
TEXT
  5
15C
330
15A
100
AcDbEntity
  8
CSLAYER1
 62
     4
100
AcDbText
 10
313.369534
 20
178.364985
 30
0.0
 40
3.2
  1
45%%d
 50
112.5000014414563
 41
1.28571422487562
 51
15.0
  7
FX_FONT
 72
     5
 11
309.6957729999998
 21
187.2342279999999
 31
0.0
100
AcDbText
  0
ARC
  5
15D
330
15A
100
AcDbEntity
  8
CSLAYER1
  6
CONTINUOUS
 62
     4
100
AcDbCircle
 10
339.20734
 20
194.262857
 30
0.0
 40
29.454902
100
AcDbArc
 50
180.0
 51
225.0
  0
LINE
  5
15E
330
15A
100
AcDbEntity
  8
CSLAYER1
  6
CONTINUOUS
 62
     4
100
AcDbLine
 10
309.7524379999998
 20
194.262857
 30
0.0
 11
308.9759809999998
 21
191.36508
 31
0.0
  0
LINE
  5
15F
330
15A
100
AcDbEntity
  8
CSLAYER1
  6
CONTINUOUS
 62
     4
100
AcDbLine
 10
309.7524379999998
 20
194.262857
 30
0.0
 11
310.528895
 21
191.36508
 31
0.0
  0
LINE
  5
160
330
15A
100
AcDbEntity
  8
CSLAYER1
  6
CONTINUOUS
 62
     4
100
AcDbLine
 10
318.379579
 20
173.4350959999999
 30
0.0
 11
315.781503
 21
174.9350959999999
 31
0.0
  0
LINE
  5
161
330
15A
100
AcDbEntity
  8
CSLAYER1
  6
CONTINUOUS
 62
     4
100
AcDbLine
 10
318.379579
 20
173.4350959999999
 30
0.0
 11
316.8795789999998
 21
176.033173
 31
0.0
  0
LINE
  5
162
330
15A
100
AcDbEntity
  8
CSLAYER1
  6
CONTINUOUS
 62
     4
100
AcDbLine
 10
315.063161
 20
194.262857
 30
0.0
 11
308.752438
 21
194.262857
 31
0.0
  0
LINE
  5
163
330
15A
100
AcDbEntity
  8
CSLAYER1
  6
CONTINUOUS
 62
     4
100
AcDbLine
 10
327.127811
 20
182.1833279999999
 30
0.0
 11
317.672473
 21
172.7279899999999
 31
0.0
  0
ENDBLK
  5
164
330
15A
100
AcDbEntity
  8
0
100
AcDbBlockEnd
  0
BLOCK
  5
166
330
165
100
AcDbEntity
  8
0
100
AcDbBlockBegin
  2
*D30
 70
     1
 10
0.0
 20
0.0
 30
0.0
  3
*D30
  1

  0
TEXT
  5
167
330
165
100
AcDbEntity
  8
CSLAYER1
 62
     4
100
AcDbText
 10
239.8742799999999
 20
86.970039
 30
0.0
 40
3.2
  1
23
 41
1.200000000000011
 51
15.0
  7
FX_FONT
 72
     5
 11
246.27428
 21
86.970039
 31
0.0
100
AcDbText
  0
LINE
  5
168
330
165
100
AcDbEntity
  8
CSLAYER1
  6
CONTINUOUS
 62
     4
100
AcDbLine
 10
231.5742859999999
 20
86.47004100000001
 30
0.0
 11
254.574286
 21
86.47004100000001
 31
0.0
  0
LINE
  5
169
330
165
100
AcDbEntity
  8
CSLAYER1
  6
CONTINUOUS
 62
     4
100
AcDbLine
 10
231.5742859999999
 20
86.47004100000001
 30
0.0
 11
234.4720629999999
 21
87.24649799999998
 31
0.0
  0
LINE
  5
16A
330
165
100
AcDbEntity
  8
CSLAYER1
  6
CONTINUOUS
 62
     4
100
AcDbLine
 10
231.5742859999999
 20
86.47004100000001
 30
0.0
 11
234.4720629999999
 21
85.693584
 31
0.0
  0
LINE
  5
16B
330
165
100
AcDbEntity
  8
CSLAYER1
  6
CONTINUOUS
 62
     4
100
AcDbLine
 10
254.574286
 20
86.47004100000001
 30
0.0
 11
251.676508
 21
87.24649799999998
 31
0.0
  0
LINE
  5
16C
330
165
100
AcDbEntity
  8
CSLAYER1
  6
CONTINUOUS
 62
     4
100
AcDbLine
 10
254.574286
 20
86.47004100000001
 30
0.0
 11
251.676508
 21
85.693584
 31
0.0
  0
LINE
  5
16D
330
165
100
AcDbEntity
  8
CSLAYER1
  6
CONTINUOUS
 62
     4
100
AcDbLine
 10
254.574286
 20
98.04285700000001
 30
0.0
 11
254.574286
 21
85.470041
 31
0.0
  0
ENDBLK
  5
16E
330
165
100
AcDbEntity
  8
0
100
AcDbBlockEnd
  0
BLOCK
  5
2FD
330
2F0
100
AcDbEntity
  8
0
100
AcDbBlockBegin
  2
*D31
 70
     1
 10
0.0
 20
0.0
 30
0.0
  3
*D31
  1

  0
LINE
  5
2F1
330
2F0
100
AcDbEntity
  8
CSLAYER1
 62
     0
100
AcDbLine
 10
316.0006609999999
 20
194.262857
 30
0.0
 11
309.5724380820616
 21
194.262857
 31
0.0
  0
LINE
  5
2F2
330
2F0
100
AcDbEntity
  8
CSLAYER1
 62
     0
100
AcDbLine
 10
327.7907238261757
 20
182.8462408261757
 30
0.0
 11
318.2522998940275
 21
173.3078168940274
 31
0.0
  0
ARC
  5
2F3
330
2F0
100
AcDbEntity
  8
CSLAYER1
 62
     0
100
AcDbCircle
 10
339.2073399999998
 20
194.262857
 30
0.0
 40
29.45490191793834
100
AcDbArc
 50
180.3501371822214
 51
202.1215298481549
  0
ARC
  5
2F4
330
2F0
100
AcDbEntity
  8
CSLAYER1
 62
     0
100
AcDbCircle
 10
339.2073399999998
 20
194.262857
 30
0.0
 40
29.45490191793834
100
AcDbArc
 50
202.8795085512494
 51
224.6498628177787
  0
SOLID
  5
2F5
330
2F0
100
AcDbEntity
  8
CSLAYER1
 62
     0
100
AcDbTrace
 10
309.7229882154487
 20
194.082766174702
 30
0.0
 11
309.7829879353621
 21
194.0829495058166
 31
0.0
 12
309.7524380820614
 22
194.262857
 32
0.0
 13
309.7524380820614
 23
194.262857
 33
0.0
  0
SOLID
  5
2F6
330
2F0
100
AcDbEntity
  8
CSLAYER1
 62
     0
100
AcDbTrace
 10
318.273967313951
 20
173.5839119321974
 30
0.0
 11
318.2314114704565
 21
173.5416153580516
 31
0.0
 12
318.3795791146412
 22
173.435096114641
 32
0.0
 13
318.3795791146412
 23
173.435096114641
 33
0.0
  0
MTEXT
  5
2F7
330
2F0
100
AcDbEntity
  8
CSLAYER1
 62
     0
100
AcDbMText
 10
311.9945589858891
 20
182.9909540340661
 30
0.0
 40
0.18
 41
0.0
 71
     5
 72
     1
  1
\A1;45°
1001
ACAD
1000
MTEXTBEGIN
1070
    73
1070
     1
1070
    44
1040
1.0
1070
    74
1070
     0
1000
MTEXTEND
  0
POINT
  5
2F8
330
2F0
100
AcDbEntity
  8
DEFPOINTS
 62
     0
100
AcDbPoint
 10
310.7560895266518
 20
186.6393674120106
 30
0.0
  0
POINT
  5
2F9
330
2F0
100
AcDbEntity
  8
DEFPOINTS
 62
     0
100
AcDbPoint
 10
339.20734
 20
194.262857
 30
0.0
  0
POINT
  5
2FA
330
2F0
100
AcDbEntity
  8
DEFPOINTS
 62
     0
100
AcDbPoint
 10
327.834918
 20
182.890435
 30
0.0
  0
POINT
  5
2FB
330
2F0
100
AcDbEntity
  8
DEFPOINTS
 62
     0
100
AcDbPoint
 10
333.80707
 20
188.862587
 30
0.0
  0
POINT
  5
2FC
330
2F0
100
AcDbEntity
  8
DEFPOINTS
 62
     0
100
AcDbPoint
 10
316.0631609999999
 20
194.262857
 30
0.0
  0
ENDBLK
  5
2FE
330
2F0
100
AcDbEntity
  8
0
100
AcDbBlockEnd
  0
ENDSEC
  0
SECTION
  2
ENTITIES
  0
POINT
  5
16F
330
1E
100
AcDbEntity
  8
CSLAYER1
 62
     3
100
AcDbPoint
 10
10.0
 20
3.0
 30
0.0
  0
POINT
  5
170
330
1E
100
AcDbEntity
  8
CSLAYER1
 62
     3
100
AcDbPoint
 10
365.5
 20
20.5
 30
0.0
  0
DIMENSION
  5
171
330
1E
100
AcDbEntity
  8
CSLAYER1
 62
     4
100
AcDbDimension
  2
*D0
 10
54.854812
 20
212.2628569999998
 30
0.0
 11
54.354801
 21
194.2628629999999
 31
0.0
 70
     1
100
AcDbAlignedDimension
 13
67.70857099999999
 23
176.2628569999999
 33
0.0
 14
67.70857099999999
 24
212.2628569999998
 34
0.0
  0
DIMENSION
  5
172
330
1E
100
AcDbEntity
  8
CSLAYER1
 62
     4
100
AcDbDimension
  2
*D1
 10
103.7085709999999
 20
232.6438549999999
 30
0.0
 11
85.70858800000001
 21
233.14386
 31
0.0
 70
     1
100
AcDbAlignedDimension
 13
67.70857099999999
 23
212.2628569999998
 33
0.0
 14
103.7085709999999
 24
212.2628569999998
 34
0.0
  0
DIMENSION
  5
173
330
1E
100
AcDbEntity
  8
CSLAYER1
 62
     4
100
AcDbDimension
  2
*D2
 10
149.3501469999999
 20
201.7628569999998
 30
0.0
 11
148.850128
 21
194.2628629999999
 31
0.0
 70
     1
100
AcDbAlignedDimension
 13
161.574286
 23
186.7628569999999
 33
0.0
 14
161.574286
 24
201.7628569999998
 34
0.0
  0
DIMENSION
  5
174
330
1E
100
AcDbEntity
  8
CSLAYER1
 62
     4
100
AcDbDimension
  2
*D3
 10
254.574286
 20
231.209693
 30
0.0
 11
208.0743099999998
 21
231.7097019999999
 31
0.0
100
AcDbAlignedDimension
 13
161.574286
 23
201.7628569999998
 33
0.0
 14
254.574286
 24
211.9628569999999
 34
0.0
100
AcDbRotatedDimension
  0
DIMENSION
  5
175
330
1E
100
AcDbEntity
  8
CSLAYER1
 62
     4
100
AcDbDimension
  2
*D4
 10
254.574286
 20
225.2096929999999
 30
0.0
 11
219.57431
 21
225.7097019999999
 31
0.0
 70
     1
100
AcDbAlignedDimension
 13
184.574286
 23
212.2628569999998
 33
0.0
 14
254.574286
 24
212.2628569999998
 34
0.0
  0
DIMENSION
  5
176
330
1E
100
AcDbEntity
  8
CSLAYER1
 62
     4
100
AcDbDimension
  2
*D5
 10
236.574286
 20
219.209693
 30
0.0
 11
221.57428
 21
219.7096859999999
 31
0.0
100
AcDbAlignedDimension
 13
206.5742859999999
 23
214.4351429999999
 33
0.0
 14
236.574286
 24
214.2314259999999
 34
0.0
100
AcDbRotatedDimension
  0
DIMENSION
  5
177
330
1E
100
AcDbEntity
  8
CSLAYER1
 62
     4
100
AcDbDimension
  2
*D6
 10
236.574286
 20
219.209693
 30
0.0
 11
245.5743099999998
 21
219.709702
 31
0.0
 70
     1
100
AcDbAlignedDimension
 13
254.574286
 23
219.209693
 33
0.0
 14
236.574286
 24
219.209693
 34
0.0
  0
DIMENSION
  5
178
330
1E
100
AcDbEntity
  8
CSLAYER1
 62
     4
100
AcDbDimension
  2
*D7
 10
168.5742859999999
 20
225.5837459999999
 30
0.0
 11
165.0743099999999
 21
226.0837399999999
 31
0.0
 70
     1
100
AcDbAlignedDimension
 13
161.574286
 23
196.2628569999999
 33
0.0
 14
168.5742859999999
 24
196.2628569999999
 34
0.0
  0
DIMENSION
  5
179
330
1E
100
AcDbEntity
  8
CSLAYER1
 62
     4
100
AcDbDimension
  2
*D8
 10
227.574286
 20
163.651432
 30
0.0
 11
219.07431
 21
164.151428
 31
0.0
 70
     1
 52
270.0
100
AcDbAlignedDimension
 13
210.5742859999998
 23
176.2628569999999
 33
0.0
 14
227.574286
 24
176.2628569999999
 34
0.0
  0
DIMENSION
  5
17A
330
1E
100
AcDbEntity
  8
CSLAYER1
 62
     4
100
AcDbDimension
  2
*D9
 10
254.574286
 20
163.651432
 30
0.0
 11
241.0743099999999
 21
164.151428
 31
0.0
 70
     1
 52
270.0
100
AcDbAlignedDimension
 13
227.574286
 23
176.2628569999999
 33
0.0
 14
254.574286
 24
176.2628569999999
 34
0.0
  0
DIMENSION
  5
17B
330
1E
100
AcDbEntity
  8
CSLAYER1
 62
     4
100
AcDbDimension
  2
*D10
 10
254.574286
 20
169.651432
 30
0.0
 11
247.5743099999998
 21
170.151428
 31
0.0
 70
     1
 52
270.0
100
AcDbAlignedDimension
 13
240.574286
 23
176.2628569999999
 33
0.0
 14
254.574286
 24
176.2628569999999
 34
0.0
  0
INSERT
  5
17C
330
1E
100
AcDbEntity
  8
CSLAYER1
100
AcDbBlockReference
  2
FXDIM0000
 10
0.0
 20
0.0
 30
0.0
  0
DIMENSION
  5
17D
330
1E
100
AcDbEntity
  8
CSLAYER1
 62
     4
100
AcDbDimension
  2
*D12
 10
259.5742859999999
 20
225.2096929999999
 30
0.0
 11
267.074249
 21
225.7096859999999
 31
0.0
 70
     1
100
AcDbAlignedDimension
 13
274.5742859999999
 23
225.2096929999999
 33
0.0
 14
259.5742859999999
 24
225.2096929999999
 34
0.0
  0
DIMENSION
  5
17E
330
1E
100
AcDbEntity
  8
CSLAYER1
 62
     4
100
AcDbDimension
  2
*D13
 10
197.553922
 20
208.2628569999999
 30
0.0
 11
197.053925
 21
194.2628629999999
 31
0.0
 70
     1
100
AcDbAlignedDimension
 13
201.695429
 23
180.2628569999999
 33
0.0
 14
201.695429
 24
208.2628569999999
 34
0.0
  0
DIMENSION
  5
17F
330
1E
100
AcDbEntity
  8
CSLAYER1
 62
     4
100
AcDbDimension
  2
*D14
 10
223.0501339999999
 20
131.042857
 30
0.0
 11
222.55014
 21
117.042862
 31
0.0
 70
     1
100
AcDbAlignedDimension
 13
227.574286
 23
103.0428569999999
 33
0.0
 14
227.574286
 24
131.042857
 34
0.0
  0
DIMENSION
  5
180
330
1E
100
AcDbEntity
  8
CSLAYER1
 62
     4
100
AcDbDimension
  2
*D15
 10
231.5742859999999
 20
86.47004100000001
 30
0.0
 11
216.5743099999999
 21
86.970039
 31
0.0
 52
270.0
100
AcDbAlignedDimension
 13
201.574286
 23
95.36057099999998
 33
0.0
 14
231.5742859999999
 24
95.80285700000001
 34
0.0
100
AcDbRotatedDimension
  0
DIMENSION
  5
181
330
1E
100
AcDbEntity
  8
CSLAYER1
 62
     4
100
AcDbDimension
  2
*D16
 10
254.574286
 20
143.421429
 30
0.0
 11
224.6742859999999
 21
143.921432
 31
0.0
100
AcDbAlignedDimension
 13
194.774286
 23
123.042857
 33
0.0
 14
254.574286
 24
135.042857
 34
0.0
100
AcDbRotatedDimension
  0
DIMENSION
  5
182
330
1E
100
AcDbEntity
  8
CSLAYER1
 62
     4
100
AcDbDimension
  2
*D17
 10
291.1751429999998
 20
212.2628569999998
 30
0.0
 11
290.67514
 21
194.2628629999999
 31
0.0
 70
     1
100
AcDbAlignedDimension
 13
259.5742859999999
 23
176.2628569999999
 33
0.0
 14
259.5742859999999
 24
212.2628569999998
 34
0.0
  0
DIMENSION
  5
183
330
1E
100
AcDbEntity
  8
CSLAYER1
 62
     4
100
AcDbDimension
  2
*D18
 10
173.863261
 20
90.93135399999999
 30
0.0
 11
176.51004
 21
97.43093100000001
 31
0.0
 70
     4
100
AcDbRadialDimension
 15
180.0537779999999
 25
103.488324
 35
0.0
 40
0.0
  0
DIMENSION
  5
184
330
1E
100
AcDbEntity
  8
CSLAYER1
 62
     4
100
AcDbDimension
  2
*D19
 10
97.20857100000001
 20
226.830354
 30
0.0
 11
85.70858800000001
 21
227.3303529999999
 31
0.0
 70
     1
100
AcDbAlignedDimension
 13
74.20857099999998
 23
199.4412669999999
 33
0.0
 14
97.20857100000001
 24
199.4412669999999
 34
0.0
  0
DIMENSION
  5
185
330
1E
100
AcDbEntity
  8
CSLAYER1
 62
     4
100
AcDbDimension
  2
*D20
 10
90.20857099999998
 20
220.830354
 30
0.0
 11
85.70858800000001
 21
221.3303529999999
 31
0.0
 70
     1
100
AcDbAlignedDimension
 13
81.208571
 23
212.2628569999998
 33
0.0
 14
90.20857099999998
 24
212.2628569999998
 34
0.0
  0
INSERT
  5
186
330
1E
100
AcDbEntity
  8
CSLAYER1
100
AcDbBlockReference
  2
FXDIM0001
 10
0.0
 20
0.0
 30
0.0
  0
LINE
  5
187
330
1E
100
AcDbEntity
  8
CSLAYER1
  6
CONTINUOUS
 62
     3
100
AcDbLine
 10
273.0742859999998
 20
99.042857
 30
0.0
 11
184.574286
 21
99.042857
 31
0.0
  0
LINE
  5
188
330
1E
100
AcDbEntity
  8
CSLAYER1
  6
CONTINUOUS
 62
     3
100
AcDbLine
 10
184.574286
 20
99.042857
 30
0.0
 11
184.574286
 21
112.542857
 31
0.0
  0
LINE
  5
189
330
1E
100
AcDbEntity
  8
CSLAYER1
  6
CONTINUOUS
 62
     3
100
AcDbLine
 10
184.574286
 20
121.542857
 30
0.0
 11
184.574286
 21
135.042857
 31
0.0
  0
LINE
  5
18A
330
1E
100
AcDbEntity
  8
CSLAYER1
  6
CONTINUOUS
 62
     3
100
AcDbLine
 10
184.574286
 20
135.042857
 30
0.0
 11
273.0742859999998
 21
135.042857
 31
0.0
  0
LINE
  5
18B
330
1E
100
AcDbEntity
  8
CSLAYER1
  6
CONTINUOUS
 62
     3
100
AcDbLine
 10
273.0742859999998
 20
135.042857
 30
0.0
 11
274.5742859999999
 21
133.5428569999999
 31
0.0
  0
LINE
  5
18C
330
1E
100
AcDbEntity
  8
CSLAYER1
  6
CONTINUOUS
 62
     3
100
AcDbLine
 10
274.5742859999999
 20
133.5428569999999
 30
0.0
 11
274.5742859999999
 21
100.542857
 31
0.0
  0
LINE
  5
18D
330
1E
100
AcDbEntity
  8
CSLAYER1
  6
CONTINUOUS
 62
     3
100
AcDbLine
 10
274.5742859999999
 20
100.542857
 30
0.0
 11
273.0742859999998
 21
99.042857
 31
0.0
  0
LINE
  5
18E
330
1E
100
AcDbEntity
  8
CSLAYER1
  6
CONTINUOUS
 62
     3
100
AcDbLine
 10
273.0742859999998
 20
99.042857
 30
0.0
 11
273.0742859999998
 21
107.092983
 31
0.0
  0
LINE
  5
18F
330
1E
100
AcDbEntity
  8
CSLAYER1
  6
CONTINUOUS
 62
     3
100
AcDbLine
 10
273.0742859999998
 20
107.092983
 30
0.0
 11
259.5742859999999
 21
107.092983
 31
0.0
  0
LINE
  5
190
330
1E
100
AcDbEntity
  8
CSLAYER1
  6
CONTINUOUS
 62
     3
100
AcDbLine
 10
259.5742859999999
 20
107.092983
 30
0.0
 11
259.5742859999999
 21
126.992732
 31
0.0
  0
LINE
  5
191
330
1E
100
AcDbEntity
  8
CSLAYER1
  6
CONTINUOUS
 62
     3
100
AcDbLine
 10
259.5742859999999
 20
126.992732
 30
0.0
 11
273.0742859999998
 21
126.992732
 31
0.0
  0
LINE
  5
192
330
1E
100
AcDbEntity
  8
CSLAYER1
  6
CONTINUOUS
 62
     3
100
AcDbLine
 10
273.0742859999998
 20
126.992732
 30
0.0
 11
274.5742859999999
 21
125.4927319999999
 31
0.0
  0
LINE
  5
193
330
1E
100
AcDbEntity
  8
CSLAYER1
  6
CONTINUOUS
 62
     3
100
AcDbLine
 10
273.0742859999998
 20
126.992732
 30
0.0
 11
273.0742859999998
 21
135.042857
 31
0.0
  0
LINE
  5
194
330
1E
100
AcDbEntity
  8
CSLAYER1
  6
CONTINUOUS
 62
     3
100
AcDbLine
 10
254.574286
 20
135.042857
 30
0.0
 11
254.574286
 21
99.042857
 31
0.0
  0
LINE
  5
195
330
1E
100
AcDbEntity
  8
CSLAYER1
  6
CONTINUOUS
 62
     3
100
AcDbLine
 10
253.574286
 20
108.325059
 30
0.0
 11
242.574286
 21
108.325059
 31
0.0
  0
ARC
  5
196
330
1E
100
AcDbEntity
  8
CSLAYER1
  6
CONTINUOUS
 62
     3
100
AcDbCircle
 10
242.574286
 20
106.325059
 30
0.0
 40
2.0
100
AcDbArc
 50
90.0
 51
180.0
  0
LINE
  5
197
330
1E
100
AcDbEntity
  8
CSLAYER1
  6
CONTINUOUS
 62
     3
100
AcDbLine
 10
240.574286
 20
106.325059
 30
0.0
 11
240.574286
 21
99.042857
 31
0.0
  0
CIRCLE
  5
198
330
1E
100
AcDbEntity
  8
CSLAYER1
  6
CONTINUOUS
 62
     3
100
AcDbCircle
 10
231.5742859999999
 20
103.0428569999999
 30
0.0
 40
1.649999999999999
  0
LINE
  5
199
330
1E
100
AcDbEntity
  8
CSLAYER1
  6
CONTINUOUS
 62
     3
100
AcDbLine
 10
227.574286
 20
99.042857
 30
0.0
 11
227.574286
 21
135.042857
 31
0.0
  0
CIRCLE
  5
19A
330
1E
100
AcDbEntity
  8
CSLAYER1
  6
CONTINUOUS
 62
     3
100
AcDbCircle
 10
231.5742859999999
 20
131.042857
 30
0.0
 40
1.649999999999999
  0
ARC
  5
19B
330
1E
100
AcDbEntity
  8
CSLAYER1
  6
CONTINUOUS
 62
     3
100
AcDbCircle
 10
242.574286
 20
127.760655
 30
0.0
 40
2.0
100
AcDbArc
 50
180.0
 51
270.0
  0
LINE
  5
19C
330
1E
100
AcDbEntity
  8
CSLAYER1
  6
CONTINUOUS
 62
     3
100
AcDbLine
 10
242.574286
 20
125.7606549999999
 30
0.0
 11
253.574286
 21
125.7606549999999
 31
0.0
  0
LINE
  5
19D
330
1E
100
AcDbEntity
  8
CSLAYER1
  6
CONTINUOUS
 62
     3
100
AcDbLine
 10
253.574286
 20
125.7606549999999
 30
0.0
 11
254.574286
 21
124.7606549999999
 31
0.0
  0
LINE
  5
19E
330
1E
100
AcDbEntity
  8
CSLAYER1
  6
CONTINUOUS
 62
     3
100
AcDbLine
 10
253.574286
 20
125.7606549999999
 30
0.0
 11
253.574286
 21
108.325059
 31
0.0
  0
LINE
  5
19F
330
1E
100
AcDbEntity
  8
CSLAYER1
  6
CONTINUOUS
 62
     3
100
AcDbLine
 10
253.574286
 20
108.325059
 30
0.0
 11
254.574286
 21
109.325059
 31
0.0
  0
LINE
  5
1A0
330
1E
100
AcDbEntity
  8
CSLAYER1
  6
CONTINUOUS
 62
     3
100
AcDbLine
 10
273.0742859999998
 20
107.092983
 30
0.0
 11
274.5742859999999
 21
108.5929829999999
 31
0.0
  0
LINE
  5
1A1
330
1E
100
AcDbEntity
  8
CSLAYER1
  6
CONTINUOUS
 62
     3
100
AcDbLine
 10
240.574286
 20
127.760655
 30
0.0
 11
240.574286
 21
135.042857
 31
0.0
  0
LINE
  5
1A2
330
1E
100
AcDbEntity
  8
CSLAYER1
  6
CONTINUOUS
 62
     3
100
AcDbLine
 10
210.5742859999998
 20
135.042857
 30
0.0
 11
210.5742859999998
 21
99.042857
 31
0.0
  0
CIRCLE
  5
1A3
330
1E
100
AcDbEntity
  8
CSLAYER1
  6
CONTINUOUS
 62
     3
100
AcDbCircle
 10
201.574286
 20
103.0428569999999
 30
0.0
 40
1.649999999999999
  0
ARC
  5
1A4
330
1E
100
AcDbEntity
  8
CSLAYER1
  6
CONTINUOUS
 62
     3
100
AcDbCircle
 10
172.7526949999999
 20
91.542857
 30
0.0
 40
14.0
100
AcDbArc
 50
32.392365
 51
90.0
  0
LINE
  5
1A5
330
1E
100
AcDbEntity
  8
CSLAYER1
  6
CONTINUOUS
 62
     3
100
AcDbLine
 10
172.7526949999999
 20
105.542857
 30
0.0
 11
161.574286
 21
105.542857
 31
0.0
  0
LINE
  5
1A6
330
1E
100
AcDbEntity
  8
CSLAYER1
  6
CONTINUOUS
 62
     3
100
AcDbLine
 10
161.574286
 20
105.542857
 30
0.0
 11
161.574286
 21
112.542857
 31
0.0
  0
LINE
  5
1A7
330
1E
100
AcDbEntity
  8
CSLAYER1
  6
CONTINUOUS
 62
     3
100
AcDbLine
 10
161.574286
 20
112.542857
 30
0.0
 11
194.774286
 21
112.542857
 31
0.0
  0
LINE
  5
1A8
330
1E
100
AcDbEntity
  8
CSLAYER1
  6
CONTINUOUS
 62
     3
100
AcDbLine
 10
194.774286
 20
112.542857
 30
0.0
 11
194.774286
 21
121.542857
 31
0.0
  0
LINE
  5
1A9
330
1E
100
AcDbEntity
  8
CSLAYER1
  6
CONTINUOUS
 62
     3
100
AcDbLine
 10
194.774286
 20
121.542857
 30
0.0
 11
161.574286
 21
121.542857
 31
0.0
  0
LINE
  5
1AA
330
1E
100
AcDbEntity
  8
CSLAYER1
  6
CONTINUOUS
 62
     3
100
AcDbLine
 10
161.574286
 20
121.542857
 30
0.0
 11
161.574286
 21
128.542857
 31
0.0
  0
LINE
  5
1AB
330
1E
100
AcDbEntity
  8
CSLAYER1
  6
CONTINUOUS
 62
     3
100
AcDbLine
 10
161.574286
 20
128.542857
 30
0.0
 11
172.7526949999999
 21
128.542857
 31
0.0
  0
ARC
  5
1AC
330
1E
100
AcDbEntity
  8
CSLAYER1
  6
CONTINUOUS
 62
     3
100
AcDbCircle
 10
172.7526949999999
 20
142.542857
 30
0.0
 40
14.0
100
AcDbArc
 50
270.0
 51
327.607635
  0
CIRCLE
  5
1AD
330
1E
100
AcDbEntity
  8
CSLAYER1
  6
CONTINUOUS
 62
     3
100
AcDbCircle
 10
201.574286
 20
131.042857
 30
0.0
 40
1.649999999999999
  0
LINE
  5
1AE
330
1E
100
AcDbEntity
  8
CSLAYER1
  6
CONTINUOUS
 62
     3
100
AcDbLine
 10
170.5742859999999
 20
121.542857
 30
0.0
 11
170.5742859999999
 21
112.542857
 31
0.0
  0
LINE
  5
1AF
330
1E
100
AcDbEntity
  8
CSLAYER1
  6
CONTINUOUS
 62
     3
100
AcDbLine
 10
166.5742859999999
 20
112.542857
 30
0.0
 11
166.5742859999999
 21
121.542857
 31
0.0
  0
LINE
  5
1B0
330
1E
100
AcDbEntity
  8
CSLAYER1
  6
CONTINUOUS
 62
     3
100
AcDbLine
 10
166.9865719999999
 20
105.542857
 30
0.0
 11
166.9865719999999
 21
103.446212
 31
0.0
  0
ARC
  5
1B1
330
1E
100
AcDbEntity
  8
CSLAYER1
  6
CONTINUOUS
 62
     3
100
AcDbCircle
 10
168.5742859999999
 20
107.449456
 30
0.0
 40
4.306598999999998
100
AcDbArc
 50
248.366392
 51
291.6336079999998
  0
LINE
  5
1B2
330
1E
100
AcDbEntity
  8
CSLAYER1
  6
CONTINUOUS
 62
     3
100
AcDbLine
 10
170.161999
 20
103.446212
 30
0.0
 11
170.161999
 21
105.542857
 31
0.0
  0
LINE
  5
1B3
330
1E
100
AcDbEntity
  8
CSLAYER1
  6
CONTINUOUS
 62
     3
100
AcDbLine
 10
171.749712
 20
105.469377
 30
0.0
 11
171.749712
 21
103.446212
 31
0.0
  0
LINE
  5
1B4
330
1E
100
AcDbEntity
  8
CSLAYER1
  6
CONTINUOUS
 62
     3
100
AcDbLine
 10
171.749712
 20
103.446212
 30
0.0
 11
171.224286
 21
103.1428569999998
 31
0.0
  0
LINE
  5
1B5
330
1E
100
AcDbEntity
  8
CSLAYER1
  6
CONTINUOUS
 62
     3
100
AcDbLine
 10
171.224286
 20
103.1428569999998
 30
0.0
 11
165.924286
 21
103.1428569999998
 31
0.0
  0
LINE
  5
1B6
330
1E
100
AcDbEntity
  8
CSLAYER1
  6
CONTINUOUS
 62
     3
100
AcDbLine
 10
165.924286
 20
103.1428569999998
 30
0.0
 11
165.398859
 21
103.446212
 31
0.0
  0
LINE
  5
1B7
330
1E
100
AcDbEntity
  8
CSLAYER1
  6
CONTINUOUS
 62
     3
100
AcDbLine
 10
165.398859
 20
103.446212
 30
0.0
 11
165.398859
 21
105.542857
 31
0.0
  0
ARC
  5
1B8
330
1E
100
AcDbEntity
  8
CSLAYER1
  6
CONTINUOUS
 62
     3
100
AcDbCircle
 10
166.1927159999999
 20
104.3332649999999
 30
0.0
 40
1.190407999999999
100
AcDbArc
 50
251.826548
 51
311.826548
  0
LINE
  5
1B9
330
1E
100
AcDbEntity
  8
CSLAYER1
  6
CONTINUOUS
 62
     3
100
AcDbLine
 10
167.074286
 20
103.1428569999998
 30
0.0
 11
167.074286
 21
102.4428569999999
 31
0.0
  0
LINE
  5
1BA
330
1E
100
AcDbEntity
  8
CSLAYER1
  6
CONTINUOUS
 62
     3
100
AcDbLine
 10
167.074286
 20
102.4428569999999
 30
0.0
 11
167.474286
 21
102.0428569999999
 31
0.0
  0
LINE
  5
1BB
330
1E
100
AcDbEntity
  8
CSLAYER1
  6
CONTINUOUS
 62
     3
100
AcDbLine
 10
167.474286
 20
102.0428569999999
 30
0.0
 11
169.674286
 21
102.0428569999999
 31
0.0
  0
LINE
  5
1BC
330
1E
100
AcDbEntity
  8
CSLAYER1
  6
CONTINUOUS
 62
     3
100
AcDbLine
 10
169.674286
 20
102.0428569999999
 30
0.0
 11
170.074286
 21
102.4428569999999
 31
0.0
  0
LINE
  5
1BD
330
1E
100
AcDbEntity
  8
CSLAYER1
  6
CONTINUOUS
 62
     3
100
AcDbLine
 10
170.074286
 20
102.4428569999999
 30
0.0
 11
170.074286
 21
103.1428569999998
 31
0.0
  0
ARC
  5
1BE
330
1E
100
AcDbEntity
  8
CSLAYER1
  6
CONTINUOUS
 62
     3
100
AcDbCircle
 10
170.955856
 20
104.3332649999999
 30
0.0
 40
1.190407999999999
100
AcDbArc
 50
228.173452
 51
288.173452
  0
LINE
  5
1BF
330
1E
100
AcDbEntity
  8
CSLAYER1
  6
CONTINUOUS
 62
     3
100
AcDbLine
 10
184.574286
 20
176.2628569999999
 30
0.0
 11
259.5742859999999
 21
176.2628569999999
 31
0.0
  0
LINE
  5
1C0
330
1E
100
AcDbEntity
  8
CSLAYER1
  6
CONTINUOUS
 62
     3
100
AcDbLine
 10
259.5742859999999
 20
176.2628569999999
 30
0.0
 11
259.5742859999999
 21
177.262857
 31
0.0
  0
LINE
  5
1C1
330
1E
100
AcDbEntity
  8
CSLAYER1
  6
CONTINUOUS
 62
     3
100
AcDbLine
 10
261.5742859999999
 20
179.2628569999999
 30
0.0
 11
273.0742859999998
 21
179.2628569999999
 31
0.0
  0
LINE
  5
1C2
330
1E
100
AcDbEntity
  8
CSLAYER1
  6
CONTINUOUS
 62
     3
100
AcDbLine
 10
273.0742859999998
 20
179.2628569999999
 30
0.0
 11
274.5742859999999
 21
180.762857
 31
0.0
  0
LINE
  5
1C3
330
1E
100
AcDbEntity
  8
CSLAYER1
  6
CONTINUOUS
 62
     3
100
AcDbLine
 10
274.5742859999999
 20
180.762857
 30
0.0
 11
274.5742859999999
 21
207.7628569999999
 31
0.0
  0
LINE
  5
1C4
330
1E
100
AcDbEntity
  8
CSLAYER1
  6
CONTINUOUS
 62
     3
100
AcDbLine
 10
274.5742859999999
 20
207.7628569999999
 30
0.0
 11
273.0742859999998
 21
209.262857
 31
0.0
  0
LINE
  5
1C5
330
1E
100
AcDbEntity
  8
CSLAYER1
  6
CONTINUOUS
 62
     3
100
AcDbLine
 10
273.0742859999998
 20
209.262857
 30
0.0
 11
261.5742859999999
 21
209.262857
 31
0.0
  0
LINE
  5
1C6
330
1E
100
AcDbEntity
  8
CSLAYER1
  6
CONTINUOUS
 62
     3
100
AcDbLine
 10
259.5742859999999
 20
211.262857
 30
0.0
 11
259.5742859999999
 21
212.2628569999998
 31
0.0
  0
LINE
  5
1C7
330
1E
100
AcDbEntity
  8
CSLAYER1
  6
CONTINUOUS
 62
     3
100
AcDbLine
 10
259.5742859999999
 20
212.2628569999998
 30
0.0
 11
254.8742859999999
 21
212.2628569999998
 31
0.0
  0
LINE
  5
1C8
330
1E
100
AcDbEntity
  8
CSLAYER1
  6
CONTINUOUS
 62
     3
100
AcDbLine
 10
254.8742859999999
 20
212.2628569999998
 30
0.0
 11
254.574286
 21
211.9628569999999
 31
0.0
  0
LINE
  5
1C9
330
1E
100
AcDbEntity
  8
CSLAYER1
  6
CONTINUOUS
 62
     3
100
AcDbLine
 10
254.574286
 20
212.2628569999998
 30
0.0
 11
184.574286
 21
212.2628569999998
 31
0.0
  0
LINE
  5
1CA
330
1E
100
AcDbEntity
  8
CSLAYER1
  6
CONTINUOUS
 62
     3
100
AcDbLine
 10
184.574286
 20
212.2628569999998
 30
0.0
 11
161.574286
 21
201.7628569999998
 31
0.0
  0
LINE
  5
1CB
330
1E
100
AcDbEntity
  8
CSLAYER1
  6
CONTINUOUS
 62
     3
100
AcDbLine
 10
161.574286
 20
201.7628569999998
 30
0.0
 11
161.574286
 21
186.7628569999999
 31
0.0
  0
LINE
  5
1CC
330
1E
100
AcDbEntity
  8
CSLAYER1
  6
CONTINUOUS
 62
     3
100
AcDbLine
 10
161.574286
 20
186.7628569999999
 30
0.0
 11
184.574286
 21
176.2628569999999
 31
0.0
  0
LINE
  5
1CD
330
1E
100
AcDbEntity
  8
CSLAYER1
  6
CONTINUOUS
 62
     3
100
AcDbLine
 10
184.574286
 20
176.2628569999999
 30
0.0
 11
184.574286
 21
212.2628569999998
 31
0.0
  0
LINE
  5
1CE
330
1E
100
AcDbEntity
  8
CSLAYER1
  6
CONTINUOUS
 62
     3
100
AcDbLine
 10
170.5107769999998
 20
194.762857
 30
0.0
 11
166.6377939999998
 21
194.762857
 31
0.0
  0
LINE
  5
1CF
330
1E
100
AcDbEntity
  8
CSLAYER1
  6
CONTINUOUS
 62
     3
100
AcDbLine
 10
166.6377939999998
 20
193.762857
 30
0.0
 11
170.5107769999998
 21
193.762857
 31
0.0
  0
CIRCLE
  5
1D0
330
1E
100
AcDbEntity
  8
CSLAYER1
  6
CONTINUOUS
 62
     3
100
AcDbCircle
 10
168.5742859999999
 20
194.262857
 30
0.0
 40
2.0
  0
ARC
  5
1D1
330
1E
100
AcDbEntity
  8
CSLAYER1
  6
CONTINUOUS
 62
     3
100
AcDbCircle
 10
168.5742859999999
 20
194.262857
 30
0.0
 40
1.5
100
AcDbArc
 50
19.47122099999998
 51
160.528779
  0
ARC
  5
1D2
330
1E
100
AcDbEntity
  8
CSLAYER1
  6
CONTINUOUS
 62
     3
100
AcDbCircle
 10
168.5742859999999
 20
194.262857
 30
0.0
 40
1.5
100
AcDbArc
 50
199.4712209999999
 51
340.528779
  0
CIRCLE
  5
1D3
330
1E
100
AcDbEntity
  8
CSLAYER1
  6
CONTINUOUS
 62
     3
100
AcDbCircle
 10
206.5742859999999
 20
180.2628569999999
 30
0.0
 40
1.649999999999999
  0
LINE
  5
1D4
330
1E
100
AcDbEntity
  8
CSLAYER1
  6
CONTINUOUS
 62
     3
100
AcDbLine
 10
210.5742859999998
 20
176.2628569999999
 30
0.0
 11
210.5742859999998
 21
212.2628569999998
 31
0.0
  0
CIRCLE
  5
1D5
330
1E
100
AcDbEntity
  8
CSLAYER1
  6
CONTINUOUS
 62
     3
100
AcDbCircle
 10
206.5742859999999
 20
208.2628569999999
 30
0.0
 40
1.649999999999999
  0
LINE
  5
1D6
330
1E
100
AcDbEntity
  8
CSLAYER1
  6
CONTINUOUS
 62
     3
100
AcDbLine
 10
227.574286
 20
212.2628569999998
 30
0.0
 11
227.574286
 21
176.2628569999999
 31
0.0
  0
CIRCLE
  5
1D7
330
1E
100
AcDbEntity
  8
CSLAYER1
  6
CONTINUOUS
 62
     3
100
AcDbCircle
 10
236.574286
 20
180.2628569999999
 30
0.0
 40
1.649999999999999
  0
LINE
  5
1D8
330
1E
100
AcDbEntity
  8
CSLAYER1
  6
CONTINUOUS
 62
     3
100
AcDbLine
 10
240.574286
 20
183.545059
 30
0.0
 11
240.574286
 21
176.2628569999999
 31
0.0
  0
LINE
  5
1D9
330
1E
100
AcDbEntity
  8
CSLAYER1
  6
CONTINUOUS
 62
     3
100
AcDbLine
 10
242.574286
 20
185.545059
 30
0.0
 11
253.574286
 21
185.545059
 31
0.0
  0
LINE
  5
1DA
330
1E
100
AcDbEntity
  8
CSLAYER1
  6
CONTINUOUS
 62
     3
100
AcDbLine
 10
253.574286
 20
185.545059
 30
0.0
 11
254.574286
 21
186.545059
 31
0.0
  0
LINE
  5
1DB
330
1E
100
AcDbEntity
  8
CSLAYER1
  6
CONTINUOUS
 62
     3
100
AcDbLine
 10
253.574286
 20
185.545059
 30
0.0
 11
253.574286
 21
202.9806549999999
 31
0.0
  0
LINE
  5
1DC
330
1E
100
AcDbEntity
  8
CSLAYER1
  6
CONTINUOUS
 62
     3
100
AcDbLine
 10
253.574286
 20
202.9806549999999
 30
0.0
 11
254.574286
 21
201.980655
 31
0.0
  0
LINE
  5
1DD
330
1E
100
AcDbEntity
  8
CSLAYER1
  6
CONTINUOUS
 62
     3
100
AcDbLine
 10
253.574286
 20
202.9806549999999
 30
0.0
 11
242.574286
 21
202.9806549999999
 31
0.0
  0
LINE
  5
1DE
330
1E
100
AcDbEntity
  8
CSLAYER1
  6
CONTINUOUS
 62
     3
100
AcDbLine
 10
240.574286
 20
204.980655
 30
0.0
 11
240.574286
 21
212.2628569999998
 31
0.0
  0
CIRCLE
  5
1DF
330
1E
100
AcDbEntity
  8
CSLAYER1
  6
CONTINUOUS
 62
     3
100
AcDbCircle
 10
236.574286
 20
208.2628569999999
 30
0.0
 40
1.649999999999999
  0
ARC
  5
1E0
330
1E
100
AcDbEntity
  8
CSLAYER1
  6
CONTINUOUS
 62
     3
100
AcDbCircle
 10
242.574286
 20
204.980655
 30
0.0
 40
2.0
100
AcDbArc
 50
180.0
 51
270.0
  0
LINE
  5
1E1
330
1E
100
AcDbEntity
  8
CSLAYER1
  6
CONTINUOUS
 62
     3
100
AcDbLine
 10
254.574286
 20
212.2628569999998
 30
0.0
 11
254.574286
 21
176.2628569999999
 31
0.0
  0
LINE
  5
1E2
330
1E
100
AcDbEntity
  8
CSLAYER1
  6
CONTINUOUS
 62
     3
100
AcDbLine
 10
254.8742859999999
 20
176.2628569999999
 30
0.0
 11
254.574286
 21
176.562857
 31
0.0
  0
ARC
  5
1E3
330
1E
100
AcDbEntity
  8
CSLAYER1
  6
CONTINUOUS
 62
     3
100
AcDbCircle
 10
261.5742859999999
 20
177.262857
 30
0.0
 40
2.0
100
AcDbArc
 50
90.0
 51
180.0
  0
LINE
  5
1E4
330
1E
100
AcDbEntity
  8
CSLAYER1
  6
CONTINUOUS
 62
     3
100
AcDbLine
 10
273.0742859999998
 20
179.2628569999999
 30
0.0
 11
273.0742859999998
 21
209.262857
 31
0.0
  0
ARC
  5
1E5
330
1E
100
AcDbEntity
  8
CSLAYER1
  6
CONTINUOUS
 62
     3
100
AcDbCircle
 10
261.5742859999999
 20
211.262857
 30
0.0
 40
2.0
100
AcDbArc
 50
180.0
 51
270.0
  0
ARC
  5
1E6
330
1E
100
AcDbEntity
  8
CSLAYER1
  6
CONTINUOUS
 62
     3
100
AcDbCircle
 10
242.574286
 20
183.545059
 30
0.0
 40
2.0
100
AcDbArc
 50
90.0
 51
180.0
  0
LINE
  5
1E7
330
1E
100
AcDbEntity
  8
CSLAYER1
  6
CONTINUOUS
 62
     3
100
AcDbLine
 10
103.7085709999999
 20
212.2628569999998
 30
0.0
 11
103.7085709999999
 21
176.2628569999999
 31
0.0
  0
LINE
  5
1E8
330
1E
100
AcDbEntity
  8
CSLAYER1
  6
CONTINUOUS
 62
     3
100
AcDbLine
 10
103.7085709999999
 20
176.2628569999999
 30
0.0
 11
67.70857099999999
 21
176.2628569999999
 31
0.0
  0
LINE
  5
1E9
330
1E
100
AcDbEntity
  8
CSLAYER1
  6
CONTINUOUS
 62
     3
100
AcDbLine
 10
67.70857099999999
 20
176.2628569999999
 30
0.0
 11
67.70857099999999
 21
212.2628569999998
 31
0.0
  0
LINE
  5
1EA
330
1E
100
AcDbEntity
  8
CSLAYER1
  6
CONTINUOUS
 62
     3
100
AcDbLine
 10
67.70857099999999
 20
212.2628569999998
 30
0.0
 11
103.7085709999999
 21
212.2628569999998
 31
0.0
  0
ARC
  5
1EB
330
1E
100
AcDbEntity
  8
CSLAYER1
  6
CONTINUOUS
 62
     3
100
AcDbCircle
 10
111.2085709999999
 20
200.4412669999999
 30
0.0
 40
14.0
100
AcDbArc
 50
122.3923649999999
 51
180.0
  0
LINE
  5
1EC
330
1E
100
AcDbEntity
  8
CSLAYER1
  6
CONTINUOUS
 62
     3
100
AcDbLine
 10
97.20857100000001
 20
200.4412669999999
 30
0.0
 11
97.20857100000001
 21
188.084448
 31
0.0
  0
ARC
  5
1ED
330
1E
100
AcDbEntity
  8
CSLAYER1
  6
CONTINUOUS
 62
     3
100
AcDbCircle
 10
111.2085709999999
 20
188.084448
 30
0.0
 40
14.0
100
AcDbArc
 50
180.0
 51
237.607635
  0
LINE
  5
1EE
330
1E
100
AcDbEntity
  8
CSLAYER1
  6
CONTINUOUS
 62
     3
100
AcDbLine
 10
97.27109
 20
186.7628569999999
 30
0.0
 11
90.20857099999998
 21
186.7628569999999
 31
0.0
  0
LINE
  5
1EF
330
1E
100
AcDbEntity
  8
CSLAYER1
  6
CONTINUOUS
 62
     3
100
AcDbLine
 10
90.20857099999998
 20
192.262857
 30
0.0
 11
81.208571
 21
192.262857
 31
0.0
  0
LINE
  5
1F0
330
1E
100
AcDbEntity
  8
CSLAYER1
  6
CONTINUOUS
 62
     3
100
AcDbLine
 10
81.208571
 20
196.2628569999999
 30
0.0
 11
90.20857099999998
 21
196.2628569999999
 31
0.0
  0
LINE
  5
1F1
330
1E
100
AcDbEntity
  8
CSLAYER1
  6
CONTINUOUS
 62
     3
100
AcDbLine
 10
90.20857099999998
 20
201.7628569999998
 30
0.0
 11
97.27109
 21
201.7628569999998
 31
0.0
  0
ARC
  5
1F2
330
1E
100
AcDbEntity
  8
CSLAYER1
  6
CONTINUOUS
 62
     3
100
AcDbCircle
 10
85.70857099999997
 20
194.262857
 30
0.0
 40
15.2
100
AcDbArc
 50
72.77933199999998
 51
107.2206679999998
  0
LINE
  5
1F3
330
1E
100
AcDbEntity
  8
CSLAYER1
  6
CONTINUOUS
 62
     3
100
AcDbLine
 10
81.208571
 20
212.2628569999998
 30
0.0
 11
81.208571
 21
176.2628569999999
 31
0.0
  0
ARC
  5
1F4
330
1E
100
AcDbEntity
  8
CSLAYER1
  6
CONTINUOUS
 62
     3
100
AcDbCircle
 10
85.70857099999997
 20
194.262857
 30
0.0
 40
15.2
100
AcDbArc
 50
252.779332
 51
287.220668
  0
LINE
  5
1F5
330
1E
100
AcDbEntity
  8
CSLAYER1
  6
CONTINUOUS
 62
     3
100
AcDbLine
 10
90.20857099999998
 20
176.2628569999999
 30
0.0
 11
90.20857099999998
 21
212.2628569999998
 31
0.0
  0
LINE
  5
1F6
330
1E
100
AcDbEntity
  8
CSLAYER1
  6
CONTINUOUS
 62
     3
100
AcDbLine
 10
81.208571
 20
201.7628569999998
 30
0.0
 11
74.14605300000002
 21
201.7628569999998
 31
0.0
  0
LINE
  5
1F7
330
1E
100
AcDbEntity
  8
CSLAYER1
  6
CONTINUOUS
 62
     3
100
AcDbLine
 10
74.20857099999998
 20
200.4412669999999
 30
0.0
 11
74.20857099999998
 21
188.084448
 31
0.0
  0
LINE
  5
1F8
330
1E
100
AcDbEntity
  8
CSLAYER1
  6
CONTINUOUS
 62
     3
100
AcDbLine
 10
74.14605300000002
 20
186.7628569999999
 30
0.0
 11
81.208571
 21
186.7628569999999
 31
0.0
  0
LINE
  5
1F9
330
1E
100
AcDbEntity
  8
CSLAYER1
  6
CONTINUOUS
 62
     3
100
AcDbLine
 10
71.808571
 20
192.7628569999999
 30
0.0
 11
71.108571
 21
192.7628569999999
 31
0.0
  0
LINE
  5
1FA
330
1E
100
AcDbEntity
  8
CSLAYER1
  6
CONTINUOUS
 62
     3
100
AcDbLine
 10
71.108571
 20
192.7628569999999
 30
0.0
 11
70.70857099999997
 21
193.1628569999999
 31
0.0
  0
LINE
  5
1FB
330
1E
100
AcDbEntity
  8
CSLAYER1
  6
CONTINUOUS
 62
     3
100
AcDbLine
 10
70.70857099999997
 20
193.1628569999999
 30
0.0
 11
70.70857099999997
 21
195.362857
 31
0.0
  0
LINE
  5
1FC
330
1E
100
AcDbEntity
  8
CSLAYER1
  6
CONTINUOUS
 62
     3
100
AcDbLine
 10
70.70857099999997
 20
195.362857
 30
0.0
 11
71.108571
 21
195.7628569999999
 31
0.0
  0
LINE
  5
1FD
330
1E
100
AcDbEntity
  8
CSLAYER1
  6
CONTINUOUS
 62
     3
100
AcDbLine
 10
71.108571
 20
195.7628569999999
 30
0.0
 11
71.808571
 21
195.7628569999999
 31
0.0
  0
ARC
  5
1FE
330
1E
100
AcDbEntity
  8
CSLAYER1
  6
CONTINUOUS
 62
     3
100
AcDbCircle
 10
60.208571
 20
200.4412669999999
 30
0.0
 40
14.0
100
AcDbArc
 50
0.0
 51
57.60763499999999
  0
ARC
  5
1FF
330
1E
100
AcDbEntity
  8
CSLAYER1
  6
CONTINUOUS
 62
     3
100
AcDbCircle
 10
60.208571
 20
188.084448
 30
0.0
 40
14.0
100
AcDbArc
 50
302.3923649999998
 51
0.0
  0
LINE
  5
200
330
1E
100
AcDbEntity
  8
CSLAYER1
  6
CENTER
 62
     4
100
AcDbLine
 10
168.5742859999999
 20
99.464979
 30
0.0
 11
168.5742859999999
 21
130.68632
 31
0.0
  0
CIRCLE
  5
201
330
1E
100
AcDbEntity
  8
CSLAYER1
  6
CONTINUOUS
 62
     4
100
AcDbCircle
 10
231.5742859999999
 20
131.042857
 30
0.0
 40
2.0
  0
LINE
  5
202
330
1E
100
AcDbEntity
  8
CSLAYER1
  6
CENTER
 62
     4
100
AcDbLine
 10
231.5742859999999
 20
108.850286
 30
0.0
 11
231.5742859999999
 21
95.80285700000001
 31
0.0
  0
CIRCLE
  5
203
330
1E
100
AcDbEntity
  8
CSLAYER1
  6
CONTINUOUS
 62
     4
100
AcDbCircle
 10
231.5742859999999
 20
103.0428569999999
 30
0.0
 40
2.0
  0
LINE
  5
204
330
1E
100
AcDbEntity
  8
CSLAYER1
  6
CENTER
 62
     4
100
AcDbLine
 10
236.445714
 20
103.0428569999999
 30
0.0
 11
197.76416
 21
103.0428569999999
 31
0.0
  0
LINE
  5
205
330
1E
100
AcDbEntity
  8
CSLAYER1
  6
CENTER
 62
     4
100
AcDbLine
 10
201.574286
 20
107.9657139999999
 30
0.0
 11
201.574286
 21
95.36057099999998
 31
0.0
  0
CIRCLE
  5
206
330
1E
100
AcDbEntity
  8
CSLAYER1
  6
CONTINUOUS
 62
     4
100
AcDbCircle
 10
201.574286
 20
103.0428569999999
 30
0.0
 40
2.0
  0
CIRCLE
  5
207
330
1E
100
AcDbEntity
  8
CSLAYER1
  6
CONTINUOUS
 62
     4
100
AcDbCircle
 10
201.574286
 20
131.042857
 30
0.0
 40
2.0
  0
LINE
  5
208
330
1E
100
AcDbEntity
  8
CSLAYER1
  6
CENTER
 62
     4
100
AcDbLine
 10
206.5742859999999
 20
174.455601
 30
0.0
 11
206.5742859999999
 21
184.038857
 31
0.0
  0
CIRCLE
  5
209
330
1E
100
AcDbEntity
  8
CSLAYER1
  6
CONTINUOUS
 62
     4
100
AcDbCircle
 10
206.5742859999999
 20
180.2628569999999
 30
0.0
 40
2.0
  0
LINE
  5
20A
330
1E
100
AcDbEntity
  8
CSLAYER1
  6
CENTER
 62
     4
100
AcDbLine
 10
201.695429
 20
180.2628569999999
 30
0.0
 11
241.3742859999999
 21
180.2628569999999
 31
0.0
  0
CIRCLE
  5
20B
330
1E
100
AcDbEntity
  8
CSLAYER1
  6
CONTINUOUS
 62
     4
100
AcDbCircle
 10
236.574286
 20
180.2628569999999
 30
0.0
 40
2.0
  0
LINE
  5
20C
330
1E
100
AcDbEntity
  8
CSLAYER1
  6
CENTER
 62
     4
100
AcDbLine
 10
236.574286
 20
184.038857
 30
0.0
 11
236.574286
 21
174.5574589999999
 31
0.0
  0
LINE
  5
20D
330
1E
100
AcDbEntity
  8
CSLAYER1
  6
CENTER
 62
     4
100
AcDbLine
 10
236.574286
 20
204.486857
 30
0.0
 11
236.574286
 21
214.2314259999999
 31
0.0
  0
CIRCLE
  5
20E
330
1E
100
AcDbEntity
  8
CSLAYER1
  6
CONTINUOUS
 62
     4
100
AcDbCircle
 10
236.574286
 20
208.2628569999999
 30
0.0
 40
2.0
  0
LINE
  5
20F
330
1E
100
AcDbEntity
  8
CSLAYER1
  6
CENTER
 62
     4
100
AcDbLine
 10
241.3742859999999
 20
208.2628569999999
 30
0.0
 11
201.695429
 21
208.2628569999999
 31
0.0
  0
LINE
  5
210
330
1E
100
AcDbEntity
  8
CSLAYER1
  6
CENTER
 62
     4
100
AcDbLine
 10
206.5742859999999
 20
204.486857
 30
0.0
 11
206.5742859999999
 21
214.4351429999999
 31
0.0
  0
CIRCLE
  5
211
330
1E
100
AcDbEntity
  8
CSLAYER1
  6
CONTINUOUS
 62
     4
100
AcDbCircle
 10
206.5742859999999
 20
208.2628569999999
 30
0.0
 40
2.0
  0
LINE
  5
212
330
1E
100
AcDbEntity
  8
CSLAYER1
  6
CENTER
 62
     4
100
AcDbLine
 10
168.5742859999999
 20
197.115461
 30
0.0
 11
168.5742859999999
 21
191.4253019999999
 31
0.0
  0
LINE
  5
213
330
1E
100
AcDbEntity
  8
CSLAYER1
  6
CENTER
 62
     4
100
AcDbLine
 10
155.4439999999999
 20
194.262857
 30
0.0
 11
283.217208
 21
194.262857
 31
0.0
  0
LINE
  5
214
330
1E
100
AcDbEntity
  8
CSLAYER1
  6
CENTER
 62
     4
100
AcDbLine
 10
283.5319489999998
 20
117.042857
 30
0.0
 11
157.555488
 21
117.042857
 31
0.0
  0
LINE
  5
215
330
1E
100
AcDbEntity
  8
CSLAYER1
  6
CONTINUOUS
 62
     4
100
AcDbLine
 10
167.324286
 20
103.1428569999998
 30
0.0
 11
167.324286
 21
102.1928569999999
 31
0.0
  0
LINE
  5
216
330
1E
100
AcDbEntity
  8
CSLAYER1
  6
CONTINUOUS
 62
     4
100
AcDbLine
 10
167.074286
 20
102.4428569999999
 30
0.0
 11
170.074286
 21
102.4428569999999
 31
0.0
  0
LINE
  5
217
330
1E
100
AcDbEntity
  8
CSLAYER1
  6
CONTINUOUS
 62
     4
100
AcDbLine
 10
169.824286
 20
102.1928569999999
 30
0.0
 11
169.824286
 21
103.1428569999998
 31
0.0
  0
LINE
  5
218
330
1E
100
AcDbEntity
  8
CSLAYER1
  6
CENTER
 62
     4
100
AcDbLine
 10
85.70857099999997
 20
172.801529
 30
0.0
 11
85.70857099999997
 21
215.2395489999999
 31
0.0
  0
LINE
  5
219
330
1E
100
AcDbEntity
  8
CSLAYER1
  6
CONTINUOUS
 62
     4
100
AcDbLine
 10
71.808571
 20
195.512857
 30
0.0
 11
70.858571
 21
195.512857
 31
0.0
  0
LINE
  5
21A
330
1E
100
AcDbEntity
  8
CSLAYER1
  6
CONTINUOUS
 62
     4
100
AcDbLine
 10
71.108571
 20
195.7628569999999
 30
0.0
 11
71.108571
 21
192.7628569999999
 31
0.0
  0
LINE
  5
21B
330
1E
100
AcDbEntity
  8
CSLAYER1
  6
CONTINUOUS
 62
     4
100
AcDbLine
 10
70.858571
 20
193.0128569999999
 30
0.0
 11
71.808571
 21
193.0128569999999
 31
0.0
  0
LINE
  5
21C
330
1E
100
AcDbEntity
  8
CSLAYER1
  6
CENTER
 62
     4
100
AcDbLine
 10
65.24343299999999
 20
194.262857
 30
0.0
 11
72.11192700000002
 21
194.262857
 31
0.0
  0
DIMENSION
  5
21D
330
1E
100
AcDbEntity
  8
CSLAYER1
 62
     4
100
AcDbDimension
  2
*D22
 10
274.5742859999999
 20
231.209693
 30
0.0
 11
264.5742799999999
 21
231.7096859999999
 31
0.0
 70
     1
100
AcDbAlignedDimension
 13
254.574286
 23
207.7628569999999
 33
0.0
 14
274.5742859999999
 24
207.7628569999999
 34
0.0
  0
LINE
  5
21E
330
1E
100
AcDbEntity
  8
CSLAYER1
  6
CENTER
 62
     4
100
AcDbLine
 10
201.574286
 20
136.6133389999999
 30
0.0
 11
201.574286
 21
126.372294
 31
0.0
  0
LINE
  5
21F
330
1E
100
AcDbEntity
  8
CSLAYER1
  6
CENTER
 62
     4
100
AcDbLine
 10
231.5742859999999
 20
137.466759
 30
0.0
 11
231.5742859999999
 21
126.372294
 31
0.0
  0
TEXT
  5
220
330
1E
100
AcDbEntity
  8
CSLAYER1
 62
     3
100
AcDbText
 10
355.8999999999998
 20
18.89999999999998
 30
0.0
 40
3.2
  1
GT-NS7
 41
1.058823529411773
  7
FX_FONT
 72
     5
 11
375.1
 21
18.89999999999998
 31
0.0
100
AcDbText
  0
DIMENSION
  5
221
330
1E
100
AcDbEntity
  8
CSLAYER1
 62
     4
100
AcDbDimension
  2
*D23
 10
274.5742859999999
 20
237.3047689999999
 30
0.0
 11
218.0742799999999
 21
237.804764
 31
0.0
100
AcDbAlignedDimension
 13
161.574286
 23
201.7628569999998
 33
0.0
 14
274.5742859999999
 24
207.7628569999999
 34
0.0
100
AcDbRotatedDimension
  0
LINE
  5
222
330
1E
100
AcDbEntity
  8
CSLAYER1
  6
CONTINUOUS
 62
     3
100
AcDbLine
 10
71.808571
 20
197.0128569999999
 30
0.0
 11
71.808571
 21
191.512857
 31
0.0
  0
LINE
  5
223
330
1E
100
AcDbEntity
  8
CSLAYER1
  6
CONTINUOUS
 62
     3
100
AcDbLine
 10
74.20857099999998
 20
197.0128569999999
 30
0.0
 11
71.808571
 21
197.0128569999999
 31
0.0
  0
LINE
  5
224
330
1E
100
AcDbEntity
  8
CSLAYER1
  6
CONTINUOUS
 62
     3
100
AcDbLine
 10
74.20857099999998
 20
194.262857
 30
0.0
 11
72.11192700000002
 21
194.262857
 31
0.0
  0
ARC
  5
225
330
1E
100
AcDbEntity
  8
CSLAYER1
  6
CONTINUOUS
 62
     3
100
AcDbCircle
 10
75.07644
 20
195.637857
 30
0.0
 40
3.267868999999998
100
AcDbArc
 50
155.117197
 51
204.882803
  0
LINE
  5
226
330
1E
100
AcDbEntity
  8
CSLAYER1
  6
CONTINUOUS
 62
     3
100
AcDbLine
 10
74.20857099999998
 20
191.512857
 30
0.0
 11
71.808571
 21
191.512857
 31
0.0
  0
ARC
  5
227
330
1E
100
AcDbEntity
  8
CSLAYER1
  6
CONTINUOUS
 62
     3
100
AcDbCircle
 10
75.07644
 20
192.887857
 30
0.0
 40
3.267868999999998
100
AcDbArc
 50
155.117197
 51
204.882803
  0
LINE
  5
228
330
1E
100
AcDbEntity
  8
CSLAYER1
  6
CENTER
 62
     4
100
AcDbLine
 10
74.20857099999998
 20
194.262857
 30
0.0
 11
107.457506
 21
194.262857
 31
0.0
  0
LINE
  5
229
330
1E
100
AcDbEntity
  8
CSLAYER1
  6
CENTER
 62
     4
100
AcDbLine
 10
197.2149259999999
 20
131.042857
 30
0.0
 11
236.445714
 21
131.042857
 31
0.0
  0
DIMENSION
  5
22A
330
1E
100
AcDbEntity
  8
CSLAYER1
 62
     4
100
AcDbDimension
  2
*D24
 10
369.5787029999998
 20
209.262857
 30
0.0
 11
369.0787349999998
 21
194.2628629999999
 31
0.0
 70
     1
100
AcDbAlignedDimension
 13
349.157215
 23
179.2628569999999
 33
0.0
 14
349.157215
 24
209.262857
 34
0.0
  0
DIMENSION
  5
22B
330
1E
100
AcDbEntity
  8
CSLAYER1
 62
     4
100
AcDbDimension
  2
*D25
 10
325.208952
 20
224.980421
 30
0.0
 11
316.424072
 21
216.790314
 31
0.0
100
AcDbAlignedDimension
 13
327.44177
 23
189.057864
 33
0.0
 14
344.3316279999998
 24
206.109132
 34
0.0
 50
45.379092
100
AcDbRotatedDimension
  0
INSERT
  5
22C
330
1E
100
AcDbEntity
  8
CSLAYER1
100
AcDbBlockReference
  2
FXDIM0002
 10
0.0
 20
0.0
 30
0.0
  0
LINE
  5
22D
330
1E
100
AcDbEntity
  8
CSLAYER1
  6
CONTINUOUS
 62
     3
100
AcDbLine
 10
329.257466
 20
179.2628569999999
 30
0.0
 11
349.157215
 21
179.2628569999999
 31
0.0
  0
ARC
  5
22E
330
1E
100
AcDbEntity
  8
CSLAYER1
  6
CONTINUOUS
 62
     3
100
AcDbCircle
 10
339.20734
 20
194.262857
 30
0.0
 40
16.5
100
AcDbArc
 50
294.619977
 51
65.38002299999999
  0
LINE
  5
22F
330
1E
100
AcDbEntity
  8
CSLAYER1
  6
CONTINUOUS
 62
     3
100
AcDbLine
 10
349.157215
 20
209.262857
 30
0.0
 11
329.257466
 21
209.262857
 31
0.0
  0
ARC
  5
230
330
1E
100
AcDbEntity
  8
CSLAYER1
  6
CONTINUOUS
 62
     3
100
AcDbCircle
 10
339.20734
 20
194.262857
 30
0.0
 40
16.5
100
AcDbArc
 50
114.619977
 51
245.380023
  0
CIRCLE
  5
231
330
1E
100
AcDbEntity
  8
CSLAYER1
  6
CONTINUOUS
 62
     3
100
AcDbCircle
 10
347.692622
 20
202.7481389999999
 30
0.0
 40
1.649999999999999
  0
CIRCLE
  5
232
330
1E
100
AcDbEntity
  8
CSLAYER1
  6
CONTINUOUS
 62
     3
100
AcDbCircle
 10
339.20734
 20
194.262857
 30
0.0
 40
4.25
  0
CIRCLE
  5
233
330
1E
100
AcDbEntity
  8
CSLAYER1
  6
CONTINUOUS
 62
     3
100
AcDbCircle
 10
339.20734
 20
194.262857
 30
0.0
 40
18.0
  0
CIRCLE
  5
234
330
1E
100
AcDbEntity
  8
CSLAYER1
  6
CONTINUOUS
 62
     3
100
AcDbCircle
 10
330.722059
 20
185.777576
 30
0.0
 40
1.649999999999999
  0
LINE
  5
235
330
1E
100
AcDbEntity
  8
CSLAYER1
  6
CENTER
 62
     4
100
AcDbLine
 10
316.0631609999998
 20
194.262857
 30
0.0
 11
363.2485809999998
 21
194.262857
 31
0.0
  0
LINE
  5
236
330
1E
100
AcDbEntity
  8
CSLAYER1
  6
CENTER
 62
     4
100
AcDbLine
 10
350.868713
 20
199.572047
 30
0.0
 11
344.3316279999998
 21
206.109132
 31
0.0
  0
LINE
  5
237
330
1E
100
AcDbEntity
  8
CSLAYER1
  6
CENTER
 62
     4
100
AcDbLine
 10
350.2708399999998
 20
205.3263569999999
 30
0.0
 11
343.814459
 21
198.869976
 31
0.0
  0
CIRCLE
  5
238
330
1E
100
AcDbEntity
  8
CSLAYER1
  6
CONTINUOUS
 62
     4
100
AcDbCircle
 10
339.20734
 20
194.262857
 30
0.0
 40
4.75
  0
CIRCLE
  5
239
330
1E
100
AcDbEntity
  8
CSLAYER1
  6
CONTINUOUS
 62
     4
100
AcDbCircle
 10
347.692622
 20
202.7481389999999
 30
0.0
 40
2.0
  0
LINE
  5
23A
330
1E
100
AcDbEntity
  8
CSLAYER1
  6
CENTER
 62
     4
100
AcDbLine
 10
339.20734
 20
172.098171
 30
0.0
 11
339.20734
 21
216.332445
 31
0.0
  0
LINE
  5
23B
330
1E
100
AcDbEntity
  8
CSLAYER1
  6
CENTER
 62
     4
100
AcDbLine
 10
334.301674
 20
182.19796
 30
0.0
 11
327.44177
 21
189.057864
 31
0.0
  0
LINE
  5
23C
330
1E
100
AcDbEntity
  8
CSLAYER1
  6
CENTER
 62
     4
100
AcDbLine
 10
327.834918
 20
182.890435
 30
0.0
 11
333.80707
 21
188.862587
 31
0.0
  0
CIRCLE
  5
23D
330
1E
100
AcDbEntity
  8
CSLAYER1
  6
CONTINUOUS
 62
     4
100
AcDbCircle
 10
330.722059
 20
185.777576
 30
0.0
 40
2.0
  0
LINE
  5
23E
330
1E
100
AcDbEntity
  8
CSLAYER1
  6
CONTINUOUS
 62
     3
100
AcDbLine
 10
321.2073399999998
 20
212.2628569999998
 30
0.0
 11
357.2073399999998
 21
212.2628569999998
 31
0.0
  0
LINE
  5
23F
330
1E
100
AcDbEntity
  8
CSLAYER1
  6
CONTINUOUS
 62
     3
100
AcDbLine
 10
321.2073399999998
 20
212.2628569999998
 30
0.0
 11
321.2073399999998
 21
176.2628569999999
 31
0.0
  0
LINE
  5
240
330
1E
100
AcDbEntity
  8
CSLAYER1
  6
CONTINUOUS
 62
     3
100
AcDbLine
 10
321.2073399999998
 20
176.2628569999999
 30
0.0
 11
357.2073399999998
 21
176.2628569999999
 31
0.0
  0
LINE
  5
241
330
1E
100
AcDbEntity
  8
CSLAYER1
  6
CONTINUOUS
 62
     3
100
AcDbLine
 10
357.2073399999998
 20
212.2628569999998
 30
0.0
 11
357.2073399999998
 21
176.2628569999999
 31
0.0
  0
CIRCLE
  5
242
330
1E
100
AcDbEntity
  8
CSLAYER1
  6
CONTINUOUS
 62
     3
100
AcDbCircle
 10
339.20734
 20
194.262857
 30
0.0
 40
3.0
  0
INSERT
  5
243
330
1E
100
AcDbEntity
  8
CSLAYER1
100
AcDbBlockReference
  2
FXDIM0003
 10
0.0
 20
0.0
 30
0.0
  0
LINE
  5
244
330
1E
100
AcDbEntity
  8
CSLAYER1
  6
CENTER
 62
     4
100
AcDbLine
 10
339.20734
 20
194.262857
 30
0.0
 11
317.964933
 21
199.9547429999999
 31
0.0
  0
LINE
  5
245
330
1E
100
AcDbEntity
  8
CSLAYER1
  6
CENTER
 62
     4
100
AcDbLine
 10
271.842497
 20
200.086286
 30
0.0
 11
257.2510789999999
 21
200.086286
 31
0.0
  0
LINE
  5
246
330
1E
100
AcDbEntity
  8
CSLAYER1
  6
CENTER
 62
     4
100
AcDbLine
 10
264.5742859999999
 20
192.97765
 30
0.0
 11
264.5742859999999
 21
207.0620299999999
 31
0.0
  0
POLYLINE
  5
247
330
1E
100
AcDbEntity
  8
CSLAYER1
  6
CONTINUOUS
 62
     4
100
AcDb2dPolyline
 66
     1
 10
0.0
 20
0.0
 30
0.0
  0
VERTEX
  5
248
330
247
100
AcDbEntity
  8
CSLAYER1
  6
CONTINUOUS
 62
     4
100
AcDbVertex
100
AcDb2dVertex
 10
264.5742859999999
 20
204.836286
 30
0.0
  0
VERTEX
  5
249
330
247
100
AcDbEntity
  8
CSLAYER1
  6
CONTINUOUS
 62
     4
100
AcDbVertex
100
AcDb2dVertex
 10
264.1746769999999
 20
204.81821
 30
0.0
  0
VERTEX
  5
24A
330
247
100
AcDbEntity
  8
CSLAYER1
  6
CONTINUOUS
 62
     4
100
AcDbVertex
100
AcDb2dVertex
 10
263.7781089999999
 20
204.764122
 30
0.0
  0
VERTEX
  5
24B
330
247
100
AcDbEntity
  8
CSLAYER1
  6
CONTINUOUS
 62
     4
100
AcDbVertex
100
AcDb2dVertex
 10
263.3876
 20
204.674433
 30
0.0
  0
VERTEX
  5
24C
330
247
100
AcDbEntity
  8
CSLAYER1
  6
CONTINUOUS
 62
     4
100
AcDbVertex
100
AcDb2dVertex
 10
263.0061229999999
 20
204.549826
 30
0.0
  0
VERTEX
  5
24D
330
247
100
AcDbEntity
  8
CSLAYER1
  6
CONTINUOUS
 62
     4
100
AcDbVertex
100
AcDb2dVertex
 10
262.6365809999999
 20
204.3912479999999
 30
0.0
  0
VERTEX
  5
24E
330
247
100
AcDbEntity
  8
CSLAYER1
  6
CONTINUOUS
 62
     4
100
AcDbVertex
100
AcDb2dVertex
 10
262.281786
 20
204.199906
 30
0.0
  0
VERTEX
  5
24F
330
247
100
AcDbEntity
  8
CSLAYER1
  6
CONTINUOUS
 62
     4
100
AcDbVertex
100
AcDb2dVertex
 10
261.944438
 20
203.977258
 30
0.0
  0
VERTEX
  5
250
330
247
100
AcDbEntity
  8
CSLAYER1
  6
CONTINUOUS
 62
     4
100
AcDbVertex
100
AcDb2dVertex
 10
261.6271049999999
 20
203.7249969999999
 30
0.0
  0
VERTEX
  5
251
330
247
100
AcDbEntity
  8
CSLAYER1
  6
CONTINUOUS
 62
     4
100
AcDbVertex
100
AcDb2dVertex
 10
261.332201
 20
203.445043
 30
0.0
  0
VERTEX
  5
252
330
247
100
AcDbEntity
  8
CSLAYER1
  6
CONTINUOUS
 62
     4
100
AcDbVertex
100
AcDb2dVertex
 10
261.061972
 20
203.1395269999999
 30
0.0
  0
VERTEX
  5
253
330
247
100
AcDbEntity
  8
CSLAYER1
  6
CONTINUOUS
 62
     4
100
AcDbVertex
100
AcDb2dVertex
 10
260.818474
 20
202.810774
 30
0.0
  0
VERTEX
  5
254
330
247
100
AcDbEntity
  8
CSLAYER1
  6
CONTINUOUS
 62
     4
100
AcDbVertex
100
AcDb2dVertex
 10
260.6035589999998
 20
202.4612859999999
 30
0.0
  0
VERTEX
  5
255
330
247
100
AcDbEntity
  8
CSLAYER1
  6
CONTINUOUS
 62
     4
100
AcDbVertex
100
AcDb2dVertex
 10
260.4188649999999
 20
202.0937219999999
 30
0.0
  0
VERTEX
  5
256
330
247
100
AcDbEntity
  8
CSLAYER1
  6
CONTINUOUS
 62
     4
100
AcDbVertex
100
AcDb2dVertex
 10
260.265795
 20
201.7108809999998
 30
0.0
  0
VERTEX
  5
257
330
247
100
AcDbEntity
  8
CSLAYER1
  6
CONTINUOUS
 62
     4
100
AcDbVertex
100
AcDb2dVertex
 10
260.145516
 20
201.315676
 30
0.0
  0
VERTEX
  5
258
330
247
100
AcDbEntity
  8
CSLAYER1
  6
CONTINUOUS
 62
     4
100
AcDbVertex
100
AcDb2dVertex
 10
260.0589419999999
 20
200.9111149999998
 30
0.0
  0
VERTEX
  5
259
330
247
100
AcDbEntity
  8
CSLAYER1
  6
CONTINUOUS
 62
     4
100
AcDbVertex
100
AcDb2dVertex
 10
260.0067329999999
 20
200.500275
 30
0.0
  0
VERTEX
  5
25A
330
247
100
AcDbEntity
  8
CSLAYER1
  6
CONTINUOUS
 62
     4
100
AcDbVertex
100
AcDb2dVertex
 10
259.989286
 20
200.086286
 30
0.0
  0
VERTEX
  5
25B
330
247
100
AcDbEntity
  8
CSLAYER1
  6
CONTINUOUS
 62
     4
100
AcDbVertex
100
AcDb2dVertex
 10
260.0067329999999
 20
199.6722959999999
 30
0.0
  0
VERTEX
  5
25C
330
247
100
AcDbEntity
  8
CSLAYER1
  6
CONTINUOUS
 62
     4
100
AcDbVertex
100
AcDb2dVertex
 10
260.0589419999999
 20
199.261457
 30
0.0
  0
VERTEX
  5
25D
330
247
100
AcDbEntity
  8
CSLAYER1
  6
CONTINUOUS
 62
     4
100
AcDbVertex
100
AcDb2dVertex
 10
260.145516
 20
198.856895
 30
0.0
  0
VERTEX
  5
25E
330
247
100
AcDbEntity
  8
CSLAYER1
  6
CONTINUOUS
 62
     4
100
AcDbVertex
100
AcDb2dVertex
 10
260.265795
 20
198.4616899999999
 30
0.0
  0
VERTEX
  5
25F
330
247
100
AcDbEntity
  8
CSLAYER1
  6
CONTINUOUS
 62
     4
100
AcDbVertex
100
AcDb2dVertex
 10
260.4188649999999
 20
198.0788489999999
 30
0.0
  0
VERTEX
  5
260
330
247
100
AcDbEntity
  8
CSLAYER1
  6
CONTINUOUS
 62
     4
100
AcDbVertex
100
AcDb2dVertex
 10
260.6035589999998
 20
197.711286
 30
0.0
  0
VERTEX
  5
261
330
247
100
AcDbEntity
  8
CSLAYER1
  6
CONTINUOUS
 62
     4
100
AcDbVertex
100
AcDb2dVertex
 10
260.818474
 20
197.361798
 30
0.0
  0
VERTEX
  5
262
330
247
100
AcDbEntity
  8
CSLAYER1
  6
CONTINUOUS
 62
     4
100
AcDbVertex
100
AcDb2dVertex
 10
261.061972
 20
197.0330449999999
 30
0.0
  0
VERTEX
  5
263
330
247
100
AcDbEntity
  8
CSLAYER1
  6
CONTINUOUS
 62
     4
100
AcDbVertex
100
AcDb2dVertex
 10
261.332201
 20
196.727528
 30
0.0
  0
VERTEX
  5
264
330
247
100
AcDbEntity
  8
CSLAYER1
  6
CONTINUOUS
 62
     4
100
AcDbVertex
100
AcDb2dVertex
 10
261.6271049999999
 20
196.447575
 30
0.0
  0
VERTEX
  5
265
330
247
100
AcDbEntity
  8
CSLAYER1
  6
CONTINUOUS
 62
     4
100
AcDbVertex
100
AcDb2dVertex
 10
261.944438
 20
196.1953129999999
 30
0.0
  0
VERTEX
  5
266
330
247
100
AcDbEntity
  8
CSLAYER1
  6
CONTINUOUS
 62
     4
100
AcDbVertex
100
AcDb2dVertex
 10
262.281786
 20
195.9726649999999
 30
0.0
  0
VERTEX
  5
267
330
247
100
AcDbEntity
  8
CSLAYER1
  6
CONTINUOUS
 62
     4
100
AcDbVertex
100
AcDb2dVertex
 10
262.6365809999999
 20
195.781324
 30
0.0
  0
VERTEX
  5
268
330
247
100
AcDbEntity
  8
CSLAYER1
  6
CONTINUOUS
 62
     4
100
AcDbVertex
100
AcDb2dVertex
 10
263.0061229999999
 20
195.622746
 30
0.0
  0
VERTEX
  5
269
330
247
100
AcDbEntity
  8
CSLAYER1
  6
CONTINUOUS
 62
     4
100
AcDbVertex
100
AcDb2dVertex
 10
263.3876
 20
195.4981379999999
 30
0.0
  0
VERTEX
  5
26A
330
247
100
AcDbEntity
  8
CSLAYER1
  6
CONTINUOUS
 62
     4
100
AcDbVertex
100
AcDb2dVertex
 10
263.7781089999999
 20
195.4084489999999
 30
0.0
  0
VERTEX
  5
26B
330
247
100
AcDbEntity
  8
CSLAYER1
  6
CONTINUOUS
 62
     4
100
AcDbVertex
100
AcDb2dVertex
 10
264.1746769999999
 20
195.354361
 30
0.0
  0
VERTEX
  5
26C
330
247
100
AcDbEntity
  8
CSLAYER1
  6
CONTINUOUS
 62
     4
100
AcDbVertex
100
AcDb2dVertex
 10
264.5742859999999
 20
195.336286
 30
0.0
  0
VERTEX
  5
26D
330
247
100
AcDbEntity
  8
CSLAYER1
  6
CONTINUOUS
 62
     4
100
AcDbVertex
100
AcDb2dVertex
 10
264.973895
 20
195.354361
 30
0.0
  0
VERTEX
  5
26E
330
247
100
AcDbEntity
  8
CSLAYER1
  6
CONTINUOUS
 62
     4
100
AcDbVertex
100
AcDb2dVertex
 10
265.3704629999999
 20
195.4084489999999
 30
0.0
  0
VERTEX
  5
26F
330
247
100
AcDbEntity
  8
CSLAYER1
  6
CONTINUOUS
 62
     4
100
AcDbVertex
100
AcDb2dVertex
 10
265.760971
 20
195.4981379999999
 30
0.0
  0
VERTEX
  5
270
330
247
100
AcDbEntity
  8
CSLAYER1
  6
CONTINUOUS
 62
     4
100
AcDbVertex
100
AcDb2dVertex
 10
266.1424479999999
 20
195.622746
 30
0.0
  0
VERTEX
  5
271
330
247
100
AcDbEntity
  8
CSLAYER1
  6
CONTINUOUS
 62
     4
100
AcDbVertex
100
AcDb2dVertex
 10
266.5119899999999
 20
195.781324
 30
0.0
  0
VERTEX
  5
272
330
247
100
AcDbEntity
  8
CSLAYER1
  6
CONTINUOUS
 62
     4
100
AcDbVertex
100
AcDb2dVertex
 10
266.8667859999999
 20
195.9726649999999
 30
0.0
  0
VERTEX
  5
273
330
247
100
AcDbEntity
  8
CSLAYER1
  6
CONTINUOUS
 62
     4
100
AcDbVertex
100
AcDb2dVertex
 10
267.204134
 20
196.1953129999999
 30
0.0
  0
VERTEX
  5
274
330
247
100
AcDbEntity
  8
CSLAYER1
  6
CONTINUOUS
 62
     4
100
AcDbVertex
100
AcDb2dVertex
 10
267.5214669999999
 20
196.447575
 30
0.0
  0
VERTEX
  5
275
330
247
100
AcDbEntity
  8
CSLAYER1
  6
CONTINUOUS
 62
     4
100
AcDbVertex
100
AcDb2dVertex
 10
267.81637
 20
196.727528
 30
0.0
  0
VERTEX
  5
276
330
247
100
AcDbEntity
  8
CSLAYER1
  6
CONTINUOUS
 62
     4
100
AcDbVertex
100
AcDb2dVertex
 10
268.086599
 20
197.0330449999999
 30
0.0
  0
VERTEX
  5
277
330
247
100
AcDbEntity
  8
CSLAYER1
  6
CONTINUOUS
 62
     4
100
AcDbVertex
100
AcDb2dVertex
 10
268.330098
 20
197.361798
 30
0.0
  0
VERTEX
  5
278
330
247
100
AcDbEntity
  8
CSLAYER1
  6
CONTINUOUS
 62
     4
100
AcDbVertex
100
AcDb2dVertex
 10
268.545012
 20
197.711286
 30
0.0
  0
VERTEX
  5
279
330
247
100
AcDbEntity
  8
CSLAYER1
  6
CONTINUOUS
 62
     4
100
AcDbVertex
100
AcDb2dVertex
 10
268.7297069999999
 20
198.0788489999999
 30
0.0
  0
VERTEX
  5
27A
330
247
100
AcDbEntity
  8
CSLAYER1
  6
CONTINUOUS
 62
     4
100
AcDbVertex
100
AcDb2dVertex
 10
268.8827759999999
 20
198.4616899999999
 30
0.0
  0
VERTEX
  5
27B
330
247
100
AcDbEntity
  8
CSLAYER1
  6
CONTINUOUS
 62
     4
100
AcDbVertex
100
AcDb2dVertex
 10
269.003056
 20
198.856895
 30
0.0
  0
VERTEX
  5
27C
330
247
100
AcDbEntity
  8
CSLAYER1
  6
CONTINUOUS
 62
     4
100
AcDbVertex
100
AcDb2dVertex
 10
269.0896289999999
 20
199.261457
 30
0.0
  0
VERTEX
  5
27D
330
247
100
AcDbEntity
  8
CSLAYER1
  6
CONTINUOUS
 62
     4
100
AcDbVertex
100
AcDb2dVertex
 10
269.1418379999999
 20
199.6722959999999
 30
0.0
  0
VERTEX
  5
27E
330
247
100
AcDbEntity
  8
CSLAYER1
  6
CONTINUOUS
 62
     4
100
AcDbVertex
100
AcDb2dVertex
 10
269.159286
 20
200.086286
 30
0.0
  0
VERTEX
  5
27F
330
247
100
AcDbEntity
  8
CSLAYER1
  6
CONTINUOUS
 62
     4
100
AcDbVertex
100
AcDb2dVertex
 10
269.1418379999999
 20
200.500275
 30
0.0
  0
VERTEX
  5
280
330
247
100
AcDbEntity
  8
CSLAYER1
  6
CONTINUOUS
 62
     4
100
AcDbVertex
100
AcDb2dVertex
 10
269.0896289999999
 20
200.9111149999998
 30
0.0
  0
VERTEX
  5
281
330
247
100
AcDbEntity
  8
CSLAYER1
  6
CONTINUOUS
 62
     4
100
AcDbVertex
100
AcDb2dVertex
 10
269.003056
 20
201.315676
 30
0.0
  0
VERTEX
  5
282
330
247
100
AcDbEntity
  8
CSLAYER1
  6
CONTINUOUS
 62
     4
100
AcDbVertex
100
AcDb2dVertex
 10
268.8827759999999
 20
201.7108809999998
 30
0.0
  0
VERTEX
  5
283
330
247
100
AcDbEntity
  8
CSLAYER1
  6
CONTINUOUS
 62
     4
100
AcDbVertex
100
AcDb2dVertex
 10
268.7297069999999
 20
202.0937219999999
 30
0.0
  0
VERTEX
  5
284
330
247
100
AcDbEntity
  8
CSLAYER1
  6
CONTINUOUS
 62
     4
100
AcDbVertex
100
AcDb2dVertex
 10
268.545012
 20
202.4612859999999
 30
0.0
  0
VERTEX
  5
285
330
247
100
AcDbEntity
  8
CSLAYER1
  6
CONTINUOUS
 62
     4
100
AcDbVertex
100
AcDb2dVertex
 10
268.330098
 20
202.810774
 30
0.0
  0
VERTEX
  5
286
330
247
100
AcDbEntity
  8
CSLAYER1
  6
CONTINUOUS
 62
     4
100
AcDbVertex
100
AcDb2dVertex
 10
268.086599
 20
203.1395269999999
 30
0.0
  0
VERTEX
  5
287
330
247
100
AcDbEntity
  8
CSLAYER1
  6
CONTINUOUS
 62
     4
100
AcDbVertex
100
AcDb2dVertex
 10
267.81637
 20
203.445043
 30
0.0
  0
VERTEX
  5
288
330
247
100
AcDbEntity
  8
CSLAYER1
  6
CONTINUOUS
 62
     4
100
AcDbVertex
100
AcDb2dVertex
 10
267.5214669999999
 20
203.7249969999999
 30
0.0
  0
VERTEX
  5
289
330
247
100
AcDbEntity
  8
CSLAYER1
  6
CONTINUOUS
 62
     4
100
AcDbVertex
100
AcDb2dVertex
 10
267.204134
 20
203.977258
 30
0.0
  0
VERTEX
  5
28A
330
247
100
AcDbEntity
  8
CSLAYER1
  6
CONTINUOUS
 62
     4
100
AcDbVertex
100
AcDb2dVertex
 10
266.8667859999999
 20
204.199906
 30
0.0
  0
VERTEX
  5
28B
330
247
100
AcDbEntity
  8
CSLAYER1
  6
CONTINUOUS
 62
     4
100
AcDbVertex
100
AcDb2dVertex
 10
266.5119899999999
 20
204.3912479999999
 30
0.0
  0
VERTEX
  5
28C
330
247
100
AcDbEntity
  8
CSLAYER1
  6
CONTINUOUS
 62
     4
100
AcDbVertex
100
AcDb2dVertex
 10
266.1424479999999
 20
204.549826
 30
0.0
  0
VERTEX
  5
28D
330
247
100
AcDbEntity
  8
CSLAYER1
  6
CONTINUOUS
 62
     4
100
AcDbVertex
100
AcDb2dVertex
 10
265.760971
 20
204.674433
 30
0.0
  0
VERTEX
  5
28E
330
247
100
AcDbEntity
  8
CSLAYER1
  6
CONTINUOUS
 62
     4
100
AcDbVertex
100
AcDb2dVertex
 10
265.3704629999999
 20
204.764122
 30
0.0
  0
VERTEX
  5
28F
330
247
100
AcDbEntity
  8
CSLAYER1
  6
CONTINUOUS
 62
     4
100
AcDbVertex
100
AcDb2dVertex
 10
264.973895
 20
204.81821
 30
0.0
  0
VERTEX
  5
290
330
247
100
AcDbEntity
  8
CSLAYER1
  6
CONTINUOUS
 62
     4
100
AcDbVertex
100
AcDb2dVertex
 10
264.5742859999999
 20
204.836286
 30
0.0
  0
SEQEND
  5
291
330
247
100
AcDbEntity
  8
CSLAYER1
 62
     4
  0
POLYLINE
  5
292
330
1E
100
AcDbEntity
  8
CSLAYER1
  6
CONTINUOUS
 62
     3
100
AcDb2dPolyline
 66
     1
 10
0.0
 20
0.0
 30
0.0
  0
VERTEX
  5
293
330
292
100
AcDbEntity
  8
CSLAYER1
  6
CONTINUOUS
 62
     3
100
AcDbVertex
100
AcDb2dVertex
 10
264.5742859999999
 20
204.336286
 30
0.0
  0
VERTEX
  5
294
330
292
100
AcDbEntity
  8
CSLAYER1
  6
CONTINUOUS
 62
     3
100
AcDbVertex
100
AcDb2dVertex
 10
264.2165109999999
 20
204.3201129999999
 30
0.0
  0
VERTEX
  5
295
330
292
100
AcDbEntity
  8
CSLAYER1
  6
CONTINUOUS
 62
     3
100
AcDbVertex
100
AcDb2dVertex
 10
263.86146
 20
204.2717189999999
 30
0.0
  0
VERTEX
  5
296
330
292
100
AcDbEntity
  8
CSLAYER1
  6
CONTINUOUS
 62
     3
100
AcDbVertex
100
AcDb2dVertex
 10
263.5118339999999
 20
204.1914699999999
 30
0.0
  0
VERTEX
  5
297
330
292
100
AcDbEntity
  8
CSLAYER1
  6
CONTINUOUS
 62
     3
100
AcDbVertex
100
AcDb2dVertex
 10
263.170293
 20
204.079979
 30
0.0
  0
VERTEX
  5
298
330
292
100
AcDbEntity
  8
CSLAYER1
  6
CONTINUOUS
 62
     3
100
AcDbVertex
100
AcDb2dVertex
 10
262.8394379999999
 20
203.938094
 30
0.0
  0
VERTEX
  5
299
330
292
100
AcDbEntity
  8
CSLAYER1
  6
CONTINUOUS
 62
     3
100
AcDbVertex
100
AcDb2dVertex
 10
262.5217859999998
 20
203.766894
 30
0.0
  0
VERTEX
  5
29A
330
292
100
AcDbEntity
  8
CSLAYER1
  6
CONTINUOUS
 62
     3
100
AcDbVertex
100
AcDb2dVertex
 10
262.219754
 20
203.567682
 30
0.0
  0
VERTEX
  5
29B
330
292
100
AcDbEntity
  8
CSLAYER1
  6
CONTINUOUS
 62
     3
100
AcDbVertex
100
AcDb2dVertex
 10
261.935643
 20
203.3419749999999
 30
0.0
  0
VERTEX
  5
29C
330
292
100
AcDbEntity
  8
CSLAYER1
  6
CONTINUOUS
 62
     3
100
AcDbVertex
100
AcDb2dVertex
 10
261.671612
 20
203.091489
 30
0.0
  0
VERTEX
  5
29D
330
292
100
AcDbEntity
  8
CSLAYER1
  6
CONTINUOUS
 62
     3
100
AcDbVertex
100
AcDb2dVertex
 10
261.4296729999999
 20
202.818133
 30
0.0
  0
VERTEX
  5
29E
330
292
100
AcDbEntity
  8
CSLAYER1
  6
CONTINUOUS
 62
     3
100
AcDbVertex
100
AcDb2dVertex
 10
261.2116669999999
 20
202.523986
 30
0.0
  0
VERTEX
  5
29F
330
292
100
AcDbEntity
  8
CSLAYER1
  6
CONTINUOUS
 62
     3
100
AcDbVertex
100
AcDb2dVertex
 10
261.019251
 20
202.211286
 30
0.0
  0
VERTEX
  5
2A0
330
292
100
AcDbEntity
  8
CSLAYER1
  6
CONTINUOUS
 62
     3
100
AcDbVertex
100
AcDb2dVertex
 10
260.8538919999999
 20
201.882413
 30
0.0
  0
VERTEX
  5
2A1
330
292
100
AcDbEntity
  8
CSLAYER1
  6
CONTINUOUS
 62
     3
100
AcDbVertex
100
AcDb2dVertex
 10
260.7168479999999
 20
201.5398709999999
 30
0.0
  0
VERTEX
  5
2A2
330
292
100
AcDbEntity
  8
CSLAYER1
  6
CONTINUOUS
 62
     3
100
AcDbVertex
100
AcDb2dVertex
 10
260.60916
 20
201.1862669999999
 30
0.0
  0
VERTEX
  5
2A3
330
292
100
AcDbEntity
  8
CSLAYER1
  6
CONTINUOUS
 62
     3
100
AcDbVertex
100
AcDb2dVertex
 10
260.53165
 20
200.8242899999999
 30
0.0
  0
VERTEX
  5
2A4
330
292
100
AcDbEntity
  8
CSLAYER1
  6
CONTINUOUS
 62
     3
100
AcDbVertex
100
AcDb2dVertex
 10
260.484906
 20
200.4566979999999
 30
0.0
  0
VERTEX
  5
2A5
330
292
100
AcDbEntity
  8
CSLAYER1
  6
CONTINUOUS
 62
     3
100
AcDbVertex
100
AcDb2dVertex
 10
260.469286
 20
200.086286
 30
0.0
  0
VERTEX
  5
2A6
330
292
100
AcDbEntity
  8
CSLAYER1
  6
CONTINUOUS
 62
     3
100
AcDbVertex
100
AcDb2dVertex
 10
260.484906
 20
199.7158739999999
 30
0.0
  0
VERTEX
  5
2A7
330
292
100
AcDbEntity
  8
CSLAYER1
  6
CONTINUOUS
 62
     3
100
AcDbVertex
100
AcDb2dVertex
 10
260.53165
 20
199.348281
 30
0.0
  0
VERTEX
  5
2A8
330
292
100
AcDbEntity
  8
CSLAYER1
  6
CONTINUOUS
 62
     3
100
AcDbVertex
100
AcDb2dVertex
 10
260.60916
 20
198.986305
 30
0.0
  0
VERTEX
  5
2A9
330
292
100
AcDbEntity
  8
CSLAYER1
  6
CONTINUOUS
 62
     3
100
AcDbVertex
100
AcDb2dVertex
 10
260.7168479999999
 20
198.6326999999999
 30
0.0
  0
VERTEX
  5
2AA
330
292
100
AcDbEntity
  8
CSLAYER1
  6
CONTINUOUS
 62
     3
100
AcDbVertex
100
AcDb2dVertex
 10
260.8538919999999
 20
198.290158
 30
0.0
  0
VERTEX
  5
2AB
330
292
100
AcDbEntity
  8
CSLAYER1
  6
CONTINUOUS
 62
     3
100
AcDbVertex
100
AcDb2dVertex
 10
261.019251
 20
197.9612859999999
 30
0.0
  0
VERTEX
  5
2AC
330
292
100
AcDbEntity
  8
CSLAYER1
  6
CONTINUOUS
 62
     3
100
AcDbVertex
100
AcDb2dVertex
 10
261.2116669999999
 20
197.648586
 30
0.0
  0
VERTEX
  5
2AD
330
292
100
AcDbEntity
  8
CSLAYER1
  6
CONTINUOUS
 62
     3
100
AcDbVertex
100
AcDb2dVertex
 10
261.4296729999999
 20
197.3544379999999
 30
0.0
  0
VERTEX
  5
2AE
330
292
100
AcDbEntity
  8
CSLAYER1
  6
CONTINUOUS
 62
     3
100
AcDbVertex
100
AcDb2dVertex
 10
261.671612
 20
197.081082
 30
0.0
  0
VERTEX
  5
2AF
330
292
100
AcDbEntity
  8
CSLAYER1
  6
CONTINUOUS
 62
     3
100
AcDbVertex
100
AcDb2dVertex
 10
261.935643
 20
196.8305969999999
 30
0.0
  0
VERTEX
  5
2B0
330
292
100
AcDbEntity
  8
CSLAYER1
  6
CONTINUOUS
 62
     3
100
AcDbVertex
100
AcDb2dVertex
 10
262.219754
 20
196.6048889999999
 30
0.0
  0
VERTEX
  5
2B1
330
292
100
AcDbEntity
  8
CSLAYER1
  6
CONTINUOUS
 62
     3
100
AcDbVertex
100
AcDb2dVertex
 10
262.5217859999998
 20
196.4056779999999
 30
0.0
  0
VERTEX
  5
2B2
330
292
100
AcDbEntity
  8
CSLAYER1
  6
CONTINUOUS
 62
     3
100
AcDbVertex
100
AcDb2dVertex
 10
262.8394379999999
 20
196.234478
 30
0.0
  0
VERTEX
  5
2B3
330
292
100
AcDbEntity
  8
CSLAYER1
  6
CONTINUOUS
 62
     3
100
AcDbVertex
100
AcDb2dVertex
 10
263.170293
 20
196.092592
 30
0.0
  0
VERTEX
  5
2B4
330
292
100
AcDbEntity
  8
CSLAYER1
  6
CONTINUOUS
 62
     3
100
AcDbVertex
100
AcDb2dVertex
 10
263.5118339999999
 20
195.9811009999999
 30
0.0
  0
VERTEX
  5
2B5
330
292
100
AcDbEntity
  8
CSLAYER1
  6
CONTINUOUS
 62
     3
100
AcDbVertex
100
AcDb2dVertex
 10
263.86146
 20
195.900853
 30
0.0
  0
VERTEX
  5
2B6
330
292
100
AcDbEntity
  8
CSLAYER1
  6
CONTINUOUS
 62
     3
100
AcDbVertex
100
AcDb2dVertex
 10
264.2165109999999
 20
195.852458
 30
0.0
  0
VERTEX
  5
2B7
330
292
100
AcDbEntity
  8
CSLAYER1
  6
CONTINUOUS
 62
     3
100
AcDbVertex
100
AcDb2dVertex
 10
264.5742859999999
 20
195.836286
 30
0.0
  0
VERTEX
  5
2B8
330
292
100
AcDbEntity
  8
CSLAYER1
  6
CONTINUOUS
 62
     3
100
AcDbVertex
100
AcDb2dVertex
 10
264.93206
 20
195.852458
 30
0.0
  0
VERTEX
  5
2B9
330
292
100
AcDbEntity
  8
CSLAYER1
  6
CONTINUOUS
 62
     3
100
AcDbVertex
100
AcDb2dVertex
 10
265.2871109999999
 20
195.900853
 30
0.0
  0
VERTEX
  5
2BA
330
292
100
AcDbEntity
  8
CSLAYER1
  6
CONTINUOUS
 62
     3
100
AcDbVertex
100
AcDb2dVertex
 10
265.6367379999999
 20
195.9811009999999
 30
0.0
  0
VERTEX
  5
2BB
330
292
100
AcDbEntity
  8
CSLAYER1
  6
CONTINUOUS
 62
     3
100
AcDbVertex
100
AcDb2dVertex
 10
265.978278
 20
196.092592
 30
0.0
  0
VERTEX
  5
2BC
330
292
100
AcDbEntity
  8
CSLAYER1
  6
CONTINUOUS
 62
     3
100
AcDbVertex
100
AcDb2dVertex
 10
266.3091339999999
 20
196.234478
 30
0.0
  0
VERTEX
  5
2BD
330
292
100
AcDbEntity
  8
CSLAYER1
  6
CONTINUOUS
 62
     3
100
AcDbVertex
100
AcDb2dVertex
 10
266.626786
 20
196.4056779999999
 30
0.0
  0
VERTEX
  5
2BE
330
292
100
AcDbEntity
  8
CSLAYER1
  6
CONTINUOUS
 62
     3
100
AcDbVertex
100
AcDb2dVertex
 10
266.9288169999999
 20
196.6048889999999
 30
0.0
  0
VERTEX
  5
2BF
330
292
100
AcDbEntity
  8
CSLAYER1
  6
CONTINUOUS
 62
     3
100
AcDbVertex
100
AcDb2dVertex
 10
267.212929
 20
196.8305969999999
 30
0.0
  0
VERTEX
  5
2C0
330
292
100
AcDbEntity
  8
CSLAYER1
  6
CONTINUOUS
 62
     3
100
AcDbVertex
100
AcDb2dVertex
 10
267.4769589999999
 20
197.081082
 30
0.0
  0
VERTEX
  5
2C1
330
292
100
AcDbEntity
  8
CSLAYER1
  6
CONTINUOUS
 62
     3
100
AcDbVertex
100
AcDb2dVertex
 10
267.718898
 20
197.3544379999999
 30
0.0
  0
VERTEX
  5
2C2
330
292
100
AcDbEntity
  8
CSLAYER1
  6
CONTINUOUS
 62
     3
100
AcDbVertex
100
AcDb2dVertex
 10
267.9369049999999
 20
197.648586
 30
0.0
  0
VERTEX
  5
2C3
330
292
100
AcDbEntity
  8
CSLAYER1
  6
CONTINUOUS
 62
     3
100
AcDbVertex
100
AcDb2dVertex
 10
268.12932
 20
197.9612859999999
 30
0.0
  0
VERTEX
  5
2C4
330
292
100
AcDbEntity
  8
CSLAYER1
  6
CONTINUOUS
 62
     3
100
AcDbVertex
100
AcDb2dVertex
 10
268.294679
 20
198.290158
 30
0.0
  0
VERTEX
  5
2C5
330
292
100
AcDbEntity
  8
CSLAYER1
  6
CONTINUOUS
 62
     3
100
AcDbVertex
100
AcDb2dVertex
 10
268.431724
 20
198.6326999999999
 30
0.0
  0
VERTEX
  5
2C6
330
292
100
AcDbEntity
  8
CSLAYER1
  6
CONTINUOUS
 62
     3
100
AcDbVertex
100
AcDb2dVertex
 10
268.5394109999999
 20
198.986305
 30
0.0
  0
VERTEX
  5
2C7
330
292
100
AcDbEntity
  8
CSLAYER1
  6
CONTINUOUS
 62
     3
100
AcDbVertex
100
AcDb2dVertex
 10
268.616922
 20
199.348281
 30
0.0
  0
VERTEX
  5
2C8
330
292
100
AcDbEntity
  8
CSLAYER1
  6
CONTINUOUS
 62
     3
100
AcDbVertex
100
AcDb2dVertex
 10
268.663665
 20
199.7158739999999
 30
0.0
  0
VERTEX
  5
2C9
330
292
100
AcDbEntity
  8
CSLAYER1
  6
CONTINUOUS
 62
     3
100
AcDbVertex
100
AcDb2dVertex
 10
268.679286
 20
200.086286
 30
0.0
  0
VERTEX
  5
2CA
330
292
100
AcDbEntity
  8
CSLAYER1
  6
CONTINUOUS
 62
     3
100
AcDbVertex
100
AcDb2dVertex
 10
268.663665
 20
200.4566979999999
 30
0.0
  0
VERTEX
  5
2CB
330
292
100
AcDbEntity
  8
CSLAYER1
  6
CONTINUOUS
 62
     3
100
AcDbVertex
100
AcDb2dVertex
 10
268.616922
 20
200.8242899999999
 30
0.0
  0
VERTEX
  5
2CC
330
292
100
AcDbEntity
  8
CSLAYER1
  6
CONTINUOUS
 62
     3
100
AcDbVertex
100
AcDb2dVertex
 10
268.5394109999999
 20
201.1862669999999
 30
0.0
  0
VERTEX
  5
2CD
330
292
100
AcDbEntity
  8
CSLAYER1
  6
CONTINUOUS
 62
     3
100
AcDbVertex
100
AcDb2dVertex
 10
268.431724
 20
201.5398709999999
 30
0.0
  0
VERTEX
  5
2CE
330
292
100
AcDbEntity
  8
CSLAYER1
  6
CONTINUOUS
 62
     3
100
AcDbVertex
100
AcDb2dVertex
 10
268.294679
 20
201.882413
 30
0.0
  0
VERTEX
  5
2CF
330
292
100
AcDbEntity
  8
CSLAYER1
  6
CONTINUOUS
 62
     3
100
AcDbVertex
100
AcDb2dVertex
 10
268.12932
 20
202.211286
 30
0.0
  0
VERTEX
  5
2D0
330
292
100
AcDbEntity
  8
CSLAYER1
  6
CONTINUOUS
 62
     3
100
AcDbVertex
100
AcDb2dVertex
 10
267.9369049999999
 20
202.523986
 30
0.0
  0
VERTEX
  5
2D1
330
292
100
AcDbEntity
  8
CSLAYER1
  6
CONTINUOUS
 62
     3
100
AcDbVertex
100
AcDb2dVertex
 10
267.718898
 20
202.818133
 30
0.0
  0
VERTEX
  5
2D2
330
292
100
AcDbEntity
  8
CSLAYER1
  6
CONTINUOUS
 62
     3
100
AcDbVertex
100
AcDb2dVertex
 10
267.4769589999999
 20
203.091489
 30
0.0
  0
VERTEX
  5
2D3
330
292
100
AcDbEntity
  8
CSLAYER1
  6
CONTINUOUS
 62
     3
100
AcDbVertex
100
AcDb2dVertex
 10
267.212929
 20
203.3419749999999
 30
0.0
  0
VERTEX
  5
2D4
330
292
100
AcDbEntity
  8
CSLAYER1
  6
CONTINUOUS
 62
     3
100
AcDbVertex
100
AcDb2dVertex
 10
266.9288169999999
 20
203.567682
 30
0.0
  0
VERTEX
  5
2D5
330
292
100
AcDbEntity
  8
CSLAYER1
  6
CONTINUOUS
 62
     3
100
AcDbVertex
100
AcDb2dVertex
 10
266.626786
 20
203.766894
 30
0.0
  0
VERTEX
  5
2D6
330
292
100
AcDbEntity
  8
CSLAYER1
  6
CONTINUOUS
 62
     3
100
AcDbVertex
100
AcDb2dVertex
 10
266.3091339999999
 20
203.938094
 30
0.0
  0
VERTEX
  5
2D7
330
292
100
AcDbEntity
  8
CSLAYER1
  6
CONTINUOUS
 62
     3
100
AcDbVertex
100
AcDb2dVertex
 10
265.978278
 20
204.079979
 30
0.0
  0
VERTEX
  5
2D8
330
292
100
AcDbEntity
  8
CSLAYER1
  6
CONTINUOUS
 62
     3
100
AcDbVertex
100
AcDb2dVertex
 10
265.6367379999999
 20
204.1914699999999
 30
0.0
  0
VERTEX
  5
2D9
330
292
100
AcDbEntity
  8
CSLAYER1
  6
CONTINUOUS
 62
     3
100
AcDbVertex
100
AcDb2dVertex
 10
265.2871109999999
 20
204.2717189999999
 30
0.0
  0
VERTEX
  5
2DA
330
292
100
AcDbEntity
  8
CSLAYER1
  6
CONTINUOUS
 62
     3
100
AcDbVertex
100
AcDb2dVertex
 10
264.93206
 20
204.3201129999999
 30
0.0
  0
VERTEX
  5
2DB
330
292
100
AcDbEntity
  8
CSLAYER1
  6
CONTINUOUS
 62
     3
100
AcDbVertex
100
AcDb2dVertex
 10
264.5742859999999
 20
204.336286
 30
0.0
  0
SEQEND
  5
2DC
330
292
100
AcDbEntity
  8
CSLAYER1
 62
     3
  0
INSERT
  5
2DD
330
1E
100
AcDbEntity
  8
CSLAYER1
100
AcDbBlockReference
  2
FXDIM0004
 10
0.0
 20
0.0
 30
0.0
  0
DIMENSION
  5
2DF
330
1E
100
AcDbEntity
  8
CSLAYER1
 62
     4
100
AcDbDimension
  2
*D30
 10
254.574286
 20
86.47004100000001
 30
0.0
 11
243.0742799999999
 21
86.970039
 31
0.0
100
AcDbAlignedDimension
 13
231.5742859999999
 23
86.47004100000001
 33
0.0
 14
254.574286
 24
99.042857
 34
0.0
100
AcDbRotatedDimension
  0
LINE
  5
2E0
330
1E
100
AcDbEntity
  8
CSLAYER1
  6
DOT
 62
     3
100
AcDbLine
 10
10.0
 20
3.0
 30
0.0
 11
395.0
 21
3.0
 31
0.0
  0
LINE
  5
2E1
330
1E
100
AcDbEntity
  8
CSLAYER1
  6
DOT
 62
     3
100
AcDbLine
 10
395.0
 20
3.0
 30
0.0
 11
395.0
 21
275.0
 31
0.0
  0
LINE
  5
2E2
330
1E
100
AcDbEntity
  8
CSLAYER1
  6
DOT
 62
     3
100
AcDbLine
 10
395.0
 20
275.0
 30
0.0
 11
10.0
 21
275.0
 31
0.0
  0
LINE
  5
2E3
330
1E
100
AcDbEntity
  8
CSLAYER1
  6
DOT
 62
     3
100
AcDbLine
 10
10.0
 20
275.0
 30
0.0
 11
10.0
 21
3.0
 31
0.0
  0
ENDSEC
  0
SECTION
  2
OBJECTS
  0
DICTIONARY
  5
C
330
0
100
AcDbDictionary
  3
ACAD_GROUP
350
D
  3
ACAD_LAYOUT
350
19
  3
ACAD_MLINESTYLE
350
16
  3
ACAD_PLOTSETTINGS
350
18
1001
ACAD
1000
TREAT_AS_HARD
1070
     0
1000
TREAT_AS_HARD
1070
     0
  0
DICTIONARY
  5
2ED
330
1E
100
AcDbDictionary
  3
ACAD_LAYOUTSELFREF
350
30C
1001
ACAD
1000
TREAT_AS_HARD
1070
     0
  0
DICTIONARY
  5
2EB
330
1A
100
AcDbDictionary
  3
ACAD_LAYOUTSELFREF
350
30B
1001
ACAD
1000
TREAT_AS_HARD
1070
     0
  0
DICTIONARY
  5
D
102
{ACAD_REACTORS
330
C
102
}
330
C
100
AcDbDictionary
1001
ACAD
1000
TREAT_AS_HARD
1070
     0
1000
TREAT_AS_HARD
1070
     0
  0
DICTIONARY
  5
19
102
{ACAD_REACTORS
330
C
102
}
330
C
100
AcDbDictionary
1001
ACAD
1000
TREAT_AS_HARD
1070
     0
1000
TREAT_AS_HARD
1070
     0
  0
DICTIONARY
  5
16
102
{ACAD_REACTORS
330
C
102
}
330
C
100
AcDbDictionary
  3
STANDARD
350
17
1001
ACAD
1000
TREAT_AS_HARD
1070
     0
1000
TREAT_AS_HARD
1070
     0
  0
DICTIONARY
  5
18
102
{ACAD_REACTORS
330
C
102
}
330
C
100
AcDbDictionary
1001
ACAD
1000
TREAT_AS_HARD
1070
     0
1000
TREAT_AS_HARD
1070
     0
  0
XRECORD
  5
30C
102
{ACAD_REACTORS
330
2ED
102
}
330
2ED
100
AcDbXrecord
340
1E
  0
XRECORD
  5
30B
102
{ACAD_REACTORS
330
2EB
102
}
330
2EB
100
AcDbXrecord
340
1A
  0
MLINESTYLE
  5
17
102
{ACAD_REACTORS
330
16
102
}
330
16
100
AcDbMlineStyle
  2
STANDARD
 70
     0
  3

 62
   256
 51
90.0
 52
90.0
 71
     2
 49
0.5
 62
   256
  6
BYLAYER
 49
-0.5
 62
   256
  6
BYLAYER
  0
ENDSEC
  0
EOF
