  0
SECTION
  2
HEADER
  9
$ACADVER
  1
AC1012
  9
$DWGCODEPAGE
  3
dos932
  9
$INSBASE
 10
0.0
 20
0.0
 30
0.0
  9
$EXTMIN
 10
-0.0090630292066862
 20
0.9869389666558276
 30
-0.0015258207003583
  9
$EXTMAX
 10
283.0056159095904
 20
199.0155034058442
 30
0.0000000349246037
  9
$LIMMIN
 10
0.0
 20
0.0
  9
$LIMMAX
 10
297.0
 20
210.0
  9
$ORTHOMODE
 70
     1
  9
$REGENMODE
 70
     1
  9
$FILLMODE
 70
     1
  9
$QTEXTMODE
 70
     0
  9
$MIRRTEXT
 70
     1
  9
$DRAGMODE
 70
     2
  9
$LTSCALE
 40
15.0
  9
$OSMODE
 70
    37
  9
$ATTMODE
 70
     1
  9
$TEXTSIZE
 40
0.2
  9
$TRACEWID
 40
0.05
  9
$TEXTSTYLE
  7
GOTHIC
  9
$CLAYER
  8
CSLAYER1
  9
$CELTYPE
  6
BYLAYER
  9
$CECOLOR
 62
   256
  9
$CELTSCALE
 40
1.0
  9
$DELOBJ
 70
     1
  9
$DISPSILH
 70
     0
  9
$DIMSCALE
 40
1.0
  9
$DIMASZ
 40
0.18
  9
$DIMEXO
 40
0.0625
  9
$DIMDLI
 40
0.38
  9
$DIMRND
 40
0.0
  9
$DIMDLE
 40
0.0
  9
$DIMEXE
 40
0.18
  9
$DIMTP
 40
0.0
  9
$DIMTM
 40
0.0
  9
$DIMTXT
 40
0.18
  9
$DIMCEN
 40
0.09
  9
$DIMTSZ
 40
0.0
  9
$DIMTOL
 70
     0
  9
$DIMLIM
 70
     0
  9
$DIMTIH
 70
     1
  9
$DIMTOH
 70
     1
  9
$DIMSE1
 70
     0
  9
$DIMSE2
 70
     0
  9
$DIMTAD
 70
     0
  9
$DIMZIN
 70
     0
  9
$DIMBLK
  1

  9
$DIMASO
 70
     1
  9
$DIMSHO
 70
     1
  9
$DIMPOST
  1

  9
$DIMAPOST
  1

  9
$DIMALT
 70
     0
  9
$DIMALTD
 70
     2
  9
$DIMALTF
 40
25.4
  9
$DIMLFAC
 40
1.0
  9
$DIMTOFL
 70
     0
  9
$DIMTVP
 40
0.0
  9
$DIMTIX
 70
     0
  9
$DIMSOXD
 70
     0
  9
$DIMSAH
 70
     0
  9
$DIMBLK1
  1

  9
$DIMBLK2
  1

  9
$DIMSTYLE
  2
STANDARD
  9
$DIMCLRD
 70
     0
  9
$DIMCLRE
 70
     0
  9
$DIMCLRT
 70
     0
  9
$DIMTFAC
 40
1.0
  9
$DIMGAP
 40
0.09
  9
$DIMJUST
 70
     0
  9
$DIMSD1
 70
     0
  9
$DIMSD2
 70
     0
  9
$DIMTOLJ
 70
     1
  9
$DIMTZIN
 70
     0
  9
$DIMALTZ
 70
     0
  9
$DIMALTTZ
 70
     0
  9
$DIMFIT
 70
     3
  9
$DIMUPT
 70
     0
  9
$DIMUNIT
 70
     2
  9
$DIMDEC
 70
     4
  9
$DIMTDEC
 70
     4
  9
$DIMALTU
 70
     2
  9
$DIMALTTD
 70
     2
  9
$DIMTXSTY
  7
STANDARD
  9
$DIMAUNIT
 70
     0
  9
$LUNITS
 70
     2
  9
$LUPREC
 70
     4
  9
$SKETCHINC
 40
0.1
  9
$FILLETRAD
 40
0.0
  9
$AUNITS
 70
     0
  9
$AUPREC
 70
     0
  9
$MENU
  1
ACAD
  9
$ELEVATION
 40
0.0
  9
$PELEVATION
 40
0.0
  9
$THICKNESS
 40
0.0
  9
$LIMCHECK
 70
     0
  9
$BLIPMODE
 70
     1
  9
$CHAMFERA
 40
0.0
  9
$CHAMFERB
 40
0.0
  9
$CHAMFERC
 40
0.0
  9
$CHAMFERD
 40
0.0
  9
$SKPOLY
 70
     0
  9
$TDCREATE
 40
2453481.000000000
  9
$TDUPDATE
 40
2453516.566066134
  9
$TDINDWG
 40
0.0036710185
  9
$TDUSRTIMER
 40
0.0036709028
  9
$USRTIMER
 70
     1
  9
$ANGBASE
 50
0.0
  9
$ANGDIR
 70
     0
  9
$PDMODE
 70
     0
  9
$PDSIZE
 40
0.0
  9
$PLINEWID
 40
0.0
  9
$COORDS
 70
     0
  9
$SPLFRAME
 70
     0
  9
$SPLINETYPE
 70
     6
  9
$SPLINESEGS
 70
     8
  9
$ATTDIA
 70
     0
  9
$ATTREQ
 70
     1
  9
$HANDLING
 70
-16383
  9
$HANDSEED
  5
221
  9
$SURFTAB1
 70
     6
  9
$SURFTAB2
 70
     6
  9
$SURFTYPE
 70
     6
  9
$SURFU
 70
     6
  9
$SURFV
 70
     6
  9
$UCSNAME
  2

  9
$UCSORG
 10
0.0
 20
0.0
 30
0.0
  9
$UCSXDIR
 10
1.0
 20
0.0
 30
0.0
  9
$UCSYDIR
 10
0.0
 20
1.0
 30
0.0
  9
$PUCSNAME
  2

  9
$PUCSORG
 10
0.0
 20
0.0
 30
0.0
  9
$PUCSXDIR
 10
1.0
 20
0.0
 30
0.0
  9
$PUCSYDIR
 10
0.0
 20
1.0
 30
0.0
  9
$USERI1
 70
     0
  9
$USERI2
 70
     0
  9
$USERI3
 70
     0
  9
$USERI4
 70
     0
  9
$USERI5
 70
     0
  9
$USERR1
 40
0.0
  9
$USERR2
 40
0.0
  9
$USERR3
 40
0.0
  9
$USERR4
 40
0.0
  9
$USERR5
 40
0.0
  9
$WORLDVIEW
 70
     1
  9
$SHADEDGE
 70
     3
  9
$SHADEDIF
 70
    70
  9
$TILEMODE
 70
     1
  9
$MAXACTVP
 70
    64
  9
$PINSBASE
 10
0.0
 20
0.0
 30
0.0
  9
$PLIMCHECK
 70
     0
  9
$PEXTMIN
 10
1.000000000000000E+20
 20
1.000000000000000E+20
 30
1.000000000000000E+20
  9
$PEXTMAX
 10
-1.000000000000000E+20
 20
-1.000000000000000E+20
 30
-1.000000000000000E+20
  9
$PLIMMIN
 10
0.0
 20
0.0
  9
$PLIMMAX
 10
12.0
 20
9.0
  9
$UNITMODE
 70
     0
  9
$VISRETAIN
 70
     1
  9
$PLINEGEN
 70
     0
  9
$PSLTSCALE
 70
     1
  9
$TREEDEPTH
 70
  3020
  9
$PICKSTYLE
 70
     3
  9
$CMLSTYLE
  2
STANDARD
  9
$CMLJUST
 70
     0
  9
$CMLSCALE
 40
1.0
  9
$SAVEIMAGES
 70
     1
  0
ENDSEC
  0
SECTION
  2
CLASSES
  0
CLASS
  1
ACDBDICTIONARYWDFLT
  2
AcDbDictionaryWithDefault
  3
AutoCAD 2000
 90
    32768
280
     0
281
     0
  0
CLASS
  1
ACDBPLACEHOLDER
  2
AcDbPlaceHolder
  3
AutoCAD 2000
 90
    32768
280
     0
281
     0
  0
CLASS
  1
LAYOUT
  2
AcDbLayout
  3
AutoCAD 2000
 90
    32768
280
     0
281
     0
  0
CLASS
  1
DICTIONARYVAR
  2
AcDbDictionaryVar
  3
AutoCAD 2000
 90
    32768
280
     0
281
     0
  0
CLASS
  1
LONG_TRANSACTION
  2
AcDbLongTransaction
  3
AutoCAD 2000
 90
    32768
280
     0
281
     0
  0
CLASS
  1
LWPOLYLINE
  2
AcDbPolyline
  3
AutoCAD 2000
 90
    32768
280
     0
281
     1
  0
CLASS
  1
HATCH
  2
AcDbHatch
  3
AutoCAD 2000
 90
    32768
280
     0
281
     1
  0
CLASS
  1
XRECORD
  2
AcDbXrecord
  3
AutoCAD 2000
 90
    32768
280
     0
281
     0
  0
CLASS
  1
LONG_TRANSACTION
  2
AcDbLongTransaction
  3
AutoCAD 2000
 90
    32768
280
     0
281
     0
  0
CLASS
  1
LWPOLYLINE
  2
AcDbPolyline
  3
AutoCAD 2000
 90
    32768
280
     0
281
     1
  0
CLASS
  1
HATCH
  2
AcDbHatch
  3
AutoCAD 2000
 90
    32768
280
     0
281
     1
  0
CLASS
  1
XRECORD
  2
AcDbXrecord
  3
AutoCAD 2000
 90
    32768
280
     0
281
     0
  0
ENDSEC
  0
SECTION
  2
TABLES
  0
TABLE
  2
VPORT
  5
8
330
0
100
AcDbSymbolTable
 70
     2
  0
VPORT
  5
21E
330
8
100
AcDbSymbolTableRecord
100
AcDbViewportTableRecord
  2
*ACTIVE
 70
     0
 10
0.0
 20
0.0
 11
1.0
 21
1.0
 12
141.4982764401918
 22
100.00122118625
 13
0.0
 23
0.0
 14
1.0
 24
1.0
 15
0.0
 25
0.0
 16
0.0
 26
0.0
 36
1.0
 17
0.0
 27
0.0
 37
0.0
 40
199.5156375138256
 41
1.510025062656641
 42
50.0
 43
0.0
 44
0.0
 50
0.0
 51
0.0
 71
     0
 72
   100
 73
     1
 74
     1
 75
     0
 76
     0
 77
     0
 78
     0
  0
ENDTAB
  0
TABLE
  2
LTYPE
  5
5
330
0
100
AcDbSymbolTable
 70
     5
  0
LTYPE
  5
13
330
5
100
AcDbSymbolTableRecord
100
AcDbLinetypeTableRecord
  2
BYBLOCK
 70
     0
  3

 72
    65
 73
     0
 40
0.0
  0
LTYPE
  5
14
330
5
100
AcDbSymbolTableRecord
100
AcDbLinetypeTableRecord
  2
BYLAYER
 70
     0
  3

 72
    65
 73
     0
 40
0.0
  0
LTYPE
  5
15
330
5
100
AcDbSymbolTableRecord
100
AcDbLinetypeTableRecord
  2
CONTINUOUS
 70
     0
  3
Solid line
 72
    65
 73
     0
 40
0.0
  0
LTYPE
  5
23
330
5
100
AcDbSymbolTableRecord
100
AcDbLinetypeTableRecord
  2
DASHED
 70
     0
  3
__ __ __ __ __ __ __ __ __ __ __ __ __ __ __
 72
    65
 73
     2
 40
0.75
 49
0.5
 74
     0
 49
-0.25
 74
     0
  0
LTYPE
  5
25
330
5
100
AcDbSymbolTableRecord
100
AcDbLinetypeTableRecord
  2
DOT
 70
     0
  3
...............................................
 72
    65
 73
     2
 40
0.25
 49
0.0
 74
     0
 49
-0.25
 74
     0
  0
LTYPE
  5
28
330
5
100
AcDbSymbolTableRecord
100
AcDbLinetypeTableRecord
  2
CENTER
 70
     0
  3
____ _ ____ _ ____ _ ____ _ ____ _ ____ _ ____ 
 72
    65
 73
     4
 40
2.0
 49
1.25
 74
     0
 49
-0.25
 74
     0
 49
0.25
 74
     0
 49
-0.25
 74
     0
  0
LTYPE
  5
29
330
5
100
AcDbSymbolTableRecord
100
AcDbLinetypeTableRecord
  2
PHANTOM
 70
     0
  3
______  __  __  ______  __  __  ______  __  __ 
 72
    65
 73
     6
 40
2.5
 49
1.25
 74
     0
 49
-0.25
 74
     0
 49
0.25
 74
     0
 49
-0.25
 74
     0
 49
0.25
 74
     0
 49
-0.25
 74
     0
  0
ENDTAB
  0
TABLE
  2
LAYER
  5
2
330
0
100
AcDbSymbolTable
 70
     3
  0
LAYER
  5
10
330
2
100
AcDbSymbolTableRecord
100
AcDbLayerTableRecord
  2
0
 70
     0
 62
     7
  6
CONTINUOUS
  0
LAYER
  5
22
330
2
100
AcDbSymbolTableRecord
100
AcDbLayerTableRecord
  2
CSLAYER1
 70
     0
 62
     7
  6
CONTINUOUS
  0
LAYER
  5
1CE
330
2
100
AcDbSymbolTableRecord
100
AcDbLayerTableRecord
  2
DEFPOINTS
 70
     0
 62
     7
  6
CONTINUOUS
  0
ENDTAB
  0
TABLE
  2
STYLE
  5
3
330
0
100
AcDbSymbolTable
 70
     3
  0
STYLE
  5
11
330
3
100
AcDbSymbolTableRecord
100
AcDbTextStyleTableRecord
  2
STANDARD
 70
     0
 40
0.0
 41
1.0
 50
0.0
 71
     0
 42
0.2
  3
txt
  4
extfont.shx
  0
STYLE
  5
3A
330
3
100
AcDbSymbolTableRecord
100
AcDbTextStyleTableRecord
  2
FX_FONT
 70
     0
 40
1.0
 41
1.0
 50
0.0
 71
     0
 42
1.0
  3
monotxt
  4
bigfont
  0
STYLE
  5
1C6
330
3
100
AcDbSymbolTableRecord
100
AcDbTextStyleTableRecord
  2
GOTHIC
 70
     0
 40
0.0
 41
1.0
 50
0.0
 71
     0
 42
0.2
  3
txt.shx
  4
extfont.shx
  0
ENDTAB
  0
TABLE
  2
VIEW
  5
6
330
0
100
AcDbSymbolTable
 70
     0
  0
ENDTAB
  0
TABLE
  2
UCS
  5
7
330
0
100
AcDbSymbolTable
 70
     0
  0
ENDTAB
  0
TABLE
  2
APPID
  5
9
330
0
100
AcDbSymbolTable
 70
     1
  0
APPID
  5
12
330
9
100
AcDbSymbolTableRecord
100
AcDbRegAppTableRecord
  2
ACAD
 70
     0
  0
ENDTAB
  0
TABLE
  2
DIMSTYLE
  5
A
330
0
100
AcDbSymbolTable
 70
     1
  0
DIMSTYLE
105
1C3
330
A
100
AcDbSymbolTableRecord
100
AcDbDimStyleTableRecord
  2
STANDARD
 70
     0
  3

  4

  5

  6

  7

 40
1.0
 41
0.18
 42
0.0625
 43
0.38
 44
0.18
 45
0.0
 46
0.0
 47
0.0
 48
0.0
140
0.18
141
0.09
142
0.0
143
25.4
144
1.0
145
0.0
146
1.0
147
0.09
 71
     0
 72
     0
 73
     1
 74
     1
 75
     0
 76
     0
 77
     0
 78
     0
170
     0
171
     2
172
     0
173
     0
174
     0
175
     0
176
     0
177
     0
178
     0
270
     2
271
     4
272
     4
273
     2
274
     2
340
11
275
     0
280
     0
281
     0
282
     0
283
     1
284
     0
285
     0
286
     0
287
     3
288
     0
  0
ENDTAB
  0
TABLE
  2
BLOCK_RECORD
  5
1
330
0
100
AcDbSymbolTable
 70
    24
  0
BLOCK_RECORD
  5
1E
102
{ACAD_XDICTIONARY
360
1CC
102
}
330
1
100
AcDbSymbolTableRecord
100
AcDbBlockTableRecord
  2
*MODEL_SPACE
  0
BLOCK_RECORD
  5
1A
102
{ACAD_XDICTIONARY
360
1CA
102
}
330
1
100
AcDbSymbolTableRecord
100
AcDbBlockTableRecord
  2
*PAPER_SPACE
  0
BLOCK_RECORD
  5
3F
330
1
100
AcDbSymbolTableRecord
100
AcDbBlockTableRecord
  2
FXDIM0000
  0
BLOCK_RECORD
  5
43
330
1
100
AcDbSymbolTableRecord
100
AcDbBlockTableRecord
  2
FXDIM0001
  0
BLOCK_RECORD
  5
4B
330
1
100
AcDbSymbolTableRecord
100
AcDbBlockTableRecord
  2
*D2
  0
BLOCK_RECORD
  5
56
330
1
100
AcDbSymbolTableRecord
100
AcDbBlockTableRecord
  2
*D3
  0
BLOCK_RECORD
  5
61
330
1
100
AcDbSymbolTableRecord
100
AcDbBlockTableRecord
  2
*D4
  0
BLOCK_RECORD
  5
6E
330
1
100
AcDbSymbolTableRecord
100
AcDbBlockTableRecord
  2
*D5
  0
BLOCK_RECORD
  5
75
330
1
100
AcDbSymbolTableRecord
100
AcDbBlockTableRecord
  2
*D6
  0
BLOCK_RECORD
  5
7E
330
1
100
AcDbSymbolTableRecord
100
AcDbBlockTableRecord
  2
FXDIM0002
  0
BLOCK_RECORD
  5
88
330
1
100
AcDbSymbolTableRecord
100
AcDbBlockTableRecord
  2
FXDIM0003
  0
BLOCK_RECORD
  5
92
330
1
100
AcDbSymbolTableRecord
100
AcDbBlockTableRecord
  2
*D9
  0
BLOCK_RECORD
  5
9D
330
1
100
AcDbSymbolTableRecord
100
AcDbBlockTableRecord
  2
*D10
  0
BLOCK_RECORD
  5
A8
330
1
100
AcDbSymbolTableRecord
100
AcDbBlockTableRecord
  2
*D11
  0
BLOCK_RECORD
  5
B2
330
1
100
AcDbSymbolTableRecord
100
AcDbBlockTableRecord
  2
*D12
  0
BLOCK_RECORD
  5
BD
330
1
100
AcDbSymbolTableRecord
100
AcDbBlockTableRecord
  2
*D13
  0
BLOCK_RECORD
  5
C8
330
1
100
AcDbSymbolTableRecord
100
AcDbBlockTableRecord
  2
*D14
  0
BLOCK_RECORD
  5
D2
330
1
100
AcDbSymbolTableRecord
100
AcDbBlockTableRecord
  2
*D15
  0
BLOCK_RECORD
  5
DF
330
1
100
AcDbSymbolTableRecord
100
AcDbBlockTableRecord
  2
*D16
  0
BLOCK_RECORD
  5
EA
330
1
100
AcDbSymbolTableRecord
100
AcDbBlockTableRecord
  2
*D17
  0
BLOCK_RECORD
  5
F6
330
1
100
AcDbSymbolTableRecord
100
AcDbBlockTableRecord
  2
FXDIM0004
  0
BLOCK_RECORD
  5
FA
330
1
100
AcDbSymbolTableRecord
100
AcDbBlockTableRecord
  2
*D19
  0
BLOCK_RECORD
  5
1CF
330
1
100
AcDbSymbolTableRecord
100
AcDbBlockTableRecord
  2
*D20
  0
BLOCK_RECORD
  5
1DD
330
1
100
AcDbSymbolTableRecord
100
AcDbBlockTableRecord
  2
*D21
  0
BLOCK_RECORD
  5
1EC
330
1
100
AcDbSymbolTableRecord
100
AcDbBlockTableRecord
  2
*D22
  0
BLOCK_RECORD
  5
1FB
330
1
100
AcDbSymbolTableRecord
100
AcDbBlockTableRecord
  2
*D23
  0
ENDTAB
  0
ENDSEC
  0
SECTION
  2
BLOCKS
  0
BLOCK
  5
1F
330
1E
100
AcDbEntity
  8
0
100
AcDbBlockBegin
  2
*MODEL_SPACE
 70
     0
 10
0.0
 20
0.0
 30
0.0
  3
*MODEL_SPACE
  1

  0
ENDBLK
  5
20
330
1E
100
AcDbEntity
  8
0
100
AcDbBlockEnd
  0
BLOCK
  5
1B
330
1A
100
AcDbEntity
 67
     1
  8
0
100
AcDbBlockBegin
  2
*PAPER_SPACE
 70
     0
 10
0.0
 20
0.0
 30
0.0
  3
*PAPER_SPACE
  1

  0
ENDBLK
  5
1C
330
1A
100
AcDbEntity
 67
     1
  8
0
100
AcDbBlockEnd
  0
BLOCK
  5
40
330
3F
100
AcDbEntity
  8
0
100
AcDbBlockBegin
  2
FXDIM0000
 70
     0
 10
0.0
 20
0.0
 30
0.0
  3
FXDIM0000
  1

  0
LINE
  5
41
330
3F
100
AcDbEntity
  8
CSLAYER1
  6
CONTINUOUS
 62
     4
100
AcDbLine
 10
164.3782889999999
 20
140.5427629999999
 30
0.0
 11
164.3782889999999
 21
139.5663999999999
 31
0.0
  0
ENDBLK
  5
42
330
3F
100
AcDbEntity
  8
0
100
AcDbBlockEnd
  0
BLOCK
  5
44
330
43
100
AcDbEntity
  8
0
100
AcDbBlockBegin
  2
FXDIM0001
 70
     0
 10
0.0
 20
0.0
 30
0.0
  3
FXDIM0001
  1

  0
LINE
  5
45
330
43
100
AcDbEntity
  8
CSLAYER1
  6
CONTINUOUS
 62
     4
100
AcDbLine
 10
163.718301
 20
139.079652
 30
0.0
 11
157.9937909999999
 21
117.7154899999999
 31
0.0
  0
LINE
  5
46
330
43
100
AcDbEntity
  8
CSLAYER1
  6
CONTINUOUS
 62
     4
100
AcDbLine
 10
163.718301
 20
139.079652
 30
0.0
 11
163.718301
 21
136.079652
 31
0.0
  0
LINE
  5
47
330
43
100
AcDbEntity
  8
CSLAYER1
  6
CONTINUOUS
 62
     4
100
AcDbLine
 10
163.718301
 20
139.079652
 30
0.0
 11
162.218301
 21
136.4815759999999
 31
0.0
  0
LINE
  5
48
330
43
100
AcDbEntity
  8
CSLAYER1
  6
CONTINUOUS
 62
     4
100
AcDbLine
 10
157.9937909999999
 20
117.7154899999999
 30
0.0
 11
137.0937899999999
 21
117.7154899999999
 31
0.0
  0
TEXT
  5
49
330
43
100
AcDbEntity
  8
CSLAYER1
 62
     4
100
AcDbText
 10
137.793805
 20
118.215492
 30
0.0
 40
3.2
  1
%%c5．１キリ
 41
0.9473684210526323
 51
15.0
  7
FX_FONT
 72
     5
 11
156.993805
 21
118.215492
 31
0.0
100
AcDbText
  0
ENDBLK
  5
4A
330
43
100
AcDbEntity
  8
0
100
AcDbBlockEnd
  0
BLOCK
  5
4C
330
4B
100
AcDbEntity
  8
0
100
AcDbBlockBegin
  2
*D2
 70
     1
 10
0.0
 20
0.0
 30
0.0
  3
*D2
  1

  0
TEXT
  5
4D
330
4B
100
AcDbEntity
  8
CSLAYER1
 62
     4
100
AcDbText
 10
111.572227
 20
130.34277
 30
0.0
 40
3.2
  1
31.5~33
 50
90.0
 41
1.050000046874994
 51
15.0
  7
FX_FONT
 72
     5
 11
111.572227
 21
152.7427709999998
 31
0.0
100
AcDbText
  0
LINE
  5
4E
330
4B
100
AcDbEntity
  8
CSLAYER1
  6
CONTINUOUS
 62
     4
100
AcDbLine
 10
149.0289249999999
 20
125.542763
 30
0.0
 11
111.072229
 21
125.542763
 31
0.0
  0
LINE
  5
4F
330
4B
100
AcDbEntity
  8
CSLAYER1
  6
CONTINUOUS
 62
     4
100
AcDbLine
 10
149.0289249999999
 20
157.5427629999999
 30
0.0
 11
111.072229
 21
157.5427629999999
 31
0.0
  0
LINE
  5
50
330
4B
100
AcDbEntity
  8
CSLAYER1
  6
CONTINUOUS
 62
     4
100
AcDbLine
 10
112.072229
 20
125.542763
 30
0.0
 11
112.072229
 21
157.5427629999999
 31
0.0
  0
LINE
  5
51
330
4B
100
AcDbEntity
  8
CSLAYER1
  6
CONTINUOUS
 62
     4
100
AcDbLine
 10
112.072229
 20
125.542763
 30
0.0
 11
111.295772
 21
128.4405409999999
 31
0.0
  0
LINE
  5
52
330
4B
100
AcDbEntity
  8
CSLAYER1
  6
CONTINUOUS
 62
     4
100
AcDbLine
 10
112.072229
 20
125.542763
 30
0.0
 11
112.848686
 21
128.4405409999999
 31
0.0
  0
LINE
  5
53
330
4B
100
AcDbEntity
  8
CSLAYER1
  6
CONTINUOUS
 62
     4
100
AcDbLine
 10
112.072229
 20
157.5427629999999
 30
0.0
 11
111.295772
 21
154.644986
 31
0.0
  0
LINE
  5
54
330
4B
100
AcDbEntity
  8
CSLAYER1
  6
CONTINUOUS
 62
     4
100
AcDbLine
 10
112.072229
 20
157.5427629999999
 30
0.0
 11
112.848686
 21
154.644986
 31
0.0
  0
ENDBLK
  5
55
330
4B
100
AcDbEntity
  8
0
100
AcDbBlockEnd
  0
BLOCK
  5
57
330
56
100
AcDbEntity
  8
0
100
AcDbBlockBegin
  2
*D3
 70
     1
 10
0.0
 20
0.0
 30
0.0
  3
*D3
  1

  0
TEXT
  5
58
330
56
100
AcDbEntity
  8
CSLAYER1
 62
     4
100
AcDbText
 10
117.572227
 20
138.34277
 30
0.0
 40
3.2
  1
17
 50
90.0
 41
1.200000000000001
 51
15.0
  7
FX_FONT
 72
     5
 11
117.572227
 21
144.74277
 31
0.0
100
AcDbText
  0
LINE
  5
59
330
56
100
AcDbEntity
  8
CSLAYER1
  6
CONTINUOUS
 62
     4
100
AcDbLine
 10
127.3782889999999
 20
133.0427629999998
 30
0.0
 11
117.072229
 21
133.0427629999998
 31
0.0
  0
LINE
  5
5A
330
56
100
AcDbEntity
  8
CSLAYER1
  6
CONTINUOUS
 62
     4
100
AcDbLine
 10
127.3782889999999
 20
150.0427629999999
 30
0.0
 11
117.072229
 21
150.0427629999999
 31
0.0
  0
LINE
  5
5B
330
56
100
AcDbEntity
  8
CSLAYER1
  6
CONTINUOUS
 62
     4
100
AcDbLine
 10
118.072229
 20
133.0427629999998
 30
0.0
 11
118.072229
 21
150.0427629999999
 31
0.0
  0
LINE
  5
5C
330
56
100
AcDbEntity
  8
CSLAYER1
  6
CONTINUOUS
 62
     4
100
AcDbLine
 10
118.072229
 20
133.0427629999998
 30
0.0
 11
117.295772
 21
135.9405409999999
 31
0.0
  0
LINE
  5
5D
330
56
100
AcDbEntity
  8
CSLAYER1
  6
CONTINUOUS
 62
     4
100
AcDbLine
 10
118.072229
 20
133.0427629999998
 30
0.0
 11
118.848686
 21
135.9405409999999
 31
0.0
  0
LINE
  5
5E
330
56
100
AcDbEntity
  8
CSLAYER1
  6
CONTINUOUS
 62
     4
100
AcDbLine
 10
118.072229
 20
150.0427629999999
 30
0.0
 11
117.295772
 21
147.144986
 31
0.0
  0
LINE
  5
5F
330
56
100
AcDbEntity
  8
CSLAYER1
  6
CONTINUOUS
 62
     4
100
AcDbLine
 10
118.072229
 20
150.0427629999999
 30
0.0
 11
118.848686
 21
147.144986
 31
0.0
  0
ENDBLK
  5
60
330
56
100
AcDbEntity
  8
0
100
AcDbBlockEnd
  0
BLOCK
  5
62
330
61
100
AcDbEntity
  8
0
100
AcDbBlockBegin
  2
*D4
 70
     1
 10
0.0
 20
0.0
 30
0.0
  3
*D4
  1

  0
TEXT
  5
63
330
61
100
AcDbEntity
  8
CSLAYER1
 62
     4
100
AcDbText
 10
108.690254
 20
81.34243899999999
 30
0.0
 40
3.2
  1
17  
 50
90.0
 41
1.250000000000001
 51
15.0
  7
FX_FONT
 72
     5
 11
108.690254
 21
94.142439
 31
0.0
100
AcDbText
  0
TEXT
  5
64
330
61
100
AcDbEntity
  8
CSLAYER1
 62
     4
100
AcDbText
 10
107.090254
 20
94.142439
 30
0.0
 40
1.6
  1
  0
 50
90.0
 41
1.607142857142856
 51
15.0
  7
FX_FONT
 72
     5
 11
107.090254
 21
98.94243899999999
 31
0.0
100
AcDbText
  0
TEXT
  5
65
330
61
100
AcDbEntity
  8
CSLAYER1
 62
     4
100
AcDbText
 10
108.690254
 20
94.142439
 30
0.0
 40
1.6
  1
-0.15
 50
90.0
 41
1.07142857142856
 51
15.0
  7
FX_FONT
 72
     5
 11
108.690254
 21
102.1424389999999
 31
0.0
100
AcDbText
  0
LINE
  5
66
330
61
100
AcDbEntity
  8
CSLAYER1
  6
CONTINUOUS
 62
     4
100
AcDbLine
 10
109.190258
 20
75.242763
 30
0.0
 11
109.190258
 21
92.24276299999999
 31
0.0
  0
LINE
  5
67
330
61
100
AcDbEntity
  8
CSLAYER1
  6
CONTINUOUS
 62
     4
100
AcDbLine
 10
109.190258
 20
75.242763
 30
0.0
 11
108.4138009999999
 21
78.14054099999999
 31
0.0
  0
LINE
  5
68
330
61
100
AcDbEntity
  8
CSLAYER1
  6
CONTINUOUS
 62
     4
100
AcDbLine
 10
109.190258
 20
75.242763
 30
0.0
 11
109.9667149999999
 21
78.14054099999999
 31
0.0
  0
LINE
  5
69
330
61
100
AcDbEntity
  8
CSLAYER1
  6
CONTINUOUS
 62
     4
100
AcDbLine
 10
109.190258
 20
92.24276299999999
 30
0.0
 11
108.4138009999999
 21
89.34498599999997
 31
0.0
  0
LINE
  5
6A
330
61
100
AcDbEntity
  8
CSLAYER1
  6
CONTINUOUS
 62
     4
100
AcDbLine
 10
109.190258
 20
92.24276299999999
 30
0.0
 11
109.9667149999999
 21
89.34498599999997
 31
0.0
  0
LINE
  5
6B
330
61
100
AcDbEntity
  8
CSLAYER1
  6
CONTINUOUS
 62
     4
100
AcDbLine
 10
146.622869
 20
75.242763
 30
0.0
 11
108.190258
 21
75.242763
 31
0.0
  0
LINE
  5
6C
330
61
100
AcDbEntity
  8
CSLAYER1
  6
CONTINUOUS
 62
     4
100
AcDbLine
 10
127.3782889999999
 20
92.24276299999999
 30
0.0
 11
108.190258
 21
92.24276299999999
 31
0.0
  0
ENDBLK
  5
6D
330
61
100
AcDbEntity
  8
0
100
AcDbBlockEnd
  0
BLOCK
  5
6F
330
6E
100
AcDbEntity
  8
0
100
AcDbBlockBegin
  2
*D5
 70
     1
 10
0.0
 20
0.0
 30
0.0
  3
*D5
  1

  0
TEXT
  5
70
330
6E
100
AcDbEntity
  8
CSLAYER1
 62
     4
100
AcDbText
 10
136.633729
 20
141.1917949999998
 30
0.0
 40
3.2
  1
R35
 50
59.82432923744999
 41
1.125000018620404
 51
15.0
  7
FX_FONT
 72
     5
 11
141.4591969999999
 21
149.4908829999999
 31
0.0
100
AcDbText
  0
LINE
  5
71
330
6E
100
AcDbEntity
  8
CSLAYER1
  6
CONTINUOUS
 62
     4
100
AcDbLine
 10
132.4360739999999
 20
130.285671
 30
0.0
 11
143.9237469999999
 21
150.0427629999999
 31
0.0
  0
LINE
  5
72
330
6E
100
AcDbEntity
  8
CSLAYER1
  6
CONTINUOUS
 62
     4
100
AcDbLine
 10
132.4360739999999
 20
130.285671
 30
0.0
 11
133.221412
 21
133.181054
 31
0.0
  0
LINE
  5
73
330
6E
100
AcDbEntity
  8
CSLAYER1
  6
CONTINUOUS
 62
     4
100
AcDbLine
 10
132.4360739999999
 20
130.285671
 30
0.0
 11
134.5638889999999
 21
132.4004779999998
 31
0.0
  0
ENDBLK
  5
74
330
6E
100
AcDbEntity
  8
0
100
AcDbBlockEnd
  0
BLOCK
  5
76
330
75
100
AcDbEntity
  8
0
100
AcDbBlockBegin
  2
*D6
 70
     1
 10
0.0
 20
0.0
 30
0.0
  3
*D6
  1

  0
TEXT
  5
77
330
75
100
AcDbEntity
  8
CSLAYER1
 62
     4
100
AcDbText
 10
129.698971
 20
76.20548599999998
 30
0.0
 40
3.2
  1
40%%d
 50
70.00000382394398
 41
1.285714374267215
 51
15.0
  7
FX_FONT
 72
     5
 11
132.9823639999998
 21
85.22653599999998
 31
0.0
100
AcDbText
  0
ARC
  5
78
330
75
100
AcDbEntity
  8
CSLAYER1
  6
CONTINUOUS
 62
     4
100
AcDbCircle
 10
146.378289
 20
75.242763
 30
0.0
 40
15.502714
100
AcDbArc
 50
140.0
 51
180.0
  0
LINE
  5
79
330
75
100
AcDbEntity
  8
CSLAYER1
  6
CONTINUOUS
 62
     4
100
AcDbLine
 10
134.5025209999999
 20
85.20771600000001
 30
0.0
 11
133.2346669999999
 21
82.48879200000002
 31
0.0
  0
LINE
  5
7A
330
75
100
AcDbEntity
  8
CSLAYER1
  6
CONTINUOUS
 62
     4
100
AcDbLine
 10
134.5025209999999
 20
85.20771600000001
 30
0.0
 11
132.0450649999999
 21
83.48698699999998
 31
0.0
  0
LINE
  5
7B
330
75
100
AcDbEntity
  8
CSLAYER1
  6
CONTINUOUS
 62
     4
100
AcDbLine
 10
130.8755749999999
 20
75.242763
 30
0.0
 11
130.099118
 21
78.14054099999999
 31
0.0
  0
LINE
  5
7C
330
75
100
AcDbEntity
  8
CSLAYER1
  6
CONTINUOUS
 62
     4
100
AcDbLine
 10
130.8755749999999
 20
75.242763
 30
0.0
 11
131.652032
 21
78.14054099999999
 31
0.0
  0
ENDBLK
  5
7D
330
75
100
AcDbEntity
  8
0
100
AcDbBlockEnd
  0
BLOCK
  5
7F
330
7E
100
AcDbEntity
  8
0
100
AcDbBlockBegin
  2
FXDIM0002
 70
     0
 10
0.0
 20
0.0
 30
0.0
  3
FXDIM0002
  1

  0
LINE
  5
80
330
7E
100
AcDbEntity
  8
CSLAYER1
  6
CONTINUOUS
 62
     4
100
AcDbLine
 10
170.378289
 20
92.24276299999999
 30
0.0
 11
171.8782889999999
 21
94.84083899999999
 31
0.0
  0
LINE
  5
81
330
7E
100
AcDbEntity
  8
CSLAYER1
  6
CONTINUOUS
 62
     4
100
AcDbLine
 10
168.8782889999998
 20
94.84083899999999
 30
0.0
 11
177.878289
 21
94.84083899999999
 31
0.0
  0
LINE
  5
82
330
7E
100
AcDbEntity
  8
CSLAYER1
  6
CONTINUOUS
 62
     4
100
AcDbLine
 10
168.8782889999998
 20
94.84083899999999
 30
0.0
 11
170.378289
 21
92.24276299999999
 31
0.0
  0
LINE
  5
83
330
7E
100
AcDbEntity
  8
CSLAYER1
  6
CONTINUOUS
 62
     4
100
AcDbLine
 10
173.378289
 20
92.24276299999999
 30
0.0
 11
174.878289
 21
94.84083899999999
 31
0.0
  0
LINE
  5
84
330
7E
100
AcDbEntity
  8
CSLAYER1
  6
CONTINUOUS
 62
     4
100
AcDbLine
 10
171.8782889999999
 20
94.84083899999999
 30
0.0
 11
173.378289
 21
92.24276299999999
 31
0.0
  0
LINE
  5
85
330
7E
100
AcDbEntity
  8
CSLAYER1
  6
CONTINUOUS
 62
     4
100
AcDbLine
 10
176.3782889999999
 20
92.24276299999999
 30
0.0
 11
177.878289
 21
94.84083899999999
 31
0.0
  0
LINE
  5
86
330
7E
100
AcDbEntity
  8
CSLAYER1
  6
CONTINUOUS
 62
     4
100
AcDbLine
 10
174.878289
 20
94.84083899999999
 30
0.0
 11
176.3782889999999
 21
92.24276299999999
 31
0.0
  0
ENDBLK
  5
87
330
7E
100
AcDbEntity
  8
0
100
AcDbBlockEnd
  0
BLOCK
  5
89
330
88
100
AcDbEntity
  8
0
100
AcDbBlockBegin
  2
FXDIM0003
 70
     0
 10
0.0
 20
0.0
 30
0.0
  3
FXDIM0003
  1

  0
LINE
  5
8A
330
88
100
AcDbEntity
  8
CSLAYER1
  6
CONTINUOUS
 62
     4
100
AcDbLine
 10
172.1782889999999
 20
75.242763
 30
0.0
 11
170.6782889999999
 21
72.64468700000001
 31
0.0
  0
LINE
  5
8B
330
88
100
AcDbEntity
  8
CSLAYER1
  6
CONTINUOUS
 62
     4
100
AcDbLine
 10
170.6782889999999
 20
72.64468700000001
 30
0.0
 11
179.6782889999999
 21
72.64468700000001
 31
0.0
  0
LINE
  5
8C
330
88
100
AcDbEntity
  8
CSLAYER1
  6
CONTINUOUS
 62
     4
100
AcDbLine
 10
173.6782889999999
 20
72.64468700000001
 30
0.0
 11
172.1782889999999
 21
75.242763
 31
0.0
  0
LINE
  5
8D
330
88
100
AcDbEntity
  8
CSLAYER1
  6
CONTINUOUS
 62
     4
100
AcDbLine
 10
175.1782889999999
 20
75.242763
 30
0.0
 11
173.6782889999999
 21
72.64468700000001
 31
0.0
  0
LINE
  5
8E
330
88
100
AcDbEntity
  8
CSLAYER1
  6
CONTINUOUS
 62
     4
100
AcDbLine
 10
176.6782889999999
 20
72.64468700000001
 30
0.0
 11
175.1782889999999
 21
75.242763
 31
0.0
  0
LINE
  5
8F
330
88
100
AcDbEntity
  8
CSLAYER1
  6
CONTINUOUS
 62
     4
100
AcDbLine
 10
178.1782889999999
 20
75.242763
 30
0.0
 11
176.6782889999999
 21
72.64468700000001
 31
0.0
  0
LINE
  5
90
330
88
100
AcDbEntity
  8
CSLAYER1
  6
CONTINUOUS
 62
     4
100
AcDbLine
 10
179.6782889999999
 20
72.64468700000001
 30
0.0
 11
178.1782889999999
 21
75.242763
 31
0.0
  0
ENDBLK
  5
91
330
88
100
AcDbEntity
  8
0
100
AcDbBlockEnd
  0
BLOCK
  5
93
330
92
100
AcDbEntity
  8
0
100
AcDbBlockBegin
  2
*D9
 70
     1
 10
0.0
 20
0.0
 30
0.0
  3
*D9
  1

  0
TEXT
  5
94
330
92
100
AcDbEntity
  8
CSLAYER1
 62
     4
100
AcDbText
 10
107.416411
 20
69.38260099999999
 30
0.0
 40
3.2
  1
切刃部有効18
 50
320.000001674965
 41
0.9130434810924576
 51
15.0
  7
FX_FONT
 72
     5
 11
124.575807
 21
54.984159
 31
0.0
100
AcDbText
  0
LINE
  5
95
330
92
100
AcDbEntity
  8
CSLAYER1
  6
CONTINUOUS
 62
     4
100
AcDbLine
 10
127.7355019999999
 20
89.58051199999998
 30
0.0
 11
111.9472959999999
 21
70.764861
 31
0.0
  0
LINE
  5
96
330
92
100
AcDbEntity
  8
CSLAYER1
  6
CONTINUOUS
 62
     4
100
AcDbLine
 10
141.524302
 20
78.01033499999999
 30
0.0
 11
125.7360959999999
 21
59.19468399999999
 31
0.0
  0
LINE
  5
97
330
92
100
AcDbEntity
  8
CSLAYER1
  6
CONTINUOUS
 62
     4
100
AcDbLine
 10
112.590084
 20
71.530906
 30
0.0
 11
126.378884
 21
59.960729
 31
0.0
  0
LINE
  5
98
330
92
100
AcDbEntity
  8
CSLAYER1
  6
CONTINUOUS
 62
     4
100
AcDbLine
 10
112.590084
 20
71.530906
 30
0.0
 11
115.309007
 21
70.263051
 31
0.0
  0
LINE
  5
99
330
92
100
AcDbEntity
  8
CSLAYER1
  6
CONTINUOUS
 62
     4
100
AcDbLine
 10
112.590084
 20
71.530906
 30
0.0
 11
114.3108129999999
 21
69.07344999999999
 31
0.0
  0
LINE
  5
9A
330
92
100
AcDbEntity
  8
CSLAYER1
  6
CONTINUOUS
 62
     4
100
AcDbLine
 10
126.378884
 20
59.960729
 30
0.0
 11
123.65996
 21
61.22858299999999
 31
0.0
  0
LINE
  5
9B
330
92
100
AcDbEntity
  8
CSLAYER1
  6
CONTINUOUS
 62
     4
100
AcDbLine
 10
126.378884
 20
59.960729
 30
0.0
 11
124.658154
 21
62.418185
 31
0.0
  0
ENDBLK
  5
9C
330
92
100
AcDbEntity
  8
0
100
AcDbBlockEnd
  0
BLOCK
  5
9E
330
9D
100
AcDbEntity
  8
0
100
AcDbBlockBegin
  2
*D10
 70
     1
 10
0.0
 20
0.0
 30
0.0
  3
*D10
  1

  0
TEXT
  5
9F
330
9D
100
AcDbEntity
  8
CSLAYER1
 62
     4
100
AcDbText
 10
152.1782959999999
 20
60.305347
 30
0.0
 40
3.2
  1
18
 41
1.200000000000001
 51
15.0
  7
FX_FONT
 72
     5
 11
158.5782959999999
 21
60.305347
 31
0.0
100
AcDbText
  0
LINE
  5
A0
330
9D
100
AcDbEntity
  8
CSLAYER1
  6
CONTINUOUS
 62
     4
100
AcDbLine
 10
146.378289
 20
59.805348
 30
0.0
 11
164.3782889999999
 21
59.805348
 31
0.0
  0
LINE
  5
A1
330
9D
100
AcDbEntity
  8
CSLAYER1
  6
CONTINUOUS
 62
     4
100
AcDbLine
 10
146.378289
 20
59.805348
 30
0.0
 11
149.2760669999998
 21
60.581806
 31
0.0
  0
LINE
  5
A2
330
9D
100
AcDbEntity
  8
CSLAYER1
  6
CONTINUOUS
 62
     4
100
AcDbLine
 10
146.378289
 20
59.805348
 30
0.0
 11
149.2760669999998
 21
59.028891
 31
0.0
  0
LINE
  5
A3
330
9D
100
AcDbEntity
  8
CSLAYER1
  6
CONTINUOUS
 62
     4
100
AcDbLine
 10
164.3782889999999
 20
59.805348
 30
0.0
 11
161.4805119999998
 21
60.581806
 31
0.0
  0
LINE
  5
A4
330
9D
100
AcDbEntity
  8
CSLAYER1
  6
CONTINUOUS
 62
     4
100
AcDbLine
 10
164.3782889999999
 20
59.805348
 30
0.0
 11
161.4805119999998
 21
59.028891
 31
0.0
  0
LINE
  5
A5
330
9D
100
AcDbEntity
  8
CSLAYER1
  6
CONTINUOUS
 62
     4
100
AcDbLine
 10
146.378289
 20
74.24276299999998
 30
0.0
 11
146.378289
 21
58.80534799999999
 31
0.0
  0
LINE
  5
A6
330
9D
100
AcDbEntity
  8
CSLAYER1
  6
CONTINUOUS
 62
     4
100
AcDbLine
 10
164.3782889999999
 20
70.96094499999998
 30
0.0
 11
164.3782889999999
 21
58.80534799999999
 31
0.0
  0
ENDBLK
  5
A7
330
9D
100
AcDbEntity
  8
0
100
AcDbBlockEnd
  0
BLOCK
  5
A9
330
A8
100
AcDbEntity
  8
0
100
AcDbBlockBegin
  2
*D11
 70
     1
 10
0.0
 20
0.0
 30
0.0
  3
*D11
  1

  0
TEXT
  5
AA
330
A8
100
AcDbEntity
  8
CSLAYER1
 62
     4
100
AcDbText
 10
148.0867259999999
 20
66.305351
 30
0.0
 40
3.349662
  1
(16.8)
 41
0.876670541684504
 51
15.0
  7
FX_FONT
 72
     5
 11
163.7483259999999
 21
66.305351
 31
0.0
100
AcDbText
  0
LINE
  5
AB
330
A8
100
AcDbEntity
  8
CSLAYER1
  6
CONTINUOUS
 62
     4
100
AcDbLine
 10
147.622869
 20
65.80534799999999
 30
0.0
 11
164.3782889999999
 21
65.80534799999999
 31
0.0
  0
LINE
  5
AC
330
A8
100
AcDbEntity
  8
CSLAYER1
  6
CONTINUOUS
 62
     4
100
AcDbLine
 10
147.622869
 20
65.80534799999999
 30
0.0
 11
150.520646
 21
66.581806
 31
0.0
  0
LINE
  5
AD
330
A8
100
AcDbEntity
  8
CSLAYER1
  6
CONTINUOUS
 62
     4
100
AcDbLine
 10
147.622869
 20
65.80534799999999
 30
0.0
 11
150.520646
 21
65.028891
 31
0.0
  0
LINE
  5
AE
330
A8
100
AcDbEntity
  8
CSLAYER1
  6
CONTINUOUS
 62
     4
100
AcDbLine
 10
164.3782889999999
 20
65.80534799999999
 30
0.0
 11
161.4805119999998
 21
66.581806
 31
0.0
  0
LINE
  5
AF
330
A8
100
AcDbEntity
  8
CSLAYER1
  6
CONTINUOUS
 62
     4
100
AcDbLine
 10
164.3782889999999
 20
65.80534799999999
 30
0.0
 11
161.4805119999998
 21
65.028891
 31
0.0
  0
LINE
  5
B0
330
A8
100
AcDbEntity
  8
CSLAYER1
  6
CONTINUOUS
 62
     4
100
AcDbLine
 10
147.622869
 20
74.24276299999998
 30
0.0
 11
147.622869
 21
64.805348
 31
0.0
  0
ENDBLK
  5
B1
330
A8
100
AcDbEntity
  8
0
100
AcDbBlockEnd
  0
BLOCK
  5
B3
330
B2
100
AcDbEntity
  8
0
100
AcDbBlockBegin
  2
*D12
 70
     1
 10
0.0
 20
0.0
 30
0.0
  3
*D12
  1

  0
TEXT
  5
B4
330
B2
100
AcDbEntity
  8
CSLAYER1
 62
     4
100
AcDbText
 10
56.859108
 20
130.7907129999998
 30
0.0
 40
3.2
  1
(6)
 50
90.0
 41
1.285714419642871
 51
15.0
  7
FX_FONT
 72
     5
 11
56.859108
 21
140.390714
 31
0.0
100
AcDbText
  0
LINE
  5
B5
330
B2
100
AcDbEntity
  8
CSLAYER1
  6
CONTINUOUS
 62
     4
100
AcDbLine
 10
57.35911
 20
138.5427629999999
 30
0.0
 11
57.35911
 21
144.5427629999999
 31
0.0
  0
LINE
  5
B6
330
B2
100
AcDbEntity
  8
CSLAYER1
  6
CONTINUOUS
 62
     4
100
AcDbLine
 10
57.35911
 20
138.5427629999999
 30
0.0
 11
56.582652
 21
141.440541
 31
0.0
  0
LINE
  5
B7
330
B2
100
AcDbEntity
  8
CSLAYER1
  6
CONTINUOUS
 62
     4
100
AcDbLine
 10
57.35911
 20
138.5427629999999
 30
0.0
 11
58.135567
 21
141.440541
 31
0.0
  0
LINE
  5
B8
330
B2
100
AcDbEntity
  8
CSLAYER1
  6
CONTINUOUS
 62
     4
100
AcDbLine
 10
57.35911
 20
144.5427629999999
 30
0.0
 11
56.582652
 21
141.644986
 31
0.0
  0
LINE
  5
B9
330
B2
100
AcDbEntity
  8
CSLAYER1
  6
CONTINUOUS
 62
     4
100
AcDbLine
 10
57.35911
 20
144.5427629999999
 30
0.0
 11
58.135567
 21
141.644986
 31
0.0
  0
LINE
  5
BA
330
B2
100
AcDbEntity
  8
CSLAYER1
  6
CONTINUOUS
 62
     4
100
AcDbLine
 10
63.47743399999998
 20
138.5427629999999
 30
0.0
 11
56.35911
 21
138.5427629999999
 31
0.0
  0
LINE
  5
BB
330
B2
100
AcDbEntity
  8
CSLAYER1
  6
CONTINUOUS
 62
     4
100
AcDbLine
 10
63.47743399999998
 20
144.5427629999999
 30
0.0
 11
56.35911
 21
144.5427629999999
 31
0.0
  0
ENDBLK
  5
BC
330
B2
100
AcDbEntity
  8
0
100
AcDbBlockEnd
  0
BLOCK
  5
BE
330
BD
100
AcDbEntity
  8
0
100
AcDbBlockBegin
  2
*D13
 70
     1
 10
0.0
 20
0.0
 30
0.0
  3
*D13
  1

  0
TEXT
  5
BF
330
BD
100
AcDbEntity
  8
CSLAYER1
 62
     4
100
AcDbText
 10
41.925283
 20
133.7761689999998
 30
0.0
 40
3.2
  1
60%%d
 50
299.9999996309517
 41
1.285714300058134
 51
15.0
  7
FX_FONT
 72
     5
 11
46.725283
 21
125.462325
 31
0.0
100
AcDbText
  0
ARC
  5
C0
330
BD
100
AcDbEntity
  8
CSLAYER1
  6
CONTINUOUS
 62
     4
100
AcDbCircle
 10
64.977434
 20
141.5427629999999
 30
0.0
 40
24.34704899999999
100
AcDbArc
 50
180.0
 51
239.9999999999999
  0
LINE
  5
C1
330
BD
100
AcDbEntity
  8
CSLAYER1
  6
CONTINUOUS
 62
     4
100
AcDbLine
 10
40.630385
 20
141.5427629999999
 30
0.0
 11
39.853928
 21
138.644986
 31
0.0
  0
LINE
  5
C2
330
BD
100
AcDbEntity
  8
CSLAYER1
  6
CONTINUOUS
 62
     4
100
AcDbLine
 10
40.630385
 20
141.5427629999999
 30
0.0
 11
41.40684199999999
 21
138.644986
 31
0.0
  0
LINE
  5
C3
330
BD
100
AcDbEntity
  8
CSLAYER1
  6
CONTINUOUS
 62
     4
100
AcDbLine
 10
52.803909
 20
120.4576
 30
0.0
 11
49.906132
 21
121.234057
 31
0.0
  0
LINE
  5
C4
330
BD
100
AcDbEntity
  8
CSLAYER1
  6
CONTINUOUS
 62
     4
100
AcDbLine
 10
52.803909
 20
120.4576
 30
0.0
 11
50.682589
 21
122.578921
 31
0.0
  0
LINE
  5
C5
330
BD
100
AcDbEntity
  8
CSLAYER1
  6
CONTINUOUS
 62
     4
100
AcDbLine
 10
60.12404499999998
 20
141.5427629999999
 30
0.0
 11
39.63038499999999
 21
141.5427629999999
 31
0.0
  0
LINE
  5
C6
330
BD
100
AcDbEntity
  8
CSLAYER1
  6
CONTINUOUS
 62
     4
100
AcDbLine
 10
63.97743399999999
 20
139.810712
 30
0.0
 11
52.303909
 21
119.591575
 31
0.0
  0
ENDBLK
  5
C7
330
BD
100
AcDbEntity
  8
0
100
AcDbBlockEnd
  0
BLOCK
  5
C9
330
C8
100
AcDbEntity
  8
0
100
AcDbBlockBegin
  2
*D14
 70
     1
 10
0.0
 20
0.0
 30
0.0
  3
*D14
  1

  0
TEXT
  5
CA
330
C8
100
AcDbEntity
  8
CSLAYER1
 62
     4
100
AcDbText
 10
63.33116
 20
117.273201
 30
0.0
 40
3.2
  1
75%%d
 50
7.500003024515336
 41
1.28571433933695
 51
15.0
  7
FX_FONT
 72
     5
 11
72.84903100000002
 21
118.5262529999999
 31
0.0
100
AcDbText
  0
ARC
  5
CB
330
C8
100
AcDbEntity
  8
CSLAYER1
  6
CONTINUOUS
 62
     4
100
AcDbCircle
 10
64.977434
 20
141.5427629999999
 30
0.0
 40
24.34704899999999
100
AcDbArc
 50
239.9999999999999
 51
315.0
  0
LINE
  5
CC
330
C8
100
AcDbEntity
  8
CSLAYER1
  6
CONTINUOUS
 62
     4
100
AcDbLine
 10
52.803909
 20
120.4576
 30
0.0
 11
55.70168699999999
 21
119.6811429999999
 31
0.0
  0
LINE
  5
CD
330
C8
100
AcDbEntity
  8
CSLAYER1
  6
CONTINUOUS
 62
     4
100
AcDbLine
 10
52.803909
 20
120.4576
 30
0.0
 11
54.92523000000001
 21
118.33628
 31
0.0
  0
LINE
  5
CE
330
C8
100
AcDbEntity
  8
CSLAYER1
  6
CONTINUOUS
 62
     4
100
AcDbLine
 10
82.19339699999997
 20
124.3268
 30
0.0
 11
80.69339699999998
 21
121.7287229999999
 31
0.0
  0
LINE
  5
CF
330
C8
100
AcDbEntity
  8
CSLAYER1
  6
CONTINUOUS
 62
     4
100
AcDbLine
 10
82.19339699999997
 20
124.3268
 30
0.0
 11
79.595321
 21
122.8268
 31
0.0
  0
LINE
  5
D0
330
C8
100
AcDbEntity
  8
CSLAYER1
  6
CONTINUOUS
 62
     4
100
AcDbLine
 10
79.18454100000002
 20
127.335656
 30
0.0
 11
82.900504
 21
123.6196929999999
 31
0.0
  0
ENDBLK
  5
D1
330
C8
100
AcDbEntity
  8
0
100
AcDbBlockEnd
  0
BLOCK
  5
D3
330
D2
100
AcDbEntity
  8
0
100
AcDbBlockBegin
  2
*D15
 70
     1
 10
0.0
 20
0.0
 30
0.0
  3
*D15
  1

  0
TEXT
  5
D4
330
D2
100
AcDbEntity
  8
CSLAYER1
 62
     4
100
AcDbText
 10
45.029239
 20
151.517776
 30
0.0
 40
3.2
  1
(1)
 41
1.285714285714284
 51
15.0
  7
FX_FONT
 72
     5
 11
54.62923899999999
 21
151.517776
 31
0.0
100
AcDbText
  0
LINE
  5
D5
330
D2
100
AcDbEntity
  8
CSLAYER1
  6
CONTINUOUS
 62
     4
100
AcDbLine
 10
55.00244
 20
151.017757
 30
0.0
 11
56.00243999999999
 21
151.017757
 31
0.0
  0
LINE
  5
D6
330
D2
100
AcDbEntity
  8
CSLAYER1
  6
CONTINUOUS
 62
     4
100
AcDbLine
 10
63.770327
 20
142.24987
 30
0.0
 11
54.295334
 21
151.724864
 31
0.0
  0
LINE
  5
D7
330
D2
100
AcDbEntity
  8
CSLAYER1
  6
CONTINUOUS
 62
     4
100
AcDbLine
 10
64.77032700000001
 20
142.24987
 30
0.0
 11
55.295334
 21
151.724864
 31
0.0
  0
LINE
  5
D8
330
D2
100
AcDbEntity
  8
CSLAYER1
  6
CONTINUOUS
 62
     4
100
AcDbLine
 10
49.00244
 20
151.017757
 30
0.0
 11
55.00244
 21
151.017757
 31
0.0
  0
LINE
  5
D9
330
D2
100
AcDbEntity
  8
CSLAYER1
  6
CONTINUOUS
 62
     4
100
AcDbLine
 10
55.00244
 20
151.017757
 30
0.0
 11
52.104663
 21
151.7942139999999
 31
0.0
  0
LINE
  5
DA
330
D2
100
AcDbEntity
  8
CSLAYER1
  6
CONTINUOUS
 62
     4
100
AcDbLine
 10
55.00244
 20
151.017757
 30
0.0
 11
52.104663
 21
150.2412999999999
 31
0.0
  0
LINE
  5
DB
330
D2
100
AcDbEntity
  8
CSLAYER1
  6
CONTINUOUS
 62
     4
100
AcDbLine
 10
56.00243999999999
 20
151.017757
 30
0.0
 11
58.520118
 21
151.017757
 31
0.0
  0
LINE
  5
DC
330
D2
100
AcDbEntity
  8
CSLAYER1
  6
CONTINUOUS
 62
     4
100
AcDbLine
 10
56.00243999999999
 20
151.017757
 30
0.0
 11
58.900218
 21
151.7942139999999
 31
0.0
  0
LINE
  5
DD
330
D2
100
AcDbEntity
  8
CSLAYER1
  6
CONTINUOUS
 62
     4
100
AcDbLine
 10
56.00243999999999
 20
151.017757
 30
0.0
 11
58.900218
 21
150.2412999999999
 31
0.0
  0
ENDBLK
  5
DE
330
D2
100
AcDbEntity
  8
0
100
AcDbBlockEnd
  0
BLOCK
  5
E0
330
DF
100
AcDbEntity
  8
0
100
AcDbBlockBegin
  2
*D16
 70
     1
 10
0.0
 20
0.0
 30
0.0
  3
*D16
  1

  0
TEXT
  5
E1
330
DF
100
AcDbEntity
  8
CSLAYER1
 62
     4
100
AcDbText
 10
70.70853599999998
 20
168.12898
 30
0.0
 40
3.2
  1
45%%d
 50
337.4999953285184
 41
1.285714399861751
 51
15.0
  7
FX_FONT
 72
     5
 11
79.57778000000002
 21
164.4552179999999
 31
0.0
100
AcDbText
  0
ARC
  5
E2
330
DF
100
AcDbEntity
  8
CSLAYER1
  6
CONTINUOUS
 62
     4
100
AcDbCircle
 10
64.477434
 20
140.5427629999999
 30
0.0
 40
27.37087
100
AcDbArc
 50
45.0
 51
90.0
  0
LINE
  5
E3
330
DF
100
AcDbEntity
  8
CSLAYER1
  6
CONTINUOUS
 62
     4
100
AcDbLine
 10
83.831562
 20
159.8968909999999
 30
0.0
 11
81.233485
 21
161.3968909999998
 31
0.0
  0
LINE
  5
E4
330
DF
100
AcDbEntity
  8
CSLAYER1
  6
CONTINUOUS
 62
     4
100
AcDbLine
 10
83.831562
 20
159.8968909999999
 30
0.0
 11
82.33156200000001
 21
162.494967
 31
0.0
  0
LINE
  5
E5
330
DF
100
AcDbEntity
  8
CSLAYER1
  6
CONTINUOUS
 62
     4
100
AcDbLine
 10
64.477434
 20
167.913633
 30
0.0
 11
67.37521099999999
 21
168.6900899999999
 31
0.0
  0
LINE
  5
E6
330
DF
100
AcDbEntity
  8
CSLAYER1
  6
CONTINUOUS
 62
     4
100
AcDbLine
 10
64.477434
 20
167.913633
 30
0.0
 11
67.37521099999999
 21
167.137176
 31
0.0
  0
LINE
  5
E7
330
DF
100
AcDbEntity
  8
CSLAYER1
  6
CONTINUOUS
 62
     4
100
AcDbLine
 10
79.18454100000002
 20
155.2498699999999
 30
0.0
 11
84.538668
 21
160.603998
 31
0.0
  0
LINE
  5
E8
330
DF
100
AcDbEntity
  8
CSLAYER1
  6
CONTINUOUS
 62
     4
100
AcDbLine
 10
64.477434
 20
145.5427629999998
 30
0.0
 11
64.477434
 21
168.913633
 31
0.0
  0
ENDBLK
  5
E9
330
DF
100
AcDbEntity
  8
0
100
AcDbBlockEnd
  0
BLOCK
  5
EB
330
EA
100
AcDbEntity
  8
0
100
AcDbBlockBegin
  2
*D17
 70
     1
 10
0.0
 20
0.0
 30
0.0
  3
*D17
  1

  0
TEXT
  5
EC
330
EA
100
AcDbEntity
  8
CSLAYER1
 62
     4
100
AcDbText
 10
45.410519
 20
162.0779419999998
 30
0.0
 40
3.2
  1
(0.8)
 41
1.153846153846153
 51
15.0
  7
FX_FONT
 72
     5
 11
61.41051899999999
 21
162.0779419999998
 31
0.0
100
AcDbText
  0
LINE
  5
ED
330
EA
100
AcDbEntity
  8
CSLAYER1
  6
CONTINUOUS
 62
     4
100
AcDbLine
 10
64.477434
 20
161.5779419999999
 30
0.0
 11
65.277434
 21
161.5779419999999
 31
0.0
  0
LINE
  5
EE
330
EA
100
AcDbEntity
  8
CSLAYER1
  6
CONTINUOUS
 62
     4
100
AcDbLine
 10
65.277434
 20
158.5427629999998
 30
0.0
 11
65.277434
 21
162.5779419999998
 31
0.0
  0
LINE
  5
EF
330
EA
100
AcDbEntity
  8
CSLAYER1
  6
CONTINUOUS
 62
     4
100
AcDbLine
 10
58.55287
 20
161.5779419999999
 30
0.0
 11
64.477434
 21
161.5779419999999
 31
0.0
  0
LINE
  5
F0
330
EA
100
AcDbEntity
  8
CSLAYER1
  6
CONTINUOUS
 62
     4
100
AcDbLine
 10
64.477434
 20
161.5779419999999
 30
0.0
 11
61.579657
 21
162.3543989999999
 31
0.0
  0
LINE
  5
F1
330
EA
100
AcDbEntity
  8
CSLAYER1
  6
CONTINUOUS
 62
     4
100
AcDbLine
 10
64.477434
 20
161.5779419999999
 30
0.0
 11
61.579657
 21
160.801485
 31
0.0
  0
LINE
  5
F2
330
EA
100
AcDbEntity
  8
CSLAYER1
  6
CONTINUOUS
 62
     4
100
AcDbLine
 10
65.277434
 20
161.5779419999999
 30
0.0
 11
71.27743399999999
 21
161.5779419999999
 31
0.0
  0
LINE
  5
F3
330
EA
100
AcDbEntity
  8
CSLAYER1
  6
CONTINUOUS
 62
     4
100
AcDbLine
 10
65.277434
 20
161.5779419999999
 30
0.0
 11
68.175211
 21
162.3543989999999
 31
0.0
  0
LINE
  5
F4
330
EA
100
AcDbEntity
  8
CSLAYER1
  6
CONTINUOUS
 62
     4
100
AcDbLine
 10
65.277434
 20
161.5779419999999
 30
0.0
 11
68.175211
 21
160.801485
 31
0.0
  0
ENDBLK
  5
F5
330
EA
100
AcDbEntity
  8
0
100
AcDbBlockEnd
  0
BLOCK
  5
F7
330
F6
100
AcDbEntity
  8
0
100
AcDbBlockBegin
  2
FXDIM0004
 70
     0
 10
0.0
 20
0.0
 30
0.0
  3
FXDIM0004
  1

  0
LINE
  5
F8
330
F6
100
AcDbEntity
  8
CSLAYER1
  6
CONTINUOUS
 62
     4
100
AcDbLine
 10
115.332237
 20
26.907895
 30
0.0
 11
115.332237
 21
25.931531
 31
0.0
  0
ENDBLK
  5
F9
330
F6
100
AcDbEntity
  8
0
100
AcDbBlockEnd
  0
BLOCK
  5
FB
330
FA
100
AcDbEntity
  8
0
100
AcDbBlockBegin
  2
*D19
 70
     1
 10
0.0
 20
0.0
 30
0.0
  3
*D19
  1

  0
TEXT
  5
FC
330
FA
100
AcDbEntity
  8
CSLAYER1
 62
     4
100
AcDbText
 10
69.036415
 20
26.307894
 30
0.0
 40
3.2
  1
7
 50
90.0
 41
1.499999999999999
 51
15.0
  7
FX_FONT
 72
     5
 11
69.036415
 21
29.507894
 31
0.0
100
AcDbText
  0
LINE
  5
FD
330
FA
100
AcDbEntity
  8
CSLAYER1
  6
CONTINUOUS
 62
     4
100
AcDbLine
 10
69.53641800000001
 20
24.407895
 30
0.0
 11
69.53641800000001
 21
31.407895
 31
0.0
  0
LINE
  5
FE
330
FA
100
AcDbEntity
  8
CSLAYER1
  6
CONTINUOUS
 62
     4
100
AcDbLine
 10
69.53641800000001
 20
24.407895
 30
0.0
 11
68.759961
 21
27.30567199999999
 31
0.0
  0
LINE
  5
FF
330
FA
100
AcDbEntity
  8
CSLAYER1
  6
CONTINUOUS
 62
     4
100
AcDbLine
 10
69.53641800000001
 20
24.407895
 30
0.0
 11
70.31287500000001
 21
27.30567199999999
 31
0.0
  0
LINE
  5
100
330
FA
100
AcDbEntity
  8
CSLAYER1
  6
CONTINUOUS
 62
     4
100
AcDbLine
 10
69.53641800000001
 20
31.407895
 30
0.0
 11
68.759961
 21
28.51011699999999
 31
0.0
  0
LINE
  5
101
330
FA
100
AcDbEntity
  8
CSLAYER1
  6
CONTINUOUS
 62
     4
100
AcDbLine
 10
69.53641800000001
 20
31.407895
 30
0.0
 11
70.31287500000001
 21
28.51011699999999
 31
0.0
  0
LINE
  5
102
330
FA
100
AcDbEntity
  8
CSLAYER1
  6
CONTINUOUS
 62
     4
100
AcDbLine
 10
78.50278
 20
24.407895
 30
0.0
 11
68.53641800000001
 21
24.407895
 31
0.0
  0
LINE
  5
103
330
FA
100
AcDbEntity
  8
CSLAYER1
  6
CONTINUOUS
 62
     4
100
AcDbLine
 10
78.50278
 20
31.407895
 30
0.0
 11
68.53641800000001
 21
31.407895
 31
0.0
  0
ENDBLK
  5
104
330
FA
100
AcDbEntity
  8
0
100
AcDbBlockEnd
  0
BLOCK
  5
1DB
330
1CF
100
AcDbEntity
  8
0
100
AcDbBlockBegin
  2
*D20
 70
     1
 10
0.0
 20
0.0
 30
0.0
  3
*D20
  1

  0
LINE
  5
1D0
330
1CF
100
AcDbEntity
  8
CSLAYER1
 62
     0
100
AcDbLine
 10
130.8130749999999
 20
75.24276299571375
 30
0.0
 11
130.6955747678445
 21
75.24276298765556
 31
0.0
  0
ARC
  5
1D1
330
1CF
100
AcDbEntity
  8
CSLAYER1
 62
     0
100
AcDbCircle
 10
146.378289
 20
75.242763
 30
0.0
 40
15.50271423215548
100
AcDbArc
 50
140.6652563082897
 51
159.2904336981245
  0
ARC
  5
1D2
330
1CF
100
AcDbEntity
  8
CSLAYER1
 62
     0
100
AcDbCircle
 10
146.378289
 20
75.242763
 30
0.0
 40
15.50271423215548
100
AcDbArc
 50
160.7063807745115
 51
179.3347424141277
  0
SOLID
  5
1D3
330
1CF
100
AcDbEntity
  8
CSLAYER1
 62
     0
100
AcDbTrace
 10
134.3645289127089
 20
85.08830840429384
 30
0.0
 11
134.4107147035956
 21
85.05000862987975
 31
0.0
 12
134.5025211313945
 22
85.20771588974691
 32
0.0
 13
134.5025211313945
 23
85.20771588974691
 33
0.0
  0
SOLID
  5
1D4
330
1CF
100
AcDbEntity
  8
CSLAYER1
 62
     0
100
AcDbTrace
 10
130.9066192405964
 20
75.42258580364722
 30
0.0
 11
130.8466202516971
 21
75.42293412974801
 31
0.0
 12
130.8755747678443
 22
75.242763
 32
0.0
 13
130.8755747678443
 23
75.242763
 33
0.0
  0
MTEXT
  5
1D5
330
1CF
100
AcDbEntity
  8
CSLAYER1
 62
     0
100
AcDbMText
 10
131.8105028930054
 20
80.54500370603511
 30
0.0
 40
0.18
 41
0.0
 71
     5
 72
     1
  1
\A1;40°
1001
ACAD
1000
MTEXTBEGIN
1070
    73
1070
     1
1070
    44
1040
1.0
1070
    74
1070
     0
1000
MTEXTEND
  0
POINT
  5
1D6
330
1CF
100
AcDbEntity
  8
DEFPOINTS
 62
     0
100
AcDbPoint
 10
132.5245576519667
 20
82.20036864421397
 30
0.0
  0
POINT
  5
1D7
330
1CF
100
AcDbEntity
  8
DEFPOINTS
 62
     0
100
AcDbPoint
 10
146.378289
 20
75.242763
 30
0.0
  0
POINT
  5
1D8
330
1CF
100
AcDbEntity
  8
DEFPOINTS
 62
     0
100
AcDbPoint
 10
130.8755749999999
 20
75.242763
 30
0.0
  0
POINT
  5
1D9
330
1CF
100
AcDbEntity
  8
DEFPOINTS
 62
     0
100
AcDbPoint
 10
146.378289
 20
75.242763
 30
0.0
  0
POINT
  5
1DA
330
1CF
100
AcDbEntity
  8
DEFPOINTS
 62
     0
100
AcDbPoint
 10
134.5025209999999
 20
85.20771600000001
 30
0.0
  0
ENDBLK
  5
1DC
330
1CF
100
AcDbEntity
  8
0
100
AcDbBlockEnd
  0
BLOCK
  5
1EA
330
1DD
100
AcDbEntity
  8
0
100
AcDbBlockBegin
  2
*D21
 70
     1
 10
0.0
 20
0.0
 30
0.0
  3
*D21
  1

  0
LINE
  5
1DE
330
1DD
100
AcDbEntity
  8
CSLAYER1
 62
     0
100
AcDbLine
 10
61.06154499999998
 20
141.5427629999999
 30
0.0
 11
40.45038519906428
 21
141.5427629999999
 31
0.0
  0
LINE
  5
1DF
330
1DD
100
AcDbEntity
  8
CSLAYER1
 62
     0
100
AcDbLine
 10
64.44618398907228
 20
140.6226114185724
 30
0.0
 11
52.71390531112842
 21
120.3017181344405
 31
0.0
  0
ARC
  5
1E0
330
1DD
100
AcDbEntity
  8
CSLAYER1
 62
     0
100
AcDbCircle
 10
64.97743400000001
 20
141.5427629999999
 30
0.0
 40
24.34704880093571
100
AcDbArc
 50
180.4235940004184
 51
209.512064734911
  0
ARC
  5
1E1
330
1DD
100
AcDbEntity
  8
CSLAYER1
 62
     0
100
AcDbCircle
 10
64.97743400000001
 20
141.5427629999999
 30
0.0
 40
24.34704880093571
100
AcDbArc
 50
210.4903346567922
 51
239.5763944320047
  0
SOLID
  5
1E2
330
1DD
100
AcDbEntity
  8
CSLAYER1
 62
     0
100
AcDbTrace
 10
40.60105078241639
 20
141.3626533334078
 30
0.0
 11
40.6610503724813
 21
141.3628751262026
 31
0.0
 12
40.63038519906428
 22
141.5427629999999
 32
0.0
 13
40.63038519906428
 23
141.5427629999999
 33
0.0
  0
SOLID
  5
1E3
330
1DD
100
AcDbEntity
  8
CSLAYER1
 62
     0
100
AcDbTrace
 10
52.66345048428821
 20
120.5741034733974
 30
0.0
 11
52.63325860059286
 21
120.5222532066774
 31
0.0
 12
52.80390534260032
 22
120.4576026889514
 32
0.0
 13
52.80390534260032
 23
120.4576026889514
 33
0.0
  0
MTEXT
  5
1E4
330
1DD
100
AcDbEntity
  8
CSLAYER1
 62
     0
100
AcDbMText
 10
43.89227000233988
 20
129.3692407279982
 30
0.0
 40
0.18
 41
0.0
 71
     5
 72
     1
  1
\A1;60°
1001
ACAD
1000
MTEXTBEGIN
1070
    73
1070
     1
1070
    44
1040
1.0
1070
    74
1070
     0
1000
MTEXTEND
  0
POINT
  5
1E5
330
1DD
100
AcDbEntity
  8
DEFPOINTS
 62
     0
100
AcDbPoint
 10
42.09869134344843
 20
133.2155834192275
 30
0.0
  0
POINT
  5
1E6
330
1DD
100
AcDbEntity
  8
DEFPOINTS
 62
     0
100
AcDbPoint
 10
64.477434
 20
141.5427629999999
 30
0.0
  0
POINT
  5
1E7
330
1DD
100
AcDbEntity
  8
DEFPOINTS
 62
     0
100
AcDbPoint
 10
64.477434
 20
140.6767379999999
 30
0.0
  0
POINT
  5
1E8
330
1DD
100
AcDbEntity
  8
DEFPOINTS
 62
     0
100
AcDbPoint
 10
64.977434
 20
141.5427629999999
 30
0.0
  0
POINT
  5
1E9
330
1DD
100
AcDbEntity
  8
DEFPOINTS
 62
     0
100
AcDbPoint
 10
61.12404499999999
 20
141.5427629999999
 30
0.0
  0
ENDBLK
  5
1EB
330
1DD
100
AcDbEntity
  8
0
100
AcDbBlockEnd
  0
BLOCK
  5
1F9
330
1EC
100
AcDbEntity
  8
0
100
AcDbBlockBegin
  2
*D22
 70
     1
 10
0.0
 20
0.0
 30
0.0
  3
*D22
  1

  0
LINE
  5
1ED
330
1EC
100
AcDbEntity
  8
CSLAYER1
 62
     0
100
AcDbLine
 10
64.44618398907228
 20
140.6226114185725
 30
0.0
 11
52.71390549302353
 21
120.3017184494919
 31
0.0
  0
LINE
  5
1EE
330
1EC
100
AcDbEntity
  8
CSLAYER1
 62
     0
100
AcDbLine
 10
78.52162817382415
 20
127.9985688261757
 30
0.0
 11
82.32067627239663
 21
124.1995207276032
 31
0.0
  0
ARC
  5
1EF
330
1EC
100
AcDbEntity
  8
CSLAYER1
 62
     0
100
AcDbCircle
 10
64.97743399999997
 20
141.5427629999999
 30
0.0
 40
24.34704843714571
100
AcDbArc
 50
240.4235824391709
 51
276.6036594404188
  0
ARC
  5
1F0
330
1EC
100
AcDbEntity
  8
CSLAYER1
 62
     0
100
AcDbCircle
 10
64.97743399999997
 20
141.5427629999999
 30
0.0
 40
24.34704843714571
100
AcDbArc
 50
278.3981790587737
 51
314.5764059932521
  0
SOLID
  5
1F1
330
1EC
100
AcDbEntity
  8
CSLAYER1
 62
     0
100
AcDbTrace
 10
52.94521783960347
 20
120.3421437921624
 30
0.0
 11
52.97502556695127
 21
120.3942158517564
 31
0.0
 12
52.80390552449542
 22
120.4576030040028
 32
0.0
 13
52.80390552449542
 23
120.4576030040028
 33
0.0
  0
SOLID
  5
1F2
330
1EC
100
AcDbEntity
  8
CSLAYER1
 62
     0
100
AcDbTrace
 10
82.04451356429249
 20
124.2212835648792
 30
0.0
 11
82.08678285010419
 21
124.1787006166843
 31
0.0
 12
82.19339705178304
 22
124.3267999482169
 32
0.0
 13
82.19339705178304
 23
124.3267999482169
 33
0.0
  0
MTEXT
  5
1F3
330
1EC
100
AcDbEntity
  8
CSLAYER1
 62
     0
100
AcDbMText
 10
68.15535908758319
 20
117.404006616573
 30
0.0
 40
0.18
 41
0.0
 71
     5
 72
     1
  1
\A1;75°
1001
ACAD
1000
MTEXTBEGIN
1070
    73
1070
     1
1070
    44
1040
1.0
1070
    74
1070
     0
1000
MTEXTEND
  0
POINT
  5
1F4
330
1EC
100
AcDbEntity
  8
DEFPOINTS
 62
     0
100
AcDbPoint
 10
62.8554456452295
 20
117.2883627183409
 30
0.0
  0
POINT
  5
1F5
330
1EC
100
AcDbEntity
  8
DEFPOINTS
 62
     0
100
AcDbPoint
 10
64.977434
 20
141.5427629999999
 30
0.0
  0
POINT
  5
1F6
330
1EC
100
AcDbEntity
  8
DEFPOINTS
 62
     0
100
AcDbPoint
 10
78.477434
 20
128.0427629999999
 30
0.0
  0
POINT
  5
1F7
330
1EC
100
AcDbEntity
  8
DEFPOINTS
 62
     0
100
AcDbPoint
 10
64.977434
 20
141.5427629999999
 30
0.0
  0
POINT
  5
1F8
330
1EC
100
AcDbEntity
  8
DEFPOINTS
 62
     0
100
AcDbPoint
 10
64.477434
 20
140.6767379999999
 30
0.0
  0
ENDBLK
  5
1FA
330
1EC
100
AcDbEntity
  8
0
100
AcDbBlockEnd
  0
BLOCK
  5
208
330
1FB
100
AcDbEntity
  8
0
100
AcDbBlockBegin
  2
*D23
 70
     1
 10
0.0
 20
0.0
 30
0.0
  3
*D23
  1

  0
LINE
  5
1FC
330
1FB
100
AcDbEntity
  8
CSLAYER1
 62
     0
100
AcDbLine
 10
78.52162817382417
 20
154.586957173824
 30
0.0
 11
83.95884114949032
 21
160.0241701494901
 31
0.0
  0
LINE
  5
1FD
330
1FB
100
AcDbEntity
  8
CSLAYER1
 62
     0
100
AcDbLine
 10
64.477434
 20
144.6052629999998
 30
0.0
 11
64.47743400000007
 21
168.0936332049213
 31
0.0
  0
ARC
  5
1FE
330
1FB
100
AcDbEntity
  8
CSLAYER1
 62
     0
100
AcDbCircle
 10
64.47743399999999
 20
140.5427629999999
 30
0.0
 40
27.37087020492141
100
AcDbArc
 50
45.37679689464625
 51
66.64083290073577
  0
ARC
  5
1FF
330
1FB
100
AcDbEntity
  8
CSLAYER1
 62
     0
100
AcDbCircle
 10
64.47743399999999
 20
140.5427629999999
 30
0.0
 40
27.37087020492141
100
AcDbArc
 50
68.35386294368293
 51
89.62320310535359
  0
SOLID
  5
200
330
1FB
100
AcDbEntity
  8
CSLAYER1
 62
     0
100
AcDbTrace
 10
83.72500821716455
 20
160.0450337873625
 30
0.0
 11
83.68272154477521
 21
160.0024681047269
 31
0.0
 12
83.83156192887675
 22
159.8968909288766
 32
0.0
 13
83.83156192887675
 23
159.8968909288766
 33
0.0
  0
SOLID
  5
201
330
1FB
100
AcDbEntity
  8
CSLAYER1
 62
     0
100
AcDbTrace
 10
64.6573343818949
 20
167.8830414969908
 30
0.0
 11
64.65753167193206
 21
167.9430411726286
 31
0.0
 12
64.47743400000007
 22
167.9136332049213
 32
0.0
 13
64.47743400000007
 23
167.9136332049213
 33
0.0
  0
MTEXT
  5
202
330
1FB
100
AcDbEntity
  8
CSLAYER1
 62
     0
100
AcDbMText
 10
74.95181255683873
 20
165.8301497693498
 30
0.0
 40
0.18
 41
0.0
 71
     5
 72
     1
  1
\A1;45°
1001
ACAD
1000
MTEXTBEGIN
1070
    73
1070
     1
1070
    44
1040
1.0
1070
    74
1070
     0
1000
MTEXTEND
  0
POINT
  5
203
330
1FB
100
AcDbEntity
  8
DEFPOINTS
 62
     0
100
AcDbPoint
 10
78.16286910246072
 20
164.2466319211484
 30
0.0
  0
POINT
  5
204
330
1FB
100
AcDbEntity
  8
DEFPOINTS
 62
     0
100
AcDbPoint
 10
65.47743399999998
 20
141.5427629999999
 30
0.0
  0
POINT
  5
205
330
1FB
100
AcDbEntity
  8
DEFPOINTS
 62
     0
100
AcDbPoint
 10
64.477434
 20
144.5427629999999
 30
0.0
  0
POINT
  5
206
330
1FB
100
AcDbEntity
  8
DEFPOINTS
 62
     0
100
AcDbPoint
 10
64.477434
 20
141.5427629999999
 30
0.0
  0
POINT
  5
207
330
1FB
100
AcDbEntity
  8
DEFPOINTS
 62
     0
100
AcDbPoint
 10
78.477434
 20
154.5427629999998
 30
0.0
  0
ENDBLK
  5
209
330
1FB
100
AcDbEntity
  8
0
100
AcDbBlockEnd
  0
ENDSEC
  0
SECTION
  2
ENTITIES
  0
POINT
  5
105
330
1E
100
AcDbEntity
  8
CSLAYER1
 62
     3
100
AcDbPoint
 10
164.3782889999999
 20
83.742763
 30
0.0
  0
POINT
  5
106
330
1E
100
AcDbEntity
  8
CSLAYER1
 62
     3
100
AcDbPoint
 10
164.3782889999999
 20
141.5427629999999
 30
0.0
  0
INSERT
  5
107
330
1E
100
AcDbEntity
  8
CSLAYER1
100
AcDbBlockReference
  2
FXDIM0000
 10
0.0
 20
0.0
 30
0.0
  0
INSERT
  5
108
330
1E
100
AcDbEntity
  8
CSLAYER1
100
AcDbBlockReference
  2
FXDIM0001
 10
0.0
 20
0.0
 30
0.0
  0
DIMENSION
  5
109
330
1E
100
AcDbEntity
  8
CSLAYER1
 62
     4
100
AcDbDimension
  2
*D2
 10
112.072229
 20
157.5427629999999
 30
0.0
 11
111.572227
 21
141.5427699999999
 31
0.0
 70
     1
100
AcDbAlignedDimension
 13
150.0289249999999
 23
125.542763
 33
0.0
 14
150.0289249999999
 24
157.5427629999999
 34
0.0
  0
DIMENSION
  5
10A
330
1E
100
AcDbEntity
  8
CSLAYER1
 62
     4
100
AcDbDimension
  2
*D3
 10
118.072229
 20
150.0427629999999
 30
0.0
 11
117.572227
 21
141.5427699999999
 31
0.0
 70
     1
100
AcDbAlignedDimension
 13
128.3782889999999
 23
133.0427629999998
 33
0.0
 14
128.3782889999999
 24
150.0427629999999
 34
0.0
  0
DIMENSION
  5
10B
330
1E
100
AcDbEntity
  8
CSLAYER1
 62
     4
100
AcDbDimension
  2
*D4
 10
109.190258
 20
92.24276299999999
 30
0.0
 11
108.690254
 21
91.742439
 31
0.0
100
AcDbAlignedDimension
 13
147.622869
 23
75.242763
 33
0.0
 14
128.3782889999999
 24
92.24276299999999
 34
0.0
 50
90.0
100
AcDbRotatedDimension
  0
DIMENSION
  5
10C
330
1E
100
AcDbEntity
  8
CSLAYER1
 62
     4
100
AcDbDimension
  2
*D5
 10
150.0289249999999
 20
160.5427629999998
 30
0.0
 11
139.0464629999998
 21
145.3413389999998
 31
0.0
 70
     4
100
AcDbRadialDimension
 15
132.4360739999999
 25
130.285671
 35
0.0
 40
0.0
  0
POINT
  5
10E
330
1E
100
AcDbEntity
  8
CSLAYER1
 62
     3
100
AcDbPoint
 10
250.4999999999999
 20
43.5
 30
0.0
  0
POINT
  5
10F
330
1E
100
AcDbEntity
  8
CSLAYER1
 62
     3
100
AcDbPoint
 10
271.0
 20
43.5
 30
0.0
  0
POINT
  5
110
330
1E
100
AcDbEntity
  8
CSLAYER1
 62
     3
100
AcDbPoint
 10
271.0
 20
53.5
 30
0.0
  0
POINT
  5
111
330
1E
100
AcDbEntity
  8
CSLAYER1
 62
     3
100
AcDbPoint
 10
250.4999999999999
 20
53.5
 30
0.0
  0
TEXT
  5
112
330
1E
100
AcDbEntity
  8
CSLAYER1
 62
     3
100
AcDbText
 10
238.099985
 20
51.00000399999998
 30
0.0
 40
5.0
  1
刃開キハ
 41
1.11044776119403
  7
FX_FONT
 72
     5
 11
262.899985
 21
51.00000399999998
 31
0.0
100
AcDbText
  0
TEXT
  5
113
330
1E
100
AcDbEntity
  8
CSLAYER1
 62
     3
100
AcDbText
 10
237.999985
 20
41.00000399999998
 30
0.0
 40
5.0
  1
切刃部有効
 41
0.872093023255811
  7
FX_FONT
 72
     5
 11
262.9999849999999
 21
41.00000399999998
 31
0.0
100
AcDbText
  0
TEXT
  5
114
330
1E
100
AcDbEntity
  8
CSLAYER1
 62
     3
100
AcDbText
 10
268.5
 20
51.00000399999998
 30
0.0
 40
5.0
  1
7
 41
1.499999999999983
  7
FX_FONT
 72
     5
 11
273.4999999999999
 21
51.00000399999998
 31
0.0
100
AcDbText
  0
TEXT
  5
115
330
1E
100
AcDbEntity
  8
CSLAYER1
 62
     3
100
AcDbText
 10
266.0
 20
41.00000399999998
 30
0.0
 40
5.0
  1
18
 41
1.199999999999999
  7
FX_FONT
 72
     5
 11
276.0
 21
41.00000399999998
 31
0.0
100
AcDbText
  0
INSERT
  5
116
330
1E
100
AcDbEntity
  8
CSLAYER1
100
AcDbBlockReference
  2
FXDIM0002
 10
0.0
 20
0.0
 30
0.0
  0
INSERT
  5
117
330
1E
100
AcDbEntity
  8
CSLAYER1
100
AcDbBlockReference
  2
FXDIM0003
 10
0.0
 20
0.0
 30
0.0
  0
POINT
  5
118
330
1E
100
AcDbEntity
  8
CSLAYER1
 62
     3
100
AcDbPoint
 10
252.0
 20
19.0
 30
0.0
  0
TEXT
  5
119
330
1E
100
AcDbEntity
  8
CSLAYER1
 62
     3
100
AcDbText
 10
241.5
 20
17.25
 30
0.0
 40
3.5
  1
N30BBB
 41
1.058823529411764
  7
FX_FONT
 72
     5
 11
262.5
 21
17.25
 31
0.0
100
AcDbText
  0
LINE
  5
11A
330
1E
100
AcDbEntity
  8
CSLAYER1
  6
CONTINUOUS
 62
     3
100
AcDbLine
 10
279.0
 20
40.0
 30
0.0
 11
238.0
 21
40.0
 31
0.0
  0
LINE
  5
11B
330
1E
100
AcDbEntity
  8
CSLAYER1
  6
CONTINUOUS
 62
     3
100
AcDbLine
 10
238.0
 20
50.0
 30
0.0
 11
279.0
 21
50.0
 31
0.0
  0
LINE
  5
11C
330
1E
100
AcDbEntity
  8
CSLAYER1
  6
CONTINUOUS
 62
     3
100
AcDbLine
 10
248.378289
 20
140.0427629999998
 30
0.0
 11
180.103101
 21
140.0427629999998
 31
0.0
  0
LINE
  5
11D
330
1E
100
AcDbEntity
  8
CSLAYER1
  6
CONTINUOUS
 62
     3
100
AcDbLine
 10
180.650762
 20
140.0427629999998
 30
0.0
 11
176.217667
 21
125.542763
 31
0.0
  0
LINE
  5
11E
330
1E
100
AcDbEntity
  8
CSLAYER1
  6
CONTINUOUS
 62
     3
100
AcDbLine
 10
170.378289
 20
125.542763
 30
0.0
 11
184.3782889999999
 21
125.542763
 31
0.0
  0
LINE
  5
11F
330
1E
100
AcDbEntity
  8
CSLAYER1
  6
CONTINUOUS
 62
     3
100
AcDbLine
 10
184.3782889999999
 20
125.542763
 30
0.0
 11
236.940274
 21
128.006606
 31
0.0
  0
ARC
  5
120
330
1E
100
AcDbEntity
  8
CSLAYER1
  6
CONTINUOUS
 62
     3
100
AcDbCircle
 10
236.378391
 20
139.9934439999998
 30
0.0
 40
12.0
100
AcDbArc
 50
272.6837749999999
 51
0.235481
  0
LINE
  5
121
330
1E
100
AcDbEntity
  8
CSLAYER1
  6
CONTINUOUS
 62
     3
100
AcDbLine
 10
248.378289
 20
143.0427629999998
 30
0.0
 11
180.103101
 21
143.0427629999998
 31
0.0
  0
ARC
  5
122
330
1E
100
AcDbEntity
  8
CSLAYER1
  6
CONTINUOUS
 62
     3
100
AcDbCircle
 10
180.1782889999999
 20
142.242763
 30
0.0
 40
0.8
100
AcDbArc
 50
90.0
 51
180.0
  0
LINE
  5
123
330
1E
100
AcDbEntity
  8
CSLAYER1
  6
CONTINUOUS
 62
     3
100
AcDbLine
 10
179.3782889999999
 20
142.242763
 30
0.0
 11
179.3782889999999
 21
140.842763
 31
0.0
  0
ARC
  5
124
330
1E
100
AcDbEntity
  8
CSLAYER1
  6
CONTINUOUS
 62
     3
100
AcDbCircle
 10
180.1782889999999
 20
140.842763
 30
0.0
 40
0.8
100
AcDbArc
 50
180.0
 51
270.0
  0
CIRCLE
  5
125
330
1E
100
AcDbEntity
  8
CSLAYER1
  6
CONTINUOUS
 62
     3
100
AcDbCircle
 10
164.3782889999999
 20
141.5427629999999
 30
0.0
 40
9.55
  0
CIRCLE
  5
126
330
1E
100
AcDbEntity
  8
CSLAYER1
  6
CONTINUOUS
 62
     3
100
AcDbCircle
 10
164.3782889999999
 20
141.5427629999999
 30
0.0
 40
2.549999999999998
  0
ARC
  5
127
330
1E
100
AcDbEntity
  8
CSLAYER1
  6
CONTINUOUS
 62
     3
100
AcDbCircle
 10
164.3782889999999
 20
141.5427629999999
 30
0.0
 40
15.0
100
AcDbArc
 50
76.164594
 51
170.7161899999999
  0
LINE
  5
128
330
1E
100
AcDbEntity
  8
CSLAYER1
  6
CONTINUOUS
 62
     3
100
AcDbLine
 10
147.9948999999999
 20
142.679968
 30
0.0
 11
147.179727
 21
141.8647949999999
 31
0.0
  0
LINE
  5
129
330
1E
100
AcDbEntity
  8
CSLAYER1
  6
CONTINUOUS
 62
     3
100
AcDbLine
 10
128.3782889999999
 20
141.5427629999999
 30
0.0
 11
142.1670889999998
 21
141.5427629999999
 31
0.0
  0
LINE
  5
12A
330
1E
100
AcDbEntity
  8
CSLAYER1
  6
CONTINUOUS
 62
     3
100
AcDbLine
 10
142.1670889999998
 20
142.058251
 30
0.0
 11
142.1670889999998
 21
141.027275
 31
0.0
  0
LINE
  5
12B
330
1E
100
AcDbEntity
  8
CSLAYER1
  6
CONTINUOUS
 62
     3
100
AcDbLine
 10
142.1670889999998
 20
141.027275
 30
0.0
 11
146.1206149999999
 21
141.027275
 31
0.0
  0
ARC
  5
12C
330
1E
100
AcDbEntity
  8
CSLAYER1
  6
CONTINUOUS
 62
     3
100
AcDbCircle
 10
146.1206149999999
 20
144.5272749999999
 30
0.0
 40
3.5
100
AcDbArc
 50
270.0
 51
350.71619
  0
LINE
  5
12D
330
1E
100
AcDbEntity
  8
CSLAYER1
  6
CONTINUOUS
 62
     3
100
AcDbLine
 10
147.9948999999999
 20
142.679968
 30
0.0
 11
152.5389119999998
 21
157.5427629999999
 31
0.0
  0
ARC
  5
12E
330
1E
100
AcDbEntity
  8
CSLAYER1
  6
CONTINUOUS
 62
     3
100
AcDbCircle
 10
150.0289249999999
 20
122.5427629999999
 30
0.0
 40
35.0
100
AcDbArc
 50
90.0
 51
128.213211
  0
LINE
  5
12F
330
1E
100
AcDbEntity
  8
CSLAYER1
  6
CONTINUOUS
 62
     3
100
AcDbLine
 10
128.3782889999999
 20
150.0427629999999
 30
0.0
 11
128.3782889999999
 21
133.0427629999998
 31
0.0
  0
ARC
  5
130
330
1E
100
AcDbEntity
  8
CSLAYER1
  6
CONTINUOUS
 62
     3
100
AcDbCircle
 10
150.0289249999999
 20
160.5427629999998
 30
0.0
 40
35.0
100
AcDbArc
 50
231.7867889999999
 51
270.0
  0
LINE
  5
131
330
1E
100
AcDbEntity
  8
CSLAYER1
  6
CONTINUOUS
 62
     3
100
AcDbLine
 10
150.0289249999999
 20
125.542763
 30
0.0
 11
158.3782889999999
 21
125.542763
 31
0.0
  0
ARC
  5
132
330
1E
100
AcDbEntity
  8
CSLAYER1
  6
CONTINUOUS
 62
     3
100
AcDbCircle
 10
160.31302
 20
125.0359889999999
 30
0.0
 40
2.0
100
AcDbArc
 50
76.164594
 51
165.321979
  0
ARC
  5
133
330
1E
100
AcDbEntity
  8
CSLAYER1
  6
CONTINUOUS
 62
     3
100
AcDbCircle
 10
164.3782889999999
 20
141.5427629999999
 30
0.0
 40
15.0
100
AcDbArc
 50
256.164594
 51
0.0
  0
LINE
  5
134
330
1E
100
AcDbEntity
  8
CSLAYER1
  6
CONTINUOUS
 62
     3
100
AcDbLine
 10
184.3782889999999
 20
157.5427629999999
 30
0.0
 11
236.940274
 21
155.0789199999998
 31
0.0
  0
LINE
  5
135
330
1E
100
AcDbEntity
  8
CSLAYER1
  6
CONTINUOUS
 62
     3
100
AcDbLine
 10
234.378391
 20
143.0427629999998
 30
0.0
 11
234.378391
 21
140.0427629999998
 31
0.0
  0
LINE
  5
136
330
1E
100
AcDbEntity
  8
CSLAYER1
  6
CONTINUOUS
 62
     3
100
AcDbLine
 10
242.378391
 20
140.0427629999998
 30
0.0
 11
242.378391
 21
143.0427629999998
 31
0.0
  0
ARC
  5
137
330
1E
100
AcDbEntity
  8
CSLAYER1
  6
CONTINUOUS
 62
     3
100
AcDbCircle
 10
236.378391
 20
143.092082
 30
0.0
 40
12.0
100
AcDbArc
 50
359.764519
 51
87.31622500000002
  0
LINE
  5
138
330
1E
100
AcDbEntity
  8
CSLAYER1
  6
CONTINUOUS
 62
     3
100
AcDbLine
 10
184.3782889999999
 20
157.5427629999999
 30
0.0
 11
170.378289
 21
157.5427629999999
 31
0.0
  0
ARC
  5
139
330
1E
100
AcDbEntity
  8
CSLAYER1
  6
CONTINUOUS
 62
     3
100
AcDbCircle
 10
168.443559
 20
158.049537
 30
0.0
 40
2.0
100
AcDbArc
 50
256.164594
 51
345.3219789999998
  0
ARC
  5
13A
330
1E
100
AcDbEntity
  8
CSLAYER1
  6
CONTINUOUS
 62
     3
100
AcDbCircle
 10
160.31302
 20
158.049537
 30
0.0
 40
2.0
100
AcDbArc
 50
194.678021
 51
283.8354059999998
  0
LINE
  5
13B
330
1E
100
AcDbEntity
  8
CSLAYER1
  6
CONTINUOUS
 62
     3
100
AcDbLine
 10
158.3782889999999
 20
157.5427629999999
 30
0.0
 11
150.0289249999999
 21
157.5427629999999
 31
0.0
  0
ARC
  5
13C
330
1E
100
AcDbEntity
  8
CSLAYER1
  6
CONTINUOUS
 62
     3
100
AcDbCircle
 10
168.443559
 20
125.0359889999999
 30
0.0
 40
2.0
100
AcDbArc
 50
14.678021
 51
103.835406
  0
LINE
  5
13D
330
1E
100
AcDbEntity
  8
CSLAYER1
  6
CONTINUOUS
 62
     3
100
AcDbLine
 10
176.217667
 20
92.24276299999999
 30
0.0
 11
176.217667
 21
84.74276299999997
 31
0.0
  0
ARC
  5
13E
330
1E
100
AcDbEntity
  8
CSLAYER1
  6
CONTINUOUS
 62
     3
100
AcDbCircle
 10
175.217667
 20
84.74276299999997
 30
0.0
 40
1.0
100
AcDbArc
 50
270.0
 51
0.0
  0
LINE
  5
13F
330
1E
100
AcDbEntity
  8
CSLAYER1
  6
CONTINUOUS
 62
     3
100
AcDbLine
 10
175.217667
 20
83.742763
 30
0.0
 11
153.538912
 21
83.742763
 31
0.0
  0
ARC
  5
140
330
1E
100
AcDbEntity
  8
CSLAYER1
  6
CONTINUOUS
 62
     3
100
AcDbCircle
 10
153.538912
 20
82.742763
 30
0.0
 40
1.0
100
AcDbArc
 50
90.0
 51
180.0
  0
LINE
  5
141
330
1E
100
AcDbEntity
  8
CSLAYER1
  6
CONTINUOUS
 62
     3
100
AcDbLine
 10
152.5389119999998
 20
82.742763
 30
0.0
 11
152.5389119999998
 21
75.242763
 31
0.0
  0
LINE
  5
142
330
1E
100
AcDbEntity
  8
CSLAYER1
  6
PHANTOM
 62
     4
100
AcDbLine
 10
146.378289
 20
75.242763
 30
0.0
 11
142.1670889999998
 21
78.77638000000001
 31
0.0
  0
LINE
  5
143
330
1E
100
AcDbEntity
  8
CSLAYER1
  6
CONTINUOUS
 62
     3
100
AcDbLine
 10
128.3782889999999
 20
90.346557
 30
0.0
 11
128.3782889999999
 21
92.24276299999999
 31
0.0
  0
LINE
  5
144
330
1E
100
AcDbEntity
  8
CSLAYER1
  6
CONTINUOUS
 62
     3
100
AcDbLine
 10
128.3782889999999
 20
92.24276299999999
 30
0.0
 11
194.418289
 21
92.24276299999999
 31
0.0
  0
LINE
  5
145
330
1E
100
AcDbEntity
  8
CSLAYER1
  6
CONTINUOUS
 62
     3
100
AcDbLine
 10
194.3782889999999
 20
92.24276299999999
 30
0.0
 11
238.247868
 21
91.024164
 31
0.0
  0
ARC
  5
146
330
1E
100
AcDbEntity
  8
CSLAYER1
  6
CONTINUOUS
 62
     3
100
AcDbCircle
 10
237.914663
 20
79.02879099999998
 30
0.0
 40
12.0
100
AcDbArc
 50
36.10355999999999
 51
88.40886000000002
  0
ARC
  5
147
330
1E
100
AcDbEntity
  8
CSLAYER1
  6
CONTINUOUS
 62
     3
100
AcDbCircle
 10
244.378289
 20
83.742763
 30
0.0
 40
4.0
100
AcDbArc
 50
323.8964399999999
 51
36.10355999999999
  0
LINE
  5
148
330
1E
100
AcDbEntity
  8
CSLAYER1
  6
CONTINUOUS
 62
     3
100
AcDbLine
 10
238.247868
 20
76.46136300000001
 30
0.0
 11
194.3782889999999
 21
75.242763
 31
0.0
  0
LINE
  5
149
330
1E
100
AcDbEntity
  8
CSLAYER1
  6
CONTINUOUS
 62
     3
100
AcDbLine
 10
194.3782889999999
 20
75.242763
 30
0.0
 11
147.622869
 21
75.242763
 31
0.0
  0
LINE
  5
14A
330
1E
100
AcDbEntity
  8
CSLAYER1
  6
CONTINUOUS
 62
     3
100
AcDbLine
 10
142.1670889999998
 20
78.77638000000001
 30
0.0
 11
143.452665
 21
80.308468
 31
0.0
  0
LINE
  5
14B
330
1E
100
AcDbEntity
  8
CSLAYER1
  6
CONTINUOUS
 62
     3
100
AcDbLine
 10
143.452665
 20
80.308468
 30
0.0
 11
129.229926
 21
92.24276299999999
 31
0.0
  0
LINE
  5
14C
330
1E
100
AcDbEntity
  8
CSLAYER1
  6
CONTINUOUS
 62
     3
100
AcDbLine
 10
158.3782889999999
 20
92.24276299999999
 30
0.0
 11
158.3782889999999
 21
84.242763
 31
0.0
  0
ARC
  5
14D
330
1E
100
AcDbEntity
  8
CSLAYER1
  6
CONTINUOUS
 62
     3
100
AcDbCircle
 10
157.878289
 20
84.242763
 30
0.0
 40
0.5
100
AcDbArc
 50
270.0
 51
0.0
  0
LINE
  5
14E
330
1E
100
AcDbEntity
  8
CSLAYER1
  6
CONTINUOUS
 62
     3
100
AcDbLine
 10
170.378289
 20
83.24276299999999
 30
0.0
 11
170.378289
 21
75.242763
 31
0.0
  0
ARC
  5
14F
330
1E
100
AcDbEntity
  8
CSLAYER1
  6
CONTINUOUS
 62
     3
100
AcDbCircle
 10
170.8782889999999
 20
83.24276299999999
 30
0.0
 40
0.5
100
AcDbArc
 50
90.0
 51
180.0
  0
ARC
  5
150
330
1E
100
AcDbEntity
  8
CSLAYER1
  6
CONTINUOUS
 62
     3
100
AcDbCircle
 10
237.914663
 20
88.45673599999997
 30
0.0
 40
12.0
100
AcDbArc
 50
271.5911399999999
 51
323.8964399999998
  0
LINE
  5
151
330
1E
100
AcDbEntity
  8
CSLAYER1
  6
CONTINUOUS
 62
     3
100
AcDbLine
 10
78.477434
 20
128.0427629999999
 30
0.0
 11
64.977434
 21
141.5427629999999
 31
0.0
  0
LINE
  5
152
330
1E
100
AcDbEntity
  8
CSLAYER1
  6
CONTINUOUS
 62
     3
100
AcDbLine
 10
64.977434
 20
141.5427629999999
 30
0.0
 11
64.477434
 21
140.6767379999999
 31
0.0
  0
LINE
  5
153
330
1E
100
AcDbEntity
  8
CSLAYER1
  6
CONTINUOUS
 62
     3
100
AcDbLine
 10
66.477434
 20
125.542763
 30
0.0
 11
66.477434
 21
140.0427629999998
 31
0.0
  0
LINE
  5
154
330
1E
100
AcDbEntity
  8
CSLAYER1
  6
CONTINUOUS
 62
     3
100
AcDbLine
 10
65.477434
 20
141.5427629999999
 30
0.0
 11
78.477434
 21
154.5427629999998
 31
0.0
  0
LINE
  5
155
330
1E
100
AcDbEntity
  8
CSLAYER1
  6
CONTINUOUS
 62
     3
100
AcDbLine
 10
64.477434
 20
141.5427629999999
 30
0.0
 11
65.477434
 21
141.5427629999999
 31
0.0
  0
LINE
  5
156
330
1E
100
AcDbEntity
  8
CSLAYER1
  6
CONTINUOUS
 62
     3
100
AcDbLine
 10
66.477434
 20
142.5427629999999
 30
0.0
 11
66.477434
 21
157.5427629999999
 31
0.0
  0
LINE
  5
157
330
1E
100
AcDbEntity
  8
CSLAYER1
  6
CENTER
 62
     4
100
AcDbLine
 10
83.070865
 20
141.5427629999999
 30
0.0
 11
65.477434
 21
141.5427629999999
 31
0.0
  0
LINE
  5
158
330
1E
100
AcDbEntity
  8
CSLAYER1
  6
CENTER
 62
     4
100
AcDbLine
 10
64.477434
 20
141.5427629999999
 30
0.0
 11
61.124045
 21
141.5427629999999
 31
0.0
  0
LINE
  5
159
330
1E
100
AcDbEntity
  8
CSLAYER1
  6
CENTER
 62
     4
100
AcDbLine
 10
124.149671
 20
141.5427629999999
 30
0.0
 11
128.3782889999999
 21
141.5427629999999
 31
0.0
  0
LINE
  5
15A
330
1E
100
AcDbEntity
  8
CSLAYER1
  6
CENTER
 62
     4
100
AcDbLine
 10
164.3782889999999
 20
122.9154899999999
 30
0.0
 11
164.3782889999999
 21
160.7336719999999
 31
0.0
  0
LINE
  5
15B
330
1E
100
AcDbEntity
  8
CSLAYER1
  6
CENTER
 62
     4
100
AcDbLine
 10
142.1670889999998
 20
141.5427629999999
 30
0.0
 11
256.578289
 21
141.5427629999999
 31
0.0
  0
LINE
  5
15C
330
1E
100
AcDbEntity
  8
CSLAYER1
  6
CENTER
 62
     4
100
AcDbLine
 10
238.378391
 20
136.1185209999999
 30
0.0
 11
238.378391
 21
146.639733
 31
0.0
  0
LINE
  5
15D
330
1E
100
AcDbEntity
  8
CSLAYER1
  6
CENTER
 62
     4
100
AcDbLine
 10
187.378289
 20
151.5427629999998
 30
0.0
 11
187.378289
 21
131.5427629999998
 31
0.0
  0
LINE
  5
15E
330
1E
100
AcDbEntity
  8
CSLAYER1
  6
CENTER
 62
     4
100
AcDbLine
 10
164.3782889999999
 20
94.874884
 30
0.0
 11
164.3782889999999
 21
71.960945
 31
0.0
  0
LINE
  5
15F
330
1E
100
AcDbEntity
  8
CSLAYER1
  6
CENTER
 62
     4
100
AcDbLine
 10
175.217667
 20
83.742763
 30
0.0
 11
181.848886
 21
83.742763
 31
0.0
  0
LINE
  5
160
330
1E
100
AcDbEntity
  8
CSLAYER1
  6
CENTER
 62
     4
100
AcDbLine
 10
153.538912
 20
83.742763
 30
0.0
 11
147.8507229999999
 21
83.742763
 31
0.0
  0
LINE
  5
161
330
1E
100
AcDbEntity
  8
CSLAYER1
  6
CENTER
 62
     4
100
AcDbLine
 10
240.9759999999999
 20
83.56212499999998
 30
0.0
 11
248.3731689999999
 21
83.54043199999997
 31
0.0
  0
LINE
  5
162
330
1E
100
AcDbEntity
  8
CSLAYER1
  6
CENTER
 62
     4
100
AcDbLine
 10
248.3731689999999
 20
83.54043199999997
 30
0.0
 11
254.6934409999999
 21
83.54043199999997
 31
0.0
  0
LINE
  5
163
330
1E
100
AcDbEntity
  8
CSLAYER1
  6
CONTINUOUS
 62
     3
100
AcDbLine
 10
64.477434
 20
141.5427629999999
 30
0.0
 11
64.477434
 21
144.5427629999999
 31
0.0
  0
LINE
  5
164
330
1E
100
AcDbEntity
  8
CSLAYER1
  6
CONTINUOUS
 62
     3
100
AcDbLine
 10
64.477434
 20
140.6767379999999
 30
0.0
 11
64.477434
 21
138.5427629999999
 31
0.0
  0
LINE
  5
165
330
1E
100
AcDbEntity
  8
CSLAYER1
  6
CONTINUOUS
 62
     3
100
AcDbLine
 10
128.3782889999999
 20
140.091753
 30
0.0
 11
139.5806819999999
 21
130.69183
 31
0.0
  0
LINE
  5
166
330
1E
100
AcDbEntity
  8
CSLAYER1
  6
CONTINUOUS
 62
     3
100
AcDbLine
 10
141.8439009999999
 20
131.0908959999999
 30
0.0
 11
147.841946
 21
141.4798139999998
 31
0.0
  0
ARC
  5
167
330
1E
100
AcDbEntity
  8
CSLAYER1
  6
CONTINUOUS
 62
     3
100
AcDbCircle
 10
140.5448629999999
 20
131.8408959999999
 30
0.0
 40
1.5
100
AcDbArc
 50
230.0
 51
330.0
  0
ARC
  5
168
330
1E
100
AcDbEntity
  8
CSLAYER1
  6
CONTINUOUS
 62
     3
100
AcDbCircle
 10
140.5448629999999
 20
151.24463
 30
0.0
 40
1.5
100
AcDbArc
 50
30.0
 51
130.0
  0
LINE
  5
169
330
1E
100
AcDbEntity
  8
CSLAYER1
  6
CONTINUOUS
 62
     3
100
AcDbLine
 10
141.8439009999999
 20
151.9946299999999
 30
0.0
 11
147.504726
 21
142.189794
 31
0.0
  0
LINE
  5
16A
330
1E
100
AcDbEntity
  8
CSLAYER1
  6
CONTINUOUS
 62
     3
100
AcDbLine
 10
128.3782889999999
 20
142.9937729999998
 30
0.0
 11
139.5806819999999
 21
152.393696
 31
0.0
  0
LINE
  5
16B
330
1E
100
AcDbEntity
  8
CSLAYER1
  6
DASHED
 62
     4
100
AcDbLine
 10
147.8782889999999
 20
92.24276299999999
 30
0.0
 11
143.078637
 21
79.05582599999998
 31
0.0
  0
DIMENSION
  5
16C
330
1E
100
AcDbEntity
  8
CSLAYER1
 62
     4
100
AcDbDimension
  2
*D9
 10
126.378884
 20
59.960729
 30
0.0
 11
115.996109
 21
62.18338000000001
 31
0.0
 70
     1
100
AcDbAlignedDimension
 13
128.3782889999999
 23
90.346557
 33
0.0
 14
142.1670889999998
 24
78.77638000000001
 34
0.0
  0
ARC
  5
16D
330
1E
100
AcDbEntity
  8
CSLAYER1
  6
CONTINUOUS
 62
     3
100
AcDbCircle
 10
146.1206149999999
 20
138.558251
 30
0.0
 40
3.5
100
AcDbArc
 50
58.508498
 51
90.0
  0
LINE
  5
16E
330
1E
100
AcDbEntity
  8
CSLAYER1
  6
CONTINUOUS
 62
     3
100
AcDbLine
 10
142.1670889999998
 20
142.058251
 30
0.0
 11
146.1206149999999
 21
142.058251
 31
0.0
  0
LINE
  5
16F
330
1E
100
AcDbEntity
  8
CSLAYER1
  6
CONTINUOUS
 62
     3
100
AcDbLine
 10
142.1670889999998
 20
141.5427629999999
 30
0.0
 11
141.0395409999999
 21
130.424812
 31
0.0
  0
LINE
  5
170
330
1E
100
AcDbEntity
  8
CSLAYER1
  6
CONTINUOUS
 62
     3
100
AcDbLine
 10
142.1670889999998
 20
141.5427629999999
 30
0.0
 11
141.0395409999999
 21
152.6607139999998
 31
0.0
  0
LINE
  5
171
330
1E
100
AcDbEntity
  8
CSLAYER1
  6
CONTINUOUS
 62
     3
100
AcDbLine
 10
64.67743399999999
 20
138.5427629999999
 30
0.0
 11
64.477434
 21
138.5427629999999
 31
0.0
  0
LINE
  5
172
330
1E
100
AcDbEntity
  8
CSLAYER1
  6
CONTINUOUS
 62
     3
100
AcDbLine
 10
65.277434
 20
137.9427629999999
 30
0.0
 11
65.277434
 21
125.542763
 31
0.0
  0
ARC
  5
173
330
1E
100
AcDbEntity
  8
CSLAYER1
  6
CONTINUOUS
 62
     3
100
AcDbCircle
 10
64.67743399999999
 20
137.9427629999999
 30
0.0
 40
0.6
100
AcDbArc
 50
0.0
 51
90.0
  0
LINE
  5
174
330
1E
100
AcDbEntity
  8
CSLAYER1
  6
CONTINUOUS
 62
     3
100
AcDbLine
 10
64.67743399999999
 20
144.5427629999999
 30
0.0
 11
64.477434
 21
144.5427629999999
 31
0.0
  0
LINE
  5
175
330
1E
100
AcDbEntity
  8
CSLAYER1
  6
CONTINUOUS
 62
     3
100
AcDbLine
 10
65.277434
 20
145.1427629999999
 30
0.0
 11
65.277434
 21
157.5427629999999
 31
0.0
  0
ARC
  5
176
330
1E
100
AcDbEntity
  8
CSLAYER1
  6
CONTINUOUS
 62
     3
100
AcDbCircle
 10
64.67743399999999
 20
145.1427629999999
 30
0.0
 40
0.6
100
AcDbArc
 50
270.0
 51
0.0
  0
LINE
  5
177
330
1E
100
AcDbEntity
  8
CSLAYER1
  6
CONTINUOUS
 62
     3
100
AcDbLine
 10
147.622869
 20
75.242763
 30
0.0
 11
128.3782889999999
 21
91.39088200000001
 31
0.0
  0
LINE
  5
178
330
1E
100
AcDbEntity
  8
CSLAYER1
  6
CONTINUOUS
 62
     3
100
AcDbLine
 10
142.1670889999998
 20
78.77638000000001
 30
0.0
 11
128.3782889999999
 21
90.346557
 31
0.0
  0
DIMENSION
  5
179
330
1E
100
AcDbEntity
  8
CSLAYER1
 62
     4
100
AcDbDimension
  2
*D10
 10
164.3782889999999
 20
59.805348
 30
0.0
 11
155.378296
 21
60.305347
 31
0.0
 52
270.0
100
AcDbAlignedDimension
 13
146.378289
 23
75.242763
 33
0.0
 14
164.3782889999999
 24
71.960945
 34
0.0
100
AcDbRotatedDimension
  0
DIMENSION
  5
17A
330
1E
100
AcDbEntity
  8
CSLAYER1
 62
     4
100
AcDbDimension
  2
*D11
 10
164.3782889999999
 20
65.80534799999999
 30
0.0
 11
155.917526
 21
66.305351
 31
0.0
 52
270.0
100
AcDbAlignedDimension
 13
147.622869
 23
75.242763
 33
0.0
 14
164.3782889999999
 24
71.960945
 34
0.0
100
AcDbRotatedDimension
  0
LINE
  5
17B
330
1E
100
AcDbEntity
  8
CSLAYER1
  6
CONTINUOUS
 62
     3
100
AcDbLine
 10
65.277434
 20
157.5427629999999
 30
0.0
 11
78.477434
 21
157.5427629999999
 31
0.0
  0
LINE
  5
17C
330
1E
100
AcDbEntity
  8
CSLAYER1
  6
CONTINUOUS
 62
     3
100
AcDbLine
 10
65.277434
 20
125.542763
 30
0.0
 11
78.477434
 21
125.542763
 31
0.0
  0
LINE
  5
17D
330
1E
100
AcDbEntity
  8
CSLAYER1
  6
CONTINUOUS
 62
     3
100
AcDbLine
 10
78.477434
 20
154.5427629999998
 30
0.0
 11
78.477434
 21
157.5427629999999
 31
0.0
  0
LINE
  5
17E
330
1E
100
AcDbEntity
  8
CSLAYER1
  6
CONTINUOUS
 62
     3
100
AcDbLine
 10
78.477434
 20
128.0427629999999
 30
0.0
 11
78.477434
 21
125.542763
 31
0.0
  0
DIMENSION
  5
17F
330
1E
100
AcDbEntity
  8
CSLAYER1
 62
     4
100
AcDbDimension
  2
*D12
 10
57.35911
 20
144.5427629999999
 30
0.0
 11
56.859108
 21
135.590714
 31
0.0
 70
     1
100
AcDbAlignedDimension
 13
64.477434
 23
138.5427629999999
 33
0.0
 14
64.477434
 24
144.5427629999999
 34
0.0
  0
DIMENSION
  5
182
330
1E
100
AcDbEntity
  8
CSLAYER1
 62
     4
100
AcDbDimension
  2
*D15
 10
56.00243999999999
 20
151.017757
 30
0.0
 11
49.829239
 21
151.517776
 31
0.0
 70
     1
 52
135.0
100
AcDbAlignedDimension
 13
64.477434
 23
141.5427629999999
 33
0.0
 14
65.477434
 24
141.5427629999999
 34
0.0
  0
DIMENSION
  5
184
330
1E
100
AcDbEntity
  8
CSLAYER1
 62
     4
100
AcDbDimension
  2
*D17
 10
65.277434
 20
161.5779419999999
 30
0.0
 11
53.410519
 21
162.0779419999998
 31
0.0
100
AcDbAlignedDimension
 13
64.477434
 23
145.5427629999998
 33
0.0
 14
65.277434
 24
157.5427629999999
 34
0.0
100
AcDbRotatedDimension
  0
POINT
  5
185
330
1E
100
AcDbEntity
  8
CSLAYER1
 62
     3
100
AcDbPoint
 10
115.332237
 20
27.907895
 30
0.0
  0
INSERT
  5
186
330
1E
100
AcDbEntity
  8
CSLAYER1
100
AcDbBlockReference
  2
FXDIM0004
 10
0.0
 20
0.0
 30
0.0
  0
CIRCLE
  5
187
330
1E
100
AcDbEntity
  8
CSLAYER1
  6
CONTINUOUS
 62
     3
100
AcDbCircle
 10
115.332237
 20
27.907895
 30
0.0
 40
9.55
  0
CIRCLE
  5
188
330
1E
100
AcDbEntity
  8
CSLAYER1
  6
CONTINUOUS
 62
     3
100
AcDbCircle
 10
115.332237
 20
27.907895
 30
0.0
 40
2.549999999999998
  0
ARC
  5
189
330
1E
100
AcDbEntity
  8
CSLAYER1
  6
CONTINUOUS
 62
     3
100
AcDbCircle
 10
115.332237
 20
27.907895
 30
0.0
 40
15.0
100
AcDbArc
 50
81.74383
 51
176.2954259999999
  0
LINE
  5
18A
330
1E
100
AcDbEntity
  8
CSLAYER1
  6
CONTINUOUS
 62
     3
100
AcDbLine
 10
99.13702200000001
 20
30.63254199999999
 30
0.0
 11
98.24645700000001
 21
29.900483
 31
0.0
  0
LINE
  5
18B
330
1E
100
AcDbEntity
  8
CSLAYER1
  6
CONTINUOUS
 62
     3
100
AcDbLine
 10
79.50278
 20
31.407895
 30
0.0
 11
93.226258
 21
30.067317
 31
0.0
  0
LINE
  5
18C
330
1E
100
AcDbEntity
  8
CSLAYER1
  6
CONTINUOUS
 62
     3
100
AcDbLine
 10
93.27637499999999
 20
30.580363
 30
0.0
 11
93.226258
 21
30.067317
 31
0.0
  0
LINE
  5
18D
330
1E
100
AcDbEntity
  8
CSLAYER1
  6
CONTINUOUS
 62
     3
100
AcDbLine
 10
99.13702200000001
 20
30.63254199999999
 30
0.0
 11
105.1045019999999
 21
44.983148
 31
0.0
  0
ARC
  5
18E
330
1E
100
AcDbEntity
  8
CSLAYER1
  6
CONTINUOUS
 62
     3
100
AcDbCircle
 10
99.203627
 20
10.39298099999999
 30
0.0
 40
35.0
100
AcDbArc
 50
84.42076400000003
 51
122.6339749999999
  0
LINE
  5
18F
330
1E
100
AcDbEntity
  8
CSLAYER1
  6
CONTINUOUS
 62
     3
100
AcDbLine
 10
80.329169
 20
39.867628
 30
0.0
 11
79.50278
 21
31.407895
 31
0.0
  0
ARC
  5
190
330
1E
100
AcDbEntity
  8
CSLAYER1
  6
CONTINUOUS
 62
     3
100
AcDbCircle
 10
115.332237
 20
27.907895
 30
0.0
 40
15.0
100
AcDbArc
 50
261.7438299999999
 51
304.647186
  0
ARC
  5
191
330
1E
100
AcDbEntity
  8
CSLAYER1
  6
CONTINUOUS
 62
     3
100
AcDbCircle
 10
112.891051
 20
44.731706
 30
0.0
 40
2.0
100
AcDbArc
 50
189.098785
 51
278.25617
  0
LINE
  5
192
330
1E
100
AcDbEntity
  8
CSLAYER1
  6
CONTINUOUS
 62
     3
100
AcDbLine
 10
110.9162159999999
 20
44.41543099999999
 30
0.0
 11
102.606405
 21
45.227175
 31
0.0
  0
LINE
  5
193
330
1E
100
AcDbEntity
  8
CSLAYER1
  6
CONTINUOUS
 62
     3
100
AcDbLine
 10
47.73060599999999
 20
10.907895
 30
0.0
 11
34.230606
 21
24.407895
 31
0.0
  0
LINE
  5
194
330
1E
100
AcDbEntity
  8
CSLAYER1
  6
CONTINUOUS
 62
     3
100
AcDbLine
 10
34.230606
 20
24.407895
 30
0.0
 11
33.730606
 21
23.541869
 31
0.0
  0
LINE
  5
195
330
1E
100
AcDbEntity
  8
CSLAYER1
  6
CONTINUOUS
 62
     3
100
AcDbLine
 10
35.730606
 20
8.407894999999998
 30
0.0
 11
35.730606
 21
22.907895
 31
0.0
  0
LINE
  5
196
330
1E
100
AcDbEntity
  8
CSLAYER1
  6
CONTINUOUS
 62
     3
100
AcDbLine
 10
34.730606
 20
31.407895
 30
0.0
 11
47.73060599999999
 21
44.407895
 31
0.0
  0
LINE
  5
197
330
1E
100
AcDbEntity
  8
CSLAYER1
  6
CONTINUOUS
 62
     3
100
AcDbLine
 10
33.730606
 20
31.407895
 30
0.0
 11
34.730606
 21
31.407895
 31
0.0
  0
LINE
  5
198
330
1E
100
AcDbEntity
  8
CSLAYER1
  6
CONTINUOUS
 62
     3
100
AcDbLine
 10
35.730606
 20
32.407895
 30
0.0
 11
35.730606
 21
47.407895
 31
0.0
  0
LINE
  5
199
330
1E
100
AcDbEntity
  8
CSLAYER1
  6
CENTER
 62
     4
100
AcDbLine
 10
52.32403699999998
 20
27.907895
 30
0.0
 11
28.963138
 21
27.907895
 31
0.0
  0
LINE
  5
19A
330
1E
100
AcDbEntity
  8
CSLAYER1
  6
CENTER
 62
     4
100
AcDbLine
 10
115.332237
 20
9.280621999999999
 30
0.0
 11
115.332237
 21
47.098804
 31
0.0
  0
LINE
  5
19B
330
1E
100
AcDbEntity
  8
CSLAYER1
  6
CENTER
 62
     4
100
AcDbLine
 10
76.09864
 20
27.907895
 30
0.0
 11
129.0440669999999
 21
27.907895
 31
0.0
  0
LINE
  5
19C
330
1E
100
AcDbEntity
  8
CSLAYER1
  6
CONTINUOUS
 62
     3
100
AcDbLine
 10
33.730606
 20
31.407895
 30
0.0
 11
33.730606
 21
34.407895
 31
0.0
  0
LINE
  5
19D
330
1E
100
AcDbEntity
  8
CSLAYER1
  6
CONTINUOUS
 62
     3
100
AcDbLine
 10
33.730606
 20
23.541869
 30
0.0
 11
33.730606
 21
21.40789499999999
 31
0.0
  0
ARC
  5
19E
330
1E
100
AcDbEntity
  8
CSLAYER1
  6
CONTINUOUS
 62
     3
100
AcDbCircle
 10
92.554954
 20
39.88093899999999
 30
0.0
 40
1.5
100
AcDbArc
 50
24.420764
 51
124.4207639999999
  0
LINE
  5
19F
330
1E
100
AcDbEntity
  8
CSLAYER1
  6
CONTINUOUS
 62
     3
100
AcDbLine
 10
93.920755
 20
40.50109099999999
 30
0.0
 11
98.60151399999999
 21
30.192346
 31
0.0
  0
LINE
  5
1A0
330
1E
100
AcDbEntity
  8
CSLAYER1
  6
CONTINUOUS
 62
     3
100
AcDbLine
 10
79.64385
 20
32.85203099999999
 30
0.0
 11
91.70705500000002
 21
41.11830199999999
 31
0.0
  0
ARC
  5
1A1
330
1E
100
AcDbEntity
  8
CSLAYER1
  6
CONTINUOUS
 62
     3
100
AcDbCircle
 10
96.87089300000003
 20
26.712573
 30
0.0
 40
3.5
100
AcDbArc
 50
19.969535
 51
84.42076400000003
  0
LINE
  5
1A2
330
1E
100
AcDbEntity
  8
CSLAYER1
  6
CONTINUOUS
 62
     3
100
AcDbLine
 10
93.27637499999999
 20
30.580363
 30
0.0
 11
97.211171
 21
30.19599299999999
 31
0.0
  0
LINE
  5
1A3
330
1E
100
AcDbEntity
  8
CSLAYER1
  6
CONTINUOUS
 62
     3
100
AcDbLine
 10
93.226258
 20
30.067317
 30
0.0
 11
93.18496299999999
 21
41.24222099999999
 31
0.0
  0
LINE
  5
1A4
330
1E
100
AcDbEntity
  8
CSLAYER1
  6
CONTINUOUS
 62
     3
100
AcDbLine
 10
33.930606
 20
21.40789499999999
 30
0.0
 11
33.730606
 21
21.40789499999999
 31
0.0
  0
LINE
  5
1A5
330
1E
100
AcDbEntity
  8
CSLAYER1
  6
CONTINUOUS
 62
     3
100
AcDbLine
 10
34.530606
 20
20.807895
 30
0.0
 11
34.530606
 21
8.407894999999998
 31
0.0
  0
ARC
  5
1A6
330
1E
100
AcDbEntity
  8
CSLAYER1
  6
CONTINUOUS
 62
     3
100
AcDbCircle
 10
33.930606
 20
20.807895
 30
0.0
 40
0.6
100
AcDbArc
 50
0.0
 51
90.0
  0
LINE
  5
1A7
330
1E
100
AcDbEntity
  8
CSLAYER1
  6
CONTINUOUS
 62
     3
100
AcDbLine
 10
33.930606
 20
34.407895
 30
0.0
 11
33.730606
 21
34.407895
 31
0.0
  0
LINE
  5
1A8
330
1E
100
AcDbEntity
  8
CSLAYER1
  6
CONTINUOUS
 62
     3
100
AcDbLine
 10
34.530606
 20
35.00789499999999
 30
0.0
 11
34.530606
 21
47.407895
 31
0.0
  0
ARC
  5
1A9
330
1E
100
AcDbEntity
  8
CSLAYER1
  6
CONTINUOUS
 62
     3
100
AcDbCircle
 10
33.930606
 20
35.00789499999999
 30
0.0
 40
0.6
100
AcDbArc
 50
270.0
 51
0.0
  0
LINE
  5
1AA
330
1E
100
AcDbEntity
  8
CSLAYER1
  6
CONTINUOUS
 62
     3
100
AcDbLine
 10
34.530606
 20
47.407895
 30
0.0
 11
47.73060599999999
 21
47.407895
 31
0.0
  0
LINE
  5
1AB
330
1E
100
AcDbEntity
  8
CSLAYER1
  6
CONTINUOUS
 62
     3
100
AcDbLine
 10
34.530606
 20
8.407894999999998
 30
0.0
 11
47.73060599999999
 21
8.407894999999998
 31
0.0
  0
LINE
  5
1AC
330
1E
100
AcDbEntity
  8
CSLAYER1
  6
CONTINUOUS
 62
     3
100
AcDbLine
 10
47.73060599999999
 20
44.407895
 30
0.0
 11
47.73060599999999
 21
47.407895
 31
0.0
  0
LINE
  5
1AD
330
1E
100
AcDbEntity
  8
CSLAYER1
  6
CONTINUOUS
 62
     3
100
AcDbLine
 10
47.73060599999999
 20
10.907895
 30
0.0
 11
47.73060599999999
 21
8.407894999999998
 31
0.0
  0
LINE
  5
1AE
330
1E
100
AcDbEntity
  8
CSLAYER1
  6
CONTINUOUS
 62
     3
100
AcDbLine
 10
79.50278
 20
24.407895
 30
0.0
 11
93.226258
 21
25.748473
 31
0.0
  0
LINE
  5
1AF
330
1E
100
AcDbEntity
  8
CSLAYER1
  6
CONTINUOUS
 62
     3
100
AcDbLine
 10
93.27637499999999
 20
25.235426
 30
0.0
 11
93.226258
 21
25.748473
 31
0.0
  0
ARC
  5
1B0
330
1E
100
AcDbEntity
  8
CSLAYER1
  6
CONTINUOUS
 62
     3
100
AcDbCircle
 10
99.203627
 20
45.422809
 30
0.0
 40
35.0
100
AcDbArc
 50
237.366025
 51
275.579236
  0
LINE
  5
1B1
330
1E
100
AcDbEntity
  8
CSLAYER1
  6
CONTINUOUS
 62
     3
100
AcDbLine
 10
80.329169
 20
15.948162
 30
0.0
 11
79.50278
 21
24.407895
 31
0.0
  0
ARC
  5
1B2
330
1E
100
AcDbEntity
  8
CSLAYER1
  6
CONTINUOUS
 62
     3
100
AcDbCircle
 10
112.891051
 20
11.08408399999998
 30
0.0
 40
2.0
100
AcDbArc
 50
81.74383
 51
170.9012149999999
  0
LINE
  5
1B3
330
1E
100
AcDbEntity
  8
CSLAYER1
  6
CONTINUOUS
 62
     3
100
AcDbLine
 10
110.9162159999999
 20
11.400358
 30
0.0
 11
102.606405
 21
10.588614
 31
0.0
  0
ARC
  5
1B4
330
1E
100
AcDbEntity
  8
CSLAYER1
  6
CONTINUOUS
 62
     3
100
AcDbCircle
 10
92.554954
 20
15.93485
 30
0.0
 40
1.5
100
AcDbArc
 50
235.5792359999999
 51
335.5792359999998
  0
LINE
  5
1B5
330
1E
100
AcDbEntity
  8
CSLAYER1
  6
CONTINUOUS
 62
     3
100
AcDbLine
 10
93.920755
 20
15.314698
 30
0.0
 11
98.88035100000001
 21
26.23754299999999
 31
0.0
  0
LINE
  5
1B6
330
1E
100
AcDbEntity
  8
CSLAYER1
  6
CONTINUOUS
 62
     3
100
AcDbLine
 10
79.64385
 20
22.963759
 30
0.0
 11
91.70705500000002
 21
14.697487
 31
0.0
  0
ARC
  5
1B7
330
1E
100
AcDbEntity
  8
CSLAYER1
  6
CONTINUOUS
 62
     3
100
AcDbCircle
 10
96.87089300000003
 20
29.10321599999999
 30
0.0
 40
3.5
100
AcDbArc
 50
275.579236
 51
356.2954259999998
  0
LINE
  5
1B8
330
1E
100
AcDbEntity
  8
CSLAYER1
  6
CONTINUOUS
 62
     3
100
AcDbLine
 10
93.27637499999999
 20
25.235426
 30
0.0
 11
97.211171
 21
25.619797
 31
0.0
  0
LINE
  5
1B9
330
1E
100
AcDbEntity
  8
CSLAYER1
  6
CONTINUOUS
 62
     3
100
AcDbLine
 10
93.226258
 20
25.748473
 30
0.0
 11
93.18496299999999
 21
14.573568
 31
0.0
  0
ARC
  5
1BA
330
1E
100
AcDbEntity
  8
CSLAYER1
  6
CONTINUOUS
 62
     3
100
AcDbCircle
 10
117.7734229999999
 20
44.731706
 30
0.0
 40
2.0
100
AcDbArc
 50
261.7438299999999
 51
350.9012149999998
  0
LINE
  5
1BB
330
1E
100
AcDbEntity
  8
CSLAYER1
  6
CONTINUOUS
 62
     3
100
AcDbLine
 10
119.748257
 20
44.41543099999999
 30
0.0
 11
122.114461
 21
44.646574
 31
0.0
  0
DIMENSION
  5
1BC
330
1E
100
AcDbEntity
  8
CSLAYER1
 62
     4
100
AcDbDimension
  2
*D19
 10
69.53641800000001
 20
31.407895
 30
0.0
 11
69.036415
 21
27.90789399999999
 31
0.0
 70
     1
100
AcDbAlignedDimension
 13
79.50278
 23
24.407895
 33
0.0
 14
79.50278
 24
31.407895
 34
0.0
  0
LINE
  5
1BD
330
1E
100
AcDbEntity
  8
CSLAYER1
  6
DOT
 62
     3
100
AcDbLine
 10
4.0
 20
1.0
 30
0.0
 11
283.0
 21
1.0
 31
0.0
  0
LINE
  5
1BE
330
1E
100
AcDbEntity
  8
CSLAYER1
  6
DOT
 62
     3
100
AcDbLine
 10
283.0
 20
1.0
 30
0.0
 11
283.0
 21
195.0
 31
0.0
  0
LINE
  5
1BF
330
1E
100
AcDbEntity
  8
CSLAYER1
  6
DOT
 62
     3
100
AcDbLine
 10
4.0
 20
195.0
 30
0.0
 11
4.0
 21
1.0
 31
0.0
  0
LINE
  5
1C0
330
1E
100
AcDbEntity
  8
CSLAYER1
  6
DOT
 62
     3
100
AcDbLine
 10
4.0
 20
98.0
 30
0.0
 11
0.0
 21
98.0
 31
0.0
  0
LINE
  5
1C1
330
1E
100
AcDbEntity
  8
CSLAYER1
  6
DOT
 62
     3
100
AcDbLine
 10
143.5
 20
195.0
 30
0.0
 11
143.5
 21
199.0
 31
0.0
  0
LINE
  5
1C2
330
1E
100
AcDbEntity
  8
CSLAYER1
  6
DOT
 62
     3
100
AcDbLine
 10
4.0
 20
195.0
 30
0.0
 11
283.0
 21
195.0
 31
0.0
  0
LINE
  5
218
330
1E
100
AcDbEntity
  8
CSLAYER1
 62
     4
100
AcDbLine
 10
64.477434
 20
144.6052629999998
 30
0.0
 11
64.47743400000007
 21
162.5779419999998
 31
0.0
  0
ENDSEC
  0
SECTION
  2
OBJECTS
  0
DICTIONARY
  5
C
330
0
100
AcDbDictionary
  3
ACAD_GROUP
350
D
  3
ACAD_LAYOUT
350
19
  3
ACAD_MLINESTYLE
350
16
  3
ACAD_PLOTSETTINGS
350
18
1001
ACAD
1000
TREAT_AS_HARD
1070
     0
1000
TREAT_AS_HARD
1070
     0
  0
DICTIONARY
  5
1CC
330
1E
100
AcDbDictionary
  3
ACAD_LAYOUTSELFREF
350
220
1001
ACAD
1000
TREAT_AS_HARD
1070
     0
  0
DICTIONARY
  5
1CA
330
1A
100
AcDbDictionary
  3
ACAD_LAYOUTSELFREF
350
21F
1001
ACAD
1000
TREAT_AS_HARD
1070
     0
  0
DICTIONARY
  5
D
102
{ACAD_REACTORS
330
C
102
}
330
C
100
AcDbDictionary
1001
ACAD
1000
TREAT_AS_HARD
1070
     0
1000
TREAT_AS_HARD
1070
     0
  0
DICTIONARY
  5
19
102
{ACAD_REACTORS
330
C
102
}
330
C
100
AcDbDictionary
1001
ACAD
1000
TREAT_AS_HARD
1070
     0
1000
TREAT_AS_HARD
1070
     0
  0
DICTIONARY
  5
16
102
{ACAD_REACTORS
330
C
102
}
330
C
100
AcDbDictionary
  3
STANDARD
350
17
1001
ACAD
1000
TREAT_AS_HARD
1070
     0
1000
TREAT_AS_HARD
1070
     0
  0
DICTIONARY
  5
18
102
{ACAD_REACTORS
330
C
102
}
330
C
100
AcDbDictionary
1001
ACAD
1000
TREAT_AS_HARD
1070
     0
1000
TREAT_AS_HARD
1070
     0
  0
XRECORD
  5
220
102
{ACAD_REACTORS
330
1CC
102
}
330
1CC
100
AcDbXrecord
340
1E
  0
XRECORD
  5
21F
102
{ACAD_REACTORS
330
1CA
102
}
330
1CA
100
AcDbXrecord
340
1A
  0
MLINESTYLE
  5
17
102
{ACAD_REACTORS
330
16
102
}
330
16
100
AcDbMlineStyle
  2
STANDARD
 70
     0
  3

 62
   256
 51
90.0
 52
90.0
 71
     2
 49
0.5
 62
   256
  6
BYLAYER
 49
-0.5
 62
   256
  6
BYLAYER
  0
ENDSEC
  0
EOF
