  0
SECTION
  2
HEADER
  9
$ACADVER
  1
AC1006
  9
$INSBASE
 10
0.000000
 20
0.000000
 30
0.0
  9
$EXTMIN
 10
0.000000
 20
0.000000
  9
$EXTMAX
 10
420.000000
 20
297.000000
  9
$LIMMIN
 10
0.000000
 20
0.000000
  9
$LIMMAX
 10
420.000000
 20
297.000000
  9
$VIEWCTR
 10
210.000000
 20
148.500000
  9
$VIEWSIZE
 40
297.000000
  9
$SNAPMODE
 70
     0
  9
$SNAPUNIT
 10
1.0
 20
1.0
  9
$SNAPBASE
 10
0.0
 20
0.0
  9
$SNAPANG
 50
0.0
  9
$SNAPSTYLE
 70
     0
  9
$SNAPISOPAIR
 70
     0
  9
$GRIDMODE
 70
     0
  9
$GRIDUNIT
 10
0.0
 20
0.0
  9
$ORTHOMODE
 70
     0
  9
$REGENMODE
 70
     1
  9
$FILLMODE
 70
     1
  9
$QTEXTMODE
 70
     0
  9
$DRAGMODE
 70
     2
  9
$LTSCALE
 40
15.000000
  9
$OSMODE
 70
     0
  9
$ATTMODE
 70
     1
  9
$TEXTSIZE
 40
0.2
  9
$TRACEWID
 40
0.05
  9
$TEXTSTYLE
  7
STANDARD
  9
$CLAYER
  8
CSLAYER1
  9
$CELTYPE
  6
BYLAYER
  9
$CECOLOR
 62
   256
  9
$DIMSCALE
 40
1.0
  9
$DIMASZ
 40
0.18
  9
$DIMEXO
 40
0.0625
  9
$DIMDLI
 40
0.38
  9
$DIMRND
 40
0.0
  9
$DIMDLE
 40
0.0
  9
$DIMEXE
 40
0.18
  9
$DIMTP
 40
0.0
  9
$DIMTM
 40
0.0
  9
$DIMTXT
 40
0.18
  9
$DIMCEN
 40
0.09
  9
$DIMTSZ
 40
0.0
  9
$DIMTOL
 70
     0
  9
$DIMLIM
 70
     0
  9
$DIMTIH
 70
     1
  9
$DIMTOH
 70
     1
  9
$DIMSE1
 70
     0
  9
$DIMSE2
 70
     0
  9
$DIMTAD
 70
     0
  9
$DIMZIN
 70
     0
  9
$DIMBLK
  1

  9
$LUNITS
 70
     2
  9
$LUPREC
 70
     4
  9
$AXISMODE
 70
     0
  9
$AXISUNIT
 10
0.0
 20
0.0
  9
$SKETCHINC
 40
0.1
  9
$FILLETRAD
 40
0.0
  9
$AUNITS
 70
     0
  9
$AUPREC
 70
     0
  9
$MENU
  1
ACAD
  9
$ELEVATION
 40
0.0
  9
$THICKNESS
 40
0.0
  9
$VIEWDIR
 10
0.0
 20
0.0
 30
1.0
  9
$LIMCHECK
 70
     0
  9
$BLIPMODE
 70
     1
  9
$CHAMFERA
 40
0.0
  9
$CHAMFERB
 40
0.0
  9
$FASTZOOM
 70
     1
  9
$SKPOLY
 70
     0
  9
$TDCREATE
 40
2452062.000000
  9
$TDUPDATE
 40
2452438.000000
  9
$TDINDWG
 40
0.0
  9
$TDUSRTIMER
 40
0.0
  9
$USRTIMER
 70
     1
  9
$ANGBASE
 50
0.0
  9
$ANGDIR
 70
     0
  9
$PDMODE
 70
     0
  9
$PDSIZE
 40
0.0
  9
$PLINEWID
 40
0.0
  9
$COORDS
 70
     0
  9
$USERI1
 70
     0
  9
$USERI2
 70
     0
  9
$USERI3
 70
     0
  9
$USERI4
 70
     0
  9
$USERI5
 70
     0
  9
$USERR1
 40
0.0
  9
$USERR2
 40
0.0
  9
$USERR3
 40
0.0
  9
$USERR4
 40
0.0
  9
$USERR5
 40
0.0
  0
ENDSEC
  0
SECTION
  2
TABLES
  0
TABLE
  2
LTYPE
 70
     9
  0
LTYPE
  2
CONTINUOUS
 70
    64
  3
Solid line
 72
    65
 73
     0
 40
0.0
  0
LTYPE
  2
DASHED
 70
    64
  3
__ __ __ __ __ __ __ __ __ __ __ __ __ __ __
 72
    65
 73
     2
 40
0.75
 49
0.5
 49
-0.25
  0
LTYPE
  2
HIDDEN
 70
    64
  3
_ _ _ _ _ _ _ _ _ _ _ _ _ _ _ _ _ _ _ _ _ _ _
 72
    65
 73
     2
 40
0.375
 49
0.25
 49
-0.125
  0
LTYPE
  2
DOT
 70
    64
  3
...............................................
 72
    65
 73
     2
 40
0.25
 49
0.0
 49
-0.25
  0
LTYPE
  2
DASHDOT
 70
    64
  3
__ . __ . __ . __ . __ . __ . __ . __ . __ . __
 72
    65
 73
     4
 40
1.0
 49
0.5
 49
-0.25
 49
0.0
 49
-0.25
  0
LTYPE
  2
DIVIDE
 70
    64
  3
__ . . __ . . __ . . __ . . __ . . __ . . __
 72
    65
 73
     6
 40
1.25
 49
0.5
 49
-0.25
 49
0.0
 49
-0.25
 49
0.0
 49
-0.25
  0
LTYPE
  2
CENTER
 70
    64
  3
____ _ ____ _ ____ _ ____ _ ____ _ ____ _ ____ 
 72
    65
 73
     4
 40
2.0
 49
1.25
 49
-0.25
 49
0.25
 49
-0.25
  0
LTYPE
  2
PHANTOM
 70
    64
  3
______  __  __  ______  __  __  ______  __  __ 
 72
    65
 73
     6
 40
2.5
 49
1.25
 49
-0.25
 49
0.25
 49
-0.25
 49
0.25
 49
-0.25
  0
LTYPE
  2
BORDER
 70
    64
  3
__ __ . __ __ . __ __ . __ __ . __ __ . __ __ .
 72
    65
 73
     6
 40
1.75
 49
0.5
 49
-0.25
 49
0.5
 49
-0.25
 49
0.0
 49
-0.25
  0
ENDTAB
  0
TABLE
  2
LAYER
 70
    16
  0
LAYER
  2
CSLAYER1
 70
    64
 62
     7
  6
CONTINUOUS
  0
LAYER
  2
CSLAYER2
 70
    64
 62
     7
  6
CONTINUOUS
  0
LAYER
  2
CSLAYER3
 70
    64
 62
     7
  6
CONTINUOUS
  0
LAYER
  2
CSLAYER4
 70
    64
 62
     7
  6
CONTINUOUS
  0
LAYER
  2
CSLAYER5
 70
    64
 62
     7
  6
CONTINUOUS
  0
LAYER
  2
CSLAYER6
 70
    64
 62
     7
  6
CONTINUOUS
  0
LAYER
  2
CSLAYER7
 70
    64
 62
     7
  6
CONTINUOUS
  0
LAYER
  2
CSLAYER8
 70
    64
 62
     7
  6
CONTINUOUS
  0
LAYER
  2
CSLAYER9
 70
    64
 62
     7
  6
CONTINUOUS
  0
LAYER
  2
CSLAYER10
 70
    64
 62
     7
  6
CONTINUOUS
  0
LAYER
  2
CSLAYER11
 70
    64
 62
     7
  6
CONTINUOUS
  0
LAYER
  2
CSLAYER12
 70
    64
 62
     7
  6
CONTINUOUS
  0
LAYER
  2
CSLAYER13
 70
    64
 62
     7
  6
CONTINUOUS
  0
LAYER
  2
CSLAYER14
 70
    64
 62
     7
  6
CONTINUOUS
  0
LAYER
  2
CSLAYER15
 70
    64
 62
     7
  6
CONTINUOUS
  0
LAYER
  2
CSLAYER16
 70
    64
 62
     7
  6
CONTINUOUS
  0
ENDTAB
  0
TABLE
  2
STYLE
 70
     1
  0
STYLE
  2
FX_FONT
 70
     0
 40
1.0
 41
1.0
 50
0.0
 71
     0
 42
1.0
  3
monotxt
  4
bigfont
  0
ENDTAB
  0
TABLE
  2
VIEW
 70
     0
  0
ENDTAB
  0
ENDSEC
  0
SECTION
  2
BLOCKS
  0
BLOCK
  8
CSLAYER1
  2
*D0000
 70
    65
 10
0.0
 20
0.0
 30
0.0
  0
TEXT
  8
CSLAYER1
 62
     4
 10
176.340442
 20
240.208618
 40
3.200000
 41
1.125000
  1
145
 50
0.000000
 51
15.000000
  7
FX_FONT
 72
     5
 11
185.940442
 21
240.208618
  0
LINE
  8
CSLAYER1
  6
CONTINUOUS
 62
     4
 10
108.640447
 20
239.708618
 11
253.640447
 21
239.708618
  0
LINE
  8
CSLAYER1
  6
CONTINUOUS
 62
     4
 10
108.640447
 20
239.708618
 11
111.538225
 21
240.485075
  0
LINE
  8
CSLAYER1
  6
CONTINUOUS
 62
     4
 10
108.640447
 20
239.708618
 11
111.538225
 21
238.932161
  0
LINE
  8
CSLAYER1
  6
CONTINUOUS
 62
     4
 10
253.640447
 20
239.708618
 11
250.742670
 21
240.485075
  0
LINE
  8
CSLAYER1
  6
CONTINUOUS
 62
     4
 10
253.640447
 20
239.708618
 11
250.742670
 21
238.932161
  0
LINE
  8
CSLAYER1
  6
CONTINUOUS
 62
     4
 10
108.640447
 20
196.973493
 11
108.640447
 21
240.708618
  0
LINE
  8
CSLAYER1
  6
CONTINUOUS
 62
     4
 10
253.640447
 20
213.973493
 11
253.640447
 21
240.708618
  0
ENDBLK
  8
0
  0
BLOCK
  8
CSLAYER1
  2
*D0001
 70
    65
 10
0.0
 20
0.0
 30
0.0
  0
TEXT
  8
CSLAYER1
 62
     4
 10
270.440442
 20
240.208618
 40
3.200000
 41
1.200000
  1
40
 50
0.000000
 51
15.000000
  7
FX_FONT
 72
     5
 11
276.840442
 21
240.208618
  0
LINE
  8
CSLAYER1
  6
CONTINUOUS
 62
     4
 10
253.640447
 20
239.708618
 11
293.640447
 21
239.708618
  0
LINE
  8
CSLAYER1
  6
CONTINUOUS
 62
     4
 10
253.640447
 20
239.708618
 11
256.538225
 21
240.485075
  0
LINE
  8
CSLAYER1
  6
CONTINUOUS
 62
     4
 10
253.640447
 20
239.708618
 11
256.538225
 21
238.932161
  0
LINE
  8
CSLAYER1
  6
CONTINUOUS
 62
     4
 10
293.640447
 20
239.708618
 11
290.742670
 21
240.485075
  0
LINE
  8
CSLAYER1
  6
CONTINUOUS
 62
     4
 10
293.640447
 20
239.708618
 11
290.742670
 21
238.932161
  0
LINE
  8
CSLAYER1
  6
CONTINUOUS
 62
     4
 10
293.640447
 20
197.973493
 11
293.640447
 21
240.708618
  0
ENDBLK
  8
0
  0
BLOCK
  8
CSLAYER1
  2
*D0002
 70
    65
 10
0.0
 20
0.0
 30
0.0
  0
TEXT
  8
CSLAYER1
 62
     4
 10
108.855722
 20
235.104507
 40
3.200000
 41
1.090909
  1
10.5
 50
0.000000
 51
15.000000
  7
FX_FONT
 72
     5
 11
121.655722
 21
235.104507
  0
LINE
  8
CSLAYER1
  6
CONTINUOUS
 62
     4
 10
108.640447
 20
233.708618
 11
119.140447
 21
233.708618
  0
LINE
  8
CSLAYER1
  6
CONTINUOUS
 62
     4
 10
119.140447
 20
206.509906
 11
119.140447
 21
234.708618
  0
LINE
  8
CSLAYER1
  6
CONTINUOUS
 62
     4
 10
105.640447
 20
233.708618
 11
108.640447
 21
233.708618
  0
LINE
  8
CSLAYER1
  6
CONTINUOUS
 62
     4
 10
108.640447
 20
233.708618
 11
105.742670
 21
234.485075
  0
LINE
  8
CSLAYER1
  6
CONTINUOUS
 62
     4
 10
108.640447
 20
233.708618
 11
105.742670
 21
232.932161
  0
LINE
  8
CSLAYER1
  6
CONTINUOUS
 62
     4
 10
119.140447
 20
233.708618
 11
122.140447
 21
233.708618
  0
LINE
  8
CSLAYER1
  6
CONTINUOUS
 62
     4
 10
119.140447
 20
233.708618
 11
122.038225
 21
234.485075
  0
LINE
  8
CSLAYER1
  6
CONTINUOUS
 62
     4
 10
119.140447
 20
233.708618
 11
122.038225
 21
232.932161
  0
ENDBLK
  8
0
  0
BLOCK
  8
CSLAYER1
  2
*D0003
 70
    65
 10
0.0
 20
0.0
 30
0.0
  0
TEXT
  8
CSLAYER1
 62
     4
 10
195.840442
 20
234.208618
 40
3.200000
 41
1.125000
  1
106
 50
0.000000
 51
15.000000
  7
FX_FONT
 72
     5
 11
205.440442
 21
234.208618
  0
LINE
  8
CSLAYER1
  6
CONTINUOUS
 62
     4
 10
147.640447
 20
233.708618
 11
253.640447
 21
233.708618
  0
LINE
  8
CSLAYER1
  6
CONTINUOUS
 62
     4
 10
147.640447
 20
233.708618
 11
150.538225
 21
234.485075
  0
LINE
  8
CSLAYER1
  6
CONTINUOUS
 62
     4
 10
147.640447
 20
233.708618
 11
150.538225
 21
232.932161
  0
LINE
  8
CSLAYER1
  6
CONTINUOUS
 62
     4
 10
253.640447
 20
233.708618
 11
250.742670
 21
234.485075
  0
LINE
  8
CSLAYER1
  6
CONTINUOUS
 62
     4
 10
253.640447
 20
233.708618
 11
250.742670
 21
232.932161
  0
LINE
  8
CSLAYER1
  6
CONTINUOUS
 62
     4
 10
147.640447
 20
213.973493
 11
147.640447
 21
234.708618
  0
ENDBLK
  8
0
  0
BLOCK
  8
CSLAYER1
  2
*D0004
 70
    65
 10
0.0
 20
0.0
 30
0.0
  0
TEXT
  8
CSLAYER1
 62
     4
 10
89.033791
 20
181.773495
 40
3.200000
 41
1.200000
  1
30
 50
90.000000
 51
15.000000
  7
FX_FONT
 72
     5
 11
89.033791
 21
188.173496
  0
LINE
  8
CSLAYER1
  6
CONTINUOUS
 62
     4
 10
89.533789
 20
169.973493
 11
89.533789
 21
199.973493
  0
LINE
  8
CSLAYER1
  6
CONTINUOUS
 62
     4
 10
89.533789
 20
169.973493
 11
88.757332
 21
172.871270
  0
LINE
  8
CSLAYER1
  6
CONTINUOUS
 62
     4
 10
89.533789
 20
169.973493
 11
90.310246
 21
172.871270
  0
LINE
  8
CSLAYER1
  6
CONTINUOUS
 62
     4
 10
89.533789
 20
199.973493
 11
88.757332
 21
197.075715
  0
LINE
  8
CSLAYER1
  6
CONTINUOUS
 62
     4
 10
89.533789
 20
199.973493
 11
90.310246
 21
197.075715
  0
LINE
  8
CSLAYER1
  6
CONTINUOUS
 62
     4
 10
111.640447
 20
169.973493
 11
88.533789
 21
169.973493
  0
LINE
  8
CSLAYER1
  6
CONTINUOUS
 62
     4
 10
111.640447
 20
199.973493
 11
88.533789
 21
199.973493
  0
ENDBLK
  8
0
  0
BLOCK
  8
CSLAYER1
  2
*D0005
 70
    65
 10
0.0
 20
0.0
 30
0.0
  0
TEXT
  8
CSLAYER1
 62
     4
 10
95.033791
 20
181.773495
 40
3.200000
 41
1.200000
  1
17
 50
90.000000
 51
15.000000
  7
FX_FONT
 72
     5
 11
95.033791
 21
188.173496
  0
LINE
  8
CSLAYER1
  6
CONTINUOUS
 62
     4
 10
95.533789
 20
176.473493
 11
95.533789
 21
193.473493
  0
LINE
  8
CSLAYER1
  6
CONTINUOUS
 62
     4
 10
95.533789
 20
176.473493
 11
94.757332
 21
179.371270
  0
LINE
  8
CSLAYER1
  6
CONTINUOUS
 62
     4
 10
95.533789
 20
176.473493
 11
96.310246
 21
179.371270
  0
LINE
  8
CSLAYER1
  6
CONTINUOUS
 62
     4
 10
95.533789
 20
193.473493
 11
94.757332
 21
190.575715
  0
LINE
  8
CSLAYER1
  6
CONTINUOUS
 62
     4
 10
95.533789
 20
193.473493
 11
96.310246
 21
190.575715
  0
LINE
  8
CSLAYER1
  6
CONTINUOUS
 62
     4
 10
107.640447
 20
176.473493
 11
94.533789
 21
176.473493
  0
LINE
  8
CSLAYER1
  6
CONTINUOUS
 62
     4
 10
107.640447
 20
193.473493
 11
94.533789
 21
193.473493
  0
ENDBLK
  8
0
  0
BLOCK
  8
CSLAYER1
  2
*D0006
 70
    65
 10
0.0
 20
0.0
 30
0.0
  0
TEXT
  8
CSLAYER1
 62
     4
 10
89.033791
 20
81.661700
 40
3.200000
 41
1.125000
  1
%%c56
 50
90.000000
 51
15.000000
  7
FX_FONT
 72
     5
 11
89.033791
 21
91.261701
  0
LINE
  8
CSLAYER1
  6
CONTINUOUS
 62
     4
 10
89.533789
 20
58.461705
 11
89.533789
 21
114.461705
  0
LINE
  8
CSLAYER1
  6
CONTINUOUS
 62
     4
 10
89.533789
 20
58.461705
 11
88.757332
 21
61.359482
  0
LINE
  8
CSLAYER1
  6
CONTINUOUS
 62
     4
 10
89.533789
 20
58.461705
 11
90.310246
 21
61.359482
  0
LINE
  8
CSLAYER1
  6
CONTINUOUS
 62
     4
 10
89.533789
 20
114.461705
 11
88.757332
 21
111.563927
  0
LINE
  8
CSLAYER1
  6
CONTINUOUS
 62
     4
 10
89.533789
 20
114.461705
 11
90.310246
 21
111.563927
  0
LINE
  8
CSLAYER1
  6
CONTINUOUS
 62
     4
 10
146.640447
 20
58.461705
 11
88.533789
 21
58.461705
  0
LINE
  8
CSLAYER1
  6
CONTINUOUS
 62
     4
 10
146.640447
 20
114.461705
 11
88.533789
 21
114.461705
  0
ENDBLK
  8
0
  0
BLOCK
  8
CSLAYER1
  2
*D0007
 70
    65
 10
0.0
 20
0.0
 30
0.0
  0
TEXT
  8
CSLAYER1
 62
     4
 10
196.340442
 20
140.108612
 40
3.200000
 41
1.125000
  1
185
 50
0.000000
 51
15.000000
  7
FX_FONT
 72
     5
 11
205.940442
 21
140.108612
  0
LINE
  8
CSLAYER1
  6
CONTINUOUS
 62
     4
 10
108.640447
 20
139.608618
 11
293.640447
 21
139.608618
  0
LINE
  8
CSLAYER1
  6
CONTINUOUS
 62
     4
 10
108.640447
 20
139.608618
 11
111.538225
 21
140.385075
  0
LINE
  8
CSLAYER1
  6
CONTINUOUS
 62
     4
 10
108.640447
 20
139.608618
 11
111.538225
 21
138.832161
  0
LINE
  8
CSLAYER1
  6
CONTINUOUS
 62
     4
 10
293.640447
 20
139.608618
 11
290.742670
 21
140.385075
  0
LINE
  8
CSLAYER1
  6
CONTINUOUS
 62
     4
 10
293.640447
 20
139.608618
 11
290.742670
 21
138.832161
  0
LINE
  8
CSLAYER1
  6
CONTINUOUS
 62
     4
 10
108.640447
 20
97.276132
 11
108.640447
 21
140.608618
  0
LINE
  8
CSLAYER1
  6
CONTINUOUS
 62
     4
 10
293.640447
 20
105.961705
 11
293.640447
 21
140.608618
  0
ENDBLK
  8
0
  0
BLOCK
  8
CSLAYER1
  2
*D0008
 70
    65
 10
0.0
 20
0.0
 30
0.0
  0
TEXT
  8
CSLAYER1
 62
     4
 10
108.923654
 20
134.931274
 40
3.200000
 41
1.090909
  1
10.5
 50
0.000000
 51
15.000000
  7
FX_FONT
 72
     5
 11
121.723654
 21
134.931274
  0
LINE
  8
CSLAYER1
  6
CONTINUOUS
 62
     4
 10
108.640447
 20
133.608618
 11
119.140447
 21
133.608618
  0
LINE
  8
CSLAYER1
  6
CONTINUOUS
 62
     4
 10
119.140447
 20
93.997477
 11
119.140447
 21
134.608618
  0
LINE
  8
CSLAYER1
  6
CONTINUOUS
 62
     4
 10
105.640447
 20
133.608618
 11
108.640447
 21
133.608618
  0
LINE
  8
CSLAYER1
  6
CONTINUOUS
 62
     4
 10
108.640447
 20
133.608618
 11
105.742670
 21
134.385075
  0
LINE
  8
CSLAYER1
  6
CONTINUOUS
 62
     4
 10
108.640447
 20
133.608618
 11
105.742670
 21
132.832161
  0
LINE
  8
CSLAYER1
  6
CONTINUOUS
 62
     4
 10
119.140447
 20
133.608618
 11
122.140447
 21
133.608618
  0
LINE
  8
CSLAYER1
  6
CONTINUOUS
 62
     4
 10
119.140447
 20
133.608618
 11
122.038225
 21
134.385075
  0
LINE
  8
CSLAYER1
  6
CONTINUOUS
 62
     4
 10
119.140447
 20
133.608618
 11
122.038225
 21
132.832161
  0
ENDBLK
  8
0
  0
BLOCK
  8
CSLAYER1
  2
BLKF0000
 70
   64
 10
0.0
 20
0.0
 30
0.0
  0
LINE
  8
CSLAYER1
  6
CONTINUOUS
 62
     4
 10
233.640447
 20
211.559279
 11
235.054661
 21
212.973493
  0
LINE
  8
CSLAYER1
  6
CONTINUOUS
 62
     4
 10
233.640447
 20
210.145066
 11
236.468874
 21
212.973493
  0
LINE
  8
CSLAYER1
  6
CONTINUOUS
 62
     4
 10
233.640447
 20
208.730852
 11
237.883088
 21
212.973493
  0
LINE
  8
CSLAYER1
  6
CONTINUOUS
 62
     4
 10
233.640447
 20
207.316639
 11
239.297302
 21
212.973493
  0
LINE
  8
CSLAYER1
  6
CONTINUOUS
 62
     4
 10
233.640447
 20
205.902425
 11
239.640447
 21
211.902425
  0
LINE
  8
CSLAYER1
  6
CONTINUOUS
 62
     4
 10
233.640447
 20
204.488211
 11
239.640447
 21
210.488211
  0
LINE
  8
CSLAYER1
  6
CONTINUOUS
 62
     4
 10
233.640447
 20
203.073998
 11
239.640447
 21
209.073998
  0
LINE
  8
CSLAYER1
  6
CONTINUOUS
 62
     4
 10
233.640447
 20
201.659784
 11
239.640447
 21
207.659784
  0
LINE
  8
CSLAYER1
  6
CONTINUOUS
 62
     4
 10
233.640447
 20
200.245571
 11
239.640447
 21
206.245571
  0
LINE
  8
CSLAYER1
  6
CONTINUOUS
 62
     4
 10
233.640447
 20
198.831357
 11
239.640447
 21
204.831357
  0
LINE
  8
CSLAYER1
  6
CONTINUOUS
 62
     4
 10
233.640447
 20
197.417144
 11
239.640447
 21
203.417144
  0
LINE
  8
CSLAYER1
  6
CONTINUOUS
 62
     4
 10
233.640447
 20
196.002930
 11
239.640447
 21
202.002930
  0
LINE
  8
CSLAYER1
  6
CONTINUOUS
 62
     4
 10
233.640447
 20
194.588717
 11
239.640447
 21
200.588717
  0
LINE
  8
CSLAYER1
  6
CONTINUOUS
 62
     4
 10
233.939437
 20
193.473493
 11
239.640447
 21
199.174503
  0
LINE
  8
CSLAYER1
  6
CONTINUOUS
 62
     4
 10
235.353651
 20
193.473493
 11
239.640447
 21
197.760289
  0
LINE
  8
CSLAYER1
  6
CONTINUOUS
 62
     4
 10
236.767864
 20
193.473493
 11
239.640447
 21
196.346076
  0
LINE
  8
CSLAYER1
  6
CONTINUOUS
 62
     4
 10
238.182078
 20
193.473493
 11
239.640447
 21
194.931862
  0
LINE
  8
CSLAYER1
  6
CONTINUOUS
 62
     4
 10
239.596291
 20
193.473493
 11
239.640447
 21
193.517649
  0
ENDBLK
  8
0
  0
BLOCK
  8
CSLAYER1
  2
BLKF0001
 70
   64
 10
0.0
 20
0.0
 30
0.0
  0
LINE
  8
CSLAYER1
  6
CONTINUOUS
 62
     4
 10
233.640447
 20
212.973493
 11
239.640447
 21
206.973493
  0
LINE
  8
CSLAYER1
  6
CONTINUOUS
 62
     4
 10
235.054661
 20
212.973493
 11
239.640447
 21
208.387706
  0
LINE
  8
CSLAYER1
  6
CONTINUOUS
 62
     4
 10
236.468874
 20
212.973493
 11
239.640447
 21
209.801920
  0
LINE
  8
CSLAYER1
  6
CONTINUOUS
 62
     4
 10
237.883088
 20
212.973493
 11
239.640447
 21
211.216134
  0
LINE
  8
CSLAYER1
  6
CONTINUOUS
 62
     4
 10
239.297302
 20
212.973493
 11
239.640447
 21
212.630347
  0
LINE
  8
CSLAYER1
  6
CONTINUOUS
 62
     4
 10
233.640447
 20
211.559279
 11
239.640447
 21
205.559279
  0
LINE
  8
CSLAYER1
  6
CONTINUOUS
 62
     4
 10
233.640447
 20
210.145066
 11
239.640447
 21
204.145066
  0
LINE
  8
CSLAYER1
  6
CONTINUOUS
 62
     4
 10
233.640447
 20
208.730852
 11
239.640447
 21
202.730852
  0
LINE
  8
CSLAYER1
  6
CONTINUOUS
 62
     4
 10
233.640447
 20
207.316639
 11
239.640447
 21
201.316639
  0
LINE
  8
CSLAYER1
  6
CONTINUOUS
 62
     4
 10
233.640447
 20
205.902425
 11
239.640447
 21
199.902425
  0
LINE
  8
CSLAYER1
  6
CONTINUOUS
 62
     4
 10
233.640447
 20
204.488211
 11
239.640447
 21
198.488211
  0
LINE
  8
CSLAYER1
  6
CONTINUOUS
 62
     4
 10
233.640447
 20
203.073998
 11
239.640447
 21
197.073998
  0
LINE
  8
CSLAYER1
  6
CONTINUOUS
 62
     4
 10
233.640447
 20
201.659784
 11
239.640447
 21
195.659784
  0
LINE
  8
CSLAYER1
  6
CONTINUOUS
 62
     4
 10
233.640447
 20
200.245571
 11
239.640447
 21
194.245571
  0
LINE
  8
CSLAYER1
  6
CONTINUOUS
 62
     4
 10
233.640447
 20
198.831357
 11
238.998312
 21
193.473493
  0
LINE
  8
CSLAYER1
  6
CONTINUOUS
 62
     4
 10
233.640447
 20
197.417144
 11
237.584098
 21
193.473493
  0
LINE
  8
CSLAYER1
  6
CONTINUOUS
 62
     4
 10
233.640447
 20
196.002930
 11
236.169885
 21
193.473493
  0
LINE
  8
CSLAYER1
  6
CONTINUOUS
 62
     4
 10
233.640447
 20
194.588717
 11
234.755671
 21
193.473493
  0
ENDBLK
  8
0
  0
BLOCK
  8
CSLAYER1
  2
BLKF0002
 70
   64
 10
0.0
 20
0.0
 30
0.0
  0
LINE
  8
CSLAYER1
  6
CONTINUOUS
 62
     4
 10
207.640447
 20
211.559279
 11
209.054661
 21
212.973493
  0
LINE
  8
CSLAYER1
  6
CONTINUOUS
 62
     4
 10
207.640447
 20
210.145066
 11
210.468874
 21
212.973493
  0
LINE
  8
CSLAYER1
  6
CONTINUOUS
 62
     4
 10
207.640447
 20
208.730852
 11
211.883088
 21
212.973493
  0
LINE
  8
CSLAYER1
  6
CONTINUOUS
 62
     4
 10
207.640447
 20
207.316639
 11
213.297302
 21
212.973493
  0
LINE
  8
CSLAYER1
  6
CONTINUOUS
 62
     4
 10
207.640447
 20
205.902425
 11
213.640447
 21
211.902425
  0
LINE
  8
CSLAYER1
  6
CONTINUOUS
 62
     4
 10
207.640447
 20
204.488211
 11
213.640447
 21
210.488211
  0
LINE
  8
CSLAYER1
  6
CONTINUOUS
 62
     4
 10
207.640447
 20
203.073998
 11
213.640447
 21
209.073998
  0
LINE
  8
CSLAYER1
  6
CONTINUOUS
 62
     4
 10
207.640447
 20
201.659784
 11
213.640447
 21
207.659784
  0
LINE
  8
CSLAYER1
  6
CONTINUOUS
 62
     4
 10
207.640447
 20
200.245571
 11
213.640447
 21
206.245571
  0
LINE
  8
CSLAYER1
  6
CONTINUOUS
 62
     4
 10
207.640447
 20
198.831357
 11
213.640447
 21
204.831357
  0
LINE
  8
CSLAYER1
  6
CONTINUOUS
 62
     4
 10
207.640447
 20
197.417144
 11
213.640447
 21
203.417144
  0
LINE
  8
CSLAYER1
  6
CONTINUOUS
 62
     4
 10
207.640447
 20
196.002930
 11
213.640447
 21
202.002930
  0
LINE
  8
CSLAYER1
  6
CONTINUOUS
 62
     4
 10
207.640447
 20
194.588717
 11
213.640447
 21
200.588717
  0
LINE
  8
CSLAYER1
  6
CONTINUOUS
 62
     4
 10
207.939437
 20
193.473493
 11
213.640447
 21
199.174503
  0
LINE
  8
CSLAYER1
  6
CONTINUOUS
 62
     4
 10
209.353651
 20
193.473493
 11
213.640447
 21
197.760289
  0
LINE
  8
CSLAYER1
  6
CONTINUOUS
 62
     4
 10
210.767864
 20
193.473493
 11
213.640447
 21
196.346076
  0
LINE
  8
CSLAYER1
  6
CONTINUOUS
 62
     4
 10
212.182078
 20
193.473493
 11
213.640447
 21
194.931862
  0
LINE
  8
CSLAYER1
  6
CONTINUOUS
 62
     4
 10
213.596291
 20
193.473493
 11
213.640447
 21
193.517649
  0
ENDBLK
  8
0
  0
BLOCK
  8
CSLAYER1
  2
BLKF0003
 70
   64
 10
0.0
 20
0.0
 30
0.0
  0
LINE
  8
CSLAYER1
  6
CONTINUOUS
 62
     4
 10
207.640447
 20
212.973493
 11
213.640447
 21
206.973493
  0
LINE
  8
CSLAYER1
  6
CONTINUOUS
 62
     4
 10
209.054661
 20
212.973493
 11
213.640447
 21
208.387706
  0
LINE
  8
CSLAYER1
  6
CONTINUOUS
 62
     4
 10
210.468874
 20
212.973493
 11
213.640447
 21
209.801920
  0
LINE
  8
CSLAYER1
  6
CONTINUOUS
 62
     4
 10
211.883088
 20
212.973493
 11
213.640447
 21
211.216134
  0
LINE
  8
CSLAYER1
  6
CONTINUOUS
 62
     4
 10
213.297302
 20
212.973493
 11
213.640447
 21
212.630347
  0
LINE
  8
CSLAYER1
  6
CONTINUOUS
 62
     4
 10
207.640447
 20
211.559279
 11
213.640447
 21
205.559279
  0
LINE
  8
CSLAYER1
  6
CONTINUOUS
 62
     4
 10
207.640447
 20
210.145066
 11
213.640447
 21
204.145066
  0
LINE
  8
CSLAYER1
  6
CONTINUOUS
 62
     4
 10
207.640447
 20
208.730852
 11
213.640447
 21
202.730852
  0
LINE
  8
CSLAYER1
  6
CONTINUOUS
 62
     4
 10
207.640447
 20
207.316639
 11
213.640447
 21
201.316639
  0
LINE
  8
CSLAYER1
  6
CONTINUOUS
 62
     4
 10
207.640447
 20
205.902425
 11
213.640447
 21
199.902425
  0
LINE
  8
CSLAYER1
  6
CONTINUOUS
 62
     4
 10
207.640447
 20
204.488211
 11
213.640447
 21
198.488211
  0
LINE
  8
CSLAYER1
  6
CONTINUOUS
 62
     4
 10
207.640447
 20
203.073998
 11
213.640447
 21
197.073998
  0
LINE
  8
CSLAYER1
  6
CONTINUOUS
 62
     4
 10
207.640447
 20
201.659784
 11
213.640447
 21
195.659784
  0
LINE
  8
CSLAYER1
  6
CONTINUOUS
 62
     4
 10
207.640447
 20
200.245571
 11
213.640447
 21
194.245571
  0
LINE
  8
CSLAYER1
  6
CONTINUOUS
 62
     4
 10
207.640447
 20
198.831357
 11
212.998312
 21
193.473493
  0
LINE
  8
CSLAYER1
  6
CONTINUOUS
 62
     4
 10
207.640447
 20
197.417144
 11
211.584098
 21
193.473493
  0
LINE
  8
CSLAYER1
  6
CONTINUOUS
 62
     4
 10
207.640447
 20
196.002930
 11
210.169885
 21
193.473493
  0
LINE
  8
CSLAYER1
  6
CONTINUOUS
 62
     4
 10
207.640447
 20
194.588717
 11
208.755671
 21
193.473493
  0
ENDBLK
  8
0
  0
BLOCK
  8
CSLAYER1
  2
BLKF0004
 70
   64
 10
0.0
 20
0.0
 30
0.0
  0
LINE
  8
CSLAYER1
  6
CONTINUOUS
 62
     4
 10
181.640447
 20
211.559279
 11
183.054661
 21
212.973493
  0
LINE
  8
CSLAYER1
  6
CONTINUOUS
 62
     4
 10
181.640447
 20
210.145066
 11
184.468874
 21
212.973493
  0
LINE
  8
CSLAYER1
  6
CONTINUOUS
 62
     4
 10
181.640447
 20
208.730852
 11
185.883088
 21
212.973493
  0
LINE
  8
CSLAYER1
  6
CONTINUOUS
 62
     4
 10
181.640447
 20
207.316639
 11
187.297302
 21
212.973493
  0
LINE
  8
CSLAYER1
  6
CONTINUOUS
 62
     4
 10
181.640447
 20
205.902425
 11
187.640447
 21
211.902425
  0
LINE
  8
CSLAYER1
  6
CONTINUOUS
 62
     4
 10
181.640447
 20
204.488211
 11
187.640447
 21
210.488211
  0
LINE
  8
CSLAYER1
  6
CONTINUOUS
 62
     4
 10
181.640447
 20
203.073998
 11
187.640447
 21
209.073998
  0
LINE
  8
CSLAYER1
  6
CONTINUOUS
 62
     4
 10
181.640447
 20
201.659784
 11
187.640447
 21
207.659784
  0
LINE
  8
CSLAYER1
  6
CONTINUOUS
 62
     4
 10
181.640447
 20
200.245571
 11
187.640447
 21
206.245571
  0
LINE
  8
CSLAYER1
  6
CONTINUOUS
 62
     4
 10
181.640447
 20
198.831357
 11
187.640447
 21
204.831357
  0
LINE
  8
CSLAYER1
  6
CONTINUOUS
 62
     4
 10
181.640447
 20
197.417144
 11
187.640447
 21
203.417144
  0
LINE
  8
CSLAYER1
  6
CONTINUOUS
 62
     4
 10
181.640447
 20
196.002930
 11
187.640447
 21
202.002930
  0
LINE
  8
CSLAYER1
  6
CONTINUOUS
 62
     4
 10
181.640447
 20
194.588717
 11
187.640447
 21
200.588717
  0
LINE
  8
CSLAYER1
  6
CONTINUOUS
 62
     4
 10
181.939437
 20
193.473493
 11
187.640447
 21
199.174503
  0
LINE
  8
CSLAYER1
  6
CONTINUOUS
 62
     4
 10
183.353651
 20
193.473493
 11
187.640447
 21
197.760289
  0
LINE
  8
CSLAYER1
  6
CONTINUOUS
 62
     4
 10
184.767864
 20
193.473493
 11
187.640447
 21
196.346076
  0
LINE
  8
CSLAYER1
  6
CONTINUOUS
 62
     4
 10
186.182078
 20
193.473493
 11
187.640447
 21
194.931862
  0
LINE
  8
CSLAYER1
  6
CONTINUOUS
 62
     4
 10
187.596291
 20
193.473493
 11
187.640447
 21
193.517649
  0
ENDBLK
  8
0
  0
BLOCK
  8
CSLAYER1
  2
BLKF0005
 70
   64
 10
0.0
 20
0.0
 30
0.0
  0
LINE
  8
CSLAYER1
  6
CONTINUOUS
 62
     4
 10
181.640447
 20
212.973493
 11
187.640447
 21
206.973493
  0
LINE
  8
CSLAYER1
  6
CONTINUOUS
 62
     4
 10
183.054661
 20
212.973493
 11
187.640447
 21
208.387706
  0
LINE
  8
CSLAYER1
  6
CONTINUOUS
 62
     4
 10
184.468874
 20
212.973493
 11
187.640447
 21
209.801920
  0
LINE
  8
CSLAYER1
  6
CONTINUOUS
 62
     4
 10
185.883088
 20
212.973493
 11
187.640447
 21
211.216134
  0
LINE
  8
CSLAYER1
  6
CONTINUOUS
 62
     4
 10
187.297302
 20
212.973493
 11
187.640447
 21
212.630347
  0
LINE
  8
CSLAYER1
  6
CONTINUOUS
 62
     4
 10
181.640447
 20
211.559279
 11
187.640447
 21
205.559279
  0
LINE
  8
CSLAYER1
  6
CONTINUOUS
 62
     4
 10
181.640447
 20
210.145066
 11
187.640447
 21
204.145066
  0
LINE
  8
CSLAYER1
  6
CONTINUOUS
 62
     4
 10
181.640447
 20
208.730852
 11
187.640447
 21
202.730852
  0
LINE
  8
CSLAYER1
  6
CONTINUOUS
 62
     4
 10
181.640447
 20
207.316639
 11
187.640447
 21
201.316639
  0
LINE
  8
CSLAYER1
  6
CONTINUOUS
 62
     4
 10
181.640447
 20
205.902425
 11
187.640447
 21
199.902425
  0
LINE
  8
CSLAYER1
  6
CONTINUOUS
 62
     4
 10
181.640447
 20
204.488211
 11
187.640447
 21
198.488211
  0
LINE
  8
CSLAYER1
  6
CONTINUOUS
 62
     4
 10
181.640447
 20
203.073998
 11
187.640447
 21
197.073998
  0
LINE
  8
CSLAYER1
  6
CONTINUOUS
 62
     4
 10
181.640447
 20
201.659784
 11
187.640447
 21
195.659784
  0
LINE
  8
CSLAYER1
  6
CONTINUOUS
 62
     4
 10
181.640447
 20
200.245571
 11
187.640447
 21
194.245571
  0
LINE
  8
CSLAYER1
  6
CONTINUOUS
 62
     4
 10
181.640447
 20
198.831357
 11
186.998312
 21
193.473493
  0
LINE
  8
CSLAYER1
  6
CONTINUOUS
 62
     4
 10
181.640447
 20
197.417144
 11
185.584098
 21
193.473493
  0
LINE
  8
CSLAYER1
  6
CONTINUOUS
 62
     4
 10
181.640447
 20
196.002930
 11
184.169885
 21
193.473493
  0
LINE
  8
CSLAYER1
  6
CONTINUOUS
 62
     4
 10
181.640447
 20
194.588717
 11
182.755671
 21
193.473493
  0
ENDBLK
  8
0
  0
BLOCK
  8
CSLAYER1
  2
BLKF0006
 70
   64
 10
0.0
 20
0.0
 30
0.0
  0
LINE
  8
CSLAYER1
  6
CONTINUOUS
 62
     4
 10
181.640447
 20
175.059279
 11
183.054661
 21
176.473493
  0
LINE
  8
CSLAYER1
  6
CONTINUOUS
 62
     4
 10
181.640447
 20
173.645066
 11
184.468874
 21
176.473493
  0
LINE
  8
CSLAYER1
  6
CONTINUOUS
 62
     4
 10
181.640447
 20
172.230852
 11
185.883088
 21
176.473493
  0
LINE
  8
CSLAYER1
  6
CONTINUOUS
 62
     4
 10
181.640447
 20
170.816639
 11
187.297302
 21
176.473493
  0
LINE
  8
CSLAYER1
  6
CONTINUOUS
 62
     4
 10
181.640447
 20
169.402425
 11
187.640447
 21
175.402425
  0
LINE
  8
CSLAYER1
  6
CONTINUOUS
 62
     4
 10
181.640447
 20
167.988211
 11
187.640447
 21
173.988211
  0
LINE
  8
CSLAYER1
  6
CONTINUOUS
 62
     4
 10
181.640447
 20
166.573998
 11
187.640447
 21
172.573998
  0
LINE
  8
CSLAYER1
  6
CONTINUOUS
 62
     4
 10
181.640447
 20
165.159784
 11
187.640447
 21
171.159784
  0
LINE
  8
CSLAYER1
  6
CONTINUOUS
 62
     4
 10
181.640447
 20
163.745571
 11
187.640447
 21
169.745571
  0
LINE
  8
CSLAYER1
  6
CONTINUOUS
 62
     4
 10
181.640447
 20
162.331357
 11
187.640447
 21
168.331357
  0
LINE
  8
CSLAYER1
  6
CONTINUOUS
 62
     4
 10
181.640447
 20
160.917144
 11
187.640447
 21
166.917144
  0
LINE
  8
CSLAYER1
  6
CONTINUOUS
 62
     4
 10
181.640447
 20
159.502930
 11
187.640447
 21
165.502930
  0
LINE
  8
CSLAYER1
  6
CONTINUOUS
 62
     4
 10
181.640447
 20
158.088717
 11
187.640447
 21
164.088717
  0
LINE
  8
CSLAYER1
  6
CONTINUOUS
 62
     4
 10
181.939437
 20
156.973493
 11
187.640447
 21
162.674503
  0
LINE
  8
CSLAYER1
  6
CONTINUOUS
 62
     4
 10
183.353651
 20
156.973493
 11
187.640447
 21
161.260289
  0
LINE
  8
CSLAYER1
  6
CONTINUOUS
 62
     4
 10
184.767864
 20
156.973493
 11
187.640447
 21
159.846076
  0
LINE
  8
CSLAYER1
  6
CONTINUOUS
 62
     4
 10
186.182078
 20
156.973493
 11
187.640447
 21
158.431862
  0
LINE
  8
CSLAYER1
  6
CONTINUOUS
 62
     4
 10
187.596291
 20
156.973493
 11
187.640447
 21
157.017649
  0
ENDBLK
  8
0
  0
BLOCK
  8
CSLAYER1
  2
BLKF0007
 70
   64
 10
0.0
 20
0.0
 30
0.0
  0
LINE
  8
CSLAYER1
  6
CONTINUOUS
 62
     4
 10
181.640447
 20
176.473493
 11
187.640447
 21
170.473493
  0
LINE
  8
CSLAYER1
  6
CONTINUOUS
 62
     4
 10
183.054661
 20
176.473493
 11
187.640447
 21
171.887706
  0
LINE
  8
CSLAYER1
  6
CONTINUOUS
 62
     4
 10
184.468874
 20
176.473493
 11
187.640447
 21
173.301920
  0
LINE
  8
CSLAYER1
  6
CONTINUOUS
 62
     4
 10
185.883088
 20
176.473493
 11
187.640447
 21
174.716134
  0
LINE
  8
CSLAYER1
  6
CONTINUOUS
 62
     4
 10
187.297302
 20
176.473493
 11
187.640447
 21
176.130347
  0
LINE
  8
CSLAYER1
  6
CONTINUOUS
 62
     4
 10
181.640447
 20
175.059279
 11
187.640447
 21
169.059279
  0
LINE
  8
CSLAYER1
  6
CONTINUOUS
 62
     4
 10
181.640447
 20
173.645066
 11
187.640447
 21
167.645066
  0
LINE
  8
CSLAYER1
  6
CONTINUOUS
 62
     4
 10
181.640447
 20
172.230852
 11
187.640447
 21
166.230852
  0
LINE
  8
CSLAYER1
  6
CONTINUOUS
 62
     4
 10
181.640447
 20
170.816639
 11
187.640447
 21
164.816639
  0
LINE
  8
CSLAYER1
  6
CONTINUOUS
 62
     4
 10
181.640447
 20
169.402425
 11
187.640447
 21
163.402425
  0
LINE
  8
CSLAYER1
  6
CONTINUOUS
 62
     4
 10
181.640447
 20
167.988211
 11
187.640447
 21
161.988211
  0
LINE
  8
CSLAYER1
  6
CONTINUOUS
 62
     4
 10
181.640447
 20
166.573998
 11
187.640447
 21
160.573998
  0
LINE
  8
CSLAYER1
  6
CONTINUOUS
 62
     4
 10
181.640447
 20
165.159784
 11
187.640447
 21
159.159784
  0
LINE
  8
CSLAYER1
  6
CONTINUOUS
 62
     4
 10
181.640447
 20
163.745571
 11
187.640447
 21
157.745571
  0
LINE
  8
CSLAYER1
  6
CONTINUOUS
 62
     4
 10
181.640447
 20
162.331357
 11
186.998312
 21
156.973493
  0
LINE
  8
CSLAYER1
  6
CONTINUOUS
 62
     4
 10
181.640447
 20
160.917144
 11
185.584098
 21
156.973493
  0
LINE
  8
CSLAYER1
  6
CONTINUOUS
 62
     4
 10
181.640447
 20
159.502930
 11
184.169885
 21
156.973493
  0
LINE
  8
CSLAYER1
  6
CONTINUOUS
 62
     4
 10
181.640447
 20
158.088717
 11
182.755671
 21
156.973493
  0
ENDBLK
  8
0
  0
BLOCK
  8
CSLAYER1
  2
BLKF0008
 70
   64
 10
0.0
 20
0.0
 30
0.0
  0
LINE
  8
CSLAYER1
  6
CONTINUOUS
 62
     4
 10
207.640447
 20
175.059279
 11
209.054661
 21
176.473493
  0
LINE
  8
CSLAYER1
  6
CONTINUOUS
 62
     4
 10
207.640447
 20
173.645066
 11
210.468874
 21
176.473493
  0
LINE
  8
CSLAYER1
  6
CONTINUOUS
 62
     4
 10
207.640447
 20
172.230852
 11
211.883088
 21
176.473493
  0
LINE
  8
CSLAYER1
  6
CONTINUOUS
 62
     4
 10
207.640447
 20
170.816639
 11
213.297302
 21
176.473493
  0
LINE
  8
CSLAYER1
  6
CONTINUOUS
 62
     4
 10
207.640447
 20
169.402425
 11
213.640447
 21
175.402425
  0
LINE
  8
CSLAYER1
  6
CONTINUOUS
 62
     4
 10
207.640447
 20
167.988211
 11
213.640447
 21
173.988211
  0
LINE
  8
CSLAYER1
  6
CONTINUOUS
 62
     4
 10
207.640447
 20
166.573998
 11
213.640447
 21
172.573998
  0
LINE
  8
CSLAYER1
  6
CONTINUOUS
 62
     4
 10
207.640447
 20
165.159784
 11
213.640447
 21
171.159784
  0
LINE
  8
CSLAYER1
  6
CONTINUOUS
 62
     4
 10
207.640447
 20
163.745571
 11
213.640447
 21
169.745571
  0
LINE
  8
CSLAYER1
  6
CONTINUOUS
 62
     4
 10
207.640447
 20
162.331357
 11
213.640447
 21
168.331357
  0
LINE
  8
CSLAYER1
  6
CONTINUOUS
 62
     4
 10
207.640447
 20
160.917144
 11
213.640447
 21
166.917144
  0
LINE
  8
CSLAYER1
  6
CONTINUOUS
 62
     4
 10
207.640447
 20
159.502930
 11
213.640447
 21
165.502930
  0
LINE
  8
CSLAYER1
  6
CONTINUOUS
 62
     4
 10
207.640447
 20
158.088717
 11
213.640447
 21
164.088717
  0
LINE
  8
CSLAYER1
  6
CONTINUOUS
 62
     4
 10
207.939437
 20
156.973493
 11
213.640447
 21
162.674503
  0
LINE
  8
CSLAYER1
  6
CONTINUOUS
 62
     4
 10
209.353651
 20
156.973493
 11
213.640447
 21
161.260289
  0
LINE
  8
CSLAYER1
  6
CONTINUOUS
 62
     4
 10
210.767864
 20
156.973493
 11
213.640447
 21
159.846076
  0
LINE
  8
CSLAYER1
  6
CONTINUOUS
 62
     4
 10
212.182078
 20
156.973493
 11
213.640447
 21
158.431862
  0
LINE
  8
CSLAYER1
  6
CONTINUOUS
 62
     4
 10
213.596291
 20
156.973493
 11
213.640447
 21
157.017649
  0
ENDBLK
  8
0
  0
BLOCK
  8
CSLAYER1
  2
BLKF0009
 70
   64
 10
0.0
 20
0.0
 30
0.0
  0
LINE
  8
CSLAYER1
  6
CONTINUOUS
 62
     4
 10
207.640447
 20
176.473493
 11
213.640447
 21
170.473493
  0
LINE
  8
CSLAYER1
  6
CONTINUOUS
 62
     4
 10
209.054661
 20
176.473493
 11
213.640447
 21
171.887706
  0
LINE
  8
CSLAYER1
  6
CONTINUOUS
 62
     4
 10
210.468874
 20
176.473493
 11
213.640447
 21
173.301920
  0
LINE
  8
CSLAYER1
  6
CONTINUOUS
 62
     4
 10
211.883088
 20
176.473493
 11
213.640447
 21
174.716134
  0
LINE
  8
CSLAYER1
  6
CONTINUOUS
 62
     4
 10
213.297302
 20
176.473493
 11
213.640447
 21
176.130347
  0
LINE
  8
CSLAYER1
  6
CONTINUOUS
 62
     4
 10
207.640447
 20
175.059279
 11
213.640447
 21
169.059279
  0
LINE
  8
CSLAYER1
  6
CONTINUOUS
 62
     4
 10
207.640447
 20
173.645066
 11
213.640447
 21
167.645066
  0
LINE
  8
CSLAYER1
  6
CONTINUOUS
 62
     4
 10
207.640447
 20
172.230852
 11
213.640447
 21
166.230852
  0
LINE
  8
CSLAYER1
  6
CONTINUOUS
 62
     4
 10
207.640447
 20
170.816639
 11
213.640447
 21
164.816639
  0
LINE
  8
CSLAYER1
  6
CONTINUOUS
 62
     4
 10
207.640447
 20
169.402425
 11
213.640447
 21
163.402425
  0
LINE
  8
CSLAYER1
  6
CONTINUOUS
 62
     4
 10
207.640447
 20
167.988211
 11
213.640447
 21
161.988211
  0
LINE
  8
CSLAYER1
  6
CONTINUOUS
 62
     4
 10
207.640447
 20
166.573998
 11
213.640447
 21
160.573998
  0
LINE
  8
CSLAYER1
  6
CONTINUOUS
 62
     4
 10
207.640447
 20
165.159784
 11
213.640447
 21
159.159784
  0
LINE
  8
CSLAYER1
  6
CONTINUOUS
 62
     4
 10
207.640447
 20
163.745571
 11
213.640447
 21
157.745571
  0
LINE
  8
CSLAYER1
  6
CONTINUOUS
 62
     4
 10
207.640447
 20
162.331357
 11
212.998312
 21
156.973493
  0
LINE
  8
CSLAYER1
  6
CONTINUOUS
 62
     4
 10
207.640447
 20
160.917144
 11
211.584098
 21
156.973493
  0
LINE
  8
CSLAYER1
  6
CONTINUOUS
 62
     4
 10
207.640447
 20
159.502930
 11
210.169885
 21
156.973493
  0
LINE
  8
CSLAYER1
  6
CONTINUOUS
 62
     4
 10
207.640447
 20
158.088717
 11
208.755671
 21
156.973493
  0
ENDBLK
  8
0
  0
BLOCK
  8
CSLAYER1
  2
BLKF0010
 70
   64
 10
0.0
 20
0.0
 30
0.0
  0
LINE
  8
CSLAYER1
  6
CONTINUOUS
 62
     4
 10
233.640447
 20
175.059279
 11
235.054661
 21
176.473493
  0
LINE
  8
CSLAYER1
  6
CONTINUOUS
 62
     4
 10
233.640447
 20
173.645066
 11
236.468874
 21
176.473493
  0
LINE
  8
CSLAYER1
  6
CONTINUOUS
 62
     4
 10
233.640447
 20
172.230852
 11
237.883088
 21
176.473493
  0
LINE
  8
CSLAYER1
  6
CONTINUOUS
 62
     4
 10
233.640447
 20
170.816639
 11
239.297302
 21
176.473493
  0
LINE
  8
CSLAYER1
  6
CONTINUOUS
 62
     4
 10
233.640447
 20
169.402425
 11
239.640447
 21
175.402425
  0
LINE
  8
CSLAYER1
  6
CONTINUOUS
 62
     4
 10
233.640447
 20
167.988211
 11
239.640447
 21
173.988211
  0
LINE
  8
CSLAYER1
  6
CONTINUOUS
 62
     4
 10
233.640447
 20
166.573998
 11
239.640447
 21
172.573998
  0
LINE
  8
CSLAYER1
  6
CONTINUOUS
 62
     4
 10
233.640447
 20
165.159784
 11
239.640447
 21
171.159784
  0
LINE
  8
CSLAYER1
  6
CONTINUOUS
 62
     4
 10
233.640447
 20
163.745571
 11
239.640447
 21
169.745571
  0
LINE
  8
CSLAYER1
  6
CONTINUOUS
 62
     4
 10
233.640447
 20
162.331357
 11
239.640447
 21
168.331357
  0
LINE
  8
CSLAYER1
  6
CONTINUOUS
 62
     4
 10
233.640447
 20
160.917144
 11
239.640447
 21
166.917144
  0
LINE
  8
CSLAYER1
  6
CONTINUOUS
 62
     4
 10
233.640447
 20
159.502930
 11
239.640447
 21
165.502930
  0
LINE
  8
CSLAYER1
  6
CONTINUOUS
 62
     4
 10
233.640447
 20
158.088717
 11
239.640447
 21
164.088717
  0
LINE
  8
CSLAYER1
  6
CONTINUOUS
 62
     4
 10
233.939437
 20
156.973493
 11
239.640447
 21
162.674503
  0
LINE
  8
CSLAYER1
  6
CONTINUOUS
 62
     4
 10
235.353651
 20
156.973493
 11
239.640447
 21
161.260289
  0
LINE
  8
CSLAYER1
  6
CONTINUOUS
 62
     4
 10
236.767864
 20
156.973493
 11
239.640447
 21
159.846076
  0
LINE
  8
CSLAYER1
  6
CONTINUOUS
 62
     4
 10
238.182078
 20
156.973493
 11
239.640447
 21
158.431862
  0
LINE
  8
CSLAYER1
  6
CONTINUOUS
 62
     4
 10
239.596291
 20
156.973493
 11
239.640447
 21
157.017649
  0
ENDBLK
  8
0
  0
BLOCK
  8
CSLAYER1
  2
BLKF0011
 70
   64
 10
0.0
 20
0.0
 30
0.0
  0
LINE
  8
CSLAYER1
  6
CONTINUOUS
 62
     4
 10
233.640447
 20
176.473493
 11
239.640447
 21
170.473493
  0
LINE
  8
CSLAYER1
  6
CONTINUOUS
 62
     4
 10
235.054661
 20
176.473493
 11
239.640447
 21
171.887706
  0
LINE
  8
CSLAYER1
  6
CONTINUOUS
 62
     4
 10
236.468874
 20
176.473493
 11
239.640447
 21
173.301920
  0
LINE
  8
CSLAYER1
  6
CONTINUOUS
 62
     4
 10
237.883088
 20
176.473493
 11
239.640447
 21
174.716134
  0
LINE
  8
CSLAYER1
  6
CONTINUOUS
 62
     4
 10
239.297302
 20
176.473493
 11
239.640447
 21
176.130347
  0
LINE
  8
CSLAYER1
  6
CONTINUOUS
 62
     4
 10
233.640447
 20
175.059279
 11
239.640447
 21
169.059279
  0
LINE
  8
CSLAYER1
  6
CONTINUOUS
 62
     4
 10
233.640447
 20
173.645066
 11
239.640447
 21
167.645066
  0
LINE
  8
CSLAYER1
  6
CONTINUOUS
 62
     4
 10
233.640447
 20
172.230852
 11
239.640447
 21
166.230852
  0
LINE
  8
CSLAYER1
  6
CONTINUOUS
 62
     4
 10
233.640447
 20
170.816639
 11
239.640447
 21
164.816639
  0
LINE
  8
CSLAYER1
  6
CONTINUOUS
 62
     4
 10
233.640447
 20
169.402425
 11
239.640447
 21
163.402425
  0
LINE
  8
CSLAYER1
  6
CONTINUOUS
 62
     4
 10
233.640447
 20
167.988211
 11
239.640447
 21
161.988211
  0
LINE
  8
CSLAYER1
  6
CONTINUOUS
 62
     4
 10
233.640447
 20
166.573998
 11
239.640447
 21
160.573998
  0
LINE
  8
CSLAYER1
  6
CONTINUOUS
 62
     4
 10
233.640447
 20
165.159784
 11
239.640447
 21
159.159784
  0
LINE
  8
CSLAYER1
  6
CONTINUOUS
 62
     4
 10
233.640447
 20
163.745571
 11
239.640447
 21
157.745571
  0
LINE
  8
CSLAYER1
  6
CONTINUOUS
 62
     4
 10
233.640447
 20
162.331357
 11
238.998312
 21
156.973493
  0
LINE
  8
CSLAYER1
  6
CONTINUOUS
 62
     4
 10
233.640447
 20
160.917144
 11
237.584098
 21
156.973493
  0
LINE
  8
CSLAYER1
  6
CONTINUOUS
 62
     4
 10
233.640447
 20
159.502930
 11
236.169885
 21
156.973493
  0
LINE
  8
CSLAYER1
  6
CONTINUOUS
 62
     4
 10
233.640447
 20
158.088717
 11
234.755671
 21
156.973493
  0
ENDBLK
  8
0
  0
BLOCK
  8
CSLAYER1
  2
BLKF0012
 70
   64
 10
0.0
 20
0.0
 30
0.0
  0
LINE
  8
CSLAYER1
  6
CONTINUOUS
 62
     4
 10
233.640447
 20
113.047491
 11
235.054661
 21
114.461705
  0
LINE
  8
CSLAYER1
  6
CONTINUOUS
 62
     4
 10
233.640447
 20
111.633277
 11
236.468874
 21
114.461705
  0
LINE
  8
CSLAYER1
  6
CONTINUOUS
 62
     4
 10
233.640447
 20
110.219064
 11
237.883088
 21
114.461705
  0
LINE
  8
CSLAYER1
  6
CONTINUOUS
 62
     4
 10
233.640447
 20
108.804850
 11
239.297302
 21
114.461705
  0
LINE
  8
CSLAYER1
  6
CONTINUOUS
 62
     4
 10
233.640447
 20
107.390637
 11
239.640447
 21
113.390637
  0
LINE
  8
CSLAYER1
  6
CONTINUOUS
 62
     4
 10
233.640447
 20
105.976423
 11
239.640447
 21
111.976423
  0
LINE
  8
CSLAYER1
  6
CONTINUOUS
 62
     4
 10
233.640447
 20
104.562210
 11
239.640447
 21
110.562210
  0
LINE
  8
CSLAYER1
  6
CONTINUOUS
 62
     4
 10
233.640447
 20
103.147996
 11
239.640447
 21
109.147996
  0
LINE
  8
CSLAYER1
  6
CONTINUOUS
 62
     4
 10
233.640447
 20
101.733782
 11
239.640447
 21
107.733782
  0
LINE
  8
CSLAYER1
  6
CONTINUOUS
 62
     4
 10
233.640447
 20
100.319569
 11
239.640447
 21
106.319569
  0
LINE
  8
CSLAYER1
  6
CONTINUOUS
 62
     4
 10
233.640447
 20
98.905355
 11
239.640447
 21
104.905355
  0
LINE
  8
CSLAYER1
  6
CONTINUOUS
 62
     4
 10
233.640447
 20
97.491142
 11
239.640447
 21
103.491142
  0
LINE
  8
CSLAYER1
  6
CONTINUOUS
 62
     4
 10
233.640447
 20
96.076928
 11
239.640447
 21
102.076928
  0
LINE
  8
CSLAYER1
  6
CONTINUOUS
 62
     4
 10
233.640447
 20
94.662715
 11
239.640447
 21
100.662715
  0
LINE
  8
CSLAYER1
  6
CONTINUOUS
 62
     4
 10
233.640447
 20
93.248501
 11
239.640447
 21
99.248501
  0
LINE
  8
CSLAYER1
  6
CONTINUOUS
 62
     4
 10
233.640447
 20
91.834288
 11
239.640447
 21
97.834288
  0
LINE
  8
CSLAYER1
  6
CONTINUOUS
 62
     4
 10
233.640447
 20
90.420074
 11
239.640447
 21
96.420074
  0
LINE
  8
CSLAYER1
  6
CONTINUOUS
 62
     4
 10
233.640447
 20
89.005860
 11
239.640447
 21
95.005860
  0
LINE
  8
CSLAYER1
  6
CONTINUOUS
 62
     4
 10
233.640447
 20
87.591647
 11
239.640447
 21
93.591647
  0
LINE
  8
CSLAYER1
  6
CONTINUOUS
 62
     4
 10
233.640447
 20
86.177433
 11
239.640447
 21
92.177433
  0
LINE
  8
CSLAYER1
  6
CONTINUOUS
 62
     4
 10
233.640447
 20
84.763220
 11
239.640447
 21
90.763220
  0
LINE
  8
CSLAYER1
  6
CONTINUOUS
 62
     4
 10
233.640447
 20
83.349006
 11
239.640447
 21
89.349006
  0
LINE
  8
CSLAYER1
  6
CONTINUOUS
 62
     4
 10
233.640447
 20
81.934793
 11
239.640447
 21
87.934793
  0
LINE
  8
CSLAYER1
  6
CONTINUOUS
 62
     4
 10
233.640447
 20
80.520579
 11
239.640447
 21
86.520579
  0
LINE
  8
CSLAYER1
  6
CONTINUOUS
 62
     4
 10
233.640447
 20
79.106365
 11
239.640447
 21
85.106365
  0
LINE
  8
CSLAYER1
  6
CONTINUOUS
 62
     4
 10
233.640447
 20
77.692152
 11
239.640447
 21
83.692152
  0
LINE
  8
CSLAYER1
  6
CONTINUOUS
 62
     4
 10
233.640447
 20
76.277938
 11
239.640447
 21
82.277938
  0
LINE
  8
CSLAYER1
  6
CONTINUOUS
 62
     4
 10
233.640447
 20
74.863725
 11
239.640447
 21
80.863725
  0
LINE
  8
CSLAYER1
  6
CONTINUOUS
 62
     4
 10
233.640447
 20
73.449511
 11
239.640447
 21
79.449511
  0
LINE
  8
CSLAYER1
  6
CONTINUOUS
 62
     4
 10
233.640447
 20
72.035298
 11
239.640447
 21
78.035298
  0
LINE
  8
CSLAYER1
  6
CONTINUOUS
 62
     4
 10
233.640447
 20
70.621084
 11
239.640447
 21
76.621084
  0
LINE
  8
CSLAYER1
  6
CONTINUOUS
 62
     4
 10
233.640447
 20
69.206871
 11
239.640447
 21
75.206871
  0
LINE
  8
CSLAYER1
  6
CONTINUOUS
 62
     4
 10
233.640447
 20
67.792657
 11
239.640447
 21
73.792657
  0
LINE
  8
CSLAYER1
  6
CONTINUOUS
 62
     4
 10
233.640447
 20
66.378443
 11
239.640447
 21
72.378443
  0
LINE
  8
CSLAYER1
  6
CONTINUOUS
 62
     4
 10
233.640447
 20
64.964230
 11
239.640447
 21
70.964230
  0
LINE
  8
CSLAYER1
  6
CONTINUOUS
 62
     4
 10
233.640447
 20
63.550016
 11
239.640447
 21
69.550016
  0
LINE
  8
CSLAYER1
  6
CONTINUOUS
 62
     4
 10
233.640447
 20
62.135803
 11
239.640447
 21
68.135803
  0
LINE
  8
CSLAYER1
  6
CONTINUOUS
 62
     4
 10
233.640447
 20
60.721589
 11
239.640447
 21
66.721589
  0
LINE
  8
CSLAYER1
  6
CONTINUOUS
 62
     4
 10
233.640447
 20
59.307376
 11
239.640447
 21
65.307376
  0
LINE
  8
CSLAYER1
  6
CONTINUOUS
 62
     4
 10
234.208990
 20
58.461705
 11
239.640447
 21
63.893162
  0
LINE
  8
CSLAYER1
  6
CONTINUOUS
 62
     4
 10
235.623203
 20
58.461705
 11
239.640447
 21
62.478948
  0
LINE
  8
CSLAYER1
  6
CONTINUOUS
 62
     4
 10
237.037417
 20
58.461705
 11
239.640447
 21
61.064735
  0
LINE
  8
CSLAYER1
  6
CONTINUOUS
 62
     4
 10
238.451631
 20
58.461705
 11
239.640447
 21
59.650521
  0
ENDBLK
  8
0
  0
BLOCK
  8
CSLAYER1
  2
BLKF0013
 70
   64
 10
0.0
 20
0.0
 30
0.0
  0
LINE
  8
CSLAYER1
  6
CONTINUOUS
 62
     4
 10
233.640447
 20
114.461705
 11
239.640447
 21
108.461705
  0
LINE
  8
CSLAYER1
  6
CONTINUOUS
 62
     4
 10
235.054661
 20
114.461705
 11
239.640447
 21
109.875918
  0
LINE
  8
CSLAYER1
  6
CONTINUOUS
 62
     4
 10
236.468874
 20
114.461705
 11
239.640447
 21
111.290132
  0
LINE
  8
CSLAYER1
  6
CONTINUOUS
 62
     4
 10
237.883088
 20
114.461705
 11
239.640447
 21
112.704345
  0
LINE
  8
CSLAYER1
  6
CONTINUOUS
 62
     4
 10
239.297302
 20
114.461705
 11
239.640447
 21
114.118559
  0
LINE
  8
CSLAYER1
  6
CONTINUOUS
 62
     4
 10
233.640447
 20
113.047491
 11
239.640447
 21
107.047491
  0
LINE
  8
CSLAYER1
  6
CONTINUOUS
 62
     4
 10
233.640447
 20
111.633277
 11
239.640447
 21
105.633277
  0
LINE
  8
CSLAYER1
  6
CONTINUOUS
 62
     4
 10
233.640447
 20
110.219064
 11
239.640447
 21
104.219064
  0
LINE
  8
CSLAYER1
  6
CONTINUOUS
 62
     4
 10
233.640447
 20
108.804850
 11
239.640447
 21
102.804850
  0
LINE
  8
CSLAYER1
  6
CONTINUOUS
 62
     4
 10
233.640447
 20
107.390637
 11
239.640447
 21
101.390637
  0
LINE
  8
CSLAYER1
  6
CONTINUOUS
 62
     4
 10
233.640447
 20
105.976423
 11
239.640447
 21
99.976423
  0
LINE
  8
CSLAYER1
  6
CONTINUOUS
 62
     4
 10
233.640447
 20
104.562210
 11
239.640447
 21
98.562210
  0
LINE
  8
CSLAYER1
  6
CONTINUOUS
 62
     4
 10
233.640447
 20
103.147996
 11
239.640447
 21
97.147996
  0
LINE
  8
CSLAYER1
  6
CONTINUOUS
 62
     4
 10
233.640447
 20
101.733782
 11
239.640447
 21
95.733782
  0
LINE
  8
CSLAYER1
  6
CONTINUOUS
 62
     4
 10
233.640447
 20
100.319569
 11
239.640447
 21
94.319569
  0
LINE
  8
CSLAYER1
  6
CONTINUOUS
 62
     4
 10
233.640447
 20
98.905355
 11
239.640447
 21
92.905355
  0
LINE
  8
CSLAYER1
  6
CONTINUOUS
 62
     4
 10
233.640447
 20
97.491142
 11
239.640447
 21
91.491142
  0
LINE
  8
CSLAYER1
  6
CONTINUOUS
 62
     4
 10
233.640447
 20
96.076928
 11
239.640447
 21
90.076928
  0
LINE
  8
CSLAYER1
  6
CONTINUOUS
 62
     4
 10
233.640447
 20
94.662715
 11
239.640447
 21
88.662715
  0
LINE
  8
CSLAYER1
  6
CONTINUOUS
 62
     4
 10
233.640447
 20
93.248501
 11
239.640447
 21
87.248501
  0
LINE
  8
CSLAYER1
  6
CONTINUOUS
 62
     4
 10
233.640447
 20
91.834288
 11
239.640447
 21
85.834288
  0
LINE
  8
CSLAYER1
  6
CONTINUOUS
 62
     4
 10
233.640447
 20
90.420074
 11
239.640447
 21
84.420074
  0
LINE
  8
CSLAYER1
  6
CONTINUOUS
 62
     4
 10
233.640447
 20
89.005860
 11
239.640447
 21
83.005860
  0
LINE
  8
CSLAYER1
  6
CONTINUOUS
 62
     4
 10
233.640447
 20
87.591647
 11
239.640447
 21
81.591647
  0
LINE
  8
CSLAYER1
  6
CONTINUOUS
 62
     4
 10
233.640447
 20
86.177433
 11
239.640447
 21
80.177433
  0
LINE
  8
CSLAYER1
  6
CONTINUOUS
 62
     4
 10
233.640447
 20
84.763220
 11
239.640447
 21
78.763220
  0
LINE
  8
CSLAYER1
  6
CONTINUOUS
 62
     4
 10
233.640447
 20
83.349006
 11
239.640447
 21
77.349006
  0
LINE
  8
CSLAYER1
  6
CONTINUOUS
 62
     4
 10
233.640447
 20
81.934793
 11
239.640447
 21
75.934793
  0
LINE
  8
CSLAYER1
  6
CONTINUOUS
 62
     4
 10
233.640447
 20
80.520579
 11
239.640447
 21
74.520579
  0
LINE
  8
CSLAYER1
  6
CONTINUOUS
 62
     4
 10
233.640447
 20
79.106365
 11
239.640447
 21
73.106365
  0
LINE
  8
CSLAYER1
  6
CONTINUOUS
 62
     4
 10
233.640447
 20
77.692152
 11
239.640447
 21
71.692152
  0
LINE
  8
CSLAYER1
  6
CONTINUOUS
 62
     4
 10
233.640447
 20
76.277938
 11
239.640447
 21
70.277938
  0
LINE
  8
CSLAYER1
  6
CONTINUOUS
 62
     4
 10
233.640447
 20
74.863725
 11
239.640447
 21
68.863725
  0
LINE
  8
CSLAYER1
  6
CONTINUOUS
 62
     4
 10
233.640447
 20
73.449511
 11
239.640447
 21
67.449511
  0
LINE
  8
CSLAYER1
  6
CONTINUOUS
 62
     4
 10
233.640447
 20
72.035298
 11
239.640447
 21
66.035298
  0
LINE
  8
CSLAYER1
  6
CONTINUOUS
 62
     4
 10
233.640447
 20
70.621084
 11
239.640447
 21
64.621084
  0
LINE
  8
CSLAYER1
  6
CONTINUOUS
 62
     4
 10
233.640447
 20
69.206871
 11
239.640447
 21
63.206871
  0
LINE
  8
CSLAYER1
  6
CONTINUOUS
 62
     4
 10
233.640447
 20
67.792657
 11
239.640447
 21
61.792657
  0
LINE
  8
CSLAYER1
  6
CONTINUOUS
 62
     4
 10
233.640447
 20
66.378443
 11
239.640447
 21
60.378443
  0
LINE
  8
CSLAYER1
  6
CONTINUOUS
 62
     4
 10
233.640447
 20
64.964230
 11
239.640447
 21
58.964230
  0
LINE
  8
CSLAYER1
  6
CONTINUOUS
 62
     4
 10
233.640447
 20
63.550016
 11
238.728759
 21
58.461705
  0
LINE
  8
CSLAYER1
  6
CONTINUOUS
 62
     4
 10
233.640447
 20
62.135803
 11
237.314546
 21
58.461705
  0
LINE
  8
CSLAYER1
  6
CONTINUOUS
 62
     4
 10
233.640447
 20
60.721589
 11
235.900332
 21
58.461705
  0
LINE
  8
CSLAYER1
  6
CONTINUOUS
 62
     4
 10
233.640447
 20
59.307376
 11
234.486118
 21
58.461705
  0
ENDBLK
  8
0
  0
BLOCK
  8
CSLAYER1
  2
BLKF0014
 70
   64
 10
0.0
 20
0.0
 30
0.0
  0
LINE
  8
CSLAYER1
  6
CONTINUOUS
 62
     4
 10
207.640447
 20
113.047491
 11
209.054661
 21
114.461705
  0
LINE
  8
CSLAYER1
  6
CONTINUOUS
 62
     4
 10
207.640447
 20
111.633277
 11
210.468874
 21
114.461705
  0
LINE
  8
CSLAYER1
  6
CONTINUOUS
 62
     4
 10
207.640447
 20
110.219064
 11
211.883088
 21
114.461705
  0
LINE
  8
CSLAYER1
  6
CONTINUOUS
 62
     4
 10
207.640447
 20
108.804850
 11
213.297302
 21
114.461705
  0
LINE
  8
CSLAYER1
  6
CONTINUOUS
 62
     4
 10
207.640447
 20
107.390637
 11
213.640447
 21
113.390637
  0
LINE
  8
CSLAYER1
  6
CONTINUOUS
 62
     4
 10
207.640447
 20
105.976423
 11
213.640447
 21
111.976423
  0
LINE
  8
CSLAYER1
  6
CONTINUOUS
 62
     4
 10
207.640447
 20
104.562210
 11
213.640447
 21
110.562210
  0
LINE
  8
CSLAYER1
  6
CONTINUOUS
 62
     4
 10
207.640447
 20
103.147996
 11
213.640447
 21
109.147996
  0
LINE
  8
CSLAYER1
  6
CONTINUOUS
 62
     4
 10
207.640447
 20
101.733782
 11
213.640447
 21
107.733782
  0
LINE
  8
CSLAYER1
  6
CONTINUOUS
 62
     4
 10
207.640447
 20
100.319569
 11
213.640447
 21
106.319569
  0
LINE
  8
CSLAYER1
  6
CONTINUOUS
 62
     4
 10
207.640447
 20
98.905355
 11
213.640447
 21
104.905355
  0
LINE
  8
CSLAYER1
  6
CONTINUOUS
 62
     4
 10
207.640447
 20
97.491142
 11
213.640447
 21
103.491142
  0
LINE
  8
CSLAYER1
  6
CONTINUOUS
 62
     4
 10
207.640447
 20
96.076928
 11
213.640447
 21
102.076928
  0
LINE
  8
CSLAYER1
  6
CONTINUOUS
 62
     4
 10
207.640447
 20
94.662715
 11
213.640447
 21
100.662715
  0
LINE
  8
CSLAYER1
  6
CONTINUOUS
 62
     4
 10
207.640447
 20
93.248501
 11
213.640447
 21
99.248501
  0
LINE
  8
CSLAYER1
  6
CONTINUOUS
 62
     4
 10
207.640447
 20
91.834288
 11
213.640447
 21
97.834288
  0
LINE
  8
CSLAYER1
  6
CONTINUOUS
 62
     4
 10
207.640447
 20
90.420074
 11
213.640447
 21
96.420074
  0
LINE
  8
CSLAYER1
  6
CONTINUOUS
 62
     4
 10
207.640447
 20
89.005860
 11
213.640447
 21
95.005860
  0
LINE
  8
CSLAYER1
  6
CONTINUOUS
 62
     4
 10
207.640447
 20
87.591647
 11
213.640447
 21
93.591647
  0
LINE
  8
CSLAYER1
  6
CONTINUOUS
 62
     4
 10
207.640447
 20
86.177433
 11
213.640447
 21
92.177433
  0
LINE
  8
CSLAYER1
  6
CONTINUOUS
 62
     4
 10
207.640447
 20
84.763220
 11
213.640447
 21
90.763220
  0
LINE
  8
CSLAYER1
  6
CONTINUOUS
 62
     4
 10
207.640447
 20
83.349006
 11
213.640447
 21
89.349006
  0
LINE
  8
CSLAYER1
  6
CONTINUOUS
 62
     4
 10
207.640447
 20
81.934793
 11
213.640447
 21
87.934793
  0
LINE
  8
CSLAYER1
  6
CONTINUOUS
 62
     4
 10
207.640447
 20
80.520579
 11
213.640447
 21
86.520579
  0
LINE
  8
CSLAYER1
  6
CONTINUOUS
 62
     4
 10
207.640447
 20
79.106365
 11
213.640447
 21
85.106365
  0
LINE
  8
CSLAYER1
  6
CONTINUOUS
 62
     4
 10
207.640447
 20
77.692152
 11
213.640447
 21
83.692152
  0
LINE
  8
CSLAYER1
  6
CONTINUOUS
 62
     4
 10
207.640447
 20
76.277938
 11
213.640447
 21
82.277938
  0
LINE
  8
CSLAYER1
  6
CONTINUOUS
 62
     4
 10
207.640447
 20
74.863725
 11
213.640447
 21
80.863725
  0
LINE
  8
CSLAYER1
  6
CONTINUOUS
 62
     4
 10
207.640447
 20
73.449511
 11
213.640447
 21
79.449511
  0
LINE
  8
CSLAYER1
  6
CONTINUOUS
 62
     4
 10
207.640447
 20
72.035298
 11
213.640447
 21
78.035298
  0
LINE
  8
CSLAYER1
  6
CONTINUOUS
 62
     4
 10
207.640447
 20
70.621084
 11
213.640447
 21
76.621084
  0
LINE
  8
CSLAYER1
  6
CONTINUOUS
 62
     4
 10
207.640447
 20
69.206871
 11
213.640447
 21
75.206871
  0
LINE
  8
CSLAYER1
  6
CONTINUOUS
 62
     4
 10
207.640447
 20
67.792657
 11
213.640447
 21
73.792657
  0
LINE
  8
CSLAYER1
  6
CONTINUOUS
 62
     4
 10
207.640447
 20
66.378443
 11
213.640447
 21
72.378443
  0
LINE
  8
CSLAYER1
  6
CONTINUOUS
 62
     4
 10
207.640447
 20
64.964230
 11
213.640447
 21
70.964230
  0
LINE
  8
CSLAYER1
  6
CONTINUOUS
 62
     4
 10
207.640447
 20
63.550016
 11
213.640447
 21
69.550016
  0
LINE
  8
CSLAYER1
  6
CONTINUOUS
 62
     4
 10
207.640447
 20
62.135803
 11
213.640447
 21
68.135803
  0
LINE
  8
CSLAYER1
  6
CONTINUOUS
 62
     4
 10
207.640447
 20
60.721589
 11
213.640447
 21
66.721589
  0
LINE
  8
CSLAYER1
  6
CONTINUOUS
 62
     4
 10
207.640447
 20
59.307376
 11
213.640447
 21
65.307376
  0
LINE
  8
CSLAYER1
  6
CONTINUOUS
 62
     4
 10
208.208990
 20
58.461705
 11
213.640447
 21
63.893162
  0
LINE
  8
CSLAYER1
  6
CONTINUOUS
 62
     4
 10
209.623203
 20
58.461705
 11
213.640447
 21
62.478948
  0
LINE
  8
CSLAYER1
  6
CONTINUOUS
 62
     4
 10
211.037417
 20
58.461705
 11
213.640447
 21
61.064735
  0
LINE
  8
CSLAYER1
  6
CONTINUOUS
 62
     4
 10
212.451631
 20
58.461705
 11
213.640447
 21
59.650521
  0
ENDBLK
  8
0
  0
BLOCK
  8
CSLAYER1
  2
BLKF0015
 70
   64
 10
0.0
 20
0.0
 30
0.0
  0
LINE
  8
CSLAYER1
  6
CONTINUOUS
 62
     4
 10
207.640447
 20
114.461705
 11
213.640447
 21
108.461705
  0
LINE
  8
CSLAYER1
  6
CONTINUOUS
 62
     4
 10
209.054661
 20
114.461705
 11
213.640447
 21
109.875918
  0
LINE
  8
CSLAYER1
  6
CONTINUOUS
 62
     4
 10
210.468874
 20
114.461705
 11
213.640447
 21
111.290132
  0
LINE
  8
CSLAYER1
  6
CONTINUOUS
 62
     4
 10
211.883088
 20
114.461705
 11
213.640447
 21
112.704345
  0
LINE
  8
CSLAYER1
  6
CONTINUOUS
 62
     4
 10
213.297302
 20
114.461705
 11
213.640447
 21
114.118559
  0
LINE
  8
CSLAYER1
  6
CONTINUOUS
 62
     4
 10
207.640447
 20
113.047491
 11
213.640447
 21
107.047491
  0
LINE
  8
CSLAYER1
  6
CONTINUOUS
 62
     4
 10
207.640447
 20
111.633277
 11
213.640447
 21
105.633277
  0
LINE
  8
CSLAYER1
  6
CONTINUOUS
 62
     4
 10
207.640447
 20
110.219064
 11
213.640447
 21
104.219064
  0
LINE
  8
CSLAYER1
  6
CONTINUOUS
 62
     4
 10
207.640447
 20
108.804850
 11
213.640447
 21
102.804850
  0
LINE
  8
CSLAYER1
  6
CONTINUOUS
 62
     4
 10
207.640447
 20
107.390637
 11
213.640447
 21
101.390637
  0
LINE
  8
CSLAYER1
  6
CONTINUOUS
 62
     4
 10
207.640447
 20
105.976423
 11
213.640447
 21
99.976423
  0
LINE
  8
CSLAYER1
  6
CONTINUOUS
 62
     4
 10
207.640447
 20
104.562210
 11
213.640447
 21
98.562210
  0
LINE
  8
CSLAYER1
  6
CONTINUOUS
 62
     4
 10
207.640447
 20
103.147996
 11
213.640447
 21
97.147996
  0
LINE
  8
CSLAYER1
  6
CONTINUOUS
 62
     4
 10
207.640447
 20
101.733782
 11
213.640447
 21
95.733782
  0
LINE
  8
CSLAYER1
  6
CONTINUOUS
 62
     4
 10
207.640447
 20
100.319569
 11
213.640447
 21
94.319569
  0
LINE
  8
CSLAYER1
  6
CONTINUOUS
 62
     4
 10
207.640447
 20
98.905355
 11
213.640447
 21
92.905355
  0
LINE
  8
CSLAYER1
  6
CONTINUOUS
 62
     4
 10
207.640447
 20
97.491142
 11
213.640447
 21
91.491142
  0
LINE
  8
CSLAYER1
  6
CONTINUOUS
 62
     4
 10
207.640447
 20
96.076928
 11
213.640447
 21
90.076928
  0
LINE
  8
CSLAYER1
  6
CONTINUOUS
 62
     4
 10
207.640447
 20
94.662715
 11
213.640447
 21
88.662715
  0
LINE
  8
CSLAYER1
  6
CONTINUOUS
 62
     4
 10
207.640447
 20
93.248501
 11
213.640447
 21
87.248501
  0
LINE
  8
CSLAYER1
  6
CONTINUOUS
 62
     4
 10
207.640447
 20
91.834288
 11
213.640447
 21
85.834288
  0
LINE
  8
CSLAYER1
  6
CONTINUOUS
 62
     4
 10
207.640447
 20
90.420074
 11
213.640447
 21
84.420074
  0
LINE
  8
CSLAYER1
  6
CONTINUOUS
 62
     4
 10
207.640447
 20
89.005860
 11
213.640447
 21
83.005860
  0
LINE
  8
CSLAYER1
  6
CONTINUOUS
 62
     4
 10
207.640447
 20
87.591647
 11
213.640447
 21
81.591647
  0
LINE
  8
CSLAYER1
  6
CONTINUOUS
 62
     4
 10
207.640447
 20
86.177433
 11
213.640447
 21
80.177433
  0
LINE
  8
CSLAYER1
  6
CONTINUOUS
 62
     4
 10
207.640447
 20
84.763220
 11
213.640447
 21
78.763220
  0
LINE
  8
CSLAYER1
  6
CONTINUOUS
 62
     4
 10
207.640447
 20
83.349006
 11
213.640447
 21
77.349006
  0
LINE
  8
CSLAYER1
  6
CONTINUOUS
 62
     4
 10
207.640447
 20
81.934793
 11
213.640447
 21
75.934793
  0
LINE
  8
CSLAYER1
  6
CONTINUOUS
 62
     4
 10
207.640447
 20
80.520579
 11
213.640447
 21
74.520579
  0
LINE
  8
CSLAYER1
  6
CONTINUOUS
 62
     4
 10
207.640447
 20
79.106365
 11
213.640447
 21
73.106365
  0
LINE
  8
CSLAYER1
  6
CONTINUOUS
 62
     4
 10
207.640447
 20
77.692152
 11
213.640447
 21
71.692152
  0
LINE
  8
CSLAYER1
  6
CONTINUOUS
 62
     4
 10
207.640447
 20
76.277938
 11
213.640447
 21
70.277938
  0
LINE
  8
CSLAYER1
  6
CONTINUOUS
 62
     4
 10
207.640447
 20
74.863725
 11
213.640447
 21
68.863725
  0
LINE
  8
CSLAYER1
  6
CONTINUOUS
 62
     4
 10
207.640447
 20
73.449511
 11
213.640447
 21
67.449511
  0
LINE
  8
CSLAYER1
  6
CONTINUOUS
 62
     4
 10
207.640447
 20
72.035298
 11
213.640447
 21
66.035298
  0
LINE
  8
CSLAYER1
  6
CONTINUOUS
 62
     4
 10
207.640447
 20
70.621084
 11
213.640447
 21
64.621084
  0
LINE
  8
CSLAYER1
  6
CONTINUOUS
 62
     4
 10
207.640447
 20
69.206871
 11
213.640447
 21
63.206871
  0
LINE
  8
CSLAYER1
  6
CONTINUOUS
 62
     4
 10
207.640447
 20
67.792657
 11
213.640447
 21
61.792657
  0
LINE
  8
CSLAYER1
  6
CONTINUOUS
 62
     4
 10
207.640447
 20
66.378443
 11
213.640447
 21
60.378443
  0
LINE
  8
CSLAYER1
  6
CONTINUOUS
 62
     4
 10
207.640447
 20
64.964230
 11
213.640447
 21
58.964230
  0
LINE
  8
CSLAYER1
  6
CONTINUOUS
 62
     4
 10
207.640447
 20
63.550016
 11
212.728759
 21
58.461705
  0
LINE
  8
CSLAYER1
  6
CONTINUOUS
 62
     4
 10
207.640447
 20
62.135803
 11
211.314546
 21
58.461705
  0
LINE
  8
CSLAYER1
  6
CONTINUOUS
 62
     4
 10
207.640447
 20
60.721589
 11
209.900332
 21
58.461705
  0
LINE
  8
CSLAYER1
  6
CONTINUOUS
 62
     4
 10
207.640447
 20
59.307376
 11
208.486118
 21
58.461705
  0
ENDBLK
  8
0
  0
BLOCK
  8
CSLAYER1
  2
BLKF0016
 70
   64
 10
0.0
 20
0.0
 30
0.0
  0
LINE
  8
CSLAYER1
  6
CONTINUOUS
 62
     4
 10
181.640447
 20
113.047491
 11
183.054661
 21
114.461705
  0
LINE
  8
CSLAYER1
  6
CONTINUOUS
 62
     4
 10
181.640447
 20
111.633277
 11
184.468874
 21
114.461705
  0
LINE
  8
CSLAYER1
  6
CONTINUOUS
 62
     4
 10
181.640447
 20
110.219064
 11
185.883088
 21
114.461705
  0
LINE
  8
CSLAYER1
  6
CONTINUOUS
 62
     4
 10
181.640447
 20
108.804850
 11
187.297302
 21
114.461705
  0
LINE
  8
CSLAYER1
  6
CONTINUOUS
 62
     4
 10
181.640447
 20
107.390637
 11
187.640447
 21
113.390637
  0
LINE
  8
CSLAYER1
  6
CONTINUOUS
 62
     4
 10
181.640447
 20
105.976423
 11
187.640447
 21
111.976423
  0
LINE
  8
CSLAYER1
  6
CONTINUOUS
 62
     4
 10
181.640447
 20
104.562210
 11
187.640447
 21
110.562210
  0
LINE
  8
CSLAYER1
  6
CONTINUOUS
 62
     4
 10
181.640447
 20
103.147996
 11
187.640447
 21
109.147996
  0
LINE
  8
CSLAYER1
  6
CONTINUOUS
 62
     4
 10
181.640447
 20
101.733782
 11
187.640447
 21
107.733782
  0
LINE
  8
CSLAYER1
  6
CONTINUOUS
 62
     4
 10
181.640447
 20
100.319569
 11
187.640447
 21
106.319569
  0
LINE
  8
CSLAYER1
  6
CONTINUOUS
 62
     4
 10
181.640447
 20
98.905355
 11
187.640447
 21
104.905355
  0
LINE
  8
CSLAYER1
  6
CONTINUOUS
 62
     4
 10
181.640447
 20
97.491142
 11
187.640447
 21
103.491142
  0
LINE
  8
CSLAYER1
  6
CONTINUOUS
 62
     4
 10
181.640447
 20
96.076928
 11
187.640447
 21
102.076928
  0
LINE
  8
CSLAYER1
  6
CONTINUOUS
 62
     4
 10
181.640447
 20
94.662715
 11
187.640447
 21
100.662715
  0
LINE
  8
CSLAYER1
  6
CONTINUOUS
 62
     4
 10
181.640447
 20
93.248501
 11
187.640447
 21
99.248501
  0
LINE
  8
CSLAYER1
  6
CONTINUOUS
 62
     4
 10
181.640447
 20
91.834288
 11
187.640447
 21
97.834288
  0
LINE
  8
CSLAYER1
  6
CONTINUOUS
 62
     4
 10
181.640447
 20
90.420074
 11
187.640447
 21
96.420074
  0
LINE
  8
CSLAYER1
  6
CONTINUOUS
 62
     4
 10
181.640447
 20
89.005860
 11
187.640447
 21
95.005860
  0
LINE
  8
CSLAYER1
  6
CONTINUOUS
 62
     4
 10
181.640447
 20
87.591647
 11
187.640447
 21
93.591647
  0
LINE
  8
CSLAYER1
  6
CONTINUOUS
 62
     4
 10
181.640447
 20
86.177433
 11
187.640447
 21
92.177433
  0
LINE
  8
CSLAYER1
  6
CONTINUOUS
 62
     4
 10
181.640447
 20
84.763220
 11
187.640447
 21
90.763220
  0
LINE
  8
CSLAYER1
  6
CONTINUOUS
 62
     4
 10
181.640447
 20
83.349006
 11
187.640447
 21
89.349006
  0
LINE
  8
CSLAYER1
  6
CONTINUOUS
 62
     4
 10
181.640447
 20
81.934793
 11
187.640447
 21
87.934793
  0
LINE
  8
CSLAYER1
  6
CONTINUOUS
 62
     4
 10
181.640447
 20
80.520579
 11
187.640447
 21
86.520579
  0
LINE
  8
CSLAYER1
  6
CONTINUOUS
 62
     4
 10
181.640447
 20
79.106365
 11
187.640447
 21
85.106365
  0
LINE
  8
CSLAYER1
  6
CONTINUOUS
 62
     4
 10
181.640447
 20
77.692152
 11
187.640447
 21
83.692152
  0
LINE
  8
CSLAYER1
  6
CONTINUOUS
 62
     4
 10
181.640447
 20
76.277938
 11
187.640447
 21
82.277938
  0
LINE
  8
CSLAYER1
  6
CONTINUOUS
 62
     4
 10
181.640447
 20
74.863725
 11
187.640447
 21
80.863725
  0
LINE
  8
CSLAYER1
  6
CONTINUOUS
 62
     4
 10
181.640447
 20
73.449511
 11
187.640447
 21
79.449511
  0
LINE
  8
CSLAYER1
  6
CONTINUOUS
 62
     4
 10
181.640447
 20
72.035298
 11
187.640447
 21
78.035298
  0
LINE
  8
CSLAYER1
  6
CONTINUOUS
 62
     4
 10
181.640447
 20
70.621084
 11
187.640447
 21
76.621084
  0
LINE
  8
CSLAYER1
  6
CONTINUOUS
 62
     4
 10
181.640447
 20
69.206871
 11
187.640447
 21
75.206871
  0
LINE
  8
CSLAYER1
  6
CONTINUOUS
 62
     4
 10
181.640447
 20
67.792657
 11
187.640447
 21
73.792657
  0
LINE
  8
CSLAYER1
  6
CONTINUOUS
 62
     4
 10
181.640447
 20
66.378443
 11
187.640447
 21
72.378443
  0
LINE
  8
CSLAYER1
  6
CONTINUOUS
 62
     4
 10
181.640447
 20
64.964230
 11
187.640447
 21
70.964230
  0
LINE
  8
CSLAYER1
  6
CONTINUOUS
 62
     4
 10
181.640447
 20
63.550016
 11
187.640447
 21
69.550016
  0
LINE
  8
CSLAYER1
  6
CONTINUOUS
 62
     4
 10
181.640447
 20
62.135803
 11
187.640447
 21
68.135803
  0
LINE
  8
CSLAYER1
  6
CONTINUOUS
 62
     4
 10
181.640447
 20
60.721589
 11
187.640447
 21
66.721589
  0
LINE
  8
CSLAYER1
  6
CONTINUOUS
 62
     4
 10
181.640447
 20
59.307376
 11
187.640447
 21
65.307376
  0
LINE
  8
CSLAYER1
  6
CONTINUOUS
 62
     4
 10
182.208990
 20
58.461705
 11
187.640447
 21
63.893162
  0
LINE
  8
CSLAYER1
  6
CONTINUOUS
 62
     4
 10
183.623203
 20
58.461705
 11
187.640447
 21
62.478948
  0
LINE
  8
CSLAYER1
  6
CONTINUOUS
 62
     4
 10
185.037417
 20
58.461705
 11
187.640447
 21
61.064735
  0
LINE
  8
CSLAYER1
  6
CONTINUOUS
 62
     4
 10
186.451631
 20
58.461705
 11
187.640447
 21
59.650521
  0
ENDBLK
  8
0
  0
BLOCK
  8
CSLAYER1
  2
BLKF0017
 70
   64
 10
0.0
 20
0.0
 30
0.0
  0
LINE
  8
CSLAYER1
  6
CONTINUOUS
 62
     4
 10
181.640447
 20
114.461705
 11
187.640447
 21
108.461705
  0
LINE
  8
CSLAYER1
  6
CONTINUOUS
 62
     4
 10
183.054661
 20
114.461705
 11
187.640447
 21
109.875918
  0
LINE
  8
CSLAYER1
  6
CONTINUOUS
 62
     4
 10
184.468874
 20
114.461705
 11
187.640447
 21
111.290132
  0
LINE
  8
CSLAYER1
  6
CONTINUOUS
 62
     4
 10
185.883088
 20
114.461705
 11
187.640447
 21
112.704345
  0
LINE
  8
CSLAYER1
  6
CONTINUOUS
 62
     4
 10
187.297302
 20
114.461705
 11
187.640447
 21
114.118559
  0
LINE
  8
CSLAYER1
  6
CONTINUOUS
 62
     4
 10
181.640447
 20
113.047491
 11
187.640447
 21
107.047491
  0
LINE
  8
CSLAYER1
  6
CONTINUOUS
 62
     4
 10
181.640447
 20
111.633277
 11
187.640447
 21
105.633277
  0
LINE
  8
CSLAYER1
  6
CONTINUOUS
 62
     4
 10
181.640447
 20
110.219064
 11
187.640447
 21
104.219064
  0
LINE
  8
CSLAYER1
  6
CONTINUOUS
 62
     4
 10
181.640447
 20
108.804850
 11
187.640447
 21
102.804850
  0
LINE
  8
CSLAYER1
  6
CONTINUOUS
 62
     4
 10
181.640447
 20
107.390637
 11
187.640447
 21
101.390637
  0
LINE
  8
CSLAYER1
  6
CONTINUOUS
 62
     4
 10
181.640447
 20
105.976423
 11
187.640447
 21
99.976423
  0
LINE
  8
CSLAYER1
  6
CONTINUOUS
 62
     4
 10
181.640447
 20
104.562210
 11
187.640447
 21
98.562210
  0
LINE
  8
CSLAYER1
  6
CONTINUOUS
 62
     4
 10
181.640447
 20
103.147996
 11
187.640447
 21
97.147996
  0
LINE
  8
CSLAYER1
  6
CONTINUOUS
 62
     4
 10
181.640447
 20
101.733782
 11
187.640447
 21
95.733782
  0
LINE
  8
CSLAYER1
  6
CONTINUOUS
 62
     4
 10
181.640447
 20
100.319569
 11
187.640447
 21
94.319569
  0
LINE
  8
CSLAYER1
  6
CONTINUOUS
 62
     4
 10
181.640447
 20
98.905355
 11
187.640447
 21
92.905355
  0
LINE
  8
CSLAYER1
  6
CONTINUOUS
 62
     4
 10
181.640447
 20
97.491142
 11
187.640447
 21
91.491142
  0
LINE
  8
CSLAYER1
  6
CONTINUOUS
 62
     4
 10
181.640447
 20
96.076928
 11
187.640447
 21
90.076928
  0
LINE
  8
CSLAYER1
  6
CONTINUOUS
 62
     4
 10
181.640447
 20
94.662715
 11
187.640447
 21
88.662715
  0
LINE
  8
CSLAYER1
  6
CONTINUOUS
 62
     4
 10
181.640447
 20
93.248501
 11
187.640447
 21
87.248501
  0
LINE
  8
CSLAYER1
  6
CONTINUOUS
 62
     4
 10
181.640447
 20
91.834288
 11
187.640447
 21
85.834288
  0
LINE
  8
CSLAYER1
  6
CONTINUOUS
 62
     4
 10
181.640447
 20
90.420074
 11
187.640447
 21
84.420074
  0
LINE
  8
CSLAYER1
  6
CONTINUOUS
 62
     4
 10
181.640447
 20
89.005860
 11
187.640447
 21
83.005860
  0
LINE
  8
CSLAYER1
  6
CONTINUOUS
 62
     4
 10
181.640447
 20
87.591647
 11
187.640447
 21
81.591647
  0
LINE
  8
CSLAYER1
  6
CONTINUOUS
 62
     4
 10
181.640447
 20
86.177433
 11
187.640447
 21
80.177433
  0
LINE
  8
CSLAYER1
  6
CONTINUOUS
 62
     4
 10
181.640447
 20
84.763220
 11
187.640447
 21
78.763220
  0
LINE
  8
CSLAYER1
  6
CONTINUOUS
 62
     4
 10
181.640447
 20
83.349006
 11
187.640447
 21
77.349006
  0
LINE
  8
CSLAYER1
  6
CONTINUOUS
 62
     4
 10
181.640447
 20
81.934793
 11
187.640447
 21
75.934793
  0
LINE
  8
CSLAYER1
  6
CONTINUOUS
 62
     4
 10
181.640447
 20
80.520579
 11
187.640447
 21
74.520579
  0
LINE
  8
CSLAYER1
  6
CONTINUOUS
 62
     4
 10
181.640447
 20
79.106365
 11
187.640447
 21
73.106365
  0
LINE
  8
CSLAYER1
  6
CONTINUOUS
 62
     4
 10
181.640447
 20
77.692152
 11
187.640447
 21
71.692152
  0
LINE
  8
CSLAYER1
  6
CONTINUOUS
 62
     4
 10
181.640447
 20
76.277938
 11
187.640447
 21
70.277938
  0
LINE
  8
CSLAYER1
  6
CONTINUOUS
 62
     4
 10
181.640447
 20
74.863725
 11
187.640447
 21
68.863725
  0
LINE
  8
CSLAYER1
  6
CONTINUOUS
 62
     4
 10
181.640447
 20
73.449511
 11
187.640447
 21
67.449511
  0
LINE
  8
CSLAYER1
  6
CONTINUOUS
 62
     4
 10
181.640447
 20
72.035298
 11
187.640447
 21
66.035298
  0
LINE
  8
CSLAYER1
  6
CONTINUOUS
 62
     4
 10
181.640447
 20
70.621084
 11
187.640447
 21
64.621084
  0
LINE
  8
CSLAYER1
  6
CONTINUOUS
 62
     4
 10
181.640447
 20
69.206871
 11
187.640447
 21
63.206871
  0
LINE
  8
CSLAYER1
  6
CONTINUOUS
 62
     4
 10
181.640447
 20
67.792657
 11
187.640447
 21
61.792657
  0
LINE
  8
CSLAYER1
  6
CONTINUOUS
 62
     4
 10
181.640447
 20
66.378443
 11
187.640447
 21
60.378443
  0
LINE
  8
CSLAYER1
  6
CONTINUOUS
 62
     4
 10
181.640447
 20
64.964230
 11
187.640447
 21
58.964230
  0
LINE
  8
CSLAYER1
  6
CONTINUOUS
 62
     4
 10
181.640447
 20
63.550016
 11
186.728759
 21
58.461705
  0
LINE
  8
CSLAYER1
  6
CONTINUOUS
 62
     4
 10
181.640447
 20
62.135803
 11
185.314546
 21
58.461705
  0
LINE
  8
CSLAYER1
  6
CONTINUOUS
 62
     4
 10
181.640447
 20
60.721589
 11
183.900332
 21
58.461705
  0
LINE
  8
CSLAYER1
  6
CONTINUOUS
 62
     4
 10
181.640447
 20
59.307376
 11
182.486118
 21
58.461705
  0
ENDBLK
  8
0
  0
ENDSEC
  0
SECTION
  2
ENTITIES
  0
POINT
  8
CSLAYER1
 62
     3
 10
10.000000
 20
3.000000
  0
POINT
  8
CSLAYER1
 62
     3
 10
124.000000
 20
3.000000
  0
POINT
  8
CSLAYER1
 62
     3
 10
233.500000
 20
28.000000
  0
POINT
  8
CSLAYER1
 62
     3
 10
263.500000
 20
28.000000
  0
POINT
  8
CSLAYER1
 62
     3
 10
146.500000
 20
25.500000
  0
POINT
  8
CSLAYER1
 62
     3
 10
146.500000
 20
20.500000
  0
POINT
  8
CSLAYER1
 62
     3
 10
146.500000
 20
15.500000
  0
POINT
  8
CSLAYER1
 62
     3
 10
146.500000
 20
10.500000
  0
POINT
  8
CSLAYER1
 62
     3
 10
146.500000
 20
5.500000
  0
POINT
  8
CSLAYER1
 62
     3
 10
183.000000
 20
25.500000
  0
POINT
  8
CSLAYER1
 62
     3
 10
183.000000
 20
20.500000
  0
POINT
  8
CSLAYER1
 62
     3
 10
183.000000
 20
15.500000
  0
POINT
  8
CSLAYER1
 62
     3
 10
183.000000
 20
10.500000
  0
POINT
  8
CSLAYER1
 62
     3
 10
183.000000
 20
5.500000
  0
POINT
  8
CSLAYER1
 62
     3
 10
241.000000
 20
19.500000
  0
POINT
  8
CSLAYER1
 62
     3
 10
365.500000
 20
9.000000
  0
POINT
  8
CSLAYER1
 62
     3
 10
365.500000
 20
20.500000
  0
POINT
  8
CSLAYER1
 62
     3
 10
318.000000
 20
28.000000
  0
POINT
  8
CSLAYER1
 62
     3
 10
270.250000
 20
9.250000
  0
POINT
  8
CSLAYER1
 62
     3
 10
318.000000
 20
18.000000
  0
POINT
  8
CSLAYER1
 62
     3
 10
318.000000
 20
8.000000
  0
POINT
  8
CSLAYER1
 62
     3
 10
255.250000
 20
9.250000
  0
POINT
  8
CSLAYER1
 62
     3
 10
240.250000
 20
9.250000
  0
POINT
  8
CSLAYER1
 62
     3
 10
225.250000
 20
9.250000
  0
POINT
  8
CSLAYER1
 62
     3
 10
283.525000
 20
11.475000
  0
POINT
  8
CSLAYER1
 62
     3
 10
287.550000
 20
7.450000
  0
POINT
  8
CSLAYER1
 62
     3
 10
222.205136
 20
19.500000
  0
POINT
  8
CSLAYER1
 62
     3
 10
235.567968
 20
19.500000
  0
POINT
  8
CSLAYER1
 62
     3
 10
248.294474
 20
19.500000
  0
POINT
  8
CSLAYER1
 62
     3
 10
390.000000
 20
19.500000
  0
POINT
  8
CSLAYER1
 62
     3
 10
139.000000
 20
25.500000
  0
POINT
  8
CSLAYER1
 62
     3
 10
139.000000
 20
20.500000
  0
POINT
  8
CSLAYER1
 62
     3
 10
139.000000
 20
15.500000
  0
POINT
  8
CSLAYER1
 62
     3
 10
139.000000
 20
10.500000
  0
POINT
  8
CSLAYER1
 62
     3
 10
139.000000
 20
5.500000
  0
POINT
  8
CSLAYER1
 62
     3
 10
158.000000
 20
25.500000
  0
POINT
  8
CSLAYER1
 62
     3
 10
158.000000
 20
20.500000
  0
POINT
  8
CSLAYER1
 62
     3
 10
158.000000
 20
15.500000
  0
POINT
  8
CSLAYER1
 62
     3
 10
158.000000
 20
10.500000
  0
POINT
  8
CSLAYER1
 62
     3
 10
158.000000
 20
5.500000
  0
LINE
  8
CSLAYER1
  6
CONTINUOUS
 62
     3
 10
10.000000
 20
3.000000
 11
395.000000
 21
3.000000
  0
LINE
  8
CSLAYER1
  6
CONTINUOUS
 62
     3
 10
395.000000
 20
3.000000
 11
395.000000
 21
275.000000
  0
LINE
  8
CSLAYER1
  6
CONTINUOUS
 62
     3
 10
395.000000
 20
275.000000
 11
10.000000
 21
275.000000
  0
LINE
  8
CSLAYER1
  6
CONTINUOUS
 62
     3
 10
10.000000
 20
275.000000
 11
10.000000
 21
3.000000
  0
LINE
  8
CSLAYER1
  6
CONTINUOUS
 62
     3
 10
124.000000
 20
3.000000
 11
124.000000
 21
33.000000
  0
LINE
  8
CSLAYER1
  6
CONTINUOUS
 62
     3
 10
124.000000
 20
33.000000
 11
395.000000
 21
33.000000
  0
TEXT
  8
CSLAYER1
 62
     4
 10
292.899970
 20
26.200008
 40
3.600000
 41
1.866667
  1
材質
 50
0.000000
 51
0.000000
  7
FX_FONT
 72
     5
 11
304.099969
 21
26.200008
  0
TEXT
  8
CSLAYER1
 62
     4
 10
292.899970
 20
16.200008
 40
3.600000
 41
1.866667
  1
処理
 50
0.000000
 51
0.000000
  7
FX_FONT
 72
     5
 11
304.099969
 21
16.200008
  0
TEXT
  8
CSLAYER1
 62
     4
 10
291.299970
 20
6.200004
 40
3.600000
 41
1.090909
  1
一台数量
 50
0.000000
 51
0.000000
  7
FX_FONT
 72
     5
 11
305.699969
 21
6.200004
  0
TEXT
  8
CSLAYER1
 62
     4
 10
225.099985
 20
26.200008
 40
3.600000
 41
1.272727
  1
株式会社
 50
0.000000
 51
0.000000
  7
FX_FONT
 72
     5
 11
241.899985
 21
26.200008
  0
TEXT
  8
CSLAYER1
 62
     4
 10
244.799969
 20
25.500008
 40
5.000000
 41
1.122000
  1
ベツセル福知山
 50
0.000000
 51
0.000000
  7
FX_FONT
 72
     5
 11
282.199970
 21
25.500008
  0
TEXT
  8
CSLAYER1
 62
     4
 10
131.200000
 20
29.100008
 40
2.800000
 41
1.200000
  1
符号
 50
0.000000
 51
0.000000
  7
FX_FONT
 72
     5
 11
136.800000
 21
29.100008
  0
TEXT
  8
CSLAYER1
 62
     4
 10
132.200000
 20
23.700008
 40
3.600000
 41
1.500000
  1
1
 50
0.000000
 51
0.000000
  7
FX_FONT
 72
     5
 11
135.800000
 21
23.700008
  0
TEXT
  8
CSLAYER1
 62
     4
 10
132.200000
 20
18.700008
 40
3.600000
 41
1.500000
  1
2
 50
0.000000
 51
0.000000
  7
FX_FONT
 72
     5
 11
135.800000
 21
18.700008
  0
TEXT
  8
CSLAYER1
 62
     4
 10
132.200000
 20
13.700000
 40
3.600000
 41
1.500000
  1
3
 50
0.000000
 51
0.000000
  7
FX_FONT
 72
     5
 11
135.800000
 21
13.700000
  0
TEXT
  8
CSLAYER1
 62
     4
 10
132.200000
 20
8.700000
 40
3.600000
 41
1.500000
  1
4
 50
0.000000
 51
0.000000
  7
FX_FONT
 72
     5
 11
135.800000
 21
8.700000
  0
TEXT
  8
CSLAYER1
 62
     4
 10
138.600000
 20
28.700008
 40
3.600000
 41
1.645833
  1
年月日
 50
0.000000
 51
0.000000
  7
FX_FONT
 72
     5
 11
154.400000
 21
28.700008
  0
TEXT
  8
CSLAYER1
 62
     4
 10
160.800000
 20
28.700008
 40
3.600000
 41
3.363636
  1
改正理由
 50
0.000000
 51
0.000000
  7
FX_FONT
 72
     5
 11
205.200000
 21
28.700008
  0
TEXT
  8
CSLAYER1
 62
     4
 10
211.200000
 20
28.700008
 40
3.600000
 41
1.500000
  1
印
 50
0.000000
 51
0.000000
  7
FX_FONT
 72
     5
 11
214.800000
 21
28.700008
  0
TEXT
  8
CSLAYER1
 62
     4
 10
225.599985
 20
17.700008
 40
3.600000
 41
3.208333
  1
年月日
 50
0.000000
 51
0.000000
  7
FX_FONT
 72
     5
 11
256.399985
 21
17.700008
  0
TEXT
  8
CSLAYER1
 62
     4
 10
216.350000
 20
10.725000
 40
2.800000
 41
1.500000
  1
設
 50
0.000000
 51
0.000000
  7
FX_FONT
 72
     5
 11
219.150000
 21
10.725000
  0
TEXT
  8
CSLAYER1
 62
     4
 10
216.350000
 20
5.475004
 40
2.800000
 41
1.500000
  1
計
 50
0.000000
 51
0.000000
  7
FX_FONT
 72
     5
 11
219.150000
 21
5.475004
  0
TEXT
  8
CSLAYER1
 62
     4
 10
231.349985
 20
10.725000
 40
2.800000
 41
1.500000
  1
製
 50
0.000000
 51
0.000000
  7
FX_FONT
 72
     5
 11
234.149985
 21
10.725000
  0
TEXT
  8
CSLAYER1
 62
     4
 10
231.349985
 20
5.475004
 40
2.800000
 41
1.500000
  1
図
 50
0.000000
 51
0.000000
  7
FX_FONT
 72
     5
 11
234.149985
 21
5.475004
  0
TEXT
  8
CSLAYER1
 62
     4
 10
246.349985
 20
10.725000
 40
2.800000
 41
1.500000
  1
検
 50
0.000000
 51
0.000000
  7
FX_FONT
 72
     5
 11
249.149985
 21
10.725000
  0
TEXT
  8
CSLAYER1
 62
     4
 10
246.349985
 20
5.475004
 40
2.800000
 41
1.500000
  1
図
 50
0.000000
 51
0.000000
  7
FX_FONT
 72
     5
 11
249.149985
 21
5.475004
  0
TEXT
  8
CSLAYER1
 62
     4
 10
261.349970
 20
10.725000
 40
2.800000
 41
1.500000
  1
承
 50
0.000000
 51
0.000000
  7
FX_FONT
 72
     5
 11
264.149969
 21
10.725000
  0
TEXT
  8
CSLAYER1
 62
     4
 10
261.349970
 20
5.475004
 40
2.800000
 41
1.500000
  1
認
 50
0.000000
 51
0.000000
  7
FX_FONT
 72
     5
 11
264.149969
 21
5.475004
  0
TEXT
  8
CSLAYER1
 62
     4
 10
276.349970
 20
10.725000
 40
2.800000
 41
1.500000
  1
尺
 50
0.000000
 51
0.000000
  7
FX_FONT
 72
     5
 11
279.149969
 21
10.725000
  0
TEXT
  8
CSLAYER1
 62
     4
 10
276.349970
 20
5.475004
 40
2.800000
 41
1.500000
  1
度
 50
0.000000
 51
0.000000
  7
FX_FONT
 72
     5
 11
279.149969
 21
5.475004
  0
TEXT
  8
CSLAYER1
 62
     4
 10
125.700000
 20
23.200008
 40
3.600000
 41
1.500000
  1
改
 50
0.000000
 51
0.000000
  7
FX_FONT
 72
     5
 11
129.300000
 21
23.200008
  0
TEXT
  8
CSLAYER1
 62
     4
 10
125.700000
 20
9.200000
 40
3.600000
 41
1.500000
  1
正
 50
0.000000
 51
0.000000
  7
FX_FONT
 72
     5
 11
129.300000
 21
9.200000
  0
TEXT
  8
CSLAYER1
 62
     4
 10
331.200000
 20
28.900005
 40
3.600000
 41
1.500000
  1
図
 50
0.000000
 51
0.000000
  7
FX_FONT
 72
     5
 11
334.800000
 21
28.900005
  0
TEXT
  8
CSLAYER1
 62
     4
 10
331.200000
 20
25.500011
 40
3.600000
 41
1.500000
  1
番
 50
0.000000
 51
0.000000
  7
FX_FONT
 72
     5
 11
334.800000
 21
25.500011
  0
TEXT
  8
CSLAYER1
 62
     4
 10
331.200000
 20
20.900005
 40
3.600000
 41
1.500000
  1
型
 50
0.000000
 51
0.000000
  7
FX_FONT
 72
     5
 11
334.800000
 21
20.900005
  0
TEXT
  8
CSLAYER1
 62
     4
 10
331.200000
 20
17.500011
 40
3.600000
 41
1.500000
  1
式
 50
0.000000
 51
0.000000
  7
FX_FONT
 72
     5
 11
334.800000
 21
17.500011
  0
TEXT
  8
CSLAYER1
 62
     4
 10
331.200000
 20
10.950000
 40
3.600000
 41
1.500000
  1
品
 50
0.000000
 51
0.000000
  7
FX_FONT
 72
     5
 11
334.800000
 21
10.950000
  0
TEXT
  8
CSLAYER1
 62
     4
 10
331.200000
 20
5.450004
 40
3.600000
 41
1.500000
  1
名
 50
0.000000
 51
0.000000
  7
FX_FONT
 72
     5
 11
334.800000
 21
5.450004
  0
TEXT
  8
CSLAYER1
 62
     4
 10
280.449982
 20
9.550003
 40
5.000000
 41
1.500000
  1
1
 50
0.000000
 51
0.000000
  7
FX_FONT
 72
     5
 11
285.449982
 21
9.550003
  0
TEXT
  8
CSLAYER1
 62
     4
 10
285.049957
 20
4.950001
 40
5.000000
 41
1.500000
  1
1
 50
0.000000
 51
0.000000
  7
FX_FONT
 72
     5
 11
290.049957
 21
4.950001
  0
TEXT
  8
CSLAYER1
 62
     4
 10
132.200000
 20
3.700004
 40
3.600000
 41
1.500000
  1
5
 50
0.000000
 51
0.000000
  7
FX_FONT
 72
     5
 11
135.800000
 21
3.700004
  0
LINE
  8
CSLAYER1
  6
CONTINUOUS
 62
     4
 10
131.000000
 20
3.000000
 11
131.000000
 21
33.000000
  0
LINE
  8
CSLAYER1
  6
CONTINUOUS
 62
     4
 10
131.000000
 20
28.000000
 11
216.000000
 21
28.000000
  0
LINE
  8
CSLAYER1
  6
CONTINUOUS
 62
     4
 10
216.000000
 20
33.000000
 11
216.000000
 21
3.000000
  0
LINE
  8
CSLAYER1
  6
CONTINUOUS
 62
     4
 10
219.500000
 20
3.000000
 11
219.500000
 21
15.500000
  0
LINE
  8
CSLAYER1
  6
CONTINUOUS
 62
     4
 10
218.000000
 20
17.500000
 11
259.000000
 21
17.500000
  0
LINE
  8
CSLAYER1
  6
CONTINUOUS
 62
     4
 10
261.000000
 20
23.000000
 11
261.000000
 21
3.000000
  0
LINE
  8
CSLAYER1
  6
CONTINUOUS
 62
     4
 10
264.500000
 20
3.000000
 11
264.500000
 21
15.500000
  0
LINE
  8
CSLAYER1
  6
CENTER
 62
     4
 10
266.143030
 20
19.250000
 11
273.423532
 21
19.250000
  0
CIRCLE
  8
CSLAYER1
  6
CONTINUOUS
 62
     4
 10
269.893939
 20
19.250000
 40
2.500000
  0
CIRCLE
  8
CSLAYER1
  6
CONTINUOUS
 62
     4
 10
269.893939
 20
19.250000
 40
1.508161
  0
LINE
  8
CSLAYER1
  6
CENTER
 62
     4
 10
269.893939
 20
16.225455
 11
269.893939
 21
22.412121
  0
LINE
  8
CSLAYER1
  6
CENTER
 62
     4
 10
277.475519
 20
19.250000
 11
285.476364
 21
19.250000
  0
LINE
  8
CSLAYER1
  6
CONTINUOUS
 62
     4
 10
284.245455
 20
21.750000
 11
284.245455
 21
16.750000
  0
LINE
  8
CSLAYER1
  6
CONTINUOUS
 62
     4
 10
284.245455
 20
16.750000
 11
278.620455
 21
17.741839
  0
LINE
  8
CSLAYER1
  6
CONTINUOUS
 62
     4
 10
278.620455
 20
17.741839
 11
278.620455
 21
20.758161
  0
LINE
  8
CSLAYER1
  6
CONTINUOUS
 62
     4
 10
278.620455
 20
20.758161
 11
284.245455
 21
21.750000
  0
LINE
  8
CSLAYER1
  6
CONTINUOUS
 62
     4
 10
279.500000
 20
15.500000
 11
279.500000
 21
3.000000
  0
LINE
  8
CSLAYER1
  6
CONTINUOUS
 62
     4
 10
280.553000
 20
5.053000
 11
289.701618
 21
14.201618
  0
LINE
  8
CSLAYER1
  6
CONTINUOUS
 62
     4
 10
291.000000
 20
13.000000
 11
330.000000
 21
13.000000
  0
LINE
  8
CSLAYER1
  6
CONTINUOUS
 62
     4
 10
330.000000
 20
17.000000
 11
395.000000
 21
17.000000
  0
LINE
  8
CSLAYER1
  6
CONTINUOUS
 62
     4
 10
395.000000
 20
25.000000
 11
330.000000
 21
25.000000
  0
LINE
  8
CSLAYER1
  6
CONTINUOUS
 62
     4
 10
330.000000
 20
23.000000
 11
131.000000
 21
23.000000
  0
LINE
  8
CSLAYER1
  6
CONTINUOUS
 62
     4
 10
131.000000
 20
18.000000
 11
216.000000
 21
18.000000
  0
LINE
  8
CSLAYER1
  6
CONTINUOUS
 62
     4
 10
216.000000
 20
15.500000
 11
291.000000
 21
15.500000
  0
LINE
  8
CSLAYER1
  6
CONTINUOUS
 62
     4
 10
291.000000
 20
3.000000
 11
291.000000
 21
33.000000
  0
LINE
  8
CSLAYER1
  6
CONTINUOUS
 62
     4
 10
306.000000
 20
33.000000
 11
306.000000
 21
3.000000
  0
LINE
  8
CSLAYER1
  6
CONTINUOUS
 62
     4
 10
330.000000
 20
3.000000
 11
330.000000
 21
33.000000
  0
LINE
  8
CSLAYER1
  6
CONTINUOUS
 62
     4
 10
336.000000
 20
33.000000
 11
336.000000
 21
3.000000
  0
LINE
  8
CSLAYER1
  6
CONTINUOUS
 62
     4
 10
276.000000
 20
3.000000
 11
276.000000
 21
15.500000
  0
LINE
  8
CSLAYER1
  6
CONTINUOUS
 62
     4
 10
249.500000
 20
15.500000
 11
249.500000
 21
3.000000
  0
LINE
  8
CSLAYER1
  6
CONTINUOUS
 62
     4
 10
246.000000
 20
3.000000
 11
246.000000
 21
15.500000
  0
LINE
  8
CSLAYER1
  6
CONTINUOUS
 62
     4
 10
234.500000
 20
15.500000
 11
234.500000
 21
3.000000
  0
LINE
  8
CSLAYER1
  6
CONTINUOUS
 62
     4
 10
231.000000
 20
3.000000
 11
231.000000
 21
15.500000
  0
LINE
  8
CSLAYER1
  6
CONTINUOUS
 62
     4
 10
216.000000
 20
13.000000
 11
131.000000
 21
13.000000
  0
LINE
  8
CSLAYER1
  6
CONTINUOUS
 62
     4
 10
131.000000
 20
8.000000
 11
216.000000
 21
8.000000
  0
LINE
  8
CSLAYER1
  6
CONTINUOUS
 62
     4
 10
210.000000
 20
3.000000
 11
210.000000
 21
33.000000
  0
LINE
  8
CSLAYER1
  6
CONTINUOUS
 62
     4
 10
156.000000
 20
33.000000
 11
156.000000
 21
3.000000
  0
LINE
  8
CSLAYER1
  6
CONTINUOUS
 62
     4
 10
137.000000
 20
3.000000
 11
137.000000
 21
33.000000
  0
LINE
  8
CSLAYER1
  6
CONTINUOUS
 62
     3
 10
293.640447
 20
67.961705
 11
293.640447
 21
104.961705
  0
ARC
  8
CSLAYER1
  6
CONTINUOUS
 62
     3
 10
284.640447
 20
104.961705
 40
9.000000
 50
0.000000
 51
63.095981
  0
LINE
  8
CSLAYER1
  6
CONTINUOUS
 62
     3
 10
273.378636
 20
113.961705
 11
269.665447
 21
113.961705
  0
LINE
  8
CSLAYER1
  6
CONTINUOUS
 62
     3
 10
259.615447
 20
113.961705
 11
255.640447
 21
113.961705
  0
LINE
  8
CSLAYER1
  6
CONTINUOUS
 62
     3
 10
255.640447
 20
86.461705
 11
255.640447
 21
114.461705
  0
LINE
  8
CSLAYER1
  6
CONTINUOUS
 62
     3
 10
255.640447
 20
114.461705
 11
253.640447
 21
114.461705
  0
LINE
  8
CSLAYER1
  6
CONTINUOUS
 62
     3
 10
253.640447
 20
58.461705
 11
255.640447
 21
58.461705
  0
LINE
  8
CSLAYER1
  6
CONTINUOUS
 62
     3
 10
255.640447
 20
58.461705
 11
255.640447
 21
86.461705
  0
LINE
  8
CSLAYER1
  6
CONTINUOUS
 62
     3
 10
255.640447
 20
58.961705
 11
256.640447
 21
58.961705
  0
LINE
  8
CSLAYER1
  6
CONTINUOUS
 62
     3
 10
272.640447
 20
58.961705
 11
284.640447
 21
58.961705
  0
ARC
  8
CSLAYER1
  6
CONTINUOUS
 62
     3
 10
284.640447
 20
67.961705
 40
9.000000
 50
270.000000
 51
360.000000
  0
ARC
  8
CSLAYER1
  6
CONTINUOUS
 62
     3
 10
264.640447
 20
145.897326
 40
32.328540
 50
261.057950
 51
278.942050
  0
LINE
  8
CSLAYER1
  6
CONTINUOUS
 62
     3
 10
262.640447
 20
157.473493
 11
255.640447
 21
157.473493
  0
LINE
  8
CSLAYER1
  6
CONTINUOUS
 62
     3
 10
255.640447
 20
156.973493
 11
255.640447
 21
176.473493
  0
LINE
  8
CSLAYER1
  6
CONTINUOUS
 62
     3
 10
255.640447
 20
212.973493
 11
253.640447
 21
212.973493
  0
LINE
  8
CSLAYER1
  6
CONTINUOUS
 62
     3
 10
253.640447
 20
156.973493
 11
255.640447
 21
156.973493
  0
LINE
  8
CSLAYER1
  6
CONTINUOUS
 62
     3
 10
255.640447
 20
212.473493
 11
262.640447
 21
212.473493
  0
ARC
  8
CSLAYER1
  6
CONTINUOUS
 62
     3
 10
281.180944
 20
219.973493
 40
20.000000
 50
202.024313
 51
270.000000
  0
LINE
  8
CSLAYER1
  6
CONTINUOUS
 62
     3
 10
281.180944
 20
199.973493
 11
290.640447
 21
199.973493
  0
LINE
  8
CSLAYER1
  6
CONTINUOUS
 62
     3
 10
293.640447
 20
196.973493
 11
293.640447
 21
195.068370
  0
LINE
  8
CSLAYER1
  6
CONTINUOUS
 62
     3
 10
293.629461
 20
176.473493
 11
284.640447
 21
176.473493
  0
ARC
  8
CSLAYER1
  6
CONTINUOUS
 62
     3
 10
281.180944
 20
149.973493
 40
20.000000
 50
90.000000
 51
157.975687
  0
ARC
  8
CSLAYER1
  6
CONTINUOUS
 62
     3
 10
264.640447
 20
32.651060
 40
27.500000
 50
73.087610
 51
106.912390
  0
LINE
  8
CSLAYER1
  6
CONTINUOUS
 62
     3
 10
281.180944
 20
169.973493
 11
290.640447
 21
169.973493
  0
ARC
  8
CSLAYER1
  6
CONTINUOUS
 62
     3
 10
290.640447
 20
172.973493
 40
3.000000
 50
270.000000
 51
360.000000
  0
ARC
  8
CSLAYER1
  6
CONTINUOUS
 62
     3
 10
290.640447
 20
196.973493
 40
3.000000
 50
0.000000
 51
90.000000
  0
LINE
  8
CSLAYER1
  6
CENTER
 62
     4
 10
280.140447
 20
104.930072
 11
280.140447
 21
111.311623
  0
LINE
  8
CSLAYER1
  6
CENTER
 62
     4
 10
284.153881
 20
107.961705
 11
276.623651
 21
107.961705
  0
LINE
  8
CSLAYER1
  6
CONTINUOUS
 62
     3
 10
265.655166
 20
162.581039
 11
265.655166
 21
176.473493
  0
LINE
  8
CSLAYER1
  6
CONTINUOUS
 62
     3
 10
293.629461
 20
193.473493
 11
284.640447
 21
193.473493
  0
LINE
  8
CSLAYER1
  6
CONTINUOUS
 62
     3
 10
265.655166
 20
207.365946
 11
265.655166
 21
193.473493
  0
LINE
  8
CSLAYER1
  6
CONTINUOUS
 62
     3
 10
266.018693
 20
113.598178
 11
293.640447
 21
85.976423
  0
LINE
  8
CSLAYER1
  6
CONTINUOUS
 62
     3
 10
291.744509
 20
62.436099
 11
286.666053
 21
62.436099
  0
ARC
  8
CSLAYER1
  6
CONTINUOUS
 62
     3
 10
286.666053
 20
86.461705
 40
24.025605
 50
123.989810
 51
270.000000
  0
LINE
  8
CSLAYER1
  6
CONTINUOUS
 62
     3
 10
253.640447
 20
58.461705
 11
253.640447
 21
114.461705
  0
LINE
  8
CSLAYER1
  6
CONTINUOUS
 62
     3
 10
253.640447
 20
114.461705
 11
147.640447
 21
114.461705
  0
LINE
  8
CSLAYER1
  6
CONTINUOUS
 62
     3
 10
147.640447
 20
212.973493
 11
147.640447
 21
184.973493
  0
LINE
  8
CSLAYER1
  6
CONTINUOUS
 62
     3
 10
138.640447
 20
176.473493
 11
138.640447
 21
193.473493
  0
LINE
  8
CSLAYER1
  6
CONTINUOUS
 62
     3
 10
138.640447
 20
193.473493
 11
108.640447
 21
193.473493
  0
LINE
  8
CSLAYER1
  6
CONTINUOUS
 62
     3
 10
108.640447
 20
193.473493
 11
108.640447
 21
195.973493
  0
LINE
  8
CSLAYER1
  6
CONTINUOUS
 62
     3
 10
108.640447
 20
195.973493
 11
112.640447
 21
199.973493
  0
LINE
  8
CSLAYER1
  6
CONTINUOUS
 62
     3
 10
112.640447
 20
199.973493
 11
130.348831
 21
199.973493
  0
ARC
  8
CSLAYER1
  6
CONTINUOUS
 62
     3
 10
130.348831
 20
217.973493
 40
18.000000
 50
270.000000
 51
343.872380
  0
LINE
  8
CSLAYER1
  6
CONTINUOUS
 62
     3
 10
147.640447
 20
212.973493
 11
253.640447
 21
212.973493
  0
LINE
  8
CSLAYER1
  6
CENTER
 62
     4
 10
103.167980
 20
184.973493
 11
350.435828
 21
184.973493
  0
LINE
  8
CSLAYER1
  6
CONTINUOUS
 62
     4
 10
239.640447
 20
193.473493
 11
239.640447
 21
212.973493
  0
LINE
  8
CSLAYER1
  6
CONTINUOUS
 62
     4
 10
233.640447
 20
212.973493
 11
233.640447
 21
193.473493
  0
LINE
  8
CSLAYER1
  6
CONTINUOUS
 62
     4
 10
207.640447
 20
212.973493
 11
207.640447
 21
193.473493
  0
LINE
  8
CSLAYER1
  6
CONTINUOUS
 62
     4
 10
187.640447
 20
193.473493
 11
187.640447
 21
212.973493
  0
LINE
  8
CSLAYER1
  6
CENTER
 62
     4
 10
119.140447
 20
205.509906
 11
119.140447
 21
158.519015
  0
LINE
  8
CSLAYER1
  6
CENTER
 62
     4
 10
335.053196
 20
86.461705
 11
102.489532
 21
86.461705
  0
LINE
  8
CSLAYER1
  6
CONTINUOUS
 62
     3
 10
253.640447
 20
58.461705
 11
147.640447
 21
58.461705
  0
LINE
  8
CSLAYER1
  6
CONTINUOUS
 62
     3
 10
147.640447
 20
156.973493
 11
147.640447
 21
184.973493
  0
LINE
  8
CSLAYER1
  6
CONTINUOUS
 62
     3
 10
138.640447
 20
176.473493
 11
108.640447
 21
176.473493
  0
LINE
  8
CSLAYER1
  6
CONTINUOUS
 62
     3
 10
108.640447
 20
176.473493
 11
108.640447
 21
173.973493
  0
LINE
  8
CSLAYER1
  6
CONTINUOUS
 62
     3
 10
108.640447
 20
173.973493
 11
112.640447
 21
169.973493
  0
LINE
  8
CSLAYER1
  6
CONTINUOUS
 62
     3
 10
112.640447
 20
169.973493
 11
130.348831
 21
169.973493
  0
ARC
  8
CSLAYER1
  6
CONTINUOUS
 62
     3
 10
130.348831
 20
151.973493
 40
18.000000
 50
16.127620
 51
90.000000
  0
LINE
  8
CSLAYER1
  6
CONTINUOUS
 62
     3
 10
147.640447
 20
156.973493
 11
253.640447
 21
156.973493
  0
LINE
  8
CSLAYER1
  6
CONTINUOUS
 62
     3
 10
253.640447
 20
156.973493
 11
253.640447
 21
176.473493
  0
LINE
  8
CSLAYER1
  6
CENTER
 62
     4
 10
280.140447
 20
171.555582
 11
280.140447
 21
198.589158
  0
LINE
  8
CSLAYER1
  6
CONTINUOUS
 62
     3
 10
159.837789
 20
120.274734
 11
273.254688
 21
114.330806
  0
LINE
  8
CSLAYER1
  6
CONTINUOUS
 62
     3
 10
273.254688
 20
114.330806
 11
275.874552
 21
106.529175
  0
ARC
  8
CSLAYER1
  6
CONTINUOUS
 62
     3
 10
280.140447
 20
107.961705
 40
4.500000
 50
198.562557
 51
357.000000
  0
LINE
  8
CSLAYER1
  6
CONTINUOUS
 62
     3
 10
284.634280
 20
107.726193
 11
284.765150
 21
110.223337
  0
LINE
  8
CSLAYER1
  6
CONTINUOUS
 62
     3
 10
285.052968
 20
115.715229
 11
251.449864
 21
117.476293
  0
LINE
  8
CSLAYER1
  6
CONTINUOUS
 62
     3
 10
250.837494
 20
117.727818
 11
248.969732
 21
119.389584
  0
ARC
  8
CSLAYER1
  6
CONTINUOUS
 62
     3
 10
248.305026
 20
118.642479
 40
1.000000
 50
48.340192
 51
87.000000
  0
LINE
  8
CSLAYER1
  6
CONTINUOUS
 62
     3
 10
248.357361
 20
119.641109
 11
182.149783
 21
123.110901
  0
ARC
  8
CSLAYER1
  6
CONTINUOUS
 62
     3
 10
182.097447
 20
122.112272
 40
1.000000
 50
87.000000
 51
125.659808
  0
LINE
  8
CSLAYER1
  6
CONTINUOUS
 62
     3
 10
181.514476
 20
122.924764
 11
179.483244
 21
121.467336
  0
LINE
  8
CSLAYER1
  6
CONTINUOUS
 62
     3
 10
178.847937
 20
121.281199
 11
151.236610
 21
122.728247
  0
LINE
  8
CSLAYER1
  6
CONTINUOUS
 62
     3
 10
151.236610
 20
122.728247
 11
151.320348
 21
124.326054
  0
LINE
  8
CSLAYER1
  6
CONTINUOUS
 62
     3
 10
151.320348
 20
124.326054
 11
178.931674
 21
122.879006
  0
ARC
  8
CSLAYER1
  6
CONTINUOUS
 62
     3
 10
178.984010
 20
123.877636
 40
1.000000
 50
267.000000
 51
305.659808
  0
LINE
  8
CSLAYER1
  6
CONTINUOUS
 62
     3
 10
179.566982
 20
123.065143
 11
181.598213
 21
124.522571
  0
LINE
  8
CSLAYER1
  6
CONTINUOUS
 62
     3
 10
182.233521
 20
124.708708
 11
248.441099
 21
121.238916
  0
LINE
  8
CSLAYER1
  6
CONTINUOUS
 62
     3
 10
249.053470
 20
120.987391
 11
250.921231
 21
119.325625
  0
ARC
  8
CSLAYER1
  6
CONTINUOUS
 62
     3
 10
251.585938
 20
120.072730
 40
1.000000
 50
228.340192
 51
267.000000
  0
LINE
  8
CSLAYER1
  6
CONTINUOUS
 62
     3
 10
251.533602
 20
119.074100
 11
286.434924
 21
117.244999
  0
LINE
  8
CSLAYER1
  6
CONTINUOUS
 62
     3
 10
287.097329
 20
116.509324
 11
286.971723
 21
114.112613
  0
LINE
  8
CSLAYER1
  6
CONTINUOUS
 62
     3
 10
286.971723
 20
114.112613
 11
284.974464
 21
114.217285
  0
ARC
  8
CSLAYER1
  6
CONTINUOUS
 62
     3
 10
286.398289
 20
116.545959
 40
0.700000
 50
-3.000000
 51
87.000000
  0
ARC
  8
CSLAYER1
  6
CONTINUOUS
 62
     3
 10
251.502200
 20
118.474923
 40
1.000000
 50
228.340192
 51
267.000000
  0
ARC
  8
CSLAYER1
  6
CONTINUOUS
 62
     3
 10
248.388763
 20
120.240287
 40
1.000000
 50
48.340192
 51
87.000000
  0
LINE
  8
CSLAYER1
  6
CONTINUOUS
 62
     3
 10
272.140447
 20
174.473493
 11
287.123501
 21
174.473493
  0
LINE
  8
CSLAYER1
  6
CONTINUOUS
 62
     3
 10
284.640447
 20
174.473493
 11
284.640447
 21
178.973493
  0
LINE
  8
CSLAYER1
  6
CONTINUOUS
 62
     3
 10
285.640447
 20
179.973493
 11
286.640447
 21
179.973493
  0
LINE
  8
CSLAYER1
  6
CONTINUOUS
 62
     3
 10
286.640447
 20
179.973493
 11
286.640447
 21
189.973493
  0
LINE
  8
CSLAYER1
  6
CONTINUOUS
 62
     3
 10
286.640447
 20
189.973493
 11
285.640447
 21
189.973493
  0
LINE
  8
CSLAYER1
  6
CONTINUOUS
 62
     3
 10
284.640447
 20
190.973493
 11
284.640447
 21
195.473493
  0
LINE
  8
CSLAYER1
  6
CONTINUOUS
 62
     3
 10
287.123501
 20
195.473493
 11
272.140447
 21
195.473493
  0
LINE
  8
CSLAYER1
  6
CONTINUOUS
 62
     3
 10
269.312020
 20
193.473493
 11
159.140447
 21
193.473493
  0
ARC
  8
CSLAYER1
  6
CONTINUOUS
 62
     3
 10
159.140447
 20
184.973493
 40
8.500000
 50
90.000000
 51
270.000000
  0
LINE
  8
CSLAYER1
  6
CONTINUOUS
 62
     3
 10
159.140447
 20
176.473493
 11
269.312020
 21
176.473493
  0
ARC
  8
CSLAYER1
  6
CONTINUOUS
 62
     3
 10
269.312020
 20
173.473493
 40
3.000000
 50
19.471221
 51
90.000000
  0
ARC
  8
CSLAYER1
  6
CONTINUOUS
 62
     3
 10
285.640447
 20
178.973493
 40
1.000000
 50
90.000000
 51
180.000000
  0
ARC
  8
CSLAYER1
  6
CONTINUOUS
 62
     3
 10
285.640447
 20
190.973493
 40
1.000000
 50
180.000000
 51
270.000000
  0
ARC
  8
CSLAYER1
  6
CONTINUOUS
 62
     3
 10
269.312020
 20
196.473493
 40
3.000000
 50
270.000000
 51
340.528779
  0
LINE
  8
CSLAYER1
  6
CONTINUOUS
 62
     3
 10
246.640447
 20
188.973493
 11
180.640447
 21
188.973493
  0
ARC
  8
CSLAYER1
  6
CONTINUOUS
 62
     3
 10
180.640447
 20
184.973493
 40
4.000000
 50
90.000000
 51
270.000000
  0
LINE
  8
CSLAYER1
  6
CONTINUOUS
 62
     3
 10
180.640447
 20
180.973493
 11
246.640447
 21
180.973493
  0
ARC
  8
CSLAYER1
  6
CONTINUOUS
 62
     3
 10
246.640447
 20
184.973493
 40
4.000000
 50
-90.000000
 51
90.000000
  0
ARC
  8
CSLAYER1
  6
CONTINUOUS
 62
     3
 10
178.900273
 20
122.279828
 40
1.000000
 50
267.000000
 51
305.659808
  0
ARC
  8
CSLAYER1
  6
CONTINUOUS
 62
     3
 10
182.181185
 20
123.710079
 40
1.000000
 50
87.000000
 51
125.659808
  0
ARC
  8
CSLAYER1
  6
CONTINUOUS
 62
     3
 10
160.884508
 20
140.247324
 40
20.000000
 50
241.158067
 51
267.000000
  0
LINE
  8
CSLAYER1
  6
CONTINUOUS
 62
     3
 10
255.640447
 20
212.973493
 11
255.640447
 21
193.473493
  0
LINE
  8
CSLAYER1
  6
CONTINUOUS
 62
     3
 10
253.640447
 20
212.973493
 11
253.640447
 21
193.473493
  0
LINE
  8
CSLAYER1
  6
CONTINUOUS
 62
     3
 10
330.640447
 20
92.540205
 11
330.640447
 21
80.383205
  0
LINE
  8
CSLAYER1
  6
CONTINUOUS
 62
     4
 10
330.140447
 20
93.040205
 11
330.140447
 21
79.883205
  0
LINE
  8
CSLAYER1
  6
CONTINUOUS
 62
     3
 10
320.640447
 20
79.883205
 11
330.140447
 21
79.883205
  0
LINE
  8
CSLAYER1
  6
CONTINUOUS
 62
     4
 10
320.640447
 20
80.739205
 11
330.640447
 21
80.739205
  0
LINE
  8
CSLAYER1
  6
CONTINUOUS
 62
     3
 10
330.140447
 20
79.883205
 11
330.640447
 21
80.383205
  0
LINE
  8
CSLAYER1
  6
CONTINUOUS
 62
     3
 10
320.640447
 20
93.040205
 11
330.140447
 21
93.040205
  0
LINE
  8
CSLAYER1
  6
CONTINUOUS
 62
     4
 10
320.640447
 20
92.184205
 11
330.640447
 21
92.184205
  0
LINE
  8
CSLAYER1
  6
CONTINUOUS
 62
     3
 10
330.140447
 20
93.040205
 11
330.640447
 21
92.540205
  0
LINE
  8
CSLAYER1
  6
CONTINUOUS
 62
     4
 10
296.640447
 20
80.457955
 11
293.640447
 21
80.551705
  0
LINE
  8
CSLAYER1
  6
CONTINUOUS
 62
     3
 10
296.640447
 20
79.601955
 11
293.640447
 21
79.695705
  0
LINE
  8
CSLAYER1
  6
CONTINUOUS
 62
     4
 10
296.575931
 20
79.603971
 11
295.727381
 21
80.452521
  0
LINE
  8
CSLAYER1
  6
CONTINUOUS
 62
     4
 10
295.756834
 20
86.461705
 11
295.756834
 21
80.485567
  0
LINE
  8
CSLAYER1
  6
CONTINUOUS
 62
     4
 10
296.640447
 20
92.465455
 11
293.640447
 21
92.371705
  0
LINE
  8
CSLAYER1
  6
CONTINUOUS
 62
     3
 10
296.640447
 20
93.321455
 11
293.640447
 21
93.227705
  0
LINE
  8
CSLAYER1
  6
CONTINUOUS
 62
     4
 10
296.575931
 20
93.319438
 11
295.727381
 21
92.470888
  0
LINE
  8
CSLAYER1
  6
CONTINUOUS
 62
     4
 10
295.756834
 20
86.461705
 11
295.756834
 21
92.437842
  0
LINE
  8
CSLAYER1
  6
CONTINUOUS
 62
     3
 10
320.640447
 20
94.461705
 11
320.640447
 21
78.461705
  0
LINE
  8
CSLAYER1
  6
CONTINUOUS
 62
     3
 10
296.640447
 20
93.321455
 11
296.640447
 21
79.603971
  0
LINE
  8
CSLAYER1
  6
CONTINUOUS
 62
     3
 10
317.640447
 20
96.311705
 11
317.640447
 21
76.611705
  0
LINE
  8
CSLAYER1
  6
CONTINUOUS
 62
     3
 10
317.640447
 20
78.461705
 11
320.640447
 21
78.461705
  0
LINE
  8
CSLAYER1
  6
CONTINUOUS
 62
     3
 10
315.140447
 20
76.611705
 11
317.640447
 21
76.611705
  0
LINE
  8
CSLAYER1
  6
CONTINUOUS
 62
     3
 10
315.140447
 20
96.311705
 11
315.140447
 21
76.611705
  0
LINE
  8
CSLAYER1
  6
CONTINUOUS
 62
     3
 10
313.440447
 20
96.311705
 11
317.640447
 21
96.311705
  0
LINE
  8
CSLAYER1
  6
CONTINUOUS
 62
     3
 10
317.640447
 20
94.461705
 11
320.640447
 21
94.461705
  0
LINE
  8
CSLAYER1
  6
CONTINUOUS
 62
     3
 10
300.140447
 20
77.961705
 11
315.140447
 21
77.961705
  0
LINE
  8
CSLAYER1
  6
CONTINUOUS
 62
     3
 10
297.640447
 20
96.311705
 11
297.640447
 21
76.611705
  0
LINE
  8
CSLAYER1
  6
CONTINUOUS
 62
     3
 10
300.140447
 20
96.311705
 11
300.140447
 21
76.611705
  0
LINE
  8
CSLAYER1
  6
CONTINUOUS
 62
     3
 10
300.140447
 20
76.611705
 11
297.640447
 21
76.611705
  0
LINE
  8
CSLAYER1
  6
CONTINUOUS
 62
     3
 10
301.840447
 20
96.311705
 11
297.640447
 21
96.311705
  0
LINE
  8
CSLAYER1
  6
CONTINUOUS
 62
     3
 10
296.640447
 20
79.603971
 11
297.640447
 21
79.603971
  0
LINE
  8
CSLAYER1
  6
CONTINUOUS
 62
     3
 10
296.640447
 20
93.319438
 11
297.640447
 21
93.319438
  0
LINE
  8
CSLAYER1
  6
CONTINUOUS
 62
     3
 10
302.140447
 20
113.461705
 11
313.140447
 21
113.461705
  0
LINE
  8
CSLAYER1
  6
CONTINUOUS
 62
     3
 10
313.440447
 20
97.461705
 11
313.440447
 21
94.961705
  0
LINE
  8
CSLAYER1
  6
CONTINUOUS
 62
     3
 10
313.440447
 20
94.961705
 11
315.140447
 21
94.961705
  0
LINE
  8
CSLAYER1
  6
CONTINUOUS
 62
     3
 10
301.840447
 20
97.461705
 11
301.840447
 21
94.961705
  0
ARC
  8
CSLAYER1
  6
CONTINUOUS
 62
     3
 10
307.640447
 20
101.175399
 40
8.500000
 50
226.972215
 51
313.027785
  0
LINE
  8
CSLAYER1
  6
CONTINUOUS
 62
     3
 10
300.390447
 20
97.461705
 11
314.890447
 21
97.461705
  0
LINE
  8
CSLAYER1
  6
CONTINUOUS
 62
     3
 10
300.390447
 20
105.461705
 11
300.390447
 21
97.461705
  0
LINE
  8
CSLAYER1
  6
CONTINUOUS
 62
     3
 10
300.390447
 20
105.461705
 11
327.190447
 21
105.461705
  0
LINE
  8
CSLAYER1
  6
CONTINUOUS
 62
     3
 10
302.140447
 20
113.461705
 11
300.390447
 21
105.461705
  0
LINE
  8
CSLAYER1
  6
CONTINUOUS
 62
     3
 10
313.140447
 20
113.461705
 11
314.890447
 21
105.461705
  0
LINE
  8
CSLAYER1
  6
CONTINUOUS
 62
     3
 10
347.690447
 20
114.961705
 11
347.690447
 21
110.461705
  0
LINE
  8
CSLAYER1
  6
CONTINUOUS
 62
     3
 10
327.690447
 20
114.961705
 11
347.690447
 21
114.961705
  0
LINE
  8
CSLAYER1
  6
CONTINUOUS
 62
     3
 10
334.354697
 20
104.461705
 11
341.690447
 21
104.461705
  0
ARC
  8
CSLAYER1
  6
CONTINUOUS
 62
     3
 10
322.745134
 20
121.461705
 40
12.500000
 50
219.791819
 51
270.000000
  0
ARC
  8
CSLAYER1
  6
CONTINUOUS
 62
     3
 10
321.691173
 20
114.868410
 40
6.000000
 50
-79.882922
 51
0.890936
  0
ARC
  8
CSLAYER1
  6
CONTINUOUS
 62
     3
 10
316.890447
 20
97.461705
 40
2.000000
 50
121.952746
 51
180.000000
  0
ARC
  8
CSLAYER1
  6
CONTINUOUS
 62
     3
 10
334.354697
 20
69.461705
 40
35.000000
 50
90.000000
 51
121.952746
  0
ARC
  8
CSLAYER1
  6
CONTINUOUS
 62
     3
 10
341.690447
 20
110.461705
 40
6.000000
 50
270.000000
 51
360.000000
  0
LINE
  8
CSLAYER1
  6
CONTINUOUS
 62
     3
 10
330.640447
 20
181.323493
 11
330.640447
 21
178.894993
  0
LINE
  8
CSLAYER1
  6
CONTINUOUS
 62
     4
 10
330.140447
 20
181.323493
 11
330.140447
 21
178.394993
  0
LINE
  8
CSLAYER1
  6
CONTINUOUS
 62
     3
 10
320.640447
 20
178.394993
 11
330.140447
 21
178.394993
  0
LINE
  8
CSLAYER1
  6
CONTINUOUS
 62
     4
 10
320.640447
 20
179.250993
 11
330.640447
 21
179.250993
  0
LINE
  8
CSLAYER1
  6
CONTINUOUS
 62
     3
 10
330.140447
 20
178.394993
 11
330.640447
 21
178.894993
  0
LINE
  8
CSLAYER1
  6
CONTINUOUS
 62
     3
 10
320.640447
 20
191.551993
 11
330.140447
 21
191.551993
  0
LINE
  8
CSLAYER1
  6
CONTINUOUS
 62
     4
 10
320.640447
 20
190.695993
 11
330.640447
 21
190.695993
  0
LINE
  8
CSLAYER1
  6
CONTINUOUS
 62
     3
 10
330.140447
 20
191.551993
 11
330.640447
 21
191.051993
  0
LINE
  8
CSLAYER1
  6
CONTINUOUS
 62
     4
 10
296.640447
 20
178.969743
 11
293.640447
 21
179.063493
  0
LINE
  8
CSLAYER1
  6
CONTINUOUS
 62
     3
 10
296.640447
 20
178.113743
 11
293.640447
 21
178.207493
  0
LINE
  8
CSLAYER1
  6
CONTINUOUS
 62
     4
 10
296.575931
 20
178.115759
 11
295.727381
 21
178.964310
  0
LINE
  8
CSLAYER1
  6
CONTINUOUS
 62
     4
 10
295.756834
 20
184.973493
 11
295.756834
 21
178.997356
  0
LINE
  8
CSLAYER1
  6
CONTINUOUS
 62
     4
 10
296.640447
 20
190.977243
 11
293.640447
 21
190.883493
  0
LINE
  8
CSLAYER1
  6
CONTINUOUS
 62
     3
 10
296.640447
 20
191.833243
 11
293.640447
 21
191.739493
  0
LINE
  8
CSLAYER1
  6
CONTINUOUS
 62
     4
 10
296.575931
 20
191.831227
 11
295.727381
 21
190.982676
  0
LINE
  8
CSLAYER1
  6
CONTINUOUS
 62
     4
 10
295.756834
 20
184.973493
 11
295.756834
 21
190.949630
  0
LINE
  8
CSLAYER1
  6
CONTINUOUS
 62
     3
 10
320.640447
 20
192.973493
 11
320.640447
 21
188.781943
  0
LINE
  8
CSLAYER1
  6
CONTINUOUS
 62
     3
 10
296.640447
 20
191.833243
 11
296.640447
 21
178.115759
  0
LINE
  8
CSLAYER1
  6
CONTINUOUS
 62
     3
 10
317.640447
 20
194.823493
 11
317.640447
 21
189.287212
  0
LINE
  8
CSLAYER1
  6
CONTINUOUS
 62
     3
 10
317.640447
 20
176.973493
 11
320.640447
 21
176.973493
  0
LINE
  8
CSLAYER1
  6
CONTINUOUS
 62
     3
 10
315.140447
 20
175.123493
 11
317.640447
 21
175.123493
  0
LINE
  8
CSLAYER1
  6
CONTINUOUS
 62
     3
 10
315.140447
 20
194.823493
 11
315.140447
 21
189.918044
  0
LINE
  8
CSLAYER1
  6
CONTINUOUS
 62
     3
 10
315.140447
 20
194.823493
 11
317.640447
 21
194.823493
  0
LINE
  8
CSLAYER1
  6
CONTINUOUS
 62
     3
 10
317.640447
 20
192.973493
 11
320.640447
 21
192.973493
  0
LINE
  8
CSLAYER1
  6
CONTINUOUS
 62
     3
 10
300.140447
 20
176.473493
 11
315.140447
 21
176.473493
  0
LINE
  8
CSLAYER1
  6
CONTINUOUS
 62
     3
 10
297.640447
 20
194.823493
 11
297.640447
 21
193.203139
  0
LINE
  8
CSLAYER1
  6
CONTINUOUS
 62
     3
 10
300.140447
 20
194.823493
 11
300.140447
 21
192.037370
  0
LINE
  8
CSLAYER1
  6
CONTINUOUS
 62
     3
 10
300.140447
 20
175.123493
 11
297.640447
 21
175.123493
  0
LINE
  8
CSLAYER1
  6
CONTINUOUS
 62
     3
 10
300.140447
 20
194.823493
 11
297.640447
 21
194.823493
  0
LINE
  8
CSLAYER1
  6
CONTINUOUS
 62
     3
 10
296.640447
 20
178.115759
 11
297.151312
 21
178.115759
  0
LINE
  8
CSLAYER1
  6
CONTINUOUS
 62
     3
 10
296.640447
 20
191.831227
 11
297.151312
 21
191.831227
  0
LINE
  8
CSLAYER1
  6
CONTINUOUS
 62
     3
 10
300.140447
 20
193.273493
 11
315.140447
 21
193.273493
  0
ARC
  8
CSLAYER1
  6
CONTINUOUS
 62
     3
 10
307.640447
 20
184.973493
 40
7.250000
 50
143.458072
 51
216.541928
  0
ARC
  8
CSLAYER1
  6
CONTINUOUS
 62
     3
 10
307.640447
 20
184.973493
 40
5.500000
 50
148.918613
 51
211.081387
  0
LINE
  8
CSLAYER1
  6
CONTINUOUS
 62
     3
 10
302.790447
 20
185.473493
 11
303.621845
 21
185.473493
  0
LINE
  8
CSLAYER1
  6
CONTINUOUS
 62
     3
 10
312.490447
 20
185.473493
 11
312.490447
 21
184.473493
  0
LINE
  8
CSLAYER1
  6
CONTINUOUS
 62
     3
 10
302.790447
 20
184.473493
 11
303.621845
 21
184.473493
  0
LINE
  8
CSLAYER1
  6
CONTINUOUS
 62
     3
 10
302.790447
 20
185.473493
 11
302.790447
 21
184.473493
  0
LINE
  8
CSLAYER1
  6
CONTINUOUS
 62
     3
 10
347.690447
 20
181.323493
 11
347.690447
 21
188.623493
  0
LINE
  8
CSLAYER1
  6
CONTINUOUS
 62
     3
 10
327.690447
 20
188.623493
 11
347.690447
 21
188.623493
  0
LINE
  8
CSLAYER1
  6
CONTINUOUS
 62
     3
 10
327.690447
 20
181.323493
 11
347.690447
 21
181.323493
  0
LINE
  8
CSLAYER1
  6
CONTINUOUS
 62
     3
 10
327.690447
 20
181.323493
 11
327.690447
 21
188.623493
  0
LINE
  8
CSLAYER1
  6
CONTINUOUS
 62
     3
 10
314.733578
 20
186.473493
 11
327.690447
 21
188.623493
  0
ARC
  8
CSLAYER1
  6
CONTINUOUS
 62
     3
 10
324.947882
 20
223.515875
 40
35.000000
 50
245.817564
 51
274.494249
  0
LINE
  8
CSLAYER1
  6
CONTINUOUS
 62
     3
 10
314.733578
 20
183.473493
 11
327.690447
 21
181.323493
  0
ARC
  8
CSLAYER1
  6
CONTINUOUS
 62
     3
 10
324.947882
 20
146.431111
 40
35.000000
 50
85.505751
 51
114.182436
  0
LINE
  8
CSLAYER1
  6
CONTINUOUS
 62
     3
 10
315.140447
 20
180.028942
 11
315.140447
 21
175.123493
  0
LINE
  8
CSLAYER1
  6
CONTINUOUS
 62
     3
 10
317.640447
 20
180.659774
 11
317.640447
 21
175.123493
  0
LINE
  8
CSLAYER1
  6
CONTINUOUS
 62
     3
 10
320.640447
 20
181.165042
 11
320.640447
 21
176.973493
  0
LINE
  8
CSLAYER1
  6
CONTINUOUS
 62
     3
 10
330.640447
 20
188.623493
 11
330.640447
 21
191.051993
  0
LINE
  8
CSLAYER1
  6
CONTINUOUS
 62
     4
 10
330.140447
 20
188.623493
 11
330.140447
 21
191.551993
  0
LINE
  8
CSLAYER1
  6
CONTINUOUS
 62
     3
 10
297.640447
 20
191.603139
 11
297.640447
 21
178.343846
  0
LINE
  8
CSLAYER1
  6
CONTINUOUS
 62
     3
 10
300.140447
 20
190.437370
 11
300.140447
 21
179.509718
  0
LINE
  8
CSLAYER1
  6
CONTINUOUS
 62
     3
 10
305.225651
 20
185.473493
 11
312.490447
 21
185.473493
  0
LINE
  8
CSLAYER1
  6
CONTINUOUS
 62
     3
 10
305.225651
 20
184.473493
 11
312.490447
 21
184.473493
  0
ARC
  8
CSLAYER1
  6
CONTINUOUS
 62
     3
 10
307.640447
 20
184.973493
 40
5.500000
 50
-131.634392
 51
131.634392
  0
ARC
  8
CSLAYER1
  6
CONTINUOUS
 62
     3
 10
307.640447
 20
184.973493
 40
7.250000
 50
-131.438324
 51
131.438324
  0
LINE
  8
CSLAYER1
  6
CONTINUOUS
 62
     3
 10
300.140447
 20
177.909616
 11
300.140447
 21
175.123493
  0
LINE
  8
CSLAYER1
  6
CONTINUOUS
 62
     3
 10
297.640447
 20
176.743846
 11
297.640447
 21
175.123493
  0
LINE
  8
CSLAYER1
  6
CONTINUOUS
 62
     3
 10
279.340447
 20
195.473493
 11
279.340447
 21
196.573493
  0
LINE
  8
CSLAYER1
  6
CONTINUOUS
 62
     3
 10
279.840447
 20
197.073493
 11
287.123501
 21
197.073493
  0
ARC
  8
CSLAYER1
  6
CONTINUOUS
 62
     3
 10
279.840447
 20
196.573493
 40
0.500000
 50
90.000000
 51
180.000000
  0
LINE
  8
CSLAYER1
  6
CONTINUOUS
 62
     3
 10
279.340447
 20
174.473493
 11
279.340447
 21
173.373493
  0
LINE
  8
CSLAYER1
  6
CONTINUOUS
 62
     3
 10
279.840447
 20
172.873493
 11
287.123501
 21
172.873493
  0
ARC
  8
CSLAYER1
  6
CONTINUOUS
 62
     3
 10
279.840447
 20
173.373493
 40
0.500000
 50
180.000000
 51
270.000000
  0
LINE
  8
CSLAYER1
  6
CONTINUOUS
 62
     3
 10
291.349683
 20
196.136571
 11
300.996915
 21
191.637993
  0
LINE
  8
CSLAYER1
  6
CONTINUOUS
 62
     3
 10
291.349683
 20
194.536571
 11
300.170818
 21
190.423208
  0
LINE
  8
CSLAYER1
  6
CONTINUOUS
 62
     3
 10
291.349683
 20
173.810415
 11
300.996915
 21
178.308993
  0
LINE
  8
CSLAYER1
  6
CONTINUOUS
 62
     3
 10
291.349683
 20
175.410415
 11
300.170818
 21
179.523778
  0
ARC
  8
CSLAYER1
  6
CONTINUOUS
 62
     3
 10
297.889207
 20
184.973493
 40
7.353462
 50
-65.000000
 51
65.000000
  0
ARC
  8
CSLAYER1
  6
CONTINUOUS
 62
     3
 10
297.629574
 20
184.973493
 40
6.013095
 50
-65.000000
 51
65.000000
  0
ARC
  8
CSLAYER1
  6
CONTINUOUS
 62
     3
 10
287.123501
 20
187.073493
 40
10.000000
 50
65.000000
 51
90.000000
  0
ARC
  8
CSLAYER1
  6
CONTINUOUS
 62
     3
 10
287.123501
 20
185.473493
 40
10.000000
 50
65.000000
 51
90.000000
  0
ARC
  8
CSLAYER1
  6
CONTINUOUS
 62
     3
 10
287.123501
 20
184.473493
 40
10.000000
 50
270.000000
 51
295.000000
  0
ARC
  8
CSLAYER1
  6
CONTINUOUS
 62
     3
 10
287.123501
 20
182.873493
 40
10.000000
 50
270.000000
 51
295.000000
  0
LINE
  8
CSLAYER1
  6
CONTINUOUS
 62
     3
 10
293.640447
 20
193.468370
 11
293.640447
 21
176.473493
  0
LINE
  8
CSLAYER1
  6
CONTINUOUS
 62
     3
 10
293.640447
 20
174.878616
 11
293.640447
 21
172.973493
  0
ARC
  8
CSLAYER1
  6
CONTINUOUS
 62
     3
 10
280.140447
 20
107.961705
 40
1.550000
 50
-293.927049
 51
3.927049
  0
ARC
  8
CSLAYER1
  6
CONTINUOUS
 62
     3
 10
280.140447
 20
107.961705
 40
1.650000
 50
-295.997454
 51
5.997454
  0
LINE
  8
CSLAYER1
  6
CONTINUOUS
 62
     3
 10
304.583808
 20
126.053750
 11
279.681586
 21
108.617026
  0
LINE
  8
CSLAYER1
  6
CONTINUOUS
 62
     3
 10
305.501531
 20
124.743107
 11
280.599309
 21
107.306383
  0
ARC
  8
CSLAYER1
  6
CONTINUOUS
 62
     3
 10
280.140447
 20
107.961705
 40
0.800000
 50
125.000000
 51
305.000000
  0
ARC
  8
CSLAYER1
  6
CONTINUOUS
 62
     3
 10
305.042670
 20
125.398428
 40
0.800000
 50
-55.000000
 51
125.000000
  0
ARC
  8
CSLAYER1
  6
CONTINUOUS
 62
     3
 10
284.640447
 20
104.961705
 40
9.000000
 50
75.445751
 51
87.960327
  0
LINE
  8
CSLAYER1
  6
CONTINUOUS
 62
     3
 10
284.871414
 20
112.250983
 11
285.052968
 21
115.715229
  0
INSERT
  8
CSLAYER1
  2
BLKF0000
 10
0.0
 20
0.0
 30
0.0
  0
INSERT
  8
CSLAYER1
  2
BLKF0001
 10
0.0
 20
0.0
 30
0.0
  0
LINE
  8
CSLAYER1
  6
CONTINUOUS
 62
     4
 10
213.640447
 20
193.473493
 11
213.640447
 21
212.973493
  0
INSERT
  8
CSLAYER1
  2
BLKF0002
 10
0.0
 20
0.0
 30
0.0
  0
INSERT
  8
CSLAYER1
  2
BLKF0003
 10
0.0
 20
0.0
 30
0.0
  0
LINE
  8
CSLAYER1
  6
CONTINUOUS
 62
     4
 10
181.640447
 20
212.973493
 11
181.640447
 21
193.473493
  0
INSERT
  8
CSLAYER1
  2
BLKF0004
 10
0.0
 20
0.0
 30
0.0
  0
INSERT
  8
CSLAYER1
  2
BLKF0005
 10
0.0
 20
0.0
 30
0.0
  0
LINE
  8
CSLAYER1
  6
CONTINUOUS
 62
     4
 10
187.640447
 20
156.973493
 11
187.640447
 21
176.473493
  0
LINE
  8
CSLAYER1
  6
CONTINUOUS
 62
     4
 10
181.640447
 20
176.473493
 11
181.640447
 21
156.973493
  0
INSERT
  8
CSLAYER1
  2
BLKF0006
 10
0.0
 20
0.0
 30
0.0
  0
INSERT
  8
CSLAYER1
  2
BLKF0007
 10
0.0
 20
0.0
 30
0.0
  0
LINE
  8
CSLAYER1
  6
CONTINUOUS
 62
     4
 10
213.640447
 20
156.973493
 11
213.640447
 21
176.473493
  0
LINE
  8
CSLAYER1
  6
CONTINUOUS
 62
     4
 10
207.640447
 20
176.473493
 11
207.640447
 21
156.973493
  0
INSERT
  8
CSLAYER1
  2
BLKF0008
 10
0.0
 20
0.0
 30
0.0
  0
INSERT
  8
CSLAYER1
  2
BLKF0009
 10
0.0
 20
0.0
 30
0.0
  0
LINE
  8
CSLAYER1
  6
CONTINUOUS
 62
     4
 10
239.640447
 20
156.973493
 11
239.640447
 21
176.473493
  0
LINE
  8
CSLAYER1
  6
CONTINUOUS
 62
     4
 10
233.640447
 20
176.473493
 11
233.640447
 21
156.973493
  0
INSERT
  8
CSLAYER1
  2
BLKF0010
 10
0.0
 20
0.0
 30
0.0
  0
INSERT
  8
CSLAYER1
  2
BLKF0011
 10
0.0
 20
0.0
 30
0.0
  0
LINE
  8
CSLAYER1
  6
CONTINUOUS
 62
     4
 10
239.640447
 20
114.461705
 11
239.640447
 21
58.461705
  0
LINE
  8
CSLAYER1
  6
CONTINUOUS
 62
     4
 10
233.640447
 20
114.461705
 11
233.640447
 21
58.461705
  0
INSERT
  8
CSLAYER1
  2
BLKF0012
 10
0.0
 20
0.0
 30
0.0
  0
INSERT
  8
CSLAYER1
  2
BLKF0013
 10
0.0
 20
0.0
 30
0.0
  0
LINE
  8
CSLAYER1
  6
CONTINUOUS
 62
     4
 10
213.640447
 20
114.461705
 11
213.640447
 21
58.461705
  0
LINE
  8
CSLAYER1
  6
CONTINUOUS
 62
     4
 10
207.640447
 20
114.461705
 11
207.640447
 21
58.461705
  0
INSERT
  8
CSLAYER1
  2
BLKF0014
 10
0.0
 20
0.0
 30
0.0
  0
INSERT
  8
CSLAYER1
  2
BLKF0015
 10
0.0
 20
0.0
 30
0.0
  0
LINE
  8
CSLAYER1
  6
CONTINUOUS
 62
     4
 10
187.640447
 20
114.461705
 11
187.640447
 21
58.461705
  0
LINE
  8
CSLAYER1
  6
CONTINUOUS
 62
     4
 10
181.640447
 20
114.461705
 11
181.640447
 21
58.461705
  0
INSERT
  8
CSLAYER1
  2
BLKF0016
 10
0.0
 20
0.0
 30
0.0
  0
INSERT
  8
CSLAYER1
  2
BLKF0017
 10
0.0
 20
0.0
 30
0.0
  0
LINE
  8
CSLAYER1
  6
CONTINUOUS
 62
     3
 10
147.640447
 20
86.461705
 11
147.640447
 21
114.461705
  0
ARC
  8
CSLAYER1
  6
CONTINUOUS
 62
     3
 10
132.652799
 20
85.853109
 40
15.000000
 50
2.325302
 51
110.394876
  0
LINE
  8
CSLAYER1
  6
CONTINUOUS
 62
     3
 10
127.425475
 20
99.912806
 11
112.437165
 21
94.340229
  0
ARC
  8
CSLAYER1
  6
CONTINUOUS
 62
     3
 10
110.640447
 20
93.461705
 40
2.000000
 50
0.000000
 51
180.000000
  0
LINE
  8
CSLAYER1
  6
CONTINUOUS
 62
     3
 10
108.640447
 20
96.276132
 11
108.640447
 21
86.461705
  0
LINE
  8
CSLAYER1
  6
CONTINUOUS
 62
     3
 10
112.640447
 20
86.461705
 11
112.640447
 21
93.461705
  0
LINE
  8
CSLAYER1
  6
CONTINUOUS
 62
     3
 10
110.594983
 20
99.088072
 11
138.640447
 21
109.515232
  0
LINE
  8
CSLAYER1
  6
CONTINUOUS
 62
     3
 10
138.640447
 20
109.515232
 11
138.640447
 21
111.115551
  0
LINE
  8
CSLAYER1
  6
CONTINUOUS
 62
     3
 10
138.640447
 20
111.115551
 11
147.640447
 21
114.461705
  0
ARC
  8
CSLAYER1
  6
CONTINUOUS
 62
     3
 10
111.640447
 20
96.276132
 40
3.000000
 50
110.394876
 51
180.000000
  0
LINE
  8
CSLAYER1
  6
CENTER
 62
     4
 10
119.140447
 20
80.179470
 11
119.140447
 21
92.997477
  0
LINE
  8
CSLAYER1
  6
CONTINUOUS
 62
     3
 10
147.640447
 20
86.461705
 11
147.640447
 21
58.461705
  0
ARC
  8
CSLAYER1
  6
CONTINUOUS
 62
     3
 10
132.652799
 20
87.070300
 40
15.000000
 50
249.605124
 51
357.674698
  0
LINE
  8
CSLAYER1
  6
CONTINUOUS
 62
     3
 10
127.425475
 20
73.010603
 11
112.437165
 21
78.583180
  0
ARC
  8
CSLAYER1
  6
CONTINUOUS
 62
     3
 10
110.640447
 20
79.461705
 40
2.000000
 50
180.000000
 51
360.000000
  0
LINE
  8
CSLAYER1
  6
CONTINUOUS
 62
     3
 10
108.640447
 20
76.647277
 11
108.640447
 21
86.461705
  0
LINE
  8
CSLAYER1
  6
CONTINUOUS
 62
     3
 10
112.640447
 20
86.461705
 11
112.640447
 21
79.461705
  0
LINE
  8
CSLAYER1
  6
CONTINUOUS
 62
     3
 10
110.594983
 20
73.835337
 11
138.640447
 21
63.408177
  0
LINE
  8
CSLAYER1
  6
CONTINUOUS
 62
     3
 10
138.640447
 20
63.408177
 11
138.640447
 21
61.807858
  0
LINE
  8
CSLAYER1
  6
CONTINUOUS
 62
     3
 10
138.640447
 20
61.807858
 11
147.640447
 21
58.461705
  0
ARC
  8
CSLAYER1
  6
CONTINUOUS
 62
     3
 10
111.640447
 20
76.647277
 40
3.000000
 50
180.000000
 51
249.605124
  0
CIRCLE
  8
CSLAYER1
  6
CONTINUOUS
 62
     3
 10
119.140447
 20
86.461705
 40
2.500000
  0
CIRCLE
  8
CSLAYER1
  6
CONTINUOUS
 62
     4
 10
119.140447
 20
86.461705
 40
2.100000
  0
LINE
  8
CSLAYER1
  6
CONTINUOUS
 62
     3
 10
121.449848
 20
90.461705
 11
116.831046
 21
90.461705
  0
LINE
  8
CSLAYER1
  6
CONTINUOUS
 62
     3
 10
123.759250
 20
86.461705
 11
121.385640
 21
90.572918
  0
LINE
  8
CSLAYER1
  6
CONTINUOUS
 62
     3
 10
114.521645
 20
86.461705
 11
116.895255
 21
90.572918
  0
LINE
  8
CSLAYER1
  6
CONTINUOUS
 62
     3
 10
121.449848
 20
82.461705
 11
116.831046
 21
82.461705
  0
LINE
  8
CSLAYER1
  6
CONTINUOUS
 62
     3
 10
123.759250
 20
86.461705
 11
121.385640
 21
82.350491
  0
LINE
  8
CSLAYER1
  6
CONTINUOUS
 62
     3
 10
114.521645
 20
86.461705
 11
116.895255
 21
82.350491
  0
CIRCLE
  8
CSLAYER1
  6
CONTINUOUS
 62
     3
 10
119.140447
 20
86.461705
 40
4.000000
  0
LINE
  8
CSLAYER1
  6
CONTINUOUS
 62
     3
 10
115.640447
 20
202.973493
 11
118.640447
 21
202.973493
  0
LINE
  8
CSLAYER1
  6
CONTINUOUS
 62
     3
 10
114.640447
 20
201.973493
 11
114.640447
 21
199.973493
  0
LINE
  8
CSLAYER1
  6
CONTINUOUS
 62
     3
 10
114.640447
 20
201.973493
 11
123.640447
 21
201.973493
  0
LINE
  8
CSLAYER1
  6
CONTINUOUS
 62
     3
 10
114.640447
 20
201.973493
 11
115.640447
 21
202.973493
  0
LINE
  8
CSLAYER1
  6
CONTINUOUS
 62
     3
 10
123.640447
 20
201.973493
 11
123.640447
 21
199.973493
  0
LINE
  8
CSLAYER1
  6
CONTINUOUS
 62
     3
 10
123.640447
 20
201.973493
 11
122.640447
 21
202.973493
  0
LINE
  8
CSLAYER1
  6
CONTINUOUS
 62
     3
 10
119.640447
 20
202.973493
 11
119.640447
 21
201.973493
  0
LINE
  8
CSLAYER1
  6
CONTINUOUS
 62
     3
 10
118.640447
 20
202.973493
 11
118.640447
 21
201.973493
  0
LINE
  8
CSLAYER1
  6
CONTINUOUS
 62
     3
 10
119.640447
 20
202.973493
 11
122.640447
 21
202.973493
  0
LINE
  8
CSLAYER1
  6
CONTINUOUS
 62
     3
 10
121.640447
 20
193.473493
 11
121.640447
 21
176.473493
  0
LINE
  8
CSLAYER1
  6
CONTINUOUS
 62
     3
 10
116.640447
 20
193.473493
 11
116.640447
 21
176.473493
  0
LINE
  8
CSLAYER1
  6
CONTINUOUS
 62
     3
 10
117.140447
 20
160.973493
 11
121.140447
 21
160.973493
  0
LINE
  8
CSLAYER1
  6
CONTINUOUS
 62
     3
 10
116.640447
 20
165.273493
 11
116.640447
 21
161.473493
  0
LINE
  8
CSLAYER1
  6
CONTINUOUS
 62
     4
 10
117.040447
 20
165.273493
 11
117.040447
 21
161.073493
  0
LINE
  8
CSLAYER1
  6
CONTINUOUS
 62
     3
 10
117.140447
 20
160.973493
 11
116.640447
 21
161.473493
  0
LINE
  8
CSLAYER1
  6
CONTINUOUS
 62
     4
 10
116.640447
 20
161.473493
 11
121.640447
 21
161.473493
  0
LINE
  8
CSLAYER1
  6
CONTINUOUS
 62
     3
 10
121.640447
 20
165.273493
 11
121.640447
 21
161.473493
  0
LINE
  8
CSLAYER1
  6
CONTINUOUS
 62
     4
 10
121.240447
 20
165.273493
 11
121.240447
 21
161.073493
  0
LINE
  8
CSLAYER1
  6
CONTINUOUS
 62
     3
 10
121.140447
 20
160.973493
 11
121.640447
 21
161.473493
  0
LINE
  8
CSLAYER1
  6
CONTINUOUS
 62
     3
 10
114.521645
 20
169.973493
 11
114.521645
 21
165.630758
  0
LINE
  8
CSLAYER1
  6
CONTINUOUS
 62
     3
 10
116.831046
 20
169.973493
 11
116.831046
 21
165.630758
  0
LINE
  8
CSLAYER1
  6
CONTINUOUS
 62
     3
 10
115.140447
 20
165.273493
 11
123.140447
 21
165.273493
  0
LINE
  8
CSLAYER1
  6
CONTINUOUS
 62
     3
 10
123.759250
 20
169.973493
 11
123.759250
 21
165.630758
  0
LINE
  8
CSLAYER1
  6
CONTINUOUS
 62
     3
 10
121.449848
 20
169.973493
 11
121.449848
 21
165.630758
  0
LINE
  8
CSLAYER1
  6
CONTINUOUS
 62
     3
 10
115.140447
 20
165.273493
 11
114.521645
 21
165.630758
  0
LINE
  8
CSLAYER1
  6
CONTINUOUS
 62
     3
 10
123.140447
 20
165.273493
 11
123.759250
 21
165.630758
  0
ARC
  8
CSLAYER1
  6
CONTINUOUS
 62
     3
 10
119.140447
 20
172.916227
 40
7.642734
 50
252.412046
 51
287.587954
  0
ARC
  8
CSLAYER1
  6
CONTINUOUS
 62
     3
 10
123.835514
 20
172.741216
 40
7.500000
 50
251.452622
 51
264.682453
  0
ARC
  8
CSLAYER1
  6
CONTINUOUS
 62
     3
 10
114.445381
 20
172.741216
 40
7.500000
 50
275.317547
 51
288.547378
  0
DIMENSION
  8
CSLAYER1
 62
     4
  2
*D0000
 10
253.640447
 20
239.708618
 11
181.140442
 21
240.208618
 13
108.640447
 23
195.973493
 14
253.640447
 24
212.973493
  0
DIMENSION
  8
CSLAYER1
 62
     4
  2
*D0001
 10
293.640447
 20
239.708618
 11
273.640442
 21
240.208618
 13
253.640447
 23
212.973493
 14
293.640447
 24
196.973493
  0
DIMENSION
  8
CSLAYER1
 62
     4
  2
*D0002
 10
119.140447
 20
233.708618
 11
115.255722
 21
235.104507
 13
108.640447
 23
195.973493
 14
119.140447
 24
205.509906
  0
DIMENSION
  8
CSLAYER1
 62
     4
  2
*D0003
 10
253.640447
 20
233.708618
 11
200.640442
 21
234.208618
 13
147.640447
 23
212.973493
 14
253.640447
 24
213.973493
  0
DIMENSION
  8
CSLAYER1
 62
     4
  2
*D0004
 10
89.533789
 20
199.973493
 11
89.033791
 21
184.973495
 13
112.640447
 23
169.973493
 14
112.640447
 24
199.973493
 50
90.000000
 70
1
  0
DIMENSION
  8
CSLAYER1
 62
     4
  2
*D0005
 10
95.533789
 20
193.473493
 11
95.033791
 21
184.973495
 13
108.640447
 23
176.473493
 14
108.640447
 24
193.473493
 50
90.000000
 70
1
  0
DIMENSION
  8
CSLAYER1
 62
     4
  2
*D0006
 10
89.533789
 20
114.461705
 11
89.033791
 21
86.461700
 13
147.640447
 23
58.461705
 14
147.640447
 24
114.461705
 50
90.000000
 70
1
  0
DIMENSION
  8
CSLAYER1
 62
     4
  2
*D0007
 10
293.640447
 20
139.608618
 11
201.140442
 21
140.108612
 13
108.640447
 23
96.276132
 14
293.640447
 24
104.961705
  0
DIMENSION
  8
CSLAYER1
 62
     4
  2
*D0008
 10
119.140447
 20
133.608618
 11
115.323654
 21
134.931274
 13
108.640447
 23
96.276132
 14
119.140447
 24
92.997477
  0
LINE
  8
CSLAYER1
  6
CONTINUOUS
 62
     4
 10
327.351046
 20
47.550902
 11
347.397746
 21
47.550902
  0
TEXT
  8
CSLAYER1
 62
     4
 10
328.100470
 20
48.050896
 40
3.200000
 41
1.058824
  1
GT-N30
 50
0.000000
 51
0.000000
  7
FX_FONT
 72
     5
 11
347.300470
 21
48.050896
  0
TEXT
  8
CSLAYER1
 62
     3
 10
355.900000
 20
26.900000
 40
3.200000
 41
1.058824
  1
GT-N30
 50
0.000000
 51
0.000000
  7
FX_FONT
 72
     5
 11
375.100000
 21
26.900000
  0
TEXT
  8
CSLAYER1
 62
     3
 10
355.900000
 20
18.900000
 40
3.200000
 41
1.058824
  1
GT-N30
 50
0.000000
 51
0.000000
  7
FX_FONT
 72
     5
 11
375.100000
 21
18.900000
  0
TEXT
  8
CSLAYER1
 62
     3
 10
360.700000
 20
7.400000
 40
3.200000
 41
1.125000
  1
組立図
 50
0.000000
 51
0.000000
  7
FX_FONT
 72
     5
 11
370.300000
 21
7.400000
  0
POINT
  8
CSLAYER1
 62
     3
 10
365.500000
 20
28.500000
  0
TEXT
  8
CSLAYER1
 62
     4
 10
219.005139
 20
17.900000
 40
3.200000
 41
1.200000
  1
98
 50
0.000000
 51
0.000000
  7
FX_FONT
 72
     5
 11
225.405139
 21
17.900000
  0
TEXT
  8
CSLAYER1
 62
     4
 10
233.967963
 20
17.900000
 40
3.200000
 41
1.500000
  1
2
 50
0.000000
 51
0.000000
  7
FX_FONT
 72
     5
 11
237.167963
 21
17.900000
  0
TEXT
  8
CSLAYER1
 62
     4
 10
246.694479
 20
17.900000
 40
3.200000
 41
1.500000
  1
9
 50
0.000000
 51
0.000000
  7
FX_FONT
 72
     5
 11
249.894479
 21
17.900000
  0
ENDSEC
  0
EOF
