  0
SECTION
  2
HEADER
  9
$ACADVER
  1
AC1012
  9
$DWGCODEPAGE
  3
dos932
  9
$INSBASE
 10
0.0
 20
0.0
 30
0.0
  9
$EXTMIN
 10
-0.0090630292066862
 20
0.9869389666558276
 30
-0.0015258207003583
  9
$EXTMAX
 10
287.0163123253922
 20
199.0155034058442
 30
0.0000000349246037
  9
$LIMMIN
 10
0.0
 20
0.0
  9
$LIMMAX
 10
297.0
 20
210.0
  9
$ORTHOMODE
 70
     0
  9
$REGENMODE
 70
     1
  9
$FILLMODE
 70
     1
  9
$QTEXTMODE
 70
     0
  9
$MIRRTEXT
 70
     1
  9
$DRAGMODE
 70
     2
  9
$LTSCALE
 40
15.0
  9
$OSMODE
 70
    37
  9
$ATTMODE
 70
     1
  9
$TEXTSIZE
 40
0.2
  9
$TRACEWID
 40
0.05
  9
$TEXTSTYLE
  7
GOTHIC
  9
$CLAYER
  8
CSLAYER1
  9
$CELTYPE
  6
BYLAYER
  9
$CECOLOR
 62
   256
  9
$CELTSCALE
 40
1.0
  9
$DELOBJ
 70
     1
  9
$DISPSILH
 70
     0
  9
$DIMSCALE
 40
1.0
  9
$DIMASZ
 40
0.18
  9
$DIMEXO
 40
0.0625
  9
$DIMDLI
 40
0.38
  9
$DIMRND
 40
0.0
  9
$DIMDLE
 40
0.0
  9
$DIMEXE
 40
0.18
  9
$DIMTP
 40
0.0
  9
$DIMTM
 40
0.0
  9
$DIMTXT
 40
0.18
  9
$DIMCEN
 40
0.09
  9
$DIMTSZ
 40
0.0
  9
$DIMTOL
 70
     0
  9
$DIMLIM
 70
     0
  9
$DIMTIH
 70
     1
  9
$DIMTOH
 70
     1
  9
$DIMSE1
 70
     0
  9
$DIMSE2
 70
     0
  9
$DIMTAD
 70
     0
  9
$DIMZIN
 70
     0
  9
$DIMBLK
  1

  9
$DIMASO
 70
     1
  9
$DIMSHO
 70
     1
  9
$DIMPOST
  1

  9
$DIMAPOST
  1

  9
$DIMALT
 70
     0
  9
$DIMALTD
 70
     2
  9
$DIMALTF
 40
25.4
  9
$DIMLFAC
 40
1.0
  9
$DIMTOFL
 70
     0
  9
$DIMTVP
 40
0.0
  9
$DIMTIX
 70
     0
  9
$DIMSOXD
 70
     0
  9
$DIMSAH
 70
     0
  9
$DIMBLK1
  1

  9
$DIMBLK2
  1

  9
$DIMSTYLE
  2
STANDARD
  9
$DIMCLRD
 70
     0
  9
$DIMCLRE
 70
     0
  9
$DIMCLRT
 70
     0
  9
$DIMTFAC
 40
1.0
  9
$DIMGAP
 40
0.09
  9
$DIMJUST
 70
     0
  9
$DIMSD1
 70
     0
  9
$DIMSD2
 70
     0
  9
$DIMTOLJ
 70
     1
  9
$DIMTZIN
 70
     0
  9
$DIMALTZ
 70
     0
  9
$DIMALTTZ
 70
     0
  9
$DIMFIT
 70
     3
  9
$DIMUPT
 70
     0
  9
$DIMUNIT
 70
     2
  9
$DIMDEC
 70
     4
  9
$DIMTDEC
 70
     4
  9
$DIMALTU
 70
     2
  9
$DIMALTTD
 70
     2
  9
$DIMTXSTY
  7
STANDARD
  9
$DIMAUNIT
 70
     0
  9
$LUNITS
 70
     2
  9
$LUPREC
 70
     4
  9
$SKETCHINC
 40
0.1
  9
$FILLETRAD
 40
0.0
  9
$AUNITS
 70
     0
  9
$AUPREC
 70
     0
  9
$MENU
  1
ACAD
  9
$ELEVATION
 40
0.0
  9
$PELEVATION
 40
0.0
  9
$THICKNESS
 40
0.0
  9
$LIMCHECK
 70
     0
  9
$BLIPMODE
 70
     1
  9
$CHAMFERA
 40
0.0
  9
$CHAMFERB
 40
0.0
  9
$CHAMFERC
 40
0.0
  9
$CHAMFERD
 40
0.0
  9
$SKPOLY
 70
     0
  9
$TDCREATE
 40
2453453.000000000
  9
$TDUPDATE
 40
2453516.442948703
  9
$TDINDWG
 40
0.0003340509
  9
$TDUSRTIMER
 40
0.0003338194
  9
$USRTIMER
 70
     1
  9
$ANGBASE
 50
0.0
  9
$ANGDIR
 70
     0
  9
$PDMODE
 70
     0
  9
$PDSIZE
 40
0.0
  9
$PLINEWID
 40
0.0
  9
$COORDS
 70
     0
  9
$SPLFRAME
 70
     0
  9
$SPLINETYPE
 70
     6
  9
$SPLINESEGS
 70
     8
  9
$ATTDIA
 70
     0
  9
$ATTREQ
 70
     1
  9
$HANDLING
 70
-16383
  9
$HANDSEED
  5
22C
  9
$SURFTAB1
 70
     6
  9
$SURFTAB2
 70
     6
  9
$SURFTYPE
 70
     6
  9
$SURFU
 70
     6
  9
$SURFV
 70
     6
  9
$UCSNAME
  2

  9
$UCSORG
 10
0.0
 20
0.0
 30
0.0
  9
$UCSXDIR
 10
1.0
 20
0.0
 30
0.0
  9
$UCSYDIR
 10
0.0
 20
1.0
 30
0.0
  9
$PUCSNAME
  2

  9
$PUCSORG
 10
0.0
 20
0.0
 30
0.0
  9
$PUCSXDIR
 10
1.0
 20
0.0
 30
0.0
  9
$PUCSYDIR
 10
0.0
 20
1.0
 30
0.0
  9
$USERI1
 70
     0
  9
$USERI2
 70
     0
  9
$USERI3
 70
     0
  9
$USERI4
 70
     0
  9
$USERI5
 70
     0
  9
$USERR1
 40
0.0
  9
$USERR2
 40
0.0
  9
$USERR3
 40
0.0
  9
$USERR4
 40
0.0
  9
$USERR5
 40
0.0
  9
$WORLDVIEW
 70
     1
  9
$SHADEDGE
 70
     3
  9
$SHADEDIF
 70
    70
  9
$TILEMODE
 70
     1
  9
$MAXACTVP
 70
    64
  9
$PINSBASE
 10
0.0
 20
0.0
 30
0.0
  9
$PLIMCHECK
 70
     0
  9
$PEXTMIN
 10
1.000000000000000E+20
 20
1.000000000000000E+20
 30
1.000000000000000E+20
  9
$PEXTMAX
 10
-1.000000000000000E+20
 20
-1.000000000000000E+20
 30
-1.000000000000000E+20
  9
$PLIMMIN
 10
0.0
 20
0.0
  9
$PLIMMAX
 10
12.0
 20
9.0
  9
$UNITMODE
 70
     0
  9
$VISRETAIN
 70
     1
  9
$PLINEGEN
 70
     0
  9
$PSLTSCALE
 70
     1
  9
$TREEDEPTH
 70
  3020
  9
$PICKSTYLE
 70
     3
  9
$CMLSTYLE
  2
STANDARD
  9
$CMLJUST
 70
     0
  9
$CMLSCALE
 40
1.0
  9
$SAVEIMAGES
 70
     1
  0
ENDSEC
  0
SECTION
  2
CLASSES
  0
CLASS
  1
ACDBDICTIONARYWDFLT
  2
AcDbDictionaryWithDefault
  3
AutoCAD 2000
 90
    32768
280
     0
281
     0
  0
CLASS
  1
ACDBPLACEHOLDER
  2
AcDbPlaceHolder
  3
AutoCAD 2000
 90
    32768
280
     0
281
     0
  0
CLASS
  1
LAYOUT
  2
AcDbLayout
  3
AutoCAD 2000
 90
    32768
280
     0
281
     0
  0
CLASS
  1
DICTIONARYVAR
  2
AcDbDictionaryVar
  3
AutoCAD 2000
 90
    32768
280
     0
281
     0
  0
CLASS
  1
LONG_TRANSACTION
  2
AcDbLongTransaction
  3
AutoCAD 2000
 90
    32768
280
     0
281
     0
  0
CLASS
  1
LWPOLYLINE
  2
AcDbPolyline
  3
AutoCAD 2000
 90
    32768
280
     0
281
     1
  0
CLASS
  1
HATCH
  2
AcDbHatch
  3
AutoCAD 2000
 90
    32768
280
     0
281
     1
  0
CLASS
  1
XRECORD
  2
AcDbXrecord
  3
AutoCAD 2000
 90
    32768
280
     0
281
     0
  0
CLASS
  1
LONG_TRANSACTION
  2
AcDbLongTransaction
  3
AutoCAD 2000
 90
    32768
280
     0
281
     0
  0
CLASS
  1
LWPOLYLINE
  2
AcDbPolyline
  3
AutoCAD 2000
 90
    32768
280
     0
281
     1
  0
CLASS
  1
HATCH
  2
AcDbHatch
  3
AutoCAD 2000
 90
    32768
280
     0
281
     1
  0
CLASS
  1
XRECORD
  2
AcDbXrecord
  3
AutoCAD 2000
 90
    32768
280
     0
281
     0
  0
ENDSEC
  0
SECTION
  2
TABLES
  0
TABLE
  2
VPORT
  5
8
330
0
100
AcDbSymbolTable
 70
     2
  0
VPORT
  5
229
330
8
100
AcDbSymbolTableRecord
100
AcDbViewportTableRecord
  2
*ACTIVE
 70
     0
 10
0.0
 20
0.0
 11
1.0
 21
1.0
 12
143.5036246480927
 22
100.00122118625
 13
0.0
 23
0.0
 14
1.0
 24
1.0
 15
0.0
 25
0.0
 16
0.0
 26
0.0
 36
1.0
 17
0.0
 27
0.0
 37
0.0
 40
199.5156375138256
 41
1.510025062656641
 42
50.0
 43
0.0
 44
0.0
 50
0.0
 51
0.0
 71
     0
 72
   100
 73
     1
 74
     1
 75
     0
 76
     0
 77
     0
 78
     0
  0
ENDTAB
  0
TABLE
  2
LTYPE
  5
5
330
0
100
AcDbSymbolTable
 70
     3
  0
LTYPE
  5
13
330
5
100
AcDbSymbolTableRecord
100
AcDbLinetypeTableRecord
  2
BYBLOCK
 70
     0
  3

 72
    65
 73
     0
 40
0.0
  0
LTYPE
  5
14
330
5
100
AcDbSymbolTableRecord
100
AcDbLinetypeTableRecord
  2
BYLAYER
 70
     0
  3

 72
    65
 73
     0
 40
0.0
  0
LTYPE
  5
15
330
5
100
AcDbSymbolTableRecord
100
AcDbLinetypeTableRecord
  2
CONTINUOUS
 70
     0
  3
Solid line
 72
    65
 73
     0
 40
0.0
  0
LTYPE
  5
25
330
5
100
AcDbSymbolTableRecord
100
AcDbLinetypeTableRecord
  2
DOT
 70
     0
  3
...............................................
 72
    65
 73
     2
 40
0.25
 49
0.0
 74
     0
 49
-0.25
 74
     0
  0
LTYPE
  5
28
330
5
100
AcDbSymbolTableRecord
100
AcDbLinetypeTableRecord
  2
CENTER
 70
     0
  3
____ _ ____ _ ____ _ ____ _ ____ _ ____ _ ____ 
 72
    65
 73
     4
 40
2.0
 49
1.25
 74
     0
 49
-0.25
 74
     0
 49
0.25
 74
     0
 49
-0.25
 74
     0
  0
ENDTAB
  0
TABLE
  2
LAYER
  5
2
330
0
100
AcDbSymbolTable
 70
     3
  0
LAYER
  5
10
330
2
100
AcDbSymbolTableRecord
100
AcDbLayerTableRecord
  2
0
 70
     0
 62
     7
  6
CONTINUOUS
  0
LAYER
  5
22
330
2
100
AcDbSymbolTableRecord
100
AcDbLayerTableRecord
  2
CSLAYER1
 70
     0
 62
     7
  6
CONTINUOUS
  0
LAYER
  5
20E
330
2
100
AcDbSymbolTableRecord
100
AcDbLayerTableRecord
  2
DEFPOINTS
 70
     0
 62
     7
  6
CONTINUOUS
  0
ENDTAB
  0
TABLE
  2
STYLE
  5
3
330
0
100
AcDbSymbolTable
 70
     3
  0
STYLE
  5
11
330
3
100
AcDbSymbolTableRecord
100
AcDbTextStyleTableRecord
  2
STANDARD
 70
     0
 40
0.0
 41
1.0
 50
0.0
 71
     0
 42
0.2
  3
txt
  4
extfont.shx
  0
STYLE
  5
3A
330
3
100
AcDbSymbolTableRecord
100
AcDbTextStyleTableRecord
  2
FX_FONT
 70
     0
 40
1.0
 41
1.0
 50
0.0
 71
     0
 42
1.0
  3
monotxt
  4
bigfont
  0
STYLE
  5
206
330
3
100
AcDbSymbolTableRecord
100
AcDbTextStyleTableRecord
  2
GOTHIC
 70
     0
 40
0.0
 41
1.0
 50
0.0
 71
     0
 42
0.2
  3
txt.shx
  4
extfont.shx
  0
ENDTAB
  0
TABLE
  2
VIEW
  5
6
330
0
100
AcDbSymbolTable
 70
     0
  0
ENDTAB
  0
TABLE
  2
UCS
  5
7
330
0
100
AcDbSymbolTable
 70
     0
  0
ENDTAB
  0
TABLE
  2
APPID
  5
9
330
0
100
AcDbSymbolTable
 70
     1
  0
APPID
  5
12
330
9
100
AcDbSymbolTableRecord
100
AcDbRegAppTableRecord
  2
ACAD
 70
     0
  0
ENDTAB
  0
TABLE
  2
DIMSTYLE
  5
A
330
0
100
AcDbSymbolTable
 70
     1
  0
DIMSTYLE
105
203
330
A
100
AcDbSymbolTableRecord
100
AcDbDimStyleTableRecord
  2
STANDARD
 70
     0
  3

  4

  5

  6

  7

 40
1.0
 41
0.18
 42
0.0625
 43
0.38
 44
0.18
 45
0.0
 46
0.0
 47
0.0
 48
0.0
140
0.18
141
0.09
142
0.0
143
25.4
144
1.0
145
0.0
146
1.0
147
0.09
 71
     0
 72
     0
 73
     1
 74
     1
 75
     0
 76
     0
 77
     0
 78
     0
170
     0
171
     2
172
     0
173
     0
174
     0
175
     0
176
     0
177
     0
178
     0
270
     2
271
     4
272
     4
273
     2
274
     2
340
11
275
     0
280
     0
281
     0
282
     0
283
     1
284
     0
285
     0
286
     0
287
     3
288
     0
  0
ENDTAB
  0
TABLE
  2
BLOCK_RECORD
  5
1
330
0
100
AcDbSymbolTable
 70
    18
  0
BLOCK_RECORD
  5
1E
102
{ACAD_XDICTIONARY
360
20C
102
}
330
1
100
AcDbSymbolTableRecord
100
AcDbBlockTableRecord
  2
*MODEL_SPACE
  0
BLOCK_RECORD
  5
1A
102
{ACAD_XDICTIONARY
360
20A
102
}
330
1
100
AcDbSymbolTableRecord
100
AcDbBlockTableRecord
  2
*PAPER_SPACE
  0
BLOCK_RECORD
  5
3F
330
1
100
AcDbSymbolTableRecord
100
AcDbBlockTableRecord
  2
*D0
  0
BLOCK_RECORD
  5
4A
330
1
100
AcDbSymbolTableRecord
100
AcDbBlockTableRecord
  2
*D1
  0
BLOCK_RECORD
  5
55
330
1
100
AcDbSymbolTableRecord
100
AcDbBlockTableRecord
  2
FXDIM0000
  0
BLOCK_RECORD
  5
5D
330
1
100
AcDbSymbolTableRecord
100
AcDbBlockTableRecord
  2
*D3
  0
BLOCK_RECORD
  5
68
330
1
100
AcDbSymbolTableRecord
100
AcDbBlockTableRecord
  2
FXDIM0001
  0
BLOCK_RECORD
  5
70
330
1
100
AcDbSymbolTableRecord
100
AcDbBlockTableRecord
  2
FXDIM0002
  0
BLOCK_RECORD
  5
78
330
1
100
AcDbSymbolTableRecord
100
AcDbBlockTableRecord
  2
*D6
  0
BLOCK_RECORD
  5
83
330
1
100
AcDbSymbolTableRecord
100
AcDbBlockTableRecord
  2
*D7
  0
BLOCK_RECORD
  5
8E
330
1
100
AcDbSymbolTableRecord
100
AcDbBlockTableRecord
  2
*D8
  0
BLOCK_RECORD
  5
99
330
1
100
AcDbSymbolTableRecord
100
AcDbBlockTableRecord
  2
*D9
  0
BLOCK_RECORD
  5
A4
330
1
100
AcDbSymbolTableRecord
100
AcDbBlockTableRecord
  2
*D10
  0
BLOCK_RECORD
  5
AE
330
1
100
AcDbSymbolTableRecord
100
AcDbBlockTableRecord
  2
*D11
  0
BLOCK_RECORD
  5
B8
330
1
100
AcDbSymbolTableRecord
100
AcDbBlockTableRecord
  2
*D12
  0
BLOCK_RECORD
  5
C2
330
1
100
AcDbSymbolTableRecord
100
AcDbBlockTableRecord
  2
*D13
  0
BLOCK_RECORD
  5
CD
330
1
100
AcDbSymbolTableRecord
100
AcDbBlockTableRecord
  2
*D14
  0
BLOCK_RECORD
  5
D7
330
1
100
AcDbSymbolTableRecord
100
AcDbBlockTableRecord
  2
*D15
  0
BLOCK_RECORD
  5
DE
330
1
100
AcDbSymbolTableRecord
100
AcDbBlockTableRecord
  2
FXDIM0003
  0
BLOCK_RECORD
  5
20F
330
1
100
AcDbSymbolTableRecord
100
AcDbBlockTableRecord
  2
*D17
  0
ENDTAB
  0
ENDSEC
  0
SECTION
  2
BLOCKS
  0
BLOCK
  5
1F
330
1E
100
AcDbEntity
  8
0
100
AcDbBlockBegin
  2
*MODEL_SPACE
 70
     0
 10
0.0
 20
0.0
 30
0.0
  3
*MODEL_SPACE
  1

  0
ENDBLK
  5
20
330
1E
100
AcDbEntity
  8
0
100
AcDbBlockEnd
  0
BLOCK
  5
1B
330
1A
100
AcDbEntity
 67
     1
  8
0
100
AcDbBlockBegin
  2
*PAPER_SPACE
 70
     0
 10
0.0
 20
0.0
 30
0.0
  3
*PAPER_SPACE
  1

  0
ENDBLK
  5
1C
330
1A
100
AcDbEntity
 67
     1
  8
0
100
AcDbBlockEnd
  0
BLOCK
  5
40
330
3F
100
AcDbEntity
  8
0
100
AcDbBlockBegin
  2
*D0
 70
     1
 10
0.0
 20
0.0
 30
0.0
  3
*D0
  1

  0
TEXT
  5
41
330
3F
100
AcDbEntity
  8
CSLAYER1
 62
     4
100
AcDbText
 10
259.484283
 20
135.999997
 30
0.0
 40
3.2
  1
24
 50
90.0
 41
1.199999999999979
 51
15.0
  7
FX_FONT
 72
     5
 11
259.484283
 21
142.3999969999998
 31
0.0
100
AcDbText
  0
LINE
  5
42
330
3F
100
AcDbEntity
  8
CSLAYER1
  6
CONTINUOUS
 62
     4
100
AcDbLine
 10
244.7541629999999
 20
127.2
 30
0.0
 11
260.984286
 21
127.2
 31
0.0
  0
LINE
  5
43
330
3F
100
AcDbEntity
  8
CSLAYER1
  6
CONTINUOUS
 62
     4
100
AcDbLine
 10
244.7541629999999
 20
151.2
 30
0.0
 11
260.984286
 21
151.2
 31
0.0
  0
LINE
  5
44
330
3F
100
AcDbEntity
  8
CSLAYER1
  6
CONTINUOUS
 62
     4
100
AcDbLine
 10
259.9842859999999
 20
127.2
 30
0.0
 11
259.9842859999999
 21
151.2
 31
0.0
  0
LINE
  5
45
330
3F
100
AcDbEntity
  8
CSLAYER1
  6
CONTINUOUS
 62
     4
100
AcDbLine
 10
259.9842859999999
 20
127.2
 30
0.0
 11
259.2078289999999
 21
130.097777
 31
0.0
  0
LINE
  5
46
330
3F
100
AcDbEntity
  8
CSLAYER1
  6
CONTINUOUS
 62
     4
100
AcDbLine
 10
259.9842859999999
 20
127.2
 30
0.0
 11
260.7607429999999
 21
130.097777
 31
0.0
  0
LINE
  5
47
330
3F
100
AcDbEntity
  8
CSLAYER1
  6
CONTINUOUS
 62
     4
100
AcDbLine
 10
259.9842859999999
 20
151.2
 30
0.0
 11
259.2078289999999
 21
148.3022229999999
 31
0.0
  0
LINE
  5
48
330
3F
100
AcDbEntity
  8
CSLAYER1
  6
CONTINUOUS
 62
     4
100
AcDbLine
 10
259.9842859999999
 20
151.2
 30
0.0
 11
260.7607429999999
 21
148.3022229999999
 31
0.0
  0
ENDBLK
  5
49
330
3F
100
AcDbEntity
  8
0
100
AcDbBlockEnd
  0
BLOCK
  5
4B
330
4A
100
AcDbEntity
  8
0
100
AcDbBlockBegin
  2
*D1
 70
     1
 10
0.0
 20
0.0
 30
0.0
  3
*D1
  1

  0
TEXT
  5
4C
330
4A
100
AcDbEntity
  8
CSLAYER1
 62
     4
100
AcDbText
 10
216.8829339999999
 20
152.5457449999999
 30
0.0
 40
3.2
  1
20
 50
45.0000063303493
 41
1.200000026624218
 51
15.0
  7
FX_FONT
 72
     5
 11
221.408417
 21
157.071229
 31
0.0
100
AcDbText
  0
LINE
  5
4D
330
4A
100
AcDbEntity
  8
CSLAYER1
  6
CONTINUOUS
 62
     4
100
AcDbLine
 10
212.4281569999999
 20
147.383871
 30
0.0
 11
226.5702919999998
 21
161.5260069999999
 31
0.0
  0
LINE
  5
4E
330
4A
100
AcDbEntity
  8
CSLAYER1
  6
CONTINUOUS
 62
     4
100
AcDbLine
 10
212.4281569999999
 20
147.383871
 30
0.0
 11
213.9281569999999
 21
149.981947
 31
0.0
  0
LINE
  5
4F
330
4A
100
AcDbEntity
  8
CSLAYER1
  6
CONTINUOUS
 62
     4
100
AcDbLine
 10
212.4281569999999
 20
147.383871
 30
0.0
 11
215.026233
 21
148.883871
 31
0.0
  0
LINE
  5
50
330
4A
100
AcDbEntity
  8
CSLAYER1
  6
CONTINUOUS
 62
     4
100
AcDbLine
 10
226.5702919999998
 20
161.5260069999999
 30
0.0
 11
225.070292
 21
158.92793
 31
0.0
  0
LINE
  5
51
330
4A
100
AcDbEntity
  8
CSLAYER1
  6
CONTINUOUS
 62
     4
100
AcDbLine
 10
226.5702919999998
 20
161.5260069999999
 30
0.0
 11
223.9722159999999
 21
160.026007
 31
0.0
  0
LINE
  5
52
330
4A
100
AcDbEntity
  8
CSLAYER1
  6
CONTINUOUS
 62
     4
100
AcDbLine
 10
223.990832
 20
135.8211959999999
 30
0.0
 11
211.72105
 21
148.090978
 31
0.0
  0
LINE
  5
53
330
4A
100
AcDbEntity
  8
CSLAYER1
  6
CONTINUOUS
 62
     4
100
AcDbLine
 10
237.7855299999999
 20
150.310769
 30
0.0
 11
225.8631859999999
 21
162.233113
 31
0.0
  0
ENDBLK
  5
54
330
4A
100
AcDbEntity
  8
0
100
AcDbBlockEnd
  0
BLOCK
  5
56
330
55
100
AcDbEntity
  8
0
100
AcDbBlockBegin
  2
FXDIM0000
 70
     0
 10
0.0
 20
0.0
 30
0.0
  3
FXDIM0000
  1

  0
LINE
  5
57
330
55
100
AcDbEntity
  8
CSLAYER1
  6
CONTINUOUS
 62
     4
100
AcDbLine
 10
226.882174
 20
130.2963039999999
 30
0.0
 11
215.731922
 21
111.376506
 31
0.0
  0
LINE
  5
58
330
55
100
AcDbEntity
  8
CSLAYER1
  6
CONTINUOUS
 62
     4
100
AcDbLine
 10
226.882174
 20
130.2963039999999
 30
0.0
 11
226.079819
 21
127.40559
 31
0.0
  0
LINE
  5
59
330
55
100
AcDbEntity
  8
CSLAYER1
  6
CONTINUOUS
 62
     4
100
AcDbLine
 10
226.882174
 20
130.2963039999999
 30
0.0
 11
224.741958
 21
128.19405
 31
0.0
  0
LINE
  5
5A
330
55
100
AcDbEntity
  8
CSLAYER1
  6
CONTINUOUS
 62
     4
100
AcDbLine
 10
215.731922
 20
111.376506
 30
0.0
 11
240.1319229999999
 21
111.376506
 31
0.0
  0
TEXT
  5
5B
330
55
100
AcDbEntity
  8
CSLAYER1
 62
     4
100
AcDbText
 10
217.2181029999999
 20
111.876511
 30
0.0
 40
3.2
  1
M4ネジ深１０
 41
0.9292035398230112
 51
15.0
  7
FX_FONT
 72
     5
 11
239.618103
 21
111.876511
 31
0.0
100
AcDbText
  0
ENDBLK
  5
5C
330
55
100
AcDbEntity
  8
0
100
AcDbBlockEnd
  0
BLOCK
  5
5E
330
5D
100
AcDbEntity
  8
0
100
AcDbBlockBegin
  2
*D3
 70
     1
 10
0.0
 20
0.0
 30
0.0
  3
*D3
  1

  0
TEXT
  5
5F
330
5D
100
AcDbEntity
  8
CSLAYER1
 62
     4
100
AcDbText
 10
211.721844
 20
124.464228
 30
0.0
 40
3.2
  1
45%%d
 50
112.5000014414552
 41
1.285714224875625
 51
15.0
  7
FX_FONT
 72
     5
 11
208.048083
 21
133.333471
 31
0.0
100
AcDbText
  0
ARC
  5
60
330
5D
100
AcDbEntity
  8
CSLAYER1
  6
CONTINUOUS
 62
     4
100
AcDbCircle
 10
234.7541629999999
 20
139.1999999999999
 30
0.0
 40
26.41822299999999
100
AcDbArc
 50
180.0
 51
225.0
  0
LINE
  5
61
330
5D
100
AcDbEntity
  8
CSLAYER1
  6
CONTINUOUS
 62
     4
100
AcDbLine
 10
208.3359409999999
 20
139.1999999999999
 30
0.0
 11
207.559483
 21
136.302223
 31
0.0
  0
LINE
  5
62
330
5D
100
AcDbEntity
  8
CSLAYER1
  6
CONTINUOUS
 62
     4
100
AcDbLine
 10
208.3359409999999
 20
139.1999999999999
 30
0.0
 11
209.1123979999999
 21
136.302223
 31
0.0
  0
LINE
  5
63
330
5D
100
AcDbEntity
  8
CSLAYER1
  6
CONTINUOUS
 62
     4
100
AcDbLine
 10
216.0736589999999
 20
120.5194959999999
 30
0.0
 11
213.475583
 21
122.0194959999999
 31
0.0
  0
LINE
  5
64
330
5D
100
AcDbEntity
  8
CSLAYER1
  6
CONTINUOUS
 62
     4
100
AcDbLine
 10
216.0736589999999
 20
120.5194959999999
 30
0.0
 11
214.5736589999999
 21
123.1175719999999
 31
0.0
  0
LINE
  5
65
330
5D
100
AcDbEntity
  8
CSLAYER1
  6
CONTINUOUS
 62
     4
100
AcDbLine
 10
215.093474
 20
139.1999999999999
 30
0.0
 11
207.335941
 21
139.1999999999999
 31
0.0
  0
LINE
  5
66
330
5D
100
AcDbEntity
  8
CSLAYER1
  6
CONTINUOUS
 62
     4
100
AcDbLine
 10
223.856377
 20
128.3022129999999
 30
0.0
 11
215.366552
 21
119.8123889999999
 31
0.0
  0
ENDBLK
  5
67
330
5D
100
AcDbEntity
  8
0
100
AcDbBlockEnd
  0
BLOCK
  5
69
330
68
100
AcDbEntity
  8
0
100
AcDbBlockBegin
  2
FXDIM0001
 70
     0
 10
0.0
 20
0.0
 30
0.0
  3
FXDIM0001
  1

  0
LINE
  5
6A
330
68
100
AcDbEntity
  8
CSLAYER1
  6
CONTINUOUS
 62
     4
100
AcDbLine
 10
236.9168089999999
 20
143.429121
 30
0.0
 11
245.964108
 21
166.2334839999998
 31
0.0
  0
LINE
  5
6B
330
68
100
AcDbEntity
  8
CSLAYER1
  6
CONTINUOUS
 62
     4
100
AcDbLine
 10
236.9168089999999
 20
143.429121
 30
0.0
 11
237.2637
 21
146.4089979999999
 31
0.0
  0
LINE
  5
6C
330
68
100
AcDbEntity
  8
CSLAYER1
  6
CONTINUOUS
 62
     4
100
AcDbLine
 10
236.9168089999999
 20
143.429121
 30
0.0
 11
238.707164
 21
145.8363239999999
 31
0.0
  0
LINE
  5
6D
330
68
100
AcDbEntity
  8
CSLAYER1
  6
CONTINUOUS
 62
     4
100
AcDbLine
 10
245.964108
 20
166.2334839999998
 30
0.0
 11
270.364109
 21
166.2334839999998
 31
0.0
  0
TEXT
  5
6E
330
68
100
AcDbEntity
  8
CSLAYER1
 62
     4
100
AcDbText
 10
246.964123
 20
166.7334899999999
 30
0.0
 40
3.2
  1
Rc1/8ネジ
 41
0.9813084550233638
 51
15.0
  7
FX_FONT
 72
     5
 11
269.364124
 21
166.7334899999999
 31
0.0
100
AcDbText
  0
ENDBLK
  5
6F
330
68
100
AcDbEntity
  8
0
100
AcDbBlockEnd
  0
BLOCK
  5
71
330
70
100
AcDbEntity
  8
0
100
AcDbBlockBegin
  2
FXDIM0002
 70
     0
 10
0.0
 20
0.0
 30
0.0
  3
FXDIM0002
  1

  0
LINE
  5
72
330
70
100
AcDbEntity
  8
CSLAYER1
  6
CONTINUOUS
 62
     4
100
AcDbLine
 10
168.6333459999999
 20
149.252549
 30
0.0
 11
186.9986219999999
 21
174.642191
 31
0.0
  0
LINE
  5
73
330
70
100
AcDbEntity
  8
CSLAYER1
  6
CONTINUOUS
 62
     4
100
AcDbLine
 10
168.6333459999999
 20
149.252549
 30
0.0
 11
169.7025629999999
 21
152.0555429999999
 31
0.0
  0
LINE
  5
74
330
70
100
AcDbEntity
  8
CSLAYER1
  6
CONTINUOUS
 62
     4
100
AcDbLine
 10
168.6333459999999
 20
149.252549
 30
0.0
 11
170.960812
 21
151.145405
 31
0.0
  0
LINE
  5
75
330
70
100
AcDbEntity
  8
CSLAYER1
  6
CONTINUOUS
 62
     4
100
AcDbLine
 10
186.9986219999999
 20
174.642191
 30
0.0
 11
211.398623
 21
174.642191
 31
0.0
  0
TEXT
  5
76
330
70
100
AcDbEntity
  8
CSLAYER1
 62
     4
100
AcDbText
 10
187.998654
 20
175.142197
 30
0.0
 40
3.2
  1
Rc1/8ネジ
 41
0.9813084112149519
 51
15.0
  7
FX_FONT
 72
     5
 11
210.398654
 21
175.142197
 31
0.0
100
AcDbText
  0
ENDBLK
  5
77
330
70
100
AcDbEntity
  8
0
100
AcDbBlockEnd
  0
BLOCK
  5
79
330
78
100
AcDbEntity
  8
0
100
AcDbBlockBegin
  2
*D6
 70
     1
 10
0.0
 20
0.0
 30
0.0
  3
*D6
  1

  0
TEXT
  5
7A
330
78
100
AcDbEntity
  8
CSLAYER1
 62
     4
100
AcDbText
 10
69.537254
 20
135.999997
 30
0.0
 40
3.2
  1
17
 50
90.0
 41
1.199999999999979
 51
15.0
  7
FX_FONT
 72
     5
 11
69.537254
 21
142.3999969999998
 31
0.0
100
AcDbText
  0
LINE
  5
7B
330
78
100
AcDbEntity
  8
CSLAYER1
  6
CONTINUOUS
 62
     4
100
AcDbLine
 10
70.037257
 20
130.6999999999999
 30
0.0
 11
70.037257
 21
147.6999999999998
 31
0.0
  0
LINE
  5
7C
330
78
100
AcDbEntity
  8
CSLAYER1
  6
CONTINUOUS
 62
     4
100
AcDbLine
 10
70.037257
 20
130.6999999999999
 30
0.0
 11
69.2608
 21
133.597777
 31
0.0
  0
LINE
  5
7D
330
78
100
AcDbEntity
  8
CSLAYER1
  6
CONTINUOUS
 62
     4
100
AcDbLine
 10
70.037257
 20
130.6999999999999
 30
0.0
 11
70.813714
 21
133.597777
 31
0.0
  0
LINE
  5
7E
330
78
100
AcDbEntity
  8
CSLAYER1
  6
CONTINUOUS
 62
     4
100
AcDbLine
 10
70.037257
 20
147.6999999999998
 30
0.0
 11
69.2608
 21
144.802223
 31
0.0
  0
LINE
  5
7F
330
78
100
AcDbEntity
  8
CSLAYER1
  6
CONTINUOUS
 62
     4
100
AcDbLine
 10
70.037257
 20
147.6999999999998
 30
0.0
 11
70.813714
 21
144.802223
 31
0.0
  0
LINE
  5
80
330
78
100
AcDbEntity
  8
CSLAYER1
  6
CONTINUOUS
 62
     4
100
AcDbLine
 10
83.4707
 20
130.6999999999999
 30
0.0
 11
69.03725699999999
 21
130.6999999999999
 31
0.0
  0
LINE
  5
81
330
78
100
AcDbEntity
  8
CSLAYER1
  6
CONTINUOUS
 62
     4
100
AcDbLine
 10
83.4707
 20
147.6999999999998
 30
0.0
 11
69.03725699999999
 21
147.6999999999998
 31
0.0
  0
ENDBLK
  5
82
330
78
100
AcDbEntity
  8
0
100
AcDbBlockEnd
  0
BLOCK
  5
84
330
83
100
AcDbEntity
  8
0
100
AcDbBlockBegin
  2
*D7
 70
     1
 10
0.0
 20
0.0
 30
0.0
  3
*D7
  1

  0
TEXT
  5
85
330
83
100
AcDbEntity
  8
CSLAYER1
 62
     4
100
AcDbText
 10
75.53725400000002
 20
137.599997
 30
0.0
 40
3.2
  1
7
 50
90.0
 41
1.499999999999954
 51
15.0
  7
FX_FONT
 72
     5
 11
75.53725400000002
 21
140.7999969999998
 31
0.0
100
AcDbText
  0
LINE
  5
86
330
83
100
AcDbEntity
  8
CSLAYER1
  6
CONTINUOUS
 62
     4
100
AcDbLine
 10
76.037257
 20
135.6999999999999
 30
0.0
 11
76.037257
 21
142.6999999999999
 31
0.0
  0
LINE
  5
87
330
83
100
AcDbEntity
  8
CSLAYER1
  6
CONTINUOUS
 62
     4
100
AcDbLine
 10
76.037257
 20
135.6999999999999
 30
0.0
 11
75.2608
 21
138.597777
 31
0.0
  0
LINE
  5
88
330
83
100
AcDbEntity
  8
CSLAYER1
  6
CONTINUOUS
 62
     4
100
AcDbLine
 10
76.037257
 20
135.6999999999999
 30
0.0
 11
76.813714
 21
138.597777
 31
0.0
  0
LINE
  5
89
330
83
100
AcDbEntity
  8
CSLAYER1
  6
CONTINUOUS
 62
     4
100
AcDbLine
 10
76.037257
 20
142.6999999999999
 30
0.0
 11
75.2608
 21
139.802223
 31
0.0
  0
LINE
  5
8A
330
83
100
AcDbEntity
  8
CSLAYER1
  6
CONTINUOUS
 62
     4
100
AcDbLine
 10
76.037257
 20
142.6999999999999
 30
0.0
 11
76.813714
 21
139.802223
 31
0.0
  0
LINE
  5
8B
330
83
100
AcDbEntity
  8
CSLAYER1
  6
CONTINUOUS
 62
     4
100
AcDbLine
 10
81.47069999999997
 20
135.6999999999999
 30
0.0
 11
75.037257
 21
135.6999999999999
 31
0.0
  0
LINE
  5
8C
330
83
100
AcDbEntity
  8
CSLAYER1
  6
CONTINUOUS
 62
     4
100
AcDbLine
 10
81.47069999999997
 20
142.6999999999999
 30
0.0
 11
75.037257
 21
142.6999999999999
 31
0.0
  0
ENDBLK
  5
8D
330
83
100
AcDbEntity
  8
0
100
AcDbBlockEnd
  0
BLOCK
  5
8F
330
8E
100
AcDbEntity
  8
0
100
AcDbBlockBegin
  2
*D8
 70
     1
 10
0.0
 20
0.0
 30
0.0
  3
*D8
  1

  0
TEXT
  5
90
330
8E
100
AcDbEntity
  8
CSLAYER1
 62
     4
100
AcDbText
 10
69.537254
 20
73.2
 30
0.0
 40
3.2
  1
%%c30
 50
90.0
 41
1.124999999999997
 51
15.0
  7
FX_FONT
 72
     5
 11
69.537254
 21
82.79999999999999
 31
0.0
100
AcDbText
  0
LINE
  5
91
330
8E
100
AcDbEntity
  8
CSLAYER1
  6
CONTINUOUS
 62
     4
100
AcDbLine
 10
70.037257
 20
63.0
 30
0.0
 11
70.037257
 21
93.0
 31
0.0
  0
LINE
  5
92
330
8E
100
AcDbEntity
  8
CSLAYER1
  6
CONTINUOUS
 62
     4
100
AcDbLine
 10
70.037257
 20
63.0
 30
0.0
 11
69.2608
 21
65.897777
 31
0.0
  0
LINE
  5
93
330
8E
100
AcDbEntity
  8
CSLAYER1
  6
CONTINUOUS
 62
     4
100
AcDbLine
 10
70.037257
 20
63.0
 30
0.0
 11
70.813714
 21
65.897777
 31
0.0
  0
LINE
  5
94
330
8E
100
AcDbEntity
  8
CSLAYER1
  6
CONTINUOUS
 62
     4
100
AcDbLine
 10
70.037257
 20
93.0
 30
0.0
 11
69.2608
 21
90.102223
 31
0.0
  0
LINE
  5
95
330
8E
100
AcDbEntity
  8
CSLAYER1
  6
CONTINUOUS
 62
     4
100
AcDbLine
 10
70.037257
 20
93.0
 30
0.0
 11
70.813714
 21
90.102223
 31
0.0
  0
LINE
  5
96
330
8E
100
AcDbEntity
  8
CSLAYER1
  6
CONTINUOUS
 62
     4
100
AcDbLine
 10
109.4706999999999
 20
63.0
 30
0.0
 11
69.03725699999999
 21
63.0
 31
0.0
  0
LINE
  5
97
330
8E
100
AcDbEntity
  8
CSLAYER1
  6
CONTINUOUS
 62
     4
100
AcDbLine
 10
109.4706999999999
 20
93.0
 30
0.0
 11
69.03725699999999
 21
93.0
 31
0.0
  0
ENDBLK
  5
98
330
8E
100
AcDbEntity
  8
0
100
AcDbBlockEnd
  0
BLOCK
  5
9A
330
99
100
AcDbEntity
  8
0
100
AcDbBlockBegin
  2
*D9
 70
     1
 10
0.0
 20
0.0
 30
0.0
  3
*D9
  1

  0
TEXT
  5
9B
330
99
100
AcDbEntity
  8
CSLAYER1
 62
     4
100
AcDbText
 10
116.2707029999999
 20
175.142197
 30
0.0
 40
3.2
  1
74
 41
1.200000000000019
 51
15.0
  7
FX_FONT
 72
     5
 11
122.670703
 21
175.142197
 31
0.0
100
AcDbText
  0
LINE
  5
9C
330
99
100
AcDbEntity
  8
CSLAYER1
  6
CONTINUOUS
 62
     4
100
AcDbLine
 10
82.47069999999999
 20
174.642191
 30
0.0
 11
156.4707
 21
174.642191
 31
0.0
  0
LINE
  5
9D
330
99
100
AcDbEntity
  8
CSLAYER1
  6
CONTINUOUS
 62
     4
100
AcDbLine
 10
82.47069999999999
 20
174.642191
 30
0.0
 11
85.368477
 21
175.4186489999999
 31
0.0
  0
LINE
  5
9E
330
99
100
AcDbEntity
  8
CSLAYER1
  6
CONTINUOUS
 62
     4
100
AcDbLine
 10
82.47069999999999
 20
174.642191
 30
0.0
 11
85.368477
 21
173.865734
 31
0.0
  0
LINE
  5
9F
330
99
100
AcDbEntity
  8
CSLAYER1
  6
CONTINUOUS
 62
     4
100
AcDbLine
 10
156.4707
 20
174.642191
 30
0.0
 11
153.572922
 21
175.4186489999999
 31
0.0
  0
LINE
  5
A0
330
99
100
AcDbEntity
  8
CSLAYER1
  6
CONTINUOUS
 62
     4
100
AcDbLine
 10
156.4707
 20
174.642191
 30
0.0
 11
153.572922
 21
173.865734
 31
0.0
  0
LINE
  5
A1
330
99
100
AcDbEntity
  8
CSLAYER1
  6
CONTINUOUS
 62
     4
100
AcDbLine
 10
82.47069999999999
 20
146.6999999999998
 30
0.0
 11
82.47069999999999
 21
175.642191
 31
0.0
  0
LINE
  5
A2
330
99
100
AcDbEntity
  8
CSLAYER1
  6
CONTINUOUS
 62
     4
100
AcDbLine
 10
156.4707
 20
155.1999999999999
 30
0.0
 11
156.4707
 21
175.642191
 31
0.0
  0
ENDBLK
  5
A3
330
99
100
AcDbEntity
  8
0
100
AcDbBlockEnd
  0
BLOCK
  5
A5
330
A4
100
AcDbEntity
  8
0
100
AcDbBlockBegin
  2
*D10
 70
     1
 10
0.0
 20
0.0
 30
0.0
  3
*D10
  1

  0
TEXT
  5
A6
330
A4
100
AcDbEntity
  8
CSLAYER1
 62
     4
100
AcDbText
 10
163.2707029999999
 20
175.142197
 30
0.0
 40
3.2
  1
20
 41
1.200000000000001
 51
15.0
  7
FX_FONT
 72
     5
 11
169.6707029999999
 21
175.142197
 31
0.0
100
AcDbText
  0
LINE
  5
A7
330
A4
100
AcDbEntity
  8
CSLAYER1
  6
CONTINUOUS
 62
     4
100
AcDbLine
 10
156.4707
 20
174.642191
 30
0.0
 11
176.4707
 21
174.642191
 31
0.0
  0
LINE
  5
A8
330
A4
100
AcDbEntity
  8
CSLAYER1
  6
CONTINUOUS
 62
     4
100
AcDbLine
 10
156.4707
 20
174.642191
 30
0.0
 11
159.368477
 21
175.4186489999999
 31
0.0
  0
LINE
  5
A9
330
A4
100
AcDbEntity
  8
CSLAYER1
  6
CONTINUOUS
 62
     4
100
AcDbLine
 10
156.4707
 20
174.642191
 30
0.0
 11
159.368477
 21
173.865734
 31
0.0
  0
LINE
  5
AA
330
A4
100
AcDbEntity
  8
CSLAYER1
  6
CONTINUOUS
 62
     4
100
AcDbLine
 10
176.4707
 20
174.642191
 30
0.0
 11
173.572922
 21
175.4186489999999
 31
0.0
  0
LINE
  5
AB
330
A4
100
AcDbEntity
  8
CSLAYER1
  6
CONTINUOUS
 62
     4
100
AcDbLine
 10
176.4707
 20
174.642191
 30
0.0
 11
173.572922
 21
173.865734
 31
0.0
  0
LINE
  5
AC
330
A4
100
AcDbEntity
  8
CSLAYER1
  6
CONTINUOUS
 62
     4
100
AcDbLine
 10
176.4707
 20
150.6999999999998
 30
0.0
 11
176.4707
 21
175.642191
 31
0.0
  0
ENDBLK
  5
AD
330
A4
100
AcDbEntity
  8
0
100
AcDbBlockEnd
  0
BLOCK
  5
AF
330
AE
100
AcDbEntity
  8
0
100
AcDbBlockBegin
  2
*D11
 70
     1
 10
0.0
 20
0.0
 30
0.0
  3
*D11
  1

  0
TEXT
  5
B0
330
AE
100
AcDbEntity
  8
CSLAYER1
 62
     4
100
AcDbText
 10
84.37069499999998
 20
169.142197
 30
0.0
 40
3.2
  1
7
 41
1.500000468749999
 51
15.0
  7
FX_FONT
 72
     5
 11
87.57069599999999
 21
169.142197
 31
0.0
100
AcDbText
  0
LINE
  5
B1
330
AE
100
AcDbEntity
  8
CSLAYER1
  6
CONTINUOUS
 62
     4
100
AcDbLine
 10
82.47069999999999
 20
168.6421909999999
 30
0.0
 11
89.4707
 21
168.6421909999999
 31
0.0
  0
LINE
  5
B2
330
AE
100
AcDbEntity
  8
CSLAYER1
  6
CONTINUOUS
 62
     4
100
AcDbLine
 10
82.47069999999999
 20
168.6421909999999
 30
0.0
 11
85.368477
 21
169.4186489999998
 31
0.0
  0
LINE
  5
B3
330
AE
100
AcDbEntity
  8
CSLAYER1
  6
CONTINUOUS
 62
     4
100
AcDbLine
 10
82.47069999999999
 20
168.6421909999999
 30
0.0
 11
85.368477
 21
167.8657339999999
 31
0.0
  0
LINE
  5
B4
330
AE
100
AcDbEntity
  8
CSLAYER1
  6
CONTINUOUS
 62
     4
100
AcDbLine
 10
89.4707
 20
168.6421909999999
 30
0.0
 11
86.57292199999998
 21
169.4186489999998
 31
0.0
  0
LINE
  5
B5
330
AE
100
AcDbEntity
  8
CSLAYER1
  6
CONTINUOUS
 62
     4
100
AcDbLine
 10
89.4707
 20
168.6421909999999
 30
0.0
 11
86.57292199999998
 21
167.8657339999999
 31
0.0
  0
LINE
  5
B6
330
AE
100
AcDbEntity
  8
CSLAYER1
  6
CONTINUOUS
 62
     4
100
AcDbLine
 10
89.4707
 20
151.0857139999998
 30
0.0
 11
89.4707
 21
169.6421909999999
 31
0.0
  0
ENDBLK
  5
B7
330
AE
100
AcDbEntity
  8
0
100
AcDbBlockEnd
  0
BLOCK
  5
B9
330
B8
100
AcDbEntity
  8
0
100
AcDbBlockBegin
  2
*D12
 70
     1
 10
0.0
 20
0.0
 30
0.0
  3
*D12
  1

  0
TEXT
  5
BA
330
B8
100
AcDbEntity
  8
CSLAYER1
 62
     4
100
AcDbText
 10
130.270703
 20
169.142197
 30
0.0
 40
3.2
  1
46
 41
1.200000000000001
 51
15.0
  7
FX_FONT
 72
     5
 11
136.670703
 21
169.142197
 31
0.0
100
AcDbText
  0
LINE
  5
BB
330
B8
100
AcDbEntity
  8
CSLAYER1
  6
CONTINUOUS
 62
     4
100
AcDbLine
 10
110.4706999999999
 20
168.6421909999999
 30
0.0
 11
156.4707
 21
168.6421909999999
 31
0.0
  0
LINE
  5
BC
330
B8
100
AcDbEntity
  8
CSLAYER1
  6
CONTINUOUS
 62
     4
100
AcDbLine
 10
110.4706999999999
 20
168.6421909999999
 30
0.0
 11
113.368477
 21
169.4186489999998
 31
0.0
  0
LINE
  5
BD
330
B8
100
AcDbEntity
  8
CSLAYER1
  6
CONTINUOUS
 62
     4
100
AcDbLine
 10
110.4706999999999
 20
168.6421909999999
 30
0.0
 11
113.368477
 21
167.8657339999999
 31
0.0
  0
LINE
  5
BE
330
B8
100
AcDbEntity
  8
CSLAYER1
  6
CONTINUOUS
 62
     4
100
AcDbLine
 10
156.4707
 20
168.6421909999999
 30
0.0
 11
153.572922
 21
169.4186489999998
 31
0.0
  0
LINE
  5
BF
330
B8
100
AcDbEntity
  8
CSLAYER1
  6
CONTINUOUS
 62
     4
100
AcDbLine
 10
156.4707
 20
168.6421909999999
 30
0.0
 11
153.572922
 21
167.8657339999999
 31
0.0
  0
LINE
  5
C0
330
B8
100
AcDbEntity
  8
CSLAYER1
  6
CONTINUOUS
 62
     4
100
AcDbLine
 10
110.4706999999999
 20
155.1999999999999
 30
0.0
 11
110.4706999999999
 21
169.6421909999999
 31
0.0
  0
ENDBLK
  5
C1
330
B8
100
AcDbEntity
  8
0
100
AcDbBlockEnd
  0
BLOCK
  5
C3
330
C2
100
AcDbEntity
  8
0
100
AcDbBlockBegin
  2
*D13
 70
     1
 10
0.0
 20
0.0
 30
0.0
  3
*D13
  1

  0
TEXT
  5
C4
330
C2
100
AcDbEntity
  8
CSLAYER1
 62
     4
100
AcDbText
 10
126.270703
 20
110.0508419999999
 30
0.0
 40
3.2
  1
94
 41
1.200000000000001
 51
15.0
  7
FX_FONT
 72
     5
 11
132.670703
 21
110.0508419999999
 31
0.0
100
AcDbText
  0
LINE
  5
C5
330
C2
100
AcDbEntity
  8
CSLAYER1
  6
CONTINUOUS
 62
     4
100
AcDbLine
 10
82.47069999999999
 20
109.5508439999999
 30
0.0
 11
176.4707
 21
109.5508439999999
 31
0.0
  0
LINE
  5
C6
330
C2
100
AcDbEntity
  8
CSLAYER1
  6
CONTINUOUS
 62
     4
100
AcDbLine
 10
82.47069999999999
 20
109.5508439999999
 30
0.0
 11
85.368477
 21
110.327301
 31
0.0
  0
LINE
  5
C7
330
C2
100
AcDbEntity
  8
CSLAYER1
  6
CONTINUOUS
 62
     4
100
AcDbLine
 10
82.47069999999999
 20
109.5508439999999
 30
0.0
 11
85.368477
 21
108.7743859999999
 31
0.0
  0
LINE
  5
C8
330
C2
100
AcDbEntity
  8
CSLAYER1
  6
CONTINUOUS
 62
     4
100
AcDbLine
 10
176.4707
 20
109.5508439999999
 30
0.0
 11
173.572922
 21
110.327301
 31
0.0
  0
LINE
  5
C9
330
C2
100
AcDbEntity
  8
CSLAYER1
  6
CONTINUOUS
 62
     4
100
AcDbLine
 10
176.4707
 20
109.5508439999999
 30
0.0
 11
173.572922
 21
108.7743859999999
 31
0.0
  0
LINE
  5
CA
330
C2
100
AcDbEntity
  8
CSLAYER1
  6
CONTINUOUS
 62
     4
100
AcDbLine
 10
82.47069999999999
 20
84.65236800000003
 30
0.0
 11
82.47069999999999
 21
110.5508439999999
 31
0.0
  0
LINE
  5
CB
330
C2
100
AcDbEntity
  8
CSLAYER1
  6
CONTINUOUS
 62
     4
100
AcDbLine
 10
176.4707
 20
92.5
 30
0.0
 11
176.4707
 21
110.5508439999999
 31
0.0
  0
ENDBLK
  5
CC
330
C2
100
AcDbEntity
  8
0
100
AcDbBlockEnd
  0
BLOCK
  5
CE
330
CD
100
AcDbEntity
  8
0
100
AcDbBlockBegin
  2
*D14
 70
     1
 10
0.0
 20
0.0
 30
0.0
  3
*D14
  1

  0
TEXT
  5
CF
330
CD
100
AcDbEntity
  8
CSLAYER1
 62
     4
100
AcDbText
 10
84.37069499999998
 20
104.050842
 30
0.0
 40
3.2
  1
7
 41
1.500000468749999
 51
15.0
  7
FX_FONT
 72
     5
 11
87.57069599999999
 21
104.050842
 31
0.0
100
AcDbText
  0
LINE
  5
D0
330
CD
100
AcDbEntity
  8
CSLAYER1
  6
CONTINUOUS
 62
     4
100
AcDbLine
 10
82.47069999999999
 20
103.550844
 30
0.0
 11
89.4707
 21
103.550844
 31
0.0
  0
LINE
  5
D1
330
CD
100
AcDbEntity
  8
CSLAYER1
  6
CONTINUOUS
 62
     4
100
AcDbLine
 10
82.47069999999999
 20
103.550844
 30
0.0
 11
85.368477
 21
104.327301
 31
0.0
  0
LINE
  5
D2
330
CD
100
AcDbEntity
  8
CSLAYER1
  6
CONTINUOUS
 62
     4
100
AcDbLine
 10
82.47069999999999
 20
103.550844
 30
0.0
 11
85.368477
 21
102.7743859999999
 31
0.0
  0
LINE
  5
D3
330
CD
100
AcDbEntity
  8
CSLAYER1
  6
CONTINUOUS
 62
     4
100
AcDbLine
 10
89.4707
 20
103.550844
 30
0.0
 11
86.57292199999998
 21
104.327301
 31
0.0
  0
LINE
  5
D4
330
CD
100
AcDbEntity
  8
CSLAYER1
  6
CONTINUOUS
 62
     4
100
AcDbLine
 10
89.4707
 20
103.550844
 30
0.0
 11
86.57292199999998
 21
102.7743859999999
 31
0.0
  0
LINE
  5
D5
330
CD
100
AcDbEntity
  8
CSLAYER1
  6
CONTINUOUS
 62
     4
100
AcDbLine
 10
89.4707
 20
83.59146899999997
 30
0.0
 11
89.4707
 21
104.550844
 31
0.0
  0
ENDBLK
  5
D6
330
CD
100
AcDbEntity
  8
0
100
AcDbBlockEnd
  0
BLOCK
  5
D8
330
D7
100
AcDbEntity
  8
0
100
AcDbBlockBegin
  2
*D15
 70
     1
 10
0.0
 20
0.0
 30
0.0
  3
*D15
  1

  0
TEXT
  5
D9
330
D7
100
AcDbEntity
  8
CSLAYER1
 62
     4
100
AcDbText
 10
99.33771800000002
 20
118.848444
 30
0.0
 40
3.2
  1
R14
 50
59.42428397182685
 41
1.125000011686146
 51
15.0
  7
FX_FONT
 72
     5
 11
104.2210129999999
 21
127.1136379999999
 31
0.0
100
AcDbText
  0
LINE
  5
DA
330
D7
100
AcDbEntity
  8
CSLAYER1
  6
CONTINUOUS
 62
     4
100
AcDbLine
 10
105.77058
 20
128.753408
 30
0.0
 11
98.64910899999999
 21
116.7
 31
0.0
  0
LINE
  5
DB
330
D7
100
AcDbEntity
  8
CSLAYER1
  6
CONTINUOUS
 62
     4
100
AcDbLine
 10
105.77058
 20
128.753408
 30
0.0
 11
104.965046
 21
125.863579
 31
0.0
  0
LINE
  5
DC
330
D7
100
AcDbEntity
  8
CSLAYER1
  6
CONTINUOUS
 62
     4
100
AcDbLine
 10
105.77058
 20
128.753408
 30
0.0
 11
103.628052
 21
126.65351
 31
0.0
  0
ENDBLK
  5
DD
330
D7
100
AcDbEntity
  8
0
100
AcDbBlockEnd
  0
BLOCK
  5
DF
330
DE
100
AcDbEntity
  8
0
100
AcDbBlockBegin
  2
FXDIM0003
 70
     0
 10
0.0
 20
0.0
 30
0.0
  3
FXDIM0003
  1

  0
TEXT
  5
E0
330
DE
100
AcDbEntity
  8
CSLAYER1
 62
     4
100
AcDbText
 10
76.584289
 20
122.823608
 30
0.0
 40
3.2
  1
C2
 50
44.99999999999945
 41
1.199999894041648
 51
15.0
  7
FX_FONT
 72
     5
 11
81.10977199999998
 21
127.3490909999999
 31
0.0
100
AcDbText
  0
LINE
  5
E1
330
DE
100
AcDbEntity
  8
CSLAYER1
  6
CONTINUOUS
 62
     4
100
AcDbLine
 10
83.4707
 20
131.6999999999999
 30
0.0
 11
80.886765
 21
129.1160649999999
 31
0.0
  0
LINE
  5
E2
330
DE
100
AcDbEntity
  8
CSLAYER1
  6
CONTINUOUS
 62
     4
100
AcDbLine
 10
83.4707
 20
131.6999999999999
 30
0.0
 11
81.9707
 21
129.101924
 31
0.0
  0
LINE
  5
E3
330
DE
100
AcDbEntity
  8
CSLAYER1
  6
CONTINUOUS
 62
     4
100
AcDbLine
 10
83.4707
 20
131.6999999999999
 30
0.0
 11
80.872624
 21
130.1999999999999
 31
0.0
  0
ENDBLK
  5
E4
330
DE
100
AcDbEntity
  8
0
100
AcDbBlockEnd
  0
BLOCK
  5
21C
330
20F
100
AcDbEntity
  8
0
100
AcDbBlockBegin
  2
*D17
 70
     1
 10
0.0
 20
0.0
 30
0.0
  3
*D17
  1

  0
LINE
  5
210
330
20F
100
AcDbEntity
  8
CSLAYER1
 62
     0
100
AcDbLine
 10
216.030974
 20
139.1999999999999
 30
0.0
 11
208.1559405732567
 21
139.1999999999999
 31
0.0
  0
LINE
  5
211
330
20F
100
AcDbEntity
  8
CSLAYER1
 62
     0
100
AcDbLine
 10
224.5192888261759
 20
128.9651258261758
 30
0.0
 11
215.9463795545416
 21
120.3922165545417
 31
0.0
  0
ARC
  5
212
330
20F
100
AcDbEntity
  8
CSLAYER1
 62
     0
100
AcDbCircle
 10
234.7541629999999
 20
139.1999999999999
 30
0.0
 40
26.41822242674324
100
AcDbArc
 50
180.3903843375566
 51
202.0780914797633
  0
ARC
  5
213
330
20F
100
AcDbEntity
  8
CSLAYER1
 62
     0
100
AcDbCircle
 10
234.7541629999999
 20
139.1999999999999
 30
0.0
 40
26.41822242674324
100
AcDbArc
 50
202.9231993734581
 51
224.6096156624435
  0
SOLID
  5
214
330
20F
100
AcDbEntity
  8
CSLAYER1
 62
     0
100
AcDbTrace
 10
208.3065539604425
 20
139.0198988423487
 30
0.0
 11
208.3665536122654
 21
139.0201032467144
 31
0.0
 12
208.3359405732565
 22
139.1999999999999
 32
0.0
 13
208.3359405732565
 23
139.1999999999999
 33
0.0
  0
SOLID
  5
215
330
20F
100
AcDbEntity
  8
CSLAYER1
 62
     0
100
AcDbTrace
 10
215.9680992484695
 20
120.6683486767926
 30
0.0
 11
215.9255285520835
 21
120.626067051833
 31
0.0
 12
216.0736587751553
 22
120.5194957751553
 32
0.0
 13
216.0736587751553
 23
120.5194957751553
 33
0.0
  0
MTEXT
  5
216
330
20F
100
AcDbEntity
  8
CSLAYER1
 62
     0
100
AcDbMText
 10
210.3469080146012
 20
129.0901839647494
 30
0.0
 40
0.18
 41
0.0
 71
     5
 72
     1
  1
\A1;45°
1001
ACAD
1000
MTEXTBEGIN
1070
    73
1070
     1
1070
    44
1040
1.0
1070
    74
1070
     0
1000
MTEXTEND
  0
POINT
  5
217
330
20F
100
AcDbEntity
  8
DEFPOINTS
 62
     0
100
AcDbPoint
 10
209.2361196733595
 20
132.3624608982042
 30
0.0
  0
POINT
  5
218
330
20F
100
AcDbEntity
  8
DEFPOINTS
 62
     0
100
AcDbPoint
 10
234.7541629999999
 20
139.1999999999999
 30
0.0
  0
POINT
  5
219
330
20F
100
AcDbEntity
  8
DEFPOINTS
 62
     0
100
AcDbPoint
 10
224.563483
 20
129.00932
 30
0.0
  0
POINT
  5
21A
330
20F
100
AcDbEntity
  8
DEFPOINTS
 62
     0
100
AcDbPoint
 10
230.19197
 20
134.637807
 30
0.0
  0
POINT
  5
21B
330
20F
100
AcDbEntity
  8
DEFPOINTS
 62
     0
100
AcDbPoint
 10
216.093474
 20
139.1999999999999
 30
0.0
  0
ENDBLK
  5
21D
330
20F
100
AcDbEntity
  8
0
100
AcDbBlockEnd
  0
ENDSEC
  0
SECTION
  2
ENTITIES
  0
DIMENSION
  5
E5
330
1E
100
AcDbEntity
  8
CSLAYER1
 62
     4
100
AcDbDimension
  2
*D0
 10
259.9842859999999
 20
151.2
 30
0.0
 11
259.484283
 21
139.199997
 31
0.0
 70
     1
100
AcDbAlignedDimension
 13
243.7541629999999
 23
127.2
 33
0.0
 14
243.7541629999999
 24
151.2
 34
0.0
  0
DIMENSION
  5
E6
330
1E
100
AcDbEntity
  8
CSLAYER1
 62
     4
100
AcDbDimension
  2
*D1
 10
226.5702919999998
 20
161.5260069999999
 30
0.0
 11
219.1456759999999
 21
154.808487
 31
0.0
100
AcDbAlignedDimension
 13
224.6979379999999
 23
135.1140889999999
 33
0.0
 14
238.492637
 24
149.603662
 34
0.0
 50
45.0
100
AcDbRotatedDimension
  0
INSERT
  5
E7
330
1E
100
AcDbEntity
  8
CSLAYER1
100
AcDbBlockReference
  2
FXDIM0000
 10
0.0
 20
0.0
 30
0.0
  0
TEXT
  5
E8
330
1E
100
AcDbEntity
  8
CSLAYER1
 62
     3
100
AcDbText
 10
242.3999999999999
 20
17.4
 30
0.0
 40
3.2
  1
GT-NR5
 41
1.05882352941177
  7
FX_FONT
 72
     5
 11
261.6
 21
17.4
 31
0.0
100
AcDbText
  0
LINE
  5
E9
330
1E
100
AcDbEntity
  8
CSLAYER1
  6
CONTINUOUS
 62
     3
100
AcDbLine
 10
161.4706999999999
 20
154.1999999999999
 30
0.0
 11
161.4706999999999
 21
153.2
 31
0.0
  0
ARC
  5
EA
330
1E
100
AcDbEntity
  8
CSLAYER1
  6
CONTINUOUS
 62
     3
100
AcDbCircle
 10
163.4706999999998
 20
153.2
 30
0.0
 40
2.0
100
AcDbArc
 50
180.0
 51
270.0
  0
LINE
  5
EB
330
1E
100
AcDbEntity
  8
CSLAYER1
  6
CONTINUOUS
 62
     3
100
AcDbLine
 10
163.4706999999998
 20
151.2
 30
0.0
 11
174.9706999999999
 21
151.2
 31
0.0
  0
LINE
  5
EC
330
1E
100
AcDbEntity
  8
CSLAYER1
  6
CONTINUOUS
 62
     3
100
AcDbLine
 10
174.9706999999999
 20
151.2
 30
0.0
 11
176.4707
 21
149.6999999999998
 31
0.0
  0
LINE
  5
ED
330
1E
100
AcDbEntity
  8
CSLAYER1
  6
CONTINUOUS
 62
     3
100
AcDbLine
 10
176.4707
 20
149.6999999999998
 30
0.0
 11
176.4707
 21
128.6999999999999
 31
0.0
  0
LINE
  5
EE
330
1E
100
AcDbEntity
  8
CSLAYER1
  6
CONTINUOUS
 62
     3
100
AcDbLine
 10
176.4707
 20
128.6999999999999
 30
0.0
 11
174.9706999999999
 21
127.2
 31
0.0
  0
LINE
  5
EF
330
1E
100
AcDbEntity
  8
CSLAYER1
  6
CONTINUOUS
 62
     3
100
AcDbLine
 10
174.9706999999999
 20
127.2
 30
0.0
 11
163.4706999999998
 21
127.2
 31
0.0
  0
ARC
  5
F0
330
1E
100
AcDbEntity
  8
CSLAYER1
  6
CONTINUOUS
 62
     3
100
AcDbCircle
 10
163.4706999999998
 20
125.2
 30
0.0
 40
2.0
100
AcDbArc
 50
90.0
 51
180.0
  0
LINE
  5
F1
330
1E
100
AcDbEntity
  8
CSLAYER1
  6
CONTINUOUS
 62
     3
100
AcDbLine
 10
161.4706999999999
 20
125.2
 30
0.0
 11
161.4706999999999
 21
124.1999999999999
 31
0.0
  0
LINE
  5
F2
330
1E
100
AcDbEntity
  8
CSLAYER1
  6
CONTINUOUS
 62
     3
100
AcDbLine
 10
156.4707
 20
124.1999999999999
 30
0.0
 11
156.4707
 21
154.1999999999999
 31
0.0
  0
LINE
  5
F3
330
1E
100
AcDbEntity
  8
CSLAYER1
  6
CONTINUOUS
 62
     3
100
AcDbLine
 10
174.9706999999999
 20
151.2
 30
0.0
 11
174.9706999999999
 21
127.2
 31
0.0
  0
LINE
  5
F4
330
1E
100
AcDbEntity
  8
CSLAYER1
  6
CONTINUOUS
 62
     3
100
AcDbLine
 10
225.7541629999999
 20
127.2
 30
0.0
 11
243.7541629999999
 21
127.2
 31
0.0
  0
ARC
  5
F5
330
1E
100
AcDbEntity
  8
CSLAYER1
  6
CONTINUOUS
 62
     3
100
AcDbCircle
 10
234.7541629999999
 20
139.1999999999999
 30
0.0
 40
13.5
100
AcDbArc
 50
297.266044
 51
62.73395600000001
  0
LINE
  5
F6
330
1E
100
AcDbEntity
  8
CSLAYER1
  6
CONTINUOUS
 62
     3
100
AcDbLine
 10
243.7541629999999
 20
151.2
 30
0.0
 11
225.7541629999999
 21
151.2
 31
0.0
  0
ARC
  5
F7
330
1E
100
AcDbEntity
  8
CSLAYER1
  6
CONTINUOUS
 62
     3
100
AcDbCircle
 10
234.7541629999999
 20
139.1999999999999
 30
0.0
 40
13.5
100
AcDbArc
 50
117.266044
 51
242.733956
  0
CIRCLE
  5
F8
330
1E
100
AcDbEntity
  8
CSLAYER1
  6
CONTINUOUS
 62
     3
100
AcDbCircle
 10
227.683095
 20
132.128932
 30
0.0
 40
1.649999999999999
  0
CIRCLE
  5
F9
330
1E
100
AcDbEntity
  8
CSLAYER1
  6
CONTINUOUS
 62
     3
100
AcDbCircle
 10
234.7541629999999
 20
139.1999999999999
 30
0.0
 40
4.25
  0
CIRCLE
  5
FA
330
1E
100
AcDbEntity
  8
CSLAYER1
  6
CONTINUOUS
 62
     3
100
AcDbCircle
 10
241.825231
 20
146.2710679999998
 30
0.0
 40
1.649999999999999
  0
CIRCLE
  5
FB
330
1E
100
AcDbEntity
  8
CSLAYER1
  6
CONTINUOUS
 62
     3
100
AcDbCircle
 10
234.7541629999999
 20
139.1999999999999
 30
0.0
 40
15.0
  0
LINE
  5
FC
330
1E
100
AcDbEntity
  8
CSLAYER1
  6
CONTINUOUS
 62
     3
100
AcDbLine
 10
176.4707
 20
91.5
 30
0.0
 11
174.9706999999999
 21
93.0
 31
0.0
  0
LINE
  5
FD
330
1E
100
AcDbEntity
  8
CSLAYER1
  6
CONTINUOUS
 62
     3
100
AcDbLine
 10
110.4706999999999
 20
63.0
 30
0.0
 11
174.9706999999999
 21
63.0
 31
0.0
  0
LINE
  5
FE
330
1E
100
AcDbEntity
  8
CSLAYER1
  6
CONTINUOUS
 62
     3
100
AcDbLine
 10
174.9706999999999
 20
63.0
 30
0.0
 11
176.4707
 21
64.5
 31
0.0
  0
LINE
  5
FF
330
1E
100
AcDbEntity
  8
CSLAYER1
  6
CONTINUOUS
 62
     3
100
AcDbLine
 10
176.4707
 20
64.5
 30
0.0
 11
176.4707
 21
91.5
 31
0.0
  0
LINE
  5
100
330
1E
100
AcDbEntity
  8
CSLAYER1
  6
CONTINUOUS
 62
     3
100
AcDbLine
 10
174.9706999999999
 20
93.0
 30
0.0
 11
174.9706999999999
 21
87.0
 31
0.0
  0
LINE
  5
101
330
1E
100
AcDbEntity
  8
CSLAYER1
  6
CONTINUOUS
 62
     3
100
AcDbLine
 10
174.9706999999999
 20
87.0
 30
0.0
 11
163.4706999999998
 21
87.0
 31
0.0
  0
ARC
  5
102
330
1E
100
AcDbEntity
  8
CSLAYER1
  6
CONTINUOUS
 62
     3
100
AcDbCircle
 10
163.4706999999998
 20
85.0
 30
0.0
 40
2.0
100
AcDbArc
 50
90.0
 51
180.0
  0
LINE
  5
103
330
1E
100
AcDbEntity
  8
CSLAYER1
  6
CONTINUOUS
 62
     3
100
AcDbLine
 10
161.4706999999999
 20
85.0
 30
0.0
 11
161.4706999999999
 21
71.0
 31
0.0
  0
ARC
  5
104
330
1E
100
AcDbEntity
  8
CSLAYER1
  6
CONTINUOUS
 62
     3
100
AcDbCircle
 10
163.4706999999998
 20
71.0
 30
0.0
 40
2.0
100
AcDbArc
 50
180.0
 51
270.0
  0
LINE
  5
105
330
1E
100
AcDbEntity
  8
CSLAYER1
  6
CONTINUOUS
 62
     3
100
AcDbLine
 10
163.4706999999998
 20
69.0
 30
0.0
 11
174.9706999999999
 21
69.0
 31
0.0
  0
LINE
  5
106
330
1E
100
AcDbEntity
  8
CSLAYER1
  6
CONTINUOUS
 62
     3
100
AcDbLine
 10
174.9706999999999
 20
69.0
 30
0.0
 11
176.4707
 21
70.5
 31
0.0
  0
LINE
  5
107
330
1E
100
AcDbEntity
  8
CSLAYER1
  6
CONTINUOUS
 62
     3
100
AcDbLine
 10
174.9706999999999
 20
69.0
 30
0.0
 11
174.9706999999999
 21
62.94376899999999
 31
0.0
  0
LINE
  5
108
330
1E
100
AcDbEntity
  8
CSLAYER1
  6
CONTINUOUS
 62
     3
100
AcDbLine
 10
156.4707
 20
63.0
 30
0.0
 11
156.4707
 21
93.0
 31
0.0
  0
LINE
  5
109
330
1E
100
AcDbEntity
  8
CSLAYER1
  6
CONTINUOUS
 62
     3
100
AcDbLine
 10
174.9706999999999
 20
87.0
 30
0.0
 11
176.4707
 21
85.5
 31
0.0
  0
LINE
  5
10A
330
1E
100
AcDbEntity
  8
CSLAYER1
  6
CENTER
 62
     4
100
AcDbLine
 10
80.52803799999997
 20
78.0
 30
0.0
 11
180.114417
 21
78.0
 31
0.0
  0
LINE
  5
10B
330
1E
100
AcDbEntity
  8
CSLAYER1
  6
CENTER
 62
     4
100
AcDbLine
 10
234.7541629999999
 20
120.717505
 30
0.0
 11
234.7541629999999
 21
157.4652969999999
 31
0.0
  0
LINE
  5
10C
330
1E
100
AcDbEntity
  8
CSLAYER1
  6
CENTER
 62
     4
100
AcDbLine
 10
238.492637
 20
149.603662
 30
0.0
 11
244.885485
 21
143.210813
 31
0.0
  0
CIRCLE
  5
10D
330
1E
100
AcDbEntity
  8
CSLAYER1
  6
CONTINUOUS
 62
     4
100
AcDbCircle
 10
241.825231
 20
146.2710679999998
 30
0.0
 40
2.0
  0
LINE
  5
10E
330
1E
100
AcDbEntity
  8
CSLAYER1
  6
CENTER
 62
     4
100
AcDbLine
 10
244.9233169999998
 20
149.369154
 30
0.0
 11
239.225343
 21
143.6711799999999
 31
0.0
  0
CIRCLE
  5
10F
330
1E
100
AcDbEntity
  8
CSLAYER1
  6
CONTINUOUS
 62
     4
100
AcDbCircle
 10
234.7541629999999
 20
139.1999999999999
 30
0.0
 40
4.75
  0
LINE
  5
110
330
1E
100
AcDbEntity
  8
CSLAYER1
  6
CENTER
 62
     4
100
AcDbLine
 10
230.19197
 20
134.637807
 30
0.0
 11
224.563483
 21
129.00932
 31
0.0
  0
LINE
  5
111
330
1E
100
AcDbEntity
  8
CSLAYER1
  6
CENTER
 62
     4
100
AcDbLine
 10
230.256937
 20
129.5550899999998
 30
0.0
 11
224.6979379999999
 21
135.1140889999999
 31
0.0
  0
CIRCLE
  5
112
330
1E
100
AcDbEntity
  8
CSLAYER1
  6
CONTINUOUS
 62
     4
100
AcDbCircle
 10
227.683095
 20
132.128932
 30
0.0
 40
2.0
  0
LINE
  5
113
330
1E
100
AcDbEntity
  8
CSLAYER1
  6
CENTER
 62
     4
100
AcDbLine
 10
216.093474
 20
139.1999999999999
 30
0.0
 11
252.9422209999999
 21
139.1999999999999
 31
0.0
  0
LINE
  5
114
330
1E
100
AcDbEntity
  8
CSLAYER1
  6
CENTER
 62
     4
100
AcDbLine
 10
181.5430659999999
 20
139.1999999999999
 30
0.0
 11
79.050696
 21
139.1999999999999
 31
0.0
  0
INSERT
  5
116
330
1E
100
AcDbEntity
  8
CSLAYER1
100
AcDbBlockReference
  2
FXDIM0001
 10
0.0
 20
0.0
 30
0.0
  0
LINE
  5
117
330
1E
100
AcDbEntity
  8
CSLAYER1
  6
CENTER
 62
     4
100
AcDbLine
 10
234.7541629999999
 20
139.1999999999999
 30
0.0
 11
217.0218999999999
 21
143.951346
 31
0.0
  0
LINE
  5
118
330
1E
100
AcDbEntity
  8
CSLAYER1
  6
CENTER
 62
     4
100
AcDbLine
 10
173.738911
 20
145.023429
 30
0.0
 11
159.1474929999999
 21
145.023429
 31
0.0
  0
LINE
  5
119
330
1E
100
AcDbEntity
  8
CSLAYER1
  6
CENTER
 62
     4
100
AcDbLine
 10
166.4706999999999
 20
137.914793
 30
0.0
 11
166.4706999999999
 21
151.9991729999999
 31
0.0
  0
POLYLINE
  5
11A
330
1E
100
AcDbEntity
  8
CSLAYER1
  6
CONTINUOUS
 62
     4
100
AcDb2dPolyline
 66
     1
 10
0.0
 20
0.0
 30
0.0
  0
VERTEX
  5
11B
330
11A
100
AcDbEntity
  8
CSLAYER1
  6
CONTINUOUS
 62
     4
100
AcDbVertex
100
AcDb2dVertex
 10
166.4706999999999
 20
149.7734289999999
 30
0.0
  0
VERTEX
  5
11C
330
11A
100
AcDbEntity
  8
CSLAYER1
  6
CONTINUOUS
 62
     4
100
AcDbVertex
100
AcDb2dVertex
 10
166.0710909999998
 20
149.755353
 30
0.0
  0
VERTEX
  5
11D
330
11A
100
AcDbEntity
  8
CSLAYER1
  6
CONTINUOUS
 62
     4
100
AcDbVertex
100
AcDb2dVertex
 10
165.674523
 20
149.7012649999998
 30
0.0
  0
VERTEX
  5
11E
330
11A
100
AcDbEntity
  8
CSLAYER1
  6
CONTINUOUS
 62
     4
100
AcDbVertex
100
AcDb2dVertex
 10
165.2840139999999
 20
149.611576
 30
0.0
  0
VERTEX
  5
11F
330
11A
100
AcDbEntity
  8
CSLAYER1
  6
CONTINUOUS
 62
     4
100
AcDbVertex
100
AcDb2dVertex
 10
164.902537
 20
149.4869679999998
 30
0.0
  0
VERTEX
  5
120
330
11A
100
AcDbEntity
  8
CSLAYER1
  6
CONTINUOUS
 62
     4
100
AcDbVertex
100
AcDb2dVertex
 10
164.5329949999999
 20
149.3283909999999
 30
0.0
  0
VERTEX
  5
121
330
11A
100
AcDbEntity
  8
CSLAYER1
  6
CONTINUOUS
 62
     4
100
AcDbVertex
100
AcDb2dVertex
 10
164.1782
 20
149.1370489999999
 30
0.0
  0
VERTEX
  5
122
330
11A
100
AcDbEntity
  8
CSLAYER1
  6
CONTINUOUS
 62
     4
100
AcDbVertex
100
AcDb2dVertex
 10
163.840852
 20
148.9144009999999
 30
0.0
  0
VERTEX
  5
123
330
11A
100
AcDbEntity
  8
CSLAYER1
  6
CONTINUOUS
 62
     4
100
AcDbVertex
100
AcDb2dVertex
 10
163.5235189999999
 20
148.6621399999999
 30
0.0
  0
VERTEX
  5
124
330
11A
100
AcDbEntity
  8
CSLAYER1
  6
CONTINUOUS
 62
     4
100
AcDbVertex
100
AcDb2dVertex
 10
163.2286149999998
 20
148.382186
 30
0.0
  0
VERTEX
  5
125
330
11A
100
AcDbEntity
  8
CSLAYER1
  6
CONTINUOUS
 62
     4
100
AcDbVertex
100
AcDb2dVertex
 10
162.958386
 20
148.07667
 30
0.0
  0
VERTEX
  5
126
330
11A
100
AcDbEntity
  8
CSLAYER1
  6
CONTINUOUS
 62
     4
100
AcDbVertex
100
AcDb2dVertex
 10
162.714888
 20
147.747917
 30
0.0
  0
VERTEX
  5
127
330
11A
100
AcDbEntity
  8
CSLAYER1
  6
CONTINUOUS
 62
     4
100
AcDbVertex
100
AcDb2dVertex
 10
162.499973
 20
147.3984289999999
 30
0.0
  0
VERTEX
  5
128
330
11A
100
AcDbEntity
  8
CSLAYER1
  6
CONTINUOUS
 62
     4
100
AcDbVertex
100
AcDb2dVertex
 10
162.3152789999999
 20
147.0308649999998
 30
0.0
  0
VERTEX
  5
129
330
11A
100
AcDbEntity
  8
CSLAYER1
  6
CONTINUOUS
 62
     4
100
AcDbVertex
100
AcDb2dVertex
 10
162.162209
 20
146.6480239999999
 30
0.0
  0
VERTEX
  5
12A
330
11A
100
AcDbEntity
  8
CSLAYER1
  6
CONTINUOUS
 62
     4
100
AcDbVertex
100
AcDb2dVertex
 10
162.04193
 20
146.252819
 30
0.0
  0
VERTEX
  5
12B
330
11A
100
AcDbEntity
  8
CSLAYER1
  6
CONTINUOUS
 62
     4
100
AcDbVertex
100
AcDb2dVertex
 10
161.9553559999999
 20
145.848257
 30
0.0
  0
VERTEX
  5
12C
330
11A
100
AcDbEntity
  8
CSLAYER1
  6
CONTINUOUS
 62
     4
100
AcDbVertex
100
AcDb2dVertex
 10
161.9031469999999
 20
145.4374179999998
 30
0.0
  0
VERTEX
  5
12D
330
11A
100
AcDbEntity
  8
CSLAYER1
  6
CONTINUOUS
 62
     4
100
AcDbVertex
100
AcDb2dVertex
 10
161.8857
 20
145.023429
 30
0.0
  0
VERTEX
  5
12E
330
11A
100
AcDbEntity
  8
CSLAYER1
  6
CONTINUOUS
 62
     4
100
AcDbVertex
100
AcDb2dVertex
 10
161.9031469999999
 20
144.6094389999998
 30
0.0
  0
VERTEX
  5
12F
330
11A
100
AcDbEntity
  8
CSLAYER1
  6
CONTINUOUS
 62
     4
100
AcDbVertex
100
AcDb2dVertex
 10
161.9553559999999
 20
144.1985999999999
 30
0.0
  0
VERTEX
  5
130
330
11A
100
AcDbEntity
  8
CSLAYER1
  6
CONTINUOUS
 62
     4
100
AcDbVertex
100
AcDb2dVertex
 10
162.04193
 20
143.794038
 30
0.0
  0
VERTEX
  5
131
330
11A
100
AcDbEntity
  8
CSLAYER1
  6
CONTINUOUS
 62
     4
100
AcDbVertex
100
AcDb2dVertex
 10
162.162209
 20
143.398833
 30
0.0
  0
VERTEX
  5
132
330
11A
100
AcDbEntity
  8
CSLAYER1
  6
CONTINUOUS
 62
     4
100
AcDbVertex
100
AcDb2dVertex
 10
162.3152789999999
 20
143.0159919999999
 30
0.0
  0
VERTEX
  5
133
330
11A
100
AcDbEntity
  8
CSLAYER1
  6
CONTINUOUS
 62
     4
100
AcDbVertex
100
AcDb2dVertex
 10
162.499973
 20
142.6484289999999
 30
0.0
  0
VERTEX
  5
134
330
11A
100
AcDbEntity
  8
CSLAYER1
  6
CONTINUOUS
 62
     4
100
AcDbVertex
100
AcDb2dVertex
 10
162.714888
 20
142.2989399999998
 30
0.0
  0
VERTEX
  5
135
330
11A
100
AcDbEntity
  8
CSLAYER1
  6
CONTINUOUS
 62
     4
100
AcDbVertex
100
AcDb2dVertex
 10
162.958386
 20
141.970187
 30
0.0
  0
VERTEX
  5
136
330
11A
100
AcDbEntity
  8
CSLAYER1
  6
CONTINUOUS
 62
     4
100
AcDbVertex
100
AcDb2dVertex
 10
163.2286149999998
 20
141.664671
 30
0.0
  0
VERTEX
  5
137
330
11A
100
AcDbEntity
  8
CSLAYER1
  6
CONTINUOUS
 62
     4
100
AcDbVertex
100
AcDb2dVertex
 10
163.5235189999999
 20
141.3847169999999
 30
0.0
  0
VERTEX
  5
138
330
11A
100
AcDbEntity
  8
CSLAYER1
  6
CONTINUOUS
 62
     4
100
AcDbVertex
100
AcDb2dVertex
 10
163.840852
 20
141.132456
 30
0.0
  0
VERTEX
  5
139
330
11A
100
AcDbEntity
  8
CSLAYER1
  6
CONTINUOUS
 62
     4
100
AcDbVertex
100
AcDb2dVertex
 10
164.1782
 20
140.9098079999999
 30
0.0
  0
VERTEX
  5
13A
330
11A
100
AcDbEntity
  8
CSLAYER1
  6
CONTINUOUS
 62
     4
100
AcDbVertex
100
AcDb2dVertex
 10
164.5329949999999
 20
140.718467
 30
0.0
  0
VERTEX
  5
13B
330
11A
100
AcDbEntity
  8
CSLAYER1
  6
CONTINUOUS
 62
     4
100
AcDbVertex
100
AcDb2dVertex
 10
164.902537
 20
140.559889
 30
0.0
  0
VERTEX
  5
13C
330
11A
100
AcDbEntity
  8
CSLAYER1
  6
CONTINUOUS
 62
     4
100
AcDbVertex
100
AcDb2dVertex
 10
165.2840139999999
 20
140.4352809999999
 30
0.0
  0
VERTEX
  5
13D
330
11A
100
AcDbEntity
  8
CSLAYER1
  6
CONTINUOUS
 62
     4
100
AcDbVertex
100
AcDb2dVertex
 10
165.674523
 20
140.3455919999998
 30
0.0
  0
VERTEX
  5
13E
330
11A
100
AcDbEntity
  8
CSLAYER1
  6
CONTINUOUS
 62
     4
100
AcDbVertex
100
AcDb2dVertex
 10
166.0710909999998
 20
140.291504
 30
0.0
  0
VERTEX
  5
13F
330
11A
100
AcDbEntity
  8
CSLAYER1
  6
CONTINUOUS
 62
     4
100
AcDbVertex
100
AcDb2dVertex
 10
166.4706999999999
 20
140.2734289999999
 30
0.0
  0
VERTEX
  5
140
330
11A
100
AcDbEntity
  8
CSLAYER1
  6
CONTINUOUS
 62
     4
100
AcDbVertex
100
AcDb2dVertex
 10
166.870309
 20
140.291504
 30
0.0
  0
VERTEX
  5
141
330
11A
100
AcDbEntity
  8
CSLAYER1
  6
CONTINUOUS
 62
     4
100
AcDbVertex
100
AcDb2dVertex
 10
167.266877
 20
140.3455919999998
 30
0.0
  0
VERTEX
  5
142
330
11A
100
AcDbEntity
  8
CSLAYER1
  6
CONTINUOUS
 62
     4
100
AcDbVertex
100
AcDb2dVertex
 10
167.657385
 20
140.4352809999999
 30
0.0
  0
VERTEX
  5
143
330
11A
100
AcDbEntity
  8
CSLAYER1
  6
CONTINUOUS
 62
     4
100
AcDbVertex
100
AcDb2dVertex
 10
168.038862
 20
140.559889
 30
0.0
  0
VERTEX
  5
144
330
11A
100
AcDbEntity
  8
CSLAYER1
  6
CONTINUOUS
 62
     4
100
AcDbVertex
100
AcDb2dVertex
 10
168.4084039999999
 20
140.718467
 30
0.0
  0
VERTEX
  5
145
330
11A
100
AcDbEntity
  8
CSLAYER1
  6
CONTINUOUS
 62
     4
100
AcDbVertex
100
AcDb2dVertex
 10
168.7632
 20
140.9098079999999
 30
0.0
  0
VERTEX
  5
146
330
11A
100
AcDbEntity
  8
CSLAYER1
  6
CONTINUOUS
 62
     4
100
AcDbVertex
100
AcDb2dVertex
 10
169.100548
 20
141.132456
 30
0.0
  0
VERTEX
  5
147
330
11A
100
AcDbEntity
  8
CSLAYER1
  6
CONTINUOUS
 62
     4
100
AcDbVertex
100
AcDb2dVertex
 10
169.4178809999999
 20
141.3847169999999
 30
0.0
  0
VERTEX
  5
148
330
11A
100
AcDbEntity
  8
CSLAYER1
  6
CONTINUOUS
 62
     4
100
AcDbVertex
100
AcDb2dVertex
 10
169.712784
 20
141.664671
 30
0.0
  0
VERTEX
  5
149
330
11A
100
AcDbEntity
  8
CSLAYER1
  6
CONTINUOUS
 62
     4
100
AcDbVertex
100
AcDb2dVertex
 10
169.983013
 20
141.970187
 30
0.0
  0
VERTEX
  5
14A
330
11A
100
AcDbEntity
  8
CSLAYER1
  6
CONTINUOUS
 62
     4
100
AcDbVertex
100
AcDb2dVertex
 10
170.226512
 20
142.2989399999998
 30
0.0
  0
VERTEX
  5
14B
330
11A
100
AcDbEntity
  8
CSLAYER1
  6
CONTINUOUS
 62
     4
100
AcDbVertex
100
AcDb2dVertex
 10
170.441426
 20
142.6484289999999
 30
0.0
  0
VERTEX
  5
14C
330
11A
100
AcDbEntity
  8
CSLAYER1
  6
CONTINUOUS
 62
     4
100
AcDbVertex
100
AcDb2dVertex
 10
170.6261209999999
 20
143.0159919999999
 30
0.0
  0
VERTEX
  5
14D
330
11A
100
AcDbEntity
  8
CSLAYER1
  6
CONTINUOUS
 62
     4
100
AcDbVertex
100
AcDb2dVertex
 10
170.77919
 20
143.398833
 30
0.0
  0
VERTEX
  5
14E
330
11A
100
AcDbEntity
  8
CSLAYER1
  6
CONTINUOUS
 62
     4
100
AcDbVertex
100
AcDb2dVertex
 10
170.89947
 20
143.794038
 30
0.0
  0
VERTEX
  5
14F
330
11A
100
AcDbEntity
  8
CSLAYER1
  6
CONTINUOUS
 62
     4
100
AcDbVertex
100
AcDb2dVertex
 10
170.9860429999999
 20
144.1985999999999
 30
0.0
  0
VERTEX
  5
150
330
11A
100
AcDbEntity
  8
CSLAYER1
  6
CONTINUOUS
 62
     4
100
AcDbVertex
100
AcDb2dVertex
 10
171.038252
 20
144.6094389999998
 30
0.0
  0
VERTEX
  5
151
330
11A
100
AcDbEntity
  8
CSLAYER1
  6
CONTINUOUS
 62
     4
100
AcDbVertex
100
AcDb2dVertex
 10
171.0557
 20
145.023429
 30
0.0
  0
VERTEX
  5
152
330
11A
100
AcDbEntity
  8
CSLAYER1
  6
CONTINUOUS
 62
     4
100
AcDbVertex
100
AcDb2dVertex
 10
171.038252
 20
145.4374179999998
 30
0.0
  0
VERTEX
  5
153
330
11A
100
AcDbEntity
  8
CSLAYER1
  6
CONTINUOUS
 62
     4
100
AcDbVertex
100
AcDb2dVertex
 10
170.9860429999999
 20
145.848257
 30
0.0
  0
VERTEX
  5
154
330
11A
100
AcDbEntity
  8
CSLAYER1
  6
CONTINUOUS
 62
     4
100
AcDbVertex
100
AcDb2dVertex
 10
170.89947
 20
146.252819
 30
0.0
  0
VERTEX
  5
155
330
11A
100
AcDbEntity
  8
CSLAYER1
  6
CONTINUOUS
 62
     4
100
AcDbVertex
100
AcDb2dVertex
 10
170.77919
 20
146.6480239999999
 30
0.0
  0
VERTEX
  5
156
330
11A
100
AcDbEntity
  8
CSLAYER1
  6
CONTINUOUS
 62
     4
100
AcDbVertex
100
AcDb2dVertex
 10
170.6261209999999
 20
147.0308649999998
 30
0.0
  0
VERTEX
  5
157
330
11A
100
AcDbEntity
  8
CSLAYER1
  6
CONTINUOUS
 62
     4
100
AcDbVertex
100
AcDb2dVertex
 10
170.441426
 20
147.3984289999999
 30
0.0
  0
VERTEX
  5
158
330
11A
100
AcDbEntity
  8
CSLAYER1
  6
CONTINUOUS
 62
     4
100
AcDbVertex
100
AcDb2dVertex
 10
170.226512
 20
147.747917
 30
0.0
  0
VERTEX
  5
159
330
11A
100
AcDbEntity
  8
CSLAYER1
  6
CONTINUOUS
 62
     4
100
AcDbVertex
100
AcDb2dVertex
 10
169.983013
 20
148.07667
 30
0.0
  0
VERTEX
  5
15A
330
11A
100
AcDbEntity
  8
CSLAYER1
  6
CONTINUOUS
 62
     4
100
AcDbVertex
100
AcDb2dVertex
 10
169.712784
 20
148.382186
 30
0.0
  0
VERTEX
  5
15B
330
11A
100
AcDbEntity
  8
CSLAYER1
  6
CONTINUOUS
 62
     4
100
AcDbVertex
100
AcDb2dVertex
 10
169.4178809999999
 20
148.6621399999999
 30
0.0
  0
VERTEX
  5
15C
330
11A
100
AcDbEntity
  8
CSLAYER1
  6
CONTINUOUS
 62
     4
100
AcDbVertex
100
AcDb2dVertex
 10
169.100548
 20
148.9144009999999
 30
0.0
  0
VERTEX
  5
15D
330
11A
100
AcDbEntity
  8
CSLAYER1
  6
CONTINUOUS
 62
     4
100
AcDbVertex
100
AcDb2dVertex
 10
168.7632
 20
149.1370489999999
 30
0.0
  0
VERTEX
  5
15E
330
11A
100
AcDbEntity
  8
CSLAYER1
  6
CONTINUOUS
 62
     4
100
AcDbVertex
100
AcDb2dVertex
 10
168.4084039999999
 20
149.3283909999999
 30
0.0
  0
VERTEX
  5
15F
330
11A
100
AcDbEntity
  8
CSLAYER1
  6
CONTINUOUS
 62
     4
100
AcDbVertex
100
AcDb2dVertex
 10
168.038862
 20
149.4869679999998
 30
0.0
  0
VERTEX
  5
160
330
11A
100
AcDbEntity
  8
CSLAYER1
  6
CONTINUOUS
 62
     4
100
AcDbVertex
100
AcDb2dVertex
 10
167.657385
 20
149.611576
 30
0.0
  0
VERTEX
  5
161
330
11A
100
AcDbEntity
  8
CSLAYER1
  6
CONTINUOUS
 62
     4
100
AcDbVertex
100
AcDb2dVertex
 10
167.266877
 20
149.7012649999998
 30
0.0
  0
VERTEX
  5
162
330
11A
100
AcDbEntity
  8
CSLAYER1
  6
CONTINUOUS
 62
     4
100
AcDbVertex
100
AcDb2dVertex
 10
166.870309
 20
149.755353
 30
0.0
  0
VERTEX
  5
163
330
11A
100
AcDbEntity
  8
CSLAYER1
  6
CONTINUOUS
 62
     4
100
AcDbVertex
100
AcDb2dVertex
 10
166.4706999999999
 20
149.7734289999999
 30
0.0
  0
SEQEND
  5
164
330
11A
100
AcDbEntity
  8
CSLAYER1
 62
     4
  0
POLYLINE
  5
165
330
1E
100
AcDbEntity
  8
CSLAYER1
  6
CONTINUOUS
 62
     3
100
AcDb2dPolyline
 66
     1
 10
0.0
 20
0.0
 30
0.0
  0
VERTEX
  5
166
330
165
100
AcDbEntity
  8
CSLAYER1
  6
CONTINUOUS
 62
     3
100
AcDbVertex
100
AcDb2dVertex
 10
166.4706999999999
 20
149.273429
 30
0.0
  0
VERTEX
  5
167
330
165
100
AcDbEntity
  8
CSLAYER1
  6
CONTINUOUS
 62
     3
100
AcDbVertex
100
AcDb2dVertex
 10
166.1129249999999
 20
149.257256
 30
0.0
  0
VERTEX
  5
168
330
165
100
AcDbEntity
  8
CSLAYER1
  6
CONTINUOUS
 62
     3
100
AcDbVertex
100
AcDb2dVertex
 10
165.7578739999999
 20
149.208861
 30
0.0
  0
VERTEX
  5
169
330
165
100
AcDbEntity
  8
CSLAYER1
  6
CONTINUOUS
 62
     3
100
AcDbVertex
100
AcDb2dVertex
 10
165.4082479999999
 20
149.1286129999999
 30
0.0
  0
VERTEX
  5
16A
330
165
100
AcDbEntity
  8
CSLAYER1
  6
CONTINUOUS
 62
     3
100
AcDbVertex
100
AcDb2dVertex
 10
165.066707
 20
149.017122
 30
0.0
  0
VERTEX
  5
16B
330
165
100
AcDbEntity
  8
CSLAYER1
  6
CONTINUOUS
 62
     3
100
AcDbVertex
100
AcDb2dVertex
 10
164.735852
 20
148.875237
 30
0.0
  0
VERTEX
  5
16C
330
165
100
AcDbEntity
  8
CSLAYER1
  6
CONTINUOUS
 62
     3
100
AcDbVertex
100
AcDb2dVertex
 10
164.4182
 20
148.7040359999999
 30
0.0
  0
VERTEX
  5
16D
330
165
100
AcDbEntity
  8
CSLAYER1
  6
CONTINUOUS
 62
     3
100
AcDbVertex
100
AcDb2dVertex
 10
164.1161679999999
 20
148.504825
 30
0.0
  0
VERTEX
  5
16E
330
165
100
AcDbEntity
  8
CSLAYER1
  6
CONTINUOUS
 62
     3
100
AcDbVertex
100
AcDb2dVertex
 10
163.832057
 20
148.2791169999998
 30
0.0
  0
VERTEX
  5
16F
330
165
100
AcDbEntity
  8
CSLAYER1
  6
CONTINUOUS
 62
     3
100
AcDbVertex
100
AcDb2dVertex
 10
163.5680259999999
 20
148.028632
 30
0.0
  0
VERTEX
  5
170
330
165
100
AcDbEntity
  8
CSLAYER1
  6
CONTINUOUS
 62
     3
100
AcDbVertex
100
AcDb2dVertex
 10
163.3260869999999
 20
147.755276
 30
0.0
  0
VERTEX
  5
171
330
165
100
AcDbEntity
  8
CSLAYER1
  6
CONTINUOUS
 62
     3
100
AcDbVertex
100
AcDb2dVertex
 10
163.108081
 20
147.4611279999999
 30
0.0
  0
VERTEX
  5
172
330
165
100
AcDbEntity
  8
CSLAYER1
  6
CONTINUOUS
 62
     3
100
AcDbVertex
100
AcDb2dVertex
 10
162.9156649999998
 20
147.148429
 30
0.0
  0
VERTEX
  5
173
330
165
100
AcDbEntity
  8
CSLAYER1
  6
CONTINUOUS
 62
     3
100
AcDbVertex
100
AcDb2dVertex
 10
162.750306
 20
146.819556
 30
0.0
  0
VERTEX
  5
174
330
165
100
AcDbEntity
  8
CSLAYER1
  6
CONTINUOUS
 62
     3
100
AcDbVertex
100
AcDb2dVertex
 10
162.613262
 20
146.4770139999999
 30
0.0
  0
VERTEX
  5
175
330
165
100
AcDbEntity
  8
CSLAYER1
  6
CONTINUOUS
 62
     3
100
AcDbVertex
100
AcDb2dVertex
 10
162.505574
 20
146.123409
 30
0.0
  0
VERTEX
  5
176
330
165
100
AcDbEntity
  8
CSLAYER1
  6
CONTINUOUS
 62
     3
100
AcDbVertex
100
AcDb2dVertex
 10
162.4280639999998
 20
145.761433
 30
0.0
  0
VERTEX
  5
177
330
165
100
AcDbEntity
  8
CSLAYER1
  6
CONTINUOUS
 62
     3
100
AcDbVertex
100
AcDb2dVertex
 10
162.3813199999998
 20
145.39384
 30
0.0
  0
VERTEX
  5
178
330
165
100
AcDbEntity
  8
CSLAYER1
  6
CONTINUOUS
 62
     3
100
AcDbVertex
100
AcDb2dVertex
 10
162.3657
 20
145.023429
 30
0.0
  0
VERTEX
  5
179
330
165
100
AcDbEntity
  8
CSLAYER1
  6
CONTINUOUS
 62
     3
100
AcDbVertex
100
AcDb2dVertex
 10
162.3813199999998
 20
144.653017
 30
0.0
  0
VERTEX
  5
17A
330
165
100
AcDbEntity
  8
CSLAYER1
  6
CONTINUOUS
 62
     3
100
AcDbVertex
100
AcDb2dVertex
 10
162.4280639999998
 20
144.285424
 30
0.0
  0
VERTEX
  5
17B
330
165
100
AcDbEntity
  8
CSLAYER1
  6
CONTINUOUS
 62
     3
100
AcDbVertex
100
AcDb2dVertex
 10
162.505574
 20
143.923448
 30
0.0
  0
VERTEX
  5
17C
330
165
100
AcDbEntity
  8
CSLAYER1
  6
CONTINUOUS
 62
     3
100
AcDbVertex
100
AcDb2dVertex
 10
162.613262
 20
143.5698429999999
 30
0.0
  0
VERTEX
  5
17D
330
165
100
AcDbEntity
  8
CSLAYER1
  6
CONTINUOUS
 62
     3
100
AcDbVertex
100
AcDb2dVertex
 10
162.750306
 20
143.227301
 30
0.0
  0
VERTEX
  5
17E
330
165
100
AcDbEntity
  8
CSLAYER1
  6
CONTINUOUS
 62
     3
100
AcDbVertex
100
AcDb2dVertex
 10
162.9156649999998
 20
142.898429
 30
0.0
  0
VERTEX
  5
17F
330
165
100
AcDbEntity
  8
CSLAYER1
  6
CONTINUOUS
 62
     3
100
AcDbVertex
100
AcDb2dVertex
 10
163.108081
 20
142.585729
 30
0.0
  0
VERTEX
  5
180
330
165
100
AcDbEntity
  8
CSLAYER1
  6
CONTINUOUS
 62
     3
100
AcDbVertex
100
AcDb2dVertex
 10
163.3260869999999
 20
142.291581
 30
0.0
  0
VERTEX
  5
181
330
165
100
AcDbEntity
  8
CSLAYER1
  6
CONTINUOUS
 62
     3
100
AcDbVertex
100
AcDb2dVertex
 10
163.5680259999999
 20
142.018225
 30
0.0
  0
VERTEX
  5
182
330
165
100
AcDbEntity
  8
CSLAYER1
  6
CONTINUOUS
 62
     3
100
AcDbVertex
100
AcDb2dVertex
 10
163.832057
 20
141.76774
 30
0.0
  0
VERTEX
  5
183
330
165
100
AcDbEntity
  8
CSLAYER1
  6
CONTINUOUS
 62
     3
100
AcDbVertex
100
AcDb2dVertex
 10
164.1161679999999
 20
141.542032
 30
0.0
  0
VERTEX
  5
184
330
165
100
AcDbEntity
  8
CSLAYER1
  6
CONTINUOUS
 62
     3
100
AcDbVertex
100
AcDb2dVertex
 10
164.4182
 20
141.342821
 30
0.0
  0
VERTEX
  5
185
330
165
100
AcDbEntity
  8
CSLAYER1
  6
CONTINUOUS
 62
     3
100
AcDbVertex
100
AcDb2dVertex
 10
164.735852
 20
141.1716199999998
 30
0.0
  0
VERTEX
  5
186
330
165
100
AcDbEntity
  8
CSLAYER1
  6
CONTINUOUS
 62
     3
100
AcDbVertex
100
AcDb2dVertex
 10
165.066707
 20
141.029735
 30
0.0
  0
VERTEX
  5
187
330
165
100
AcDbEntity
  8
CSLAYER1
  6
CONTINUOUS
 62
     3
100
AcDbVertex
100
AcDb2dVertex
 10
165.4082479999999
 20
140.9182439999999
 30
0.0
  0
VERTEX
  5
188
330
165
100
AcDbEntity
  8
CSLAYER1
  6
CONTINUOUS
 62
     3
100
AcDbVertex
100
AcDb2dVertex
 10
165.7578739999999
 20
140.8379959999999
 30
0.0
  0
VERTEX
  5
189
330
165
100
AcDbEntity
  8
CSLAYER1
  6
CONTINUOUS
 62
     3
100
AcDbVertex
100
AcDb2dVertex
 10
166.1129249999999
 20
140.7896009999998
 30
0.0
  0
VERTEX
  5
18A
330
165
100
AcDbEntity
  8
CSLAYER1
  6
CONTINUOUS
 62
     3
100
AcDbVertex
100
AcDb2dVertex
 10
166.4706999999999
 20
140.773429
 30
0.0
  0
VERTEX
  5
18B
330
165
100
AcDbEntity
  8
CSLAYER1
  6
CONTINUOUS
 62
     3
100
AcDbVertex
100
AcDb2dVertex
 10
166.8284739999999
 20
140.7896009999998
 30
0.0
  0
VERTEX
  5
18C
330
165
100
AcDbEntity
  8
CSLAYER1
  6
CONTINUOUS
 62
     3
100
AcDbVertex
100
AcDb2dVertex
 10
167.1835249999999
 20
140.8379959999999
 30
0.0
  0
VERTEX
  5
18D
330
165
100
AcDbEntity
  8
CSLAYER1
  6
CONTINUOUS
 62
     3
100
AcDbVertex
100
AcDb2dVertex
 10
167.533152
 20
140.9182439999999
 30
0.0
  0
VERTEX
  5
18E
330
165
100
AcDbEntity
  8
CSLAYER1
  6
CONTINUOUS
 62
     3
100
AcDbVertex
100
AcDb2dVertex
 10
167.8746919999998
 20
141.029735
 30
0.0
  0
VERTEX
  5
18F
330
165
100
AcDbEntity
  8
CSLAYER1
  6
CONTINUOUS
 62
     3
100
AcDbVertex
100
AcDb2dVertex
 10
168.205548
 20
141.1716199999998
 30
0.0
  0
VERTEX
  5
190
330
165
100
AcDbEntity
  8
CSLAYER1
  6
CONTINUOUS
 62
     3
100
AcDbVertex
100
AcDb2dVertex
 10
168.5232
 20
141.342821
 30
0.0
  0
VERTEX
  5
191
330
165
100
AcDbEntity
  8
CSLAYER1
  6
CONTINUOUS
 62
     3
100
AcDbVertex
100
AcDb2dVertex
 10
168.825231
 20
141.542032
 30
0.0
  0
VERTEX
  5
192
330
165
100
AcDbEntity
  8
CSLAYER1
  6
CONTINUOUS
 62
     3
100
AcDbVertex
100
AcDb2dVertex
 10
169.109343
 20
141.76774
 30
0.0
  0
VERTEX
  5
193
330
165
100
AcDbEntity
  8
CSLAYER1
  6
CONTINUOUS
 62
     3
100
AcDbVertex
100
AcDb2dVertex
 10
169.3733729999999
 20
142.018225
 30
0.0
  0
VERTEX
  5
194
330
165
100
AcDbEntity
  8
CSLAYER1
  6
CONTINUOUS
 62
     3
100
AcDbVertex
100
AcDb2dVertex
 10
169.615312
 20
142.291581
 30
0.0
  0
VERTEX
  5
195
330
165
100
AcDbEntity
  8
CSLAYER1
  6
CONTINUOUS
 62
     3
100
AcDbVertex
100
AcDb2dVertex
 10
169.8333189999999
 20
142.585729
 30
0.0
  0
VERTEX
  5
196
330
165
100
AcDbEntity
  8
CSLAYER1
  6
CONTINUOUS
 62
     3
100
AcDbVertex
100
AcDb2dVertex
 10
170.025734
 20
142.898429
 30
0.0
  0
VERTEX
  5
197
330
165
100
AcDbEntity
  8
CSLAYER1
  6
CONTINUOUS
 62
     3
100
AcDbVertex
100
AcDb2dVertex
 10
170.1910929999999
 20
143.227301
 30
0.0
  0
VERTEX
  5
198
330
165
100
AcDbEntity
  8
CSLAYER1
  6
CONTINUOUS
 62
     3
100
AcDbVertex
100
AcDb2dVertex
 10
170.3281379999999
 20
143.5698429999999
 30
0.0
  0
VERTEX
  5
199
330
165
100
AcDbEntity
  8
CSLAYER1
  6
CONTINUOUS
 62
     3
100
AcDbVertex
100
AcDb2dVertex
 10
170.435825
 20
143.923448
 30
0.0
  0
VERTEX
  5
19A
330
165
100
AcDbEntity
  8
CSLAYER1
  6
CONTINUOUS
 62
     3
100
AcDbVertex
100
AcDb2dVertex
 10
170.513336
 20
144.285424
 30
0.0
  0
VERTEX
  5
19B
330
165
100
AcDbEntity
  8
CSLAYER1
  6
CONTINUOUS
 62
     3
100
AcDbVertex
100
AcDb2dVertex
 10
170.560079
 20
144.653017
 30
0.0
  0
VERTEX
  5
19C
330
165
100
AcDbEntity
  8
CSLAYER1
  6
CONTINUOUS
 62
     3
100
AcDbVertex
100
AcDb2dVertex
 10
170.5757
 20
145.023429
 30
0.0
  0
VERTEX
  5
19D
330
165
100
AcDbEntity
  8
CSLAYER1
  6
CONTINUOUS
 62
     3
100
AcDbVertex
100
AcDb2dVertex
 10
170.560079
 20
145.39384
 30
0.0
  0
VERTEX
  5
19E
330
165
100
AcDbEntity
  8
CSLAYER1
  6
CONTINUOUS
 62
     3
100
AcDbVertex
100
AcDb2dVertex
 10
170.513336
 20
145.761433
 30
0.0
  0
VERTEX
  5
19F
330
165
100
AcDbEntity
  8
CSLAYER1
  6
CONTINUOUS
 62
     3
100
AcDbVertex
100
AcDb2dVertex
 10
170.435825
 20
146.123409
 30
0.0
  0
VERTEX
  5
1A0
330
165
100
AcDbEntity
  8
CSLAYER1
  6
CONTINUOUS
 62
     3
100
AcDbVertex
100
AcDb2dVertex
 10
170.3281379999999
 20
146.4770139999999
 30
0.0
  0
VERTEX
  5
1A1
330
165
100
AcDbEntity
  8
CSLAYER1
  6
CONTINUOUS
 62
     3
100
AcDbVertex
100
AcDb2dVertex
 10
170.1910929999999
 20
146.819556
 30
0.0
  0
VERTEX
  5
1A2
330
165
100
AcDbEntity
  8
CSLAYER1
  6
CONTINUOUS
 62
     3
100
AcDbVertex
100
AcDb2dVertex
 10
170.025734
 20
147.148429
 30
0.0
  0
VERTEX
  5
1A3
330
165
100
AcDbEntity
  8
CSLAYER1
  6
CONTINUOUS
 62
     3
100
AcDbVertex
100
AcDb2dVertex
 10
169.8333189999999
 20
147.4611279999999
 30
0.0
  0
VERTEX
  5
1A4
330
165
100
AcDbEntity
  8
CSLAYER1
  6
CONTINUOUS
 62
     3
100
AcDbVertex
100
AcDb2dVertex
 10
169.615312
 20
147.755276
 30
0.0
  0
VERTEX
  5
1A5
330
165
100
AcDbEntity
  8
CSLAYER1
  6
CONTINUOUS
 62
     3
100
AcDbVertex
100
AcDb2dVertex
 10
169.3733729999999
 20
148.028632
 30
0.0
  0
VERTEX
  5
1A6
330
165
100
AcDbEntity
  8
CSLAYER1
  6
CONTINUOUS
 62
     3
100
AcDbVertex
100
AcDb2dVertex
 10
169.109343
 20
148.2791169999998
 30
0.0
  0
VERTEX
  5
1A7
330
165
100
AcDbEntity
  8
CSLAYER1
  6
CONTINUOUS
 62
     3
100
AcDbVertex
100
AcDb2dVertex
 10
168.825231
 20
148.504825
 30
0.0
  0
VERTEX
  5
1A8
330
165
100
AcDbEntity
  8
CSLAYER1
  6
CONTINUOUS
 62
     3
100
AcDbVertex
100
AcDb2dVertex
 10
168.5232
 20
148.7040359999999
 30
0.0
  0
VERTEX
  5
1A9
330
165
100
AcDbEntity
  8
CSLAYER1
  6
CONTINUOUS
 62
     3
100
AcDbVertex
100
AcDb2dVertex
 10
168.205548
 20
148.875237
 30
0.0
  0
VERTEX
  5
1AA
330
165
100
AcDbEntity
  8
CSLAYER1
  6
CONTINUOUS
 62
     3
100
AcDbVertex
100
AcDb2dVertex
 10
167.8746919999998
 20
149.017122
 30
0.0
  0
VERTEX
  5
1AB
330
165
100
AcDbEntity
  8
CSLAYER1
  6
CONTINUOUS
 62
     3
100
AcDbVertex
100
AcDb2dVertex
 10
167.533152
 20
149.1286129999999
 30
0.0
  0
VERTEX
  5
1AC
330
165
100
AcDbEntity
  8
CSLAYER1
  6
CONTINUOUS
 62
     3
100
AcDbVertex
100
AcDb2dVertex
 10
167.1835249999999
 20
149.208861
 30
0.0
  0
VERTEX
  5
1AD
330
165
100
AcDbEntity
  8
CSLAYER1
  6
CONTINUOUS
 62
     3
100
AcDbVertex
100
AcDb2dVertex
 10
166.8284739999999
 20
149.257256
 30
0.0
  0
VERTEX
  5
1AE
330
165
100
AcDbEntity
  8
CSLAYER1
  6
CONTINUOUS
 62
     3
100
AcDbVertex
100
AcDb2dVertex
 10
166.4706999999999
 20
149.273429
 30
0.0
  0
SEQEND
  5
1AF
330
165
100
AcDbEntity
  8
CSLAYER1
 62
     3
  0
INSERT
  5
1B0
330
1E
100
AcDbEntity
  8
CSLAYER1
100
AcDbBlockReference
  2
FXDIM0002
 10
0.0
 20
0.0
 30
0.0
  0
CIRCLE
  5
1B1
330
1E
100
AcDbEntity
  8
CSLAYER1
  6
CONTINUOUS
 62
     3
100
AcDbCircle
 10
234.7541629999999
 20
139.1999999999999
 30
0.0
 40
3.0
  0
LINE
  5
1B2
330
1E
100
AcDbEntity
  8
CSLAYER1
  6
CONTINUOUS
 62
     3
100
AcDbLine
 10
161.4706999999999
 20
154.1999999999999
 30
0.0
 11
110.4706999999999
 21
154.1999999999999
 31
0.0
  0
LINE
  5
1B3
330
1E
100
AcDbEntity
  8
CSLAYER1
  6
CONTINUOUS
 62
     3
100
AcDbLine
 10
110.4706999999999
 20
154.1999999999999
 30
0.0
 11
110.4706999999999
 21
124.1999999999999
 31
0.0
  0
LINE
  5
1B4
330
1E
100
AcDbEntity
  8
CSLAYER1
  6
CONTINUOUS
 62
     3
100
AcDbLine
 10
108.4706999999999
 20
135.6999999999999
 30
0.0
 11
82.47069999999999
 21
135.6999999999999
 31
0.0
  0
LINE
  5
1B5
330
1E
100
AcDbEntity
  8
CSLAYER1
  6
CONTINUOUS
 62
     3
100
AcDbLine
 10
82.47069999999999
 20
135.6999999999999
 30
0.0
 11
82.47069999999999
 21
132.6999999999999
 31
0.0
  0
LINE
  5
1B6
330
1E
100
AcDbEntity
  8
CSLAYER1
  6
CONTINUOUS
 62
     3
100
AcDbLine
 10
82.47069999999999
 20
132.6999999999999
 30
0.0
 11
84.4707
 21
130.6999999999999
 31
0.0
  0
LINE
  5
1B7
330
1E
100
AcDbEntity
  8
CSLAYER1
  6
CONTINUOUS
 62
     3
100
AcDbLine
 10
84.4707
 20
130.6999999999999
 30
0.0
 11
98.64910899999999
 21
130.6999999999999
 31
0.0
  0
LINE
  5
1B8
330
1E
100
AcDbEntity
  8
CSLAYER1
  6
CONTINUOUS
 62
     3
100
AcDbLine
 10
82.47069999999999
 20
142.6999999999999
 30
0.0
 11
108.4706999999999
 21
142.6999999999999
 31
0.0
  0
LINE
  5
1B9
330
1E
100
AcDbEntity
  8
CSLAYER1
  6
CONTINUOUS
 62
     3
100
AcDbLine
 10
161.4706999999999
 20
124.1999999999999
 30
0.0
 11
110.4706999999999
 21
124.1999999999999
 31
0.0
  0
ARC
  5
1BA
330
1E
100
AcDbEntity
  8
CSLAYER1
  6
CONTINUOUS
 62
     3
100
AcDbCircle
 10
98.64910899999999
 20
116.7
 30
0.0
 40
14.0
100
AcDbArc
 50
32.392365
 51
90.0
  0
LINE
  5
1BB
330
1E
100
AcDbEntity
  8
CSLAYER1
  6
CONTINUOUS
 62
     3
100
AcDbLine
 10
98.64910899999999
 20
147.6999999999998
 30
0.0
 11
84.4707
 21
147.6999999999998
 31
0.0
  0
LINE
  5
1BC
330
1E
100
AcDbEntity
  8
CSLAYER1
  6
CONTINUOUS
 62
     3
100
AcDbLine
 10
84.4707
 20
147.6999999999998
 30
0.0
 11
82.47069999999999
 21
145.6999999999998
 31
0.0
  0
LINE
  5
1BD
330
1E
100
AcDbEntity
  8
CSLAYER1
  6
CONTINUOUS
 62
     3
100
AcDbLine
 10
82.47069999999999
 20
145.6999999999998
 30
0.0
 11
82.47069999999999
 21
142.6999999999999
 31
0.0
  0
ARC
  5
1BE
330
1E
100
AcDbEntity
  8
CSLAYER1
  6
CONTINUOUS
 62
     3
100
AcDbCircle
 10
98.64910899999999
 20
161.6999999999999
 30
0.0
 40
14.0
100
AcDbArc
 50
270.0
 51
327.607635
  0
LINE
  5
1BF
330
1E
100
AcDbEntity
  8
CSLAYER1
  6
CENTER
 62
     4
100
AcDbLine
 10
89.4707
 20
128.77867
 30
0.0
 11
89.4707
 21
150.0857139999999
 31
0.0
  0
LINE
  5
1C0
330
1E
100
AcDbEntity
  8
CSLAYER1
  6
CONTINUOUS
 62
     3
100
AcDbLine
 10
87.47069999999999
 20
142.6999999999999
 30
0.0
 11
87.47069999999999
 21
135.6999999999999
 31
0.0
  0
LINE
  5
1C1
330
1E
100
AcDbEntity
  8
CSLAYER1
  6
CONTINUOUS
 62
     3
100
AcDbLine
 10
91.47069999999999
 20
142.6999999999999
 30
0.0
 11
91.47069999999999
 21
135.6999999999999
 31
0.0
  0
LINE
  5
1C2
330
1E
100
AcDbEntity
  8
CSLAYER1
  6
CONTINUOUS
 62
     3
100
AcDbLine
 10
88.4707
 20
129.9
 30
0.0
 11
90.47069999999999
 21
129.9
 31
0.0
  0
LINE
  5
1C3
330
1E
100
AcDbEntity
  8
CSLAYER1
  6
CONTINUOUS
 62
     4
100
AcDbLine
 10
88.2207
 20
130.3
 30
0.0
 11
88.2207
 21
130.15
 31
0.0
  0
LINE
  5
1C4
330
1E
100
AcDbEntity
  8
CSLAYER1
  6
CONTINUOUS
 62
     3
100
AcDbLine
 10
88.4707
 20
129.9
 30
0.0
 11
88.07070000000001
 21
130.3
 31
0.0
  0
LINE
  5
1C5
330
1E
100
AcDbEntity
  8
CSLAYER1
  6
CONTINUOUS
 62
     3
100
AcDbLine
 10
90.47069999999999
 20
129.9
 30
0.0
 11
90.8707
 21
130.3
 31
0.0
  0
LINE
  5
1C6
330
1E
100
AcDbEntity
  8
CSLAYER1
  6
CONTINUOUS
 62
     4
100
AcDbLine
 10
90.7207
 20
130.3
 30
0.0
 11
90.7207
 21
130.15
 31
0.0
  0
LINE
  5
1C7
330
1E
100
AcDbEntity
  8
CSLAYER1
  6
CONTINUOUS
 62
     3
100
AcDbLine
 10
92.2207
 20
130.3
 30
0.0
 11
86.72069999999997
 21
130.3
 31
0.0
  0
LINE
  5
1C8
330
1E
100
AcDbEntity
  8
CSLAYER1
  6
CONTINUOUS
 62
     3
100
AcDbLine
 10
87.882986
 20
130.6999999999999
 30
0.0
 11
87.882986
 21
130.5456199999998
 31
0.0
  0
LINE
  5
1C9
330
1E
100
AcDbEntity
  8
CSLAYER1
  6
CONTINUOUS
 62
     3
100
AcDbLine
 10
86.29527299999997
 20
130.6999999999999
 30
0.0
 11
86.29527299999997
 21
130.5456199999998
 31
0.0
  0
LINE
  5
1CA
330
1E
100
AcDbEntity
  8
CSLAYER1
  6
CONTINUOUS
 62
     3
100
AcDbLine
 10
91.05841299999999
 20
130.6999999999999
 30
0.0
 11
91.05841299999999
 21
130.5456199999998
 31
0.0
  0
LINE
  5
1CB
330
1E
100
AcDbEntity
  8
CSLAYER1
  6
CONTINUOUS
 62
     3
100
AcDbLine
 10
92.64612599999999
 20
130.6999999999999
 30
0.0
 11
92.64612599999999
 21
130.5456199999998
 31
0.0
  0
LINE
  5
1CC
330
1E
100
AcDbEntity
  8
CSLAYER1
  6
CONTINUOUS
 62
     3
100
AcDbLine
 10
86.29527299999997
 20
130.5456199999998
 30
0.0
 11
86.72069999999997
 21
130.3
 31
0.0
  0
ARC
  5
1CD
330
1E
100
AcDbEntity
  8
CSLAYER1
  6
CONTINUOUS
 62
     3
100
AcDbCircle
 10
89.4707
 20
135.55438
 30
0.0
 40
5.25438
100
AcDbArc
 50
252.412046
 51
287.587954
  0
ARC
  5
1CE
330
1E
100
AcDbEntity
  8
CSLAYER1
  6
CONTINUOUS
 62
     3
100
AcDbCircle
 10
86.27537099999997
 20
135.280129
 30
0.0
 40
5.0
100
AcDbArc
 50
275.109864
 51
288.755062
  0
ARC
  5
1CF
330
1E
100
AcDbEntity
  8
CSLAYER1
  6
CONTINUOUS
 62
     3
100
AcDbCircle
 10
92.666029
 20
135.280129
 30
0.0
 40
5.0
100
AcDbArc
 50
251.244938
 51
264.8901359999999
  0
LINE
  5
1D0
330
1E
100
AcDbEntity
  8
CSLAYER1
  6
CONTINUOUS
 62
     3
100
AcDbLine
 10
92.64612599999999
 20
130.5456199999998
 30
0.0
 11
92.2207
 21
130.3
 31
0.0
  0
DIMENSION
  5
1D1
330
1E
100
AcDbEntity
  8
CSLAYER1
 62
     4
100
AcDbDimension
  2
*D6
 10
70.037257
 20
147.6999999999998
 30
0.0
 11
69.537254
 21
139.199997
 31
0.0
 70
     1
100
AcDbAlignedDimension
 13
84.4707
 23
130.6999999999999
 33
0.0
 14
84.4707
 24
147.6999999999998
 34
0.0
  0
DIMENSION
  5
1D2
330
1E
100
AcDbEntity
  8
CSLAYER1
 62
     4
100
AcDbDimension
  2
*D7
 10
76.037257
 20
142.6999999999999
 30
0.0
 11
75.53725400000002
 21
139.199997
 31
0.0
 70
     1
100
AcDbAlignedDimension
 13
82.47069999999999
 23
135.6999999999999
 33
0.0
 14
82.47069999999999
 24
142.6999999999999
 34
0.0
  0
LINE
  5
1D3
330
1E
100
AcDbEntity
  8
CSLAYER1
  6
CONTINUOUS
 62
     3
100
AcDbLine
 10
110.4706999999999
 20
93.0
 30
0.0
 11
110.4706999999999
 21
63.0
 31
0.0
  0
LINE
  5
1D4
330
1E
100
AcDbEntity
  8
CSLAYER1
  6
CONTINUOUS
 62
     3
100
AcDbLine
 10
110.4706999999999
 20
93.0
 30
0.0
 11
174.9706999999999
 21
93.0
 31
0.0
  0
ARC
  5
1D5
330
1E
100
AcDbEntity
  8
CSLAYER1
  6
CONTINUOUS
 62
     3
100
AcDbCircle
 10
100.58384
 20
76.5
 30
0.0
 40
10.0
100
AcDbArc
 50
8.626927
 51
83.467435
  0
ARC
  5
1D6
330
1E
100
AcDbEntity
  8
CSLAYER1
  6
CONTINUOUS
 62
     3
100
AcDbCircle
 10
101.152679
 20
81.46753699999997
 30
0.0
 40
5.0
100
AcDbArc
 50
83.467435
 51
105.603729
  0
LINE
  5
1D7
330
1E
100
AcDbEntity
  8
CSLAYER1
  6
CONTINUOUS
 62
     3
100
AcDbLine
 10
99.80776699999999
 20
86.283262
 30
0.0
 11
84.4707
 21
82.0
 31
0.0
  0
LINE
  5
1D8
330
1E
100
AcDbEntity
  8
CSLAYER1
  6
CONTINUOUS
 62
     3
100
AcDbLine
 10
84.4707
 20
82.0
 30
0.0
 11
84.4707
 21
74.0
 31
0.0
  0
LINE
  5
1D9
330
1E
100
AcDbEntity
  8
CSLAYER1
  6
CONTINUOUS
 62
     3
100
AcDbLine
 10
82.47069999999999
 20
83.65236800000003
 30
0.0
 11
82.47069999999999
 21
72.34763199999997
 31
0.0
  0
ARC
  5
1DA
330
1E
100
AcDbEntity
  8
CSLAYER1
  6
CONTINUOUS
 62
     3
100
AcDbCircle
 10
85.47069999999997
 20
83.65236800000003
 30
0.0
 40
3.0
100
AcDbArc
 50
103.069318
 51
180.0
  0
LINE
  5
1DB
330
1E
100
AcDbEntity
  8
CSLAYER1
  6
CONTINUOUS
 62
     3
100
AcDbLine
 10
84.79231099999998
 20
86.57465999999997
 30
0.0
 11
108.4706999999999
 21
92.071429
 31
0.0
  0
LINE
  5
1DC
330
1E
100
AcDbEntity
  8
CSLAYER1
  6
CONTINUOUS
 62
     3
100
AcDbLine
 10
108.4706999999999
 20
92.071429
 30
0.0
 11
108.4706999999999
 21
92.535714
 31
0.0
  0
LINE
  5
1DD
330
1E
100
AcDbEntity
  8
CSLAYER1
  6
CONTINUOUS
 62
     3
100
AcDbLine
 10
108.4706999999999
 20
92.535714
 30
0.0
 11
110.4706999999999
 21
93.0
 31
0.0
  0
LINE
  5
1DE
330
1E
100
AcDbEntity
  8
CSLAYER1
  6
CENTER
 62
     4
100
AcDbLine
 10
89.4707
 20
82.59146899999997
 30
0.0
 11
89.4707
 21
73.35185
 31
0.0
  0
ARC
  5
1DF
330
1E
100
AcDbEntity
  8
CSLAYER1
  6
CONTINUOUS
 62
     3
100
AcDbCircle
 10
100.58384
 20
79.5
 30
0.0
 40
10.0
100
AcDbArc
 50
276.5325649999999
 51
351.3730729999998
  0
ARC
  5
1E0
330
1E
100
AcDbEntity
  8
CSLAYER1
  6
CONTINUOUS
 62
     3
100
AcDbCircle
 10
101.152679
 20
74.532463
 30
0.0
 40
5.0
100
AcDbArc
 50
254.3962709999999
 51
276.5325649999999
  0
LINE
  5
1E1
330
1E
100
AcDbEntity
  8
CSLAYER1
  6
CONTINUOUS
 62
     3
100
AcDbLine
 10
99.80776699999999
 20
69.71673800000001
 30
0.0
 11
84.4707
 21
74.0
 31
0.0
  0
ARC
  5
1E2
330
1E
100
AcDbEntity
  8
CSLAYER1
  6
CONTINUOUS
 62
     3
100
AcDbCircle
 10
85.47069999999997
 20
72.34763199999997
 30
0.0
 40
3.0
100
AcDbArc
 50
180.0
 51
256.9306819999999
  0
LINE
  5
1E3
330
1E
100
AcDbEntity
  8
CSLAYER1
  6
CONTINUOUS
 62
     3
100
AcDbLine
 10
84.79231099999998
 20
69.42534000000001
 30
0.0
 11
108.4706999999999
 21
63.928571
 31
0.0
  0
LINE
  5
1E4
330
1E
100
AcDbEntity
  8
CSLAYER1
  6
CONTINUOUS
 62
     3
100
AcDbLine
 10
108.4706999999999
 20
63.928571
 30
0.0
 11
108.4706999999999
 21
63.464286
 31
0.0
  0
LINE
  5
1E5
330
1E
100
AcDbEntity
  8
CSLAYER1
  6
CONTINUOUS
 62
     3
100
AcDbLine
 10
108.4706999999999
 20
63.464286
 30
0.0
 11
110.4706999999999
 21
63.0
 31
0.0
  0
ARC
  5
1E6
330
1E
100
AcDbEntity
  8
CSLAYER1
  6
CONTINUOUS
 62
     3
100
AcDbCircle
 10
83.4707
 20
82.08036599999998
 30
0.0
 40
1.0
100
AcDbArc
 50
0.0
 51
180.0
  0
ARC
  5
1E7
330
1E
100
AcDbEntity
  8
CSLAYER1
  6
CONTINUOUS
 62
     3
100
AcDbCircle
 10
83.4707
 20
73.919634
 30
0.0
 40
1.0
100
AcDbArc
 50
180.0
 51
0.0
  0
DIMENSION
  5
1E8
330
1E
100
AcDbEntity
  8
CSLAYER1
 62
     4
100
AcDbDimension
  2
*D8
 10
70.037257
 20
93.0
 30
0.0
 11
69.537254
 21
78.0
 31
0.0
 70
     1
100
AcDbAlignedDimension
 13
110.4706999999999
 23
63.0
 33
0.0
 14
110.4706999999999
 24
93.0
 34
0.0
  0
CIRCLE
  5
1E9
330
1E
100
AcDbEntity
  8
CSLAYER1
  6
CONTINUOUS
 62
     3
100
AcDbCircle
 10
89.4707
 20
78.0
 30
0.0
 40
3.5
  0
CIRCLE
  5
1EA
330
1E
100
AcDbEntity
  8
CSLAYER1
  6
CONTINUOUS
 62
     3
100
AcDbCircle
 10
89.4707
 20
78.0
 30
0.0
 40
1.5
  0
CIRCLE
  5
1EB
330
1E
100
AcDbEntity
  8
CSLAYER1
  6
CONTINUOUS
 62
     4
100
AcDbCircle
 10
89.4707
 20
78.0
 30
0.0
 40
1.25
  0
LINE
  5
1EC
330
1E
100
AcDbEntity
  8
CSLAYER1
  6
CONTINUOUS
 62
     3
100
AcDbLine
 10
87.882986
 20
75.25
 30
0.0
 11
91.05841299999999
 21
75.25
 31
0.0
  0
LINE
  5
1ED
330
1E
100
AcDbEntity
  8
CSLAYER1
  6
CONTINUOUS
 62
     3
100
AcDbLine
 10
86.29527299999997
 20
78.0
 30
0.0
 11
87.882986
 21
75.25
 31
0.0
  0
LINE
  5
1EE
330
1E
100
AcDbEntity
  8
CSLAYER1
  6
CONTINUOUS
 62
     3
100
AcDbLine
 10
92.64612599999999
 20
78.0
 30
0.0
 11
91.05841299999999
 21
75.25
 31
0.0
  0
LINE
  5
1EF
330
1E
100
AcDbEntity
  8
CSLAYER1
  6
CONTINUOUS
 62
     3
100
AcDbLine
 10
87.882986
 20
80.75000000000001
 30
0.0
 11
91.05841299999999
 21
80.75000000000001
 31
0.0
  0
LINE
  5
1F0
330
1E
100
AcDbEntity
  8
CSLAYER1
  6
CONTINUOUS
 62
     3
100
AcDbLine
 10
86.29527299999997
 20
78.0
 30
0.0
 11
87.882986
 21
80.75000000000001
 31
0.0
  0
LINE
  5
1F1
330
1E
100
AcDbEntity
  8
CSLAYER1
  6
CONTINUOUS
 62
     3
100
AcDbLine
 10
92.64612599999999
 20
78.0
 30
0.0
 11
91.05841299999999
 21
80.75000000000001
 31
0.0
  0
CIRCLE
  5
1F2
330
1E
100
AcDbEntity
  8
CSLAYER1
  6
CONTINUOUS
 62
     3
100
AcDbCircle
 10
89.4707
 20
78.0
 30
0.0
 40
2.75
  0
LINE
  5
1F3
330
1E
100
AcDbEntity
  8
CSLAYER1
  6
CONTINUOUS
 62
     3
100
AcDbLine
 10
108.4706999999999
 20
135.6999999999999
 30
0.0
 11
108.4706999999999
 21
142.6999999999999
 31
0.0
  0
DIMENSION
  5
1F4
330
1E
100
AcDbEntity
  8
CSLAYER1
 62
     4
100
AcDbDimension
  2
*D9
 10
156.4707
 20
174.642191
 30
0.0
 11
119.470703
 21
175.142197
 31
0.0
100
AcDbAlignedDimension
 13
82.47069999999999
 23
145.6999999999998
 33
0.0
 14
156.4707
 24
154.1999999999999
 34
0.0
100
AcDbRotatedDimension
  0
DIMENSION
  5
1F5
330
1E
100
AcDbEntity
  8
CSLAYER1
 62
     4
100
AcDbDimension
  2
*D10
 10
176.4707
 20
174.642191
 30
0.0
 11
166.470703
 21
175.142197
 31
0.0
100
AcDbAlignedDimension
 13
156.4707
 23
154.1999999999999
 33
0.0
 14
176.4707
 24
149.6999999999998
 34
0.0
100
AcDbRotatedDimension
  0
DIMENSION
  5
1F6
330
1E
100
AcDbEntity
  8
CSLAYER1
 62
     4
100
AcDbDimension
  2
*D11
 10
89.4707
 20
168.6421909999999
 30
0.0
 11
85.97069499999998
 21
169.142197
 31
0.0
100
AcDbAlignedDimension
 13
82.47069999999999
 23
145.6999999999998
 33
0.0
 14
89.4707
 24
150.0857139999999
 34
0.0
100
AcDbRotatedDimension
  0
DIMENSION
  5
1F7
330
1E
100
AcDbEntity
  8
CSLAYER1
 62
     4
100
AcDbDimension
  2
*D12
 10
156.4707
 20
168.6421909999999
 30
0.0
 11
133.470703
 21
169.142197
 31
0.0
100
AcDbAlignedDimension
 13
110.4706999999999
 23
154.1999999999999
 33
0.0
 14
156.4707
 24
155.1999999999999
 34
0.0
100
AcDbRotatedDimension
  0
DIMENSION
  5
1F8
330
1E
100
AcDbEntity
  8
CSLAYER1
 62
     4
100
AcDbDimension
  2
*D13
 10
176.4707
 20
109.5508439999999
 30
0.0
 11
129.470703
 21
110.0508419999999
 31
0.0
100
AcDbAlignedDimension
 13
82.47069999999999
 23
83.65236800000003
 33
0.0
 14
176.4707
 24
91.5
 34
0.0
100
AcDbRotatedDimension
  0
DIMENSION
  5
1F9
330
1E
100
AcDbEntity
  8
CSLAYER1
 62
     4
100
AcDbDimension
  2
*D14
 10
89.4707
 20
103.550844
 30
0.0
 11
85.97069499999998
 21
104.050842
 31
0.0
100
AcDbAlignedDimension
 13
82.47069999999999
 23
83.65236800000003
 33
0.0
 14
89.4707
 24
82.59146899999997
 34
0.0
100
AcDbRotatedDimension
  0
DIMENSION
  5
1FA
330
1E
100
AcDbEntity
  8
CSLAYER1
 62
     4
100
AcDbDimension
  2
*D15
 10
98.64910899999999
 20
116.7
 30
0.0
 11
101.779366
 21
122.981041
 31
0.0
 70
     4
100
AcDbRadialDimension
 15
105.77058
 25
128.753408
 35
0.0
 40
0.0
  0
INSERT
  5
1FB
330
1E
100
AcDbEntity
  8
CSLAYER1
100
AcDbBlockReference
  2
FXDIM0003
 10
0.0
 20
0.0
 30
0.0
  0
LINE
  5
1FC
330
1E
100
AcDbEntity
  8
CSLAYER1
  6
DOT
 62
     3
100
AcDbLine
 10
4.0
 20
1.0
 30
0.0
 11
283.0
 21
1.0
 31
0.0
  0
LINE
  5
1FD
330
1E
100
AcDbEntity
  8
CSLAYER1
  6
DOT
 62
     3
100
AcDbLine
 10
283.0
 20
1.0
 30
0.0
 11
283.0
 21
195.0
 31
0.0
  0
LINE
  5
1FE
330
1E
100
AcDbEntity
  8
CSLAYER1
  6
DOT
 62
     3
100
AcDbLine
 10
283.0
 20
195.0
 30
0.0
 11
4.0
 21
195.0
 31
0.0
  0
LINE
  5
1FF
330
1E
100
AcDbEntity
  8
CSLAYER1
  6
DOT
 62
     3
100
AcDbLine
 10
4.0
 20
195.0
 30
0.0
 11
4.0
 21
1.0
 31
0.0
  0
LINE
  5
200
330
1E
100
AcDbEntity
  8
CSLAYER1
  6
DOT
 62
     3
100
AcDbLine
 10
4.0
 20
98.0
 30
0.0
 11
0.0
 21
98.0
 31
0.0
  0
LINE
  5
201
330
1E
100
AcDbEntity
  8
CSLAYER1
  6
DOT
 62
     3
100
AcDbLine
 10
283.0
 20
98.0
 30
0.0
 11
287.0
 21
98.0
 31
0.0
  0
LINE
  5
202
330
1E
100
AcDbEntity
  8
CSLAYER1
  6
DOT
 62
     3
100
AcDbLine
 10
143.5
 20
195.0
 30
0.0
 11
143.5
 21
199.0
 31
0.0
  0
ENDSEC
  0
SECTION
  2
OBJECTS
  0
DICTIONARY
  5
C
330
0
100
AcDbDictionary
  3
ACAD_GROUP
350
D
  3
ACAD_LAYOUT
350
19
  3
ACAD_MLINESTYLE
350
16
  3
ACAD_PLOTSETTINGS
350
18
1001
ACAD
1000
TREAT_AS_HARD
1070
     0
1000
TREAT_AS_HARD
1070
     0
  0
DICTIONARY
  5
20C
330
1E
100
AcDbDictionary
  3
ACAD_LAYOUTSELFREF
350
22B
1001
ACAD
1000
TREAT_AS_HARD
1070
     0
  0
DICTIONARY
  5
20A
330
1A
100
AcDbDictionary
  3
ACAD_LAYOUTSELFREF
350
22A
1001
ACAD
1000
TREAT_AS_HARD
1070
     0
  0
DICTIONARY
  5
D
102
{ACAD_REACTORS
330
C
102
}
330
C
100
AcDbDictionary
1001
ACAD
1000
TREAT_AS_HARD
1070
     0
1000
TREAT_AS_HARD
1070
     0
  0
DICTIONARY
  5
19
102
{ACAD_REACTORS
330
C
102
}
330
C
100
AcDbDictionary
1001
ACAD
1000
TREAT_AS_HARD
1070
     0
1000
TREAT_AS_HARD
1070
     0
  0
DICTIONARY
  5
16
102
{ACAD_REACTORS
330
C
102
}
330
C
100
AcDbDictionary
  3
STANDARD
350
17
1001
ACAD
1000
TREAT_AS_HARD
1070
     0
1000
TREAT_AS_HARD
1070
     0
  0
DICTIONARY
  5
18
102
{ACAD_REACTORS
330
C
102
}
330
C
100
AcDbDictionary
1001
ACAD
1000
TREAT_AS_HARD
1070
     0
1000
TREAT_AS_HARD
1070
     0
  0
XRECORD
  5
22B
102
{ACAD_REACTORS
330
20C
102
}
330
20C
100
AcDbXrecord
340
1E
  0
XRECORD
  5
22A
102
{ACAD_REACTORS
330
20A
102
}
330
20A
100
AcDbXrecord
340
1A
  0
MLINESTYLE
  5
17
102
{ACAD_REACTORS
330
16
102
}
330
16
100
AcDbMlineStyle
  2
STANDARD
 70
     0
  3

 62
   256
 51
90.0
 52
90.0
 71
     2
 49
0.5
 62
   256
  6
BYLAYER
 49
-0.5
 62
   256
  6
BYLAYER
  0
ENDSEC
  0
EOF
