  0
SECTION
  2
HEADER
  9
$ACADVER
  1
AC1012
  9
$DWGCODEPAGE
  3
dos932
  9
$INSBASE
 10
0.0
 20
0.0
 30
0.0
  9
$EXTMIN
 10
9.98474220045
 20
2.981964806306564
 30
-0.0015258207003583
  9
$EXTMAX
 10
395.0189218472444
 20
275.0068823797708
 30
0.0000000349246037
  9
$LIMMIN
 10
0.0
 20
0.0
  9
$LIMMAX
 10
420.0
 20
297.0
  9
$ORTHOMODE
 70
     0
  9
$REGENMODE
 70
     1
  9
$FILLMODE
 70
     1
  9
$QTEXTMODE
 70
     0
  9
$MIRRTEXT
 70
     1
  9
$DRAGMODE
 70
     2
  9
$LTSCALE
 40
15.0
  9
$OSMODE
 70
    37
  9
$ATTMODE
 70
     1
  9
$TEXTSIZE
 40
0.2
  9
$TRACEWID
 40
0.05
  9
$TEXTSTYLE
  7
GOTHIC
  9
$CLAYER
  8
CSLAYER1
  9
$CELTYPE
  6
BYLAYER
  9
$CECOLOR
 62
   256
  9
$CELTSCALE
 40
1.0
  9
$DELOBJ
 70
     1
  9
$DISPSILH
 70
     0
  9
$DIMSCALE
 40
1.0
  9
$DIMASZ
 40
0.18
  9
$DIMEXO
 40
0.0625
  9
$DIMDLI
 40
0.38
  9
$DIMRND
 40
0.0
  9
$DIMDLE
 40
0.0
  9
$DIMEXE
 40
0.18
  9
$DIMTP
 40
0.0
  9
$DIMTM
 40
0.0
  9
$DIMTXT
 40
0.18
  9
$DIMCEN
 40
0.09
  9
$DIMTSZ
 40
0.0
  9
$DIMTOL
 70
     0
  9
$DIMLIM
 70
     0
  9
$DIMTIH
 70
     1
  9
$DIMTOH
 70
     1
  9
$DIMSE1
 70
     0
  9
$DIMSE2
 70
     0
  9
$DIMTAD
 70
     0
  9
$DIMZIN
 70
     0
  9
$DIMBLK
  1

  9
$DIMASO
 70
     1
  9
$DIMSHO
 70
     1
  9
$DIMPOST
  1

  9
$DIMAPOST
  1

  9
$DIMALT
 70
     0
  9
$DIMALTD
 70
     2
  9
$DIMALTF
 40
25.4
  9
$DIMLFAC
 40
1.0
  9
$DIMTOFL
 70
     0
  9
$DIMTVP
 40
0.0
  9
$DIMTIX
 70
     0
  9
$DIMSOXD
 70
     0
  9
$DIMSAH
 70
     0
  9
$DIMBLK1
  1

  9
$DIMBLK2
  1

  9
$DIMSTYLE
  2
STANDARD
  9
$DIMCLRD
 70
     0
  9
$DIMCLRE
 70
     0
  9
$DIMCLRT
 70
     0
  9
$DIMTFAC
 40
1.0
  9
$DIMGAP
 40
0.09
  9
$DIMJUST
 70
     0
  9
$DIMSD1
 70
     0
  9
$DIMSD2
 70
     0
  9
$DIMTOLJ
 70
     1
  9
$DIMTZIN
 70
     0
  9
$DIMALTZ
 70
     0
  9
$DIMALTTZ
 70
     0
  9
$DIMFIT
 70
     3
  9
$DIMUPT
 70
     0
  9
$DIMUNIT
 70
     2
  9
$DIMDEC
 70
     4
  9
$DIMTDEC
 70
     4
  9
$DIMALTU
 70
     2
  9
$DIMALTTD
 70
     2
  9
$DIMTXSTY
  7
STANDARD
  9
$DIMAUNIT
 70
     0
  9
$LUNITS
 70
     2
  9
$LUPREC
 70
     4
  9
$SKETCHINC
 40
0.1
  9
$FILLETRAD
 40
0.0
  9
$AUNITS
 70
     0
  9
$AUPREC
 70
     0
  9
$MENU
  1
ACAD
  9
$ELEVATION
 40
0.0
  9
$PELEVATION
 40
0.0
  9
$THICKNESS
 40
0.0
  9
$LIMCHECK
 70
     0
  9
$BLIPMODE
 70
     1
  9
$CHAMFERA
 40
0.0
  9
$CHAMFERB
 40
0.0
  9
$CHAMFERC
 40
0.0
  9
$CHAMFERD
 40
0.0
  9
$SKPOLY
 70
     0
  9
$TDCREATE
 40
2453482.000000000
  9
$TDUPDATE
 40
2453516.454184884
  9
$TDINDWG
 40
0.0002290278
  9
$TDUSRTIMER
 40
0.0002289120
  9
$USRTIMER
 70
     1
  9
$ANGBASE
 50
0.0
  9
$ANGDIR
 70
     0
  9
$PDMODE
 70
     0
  9
$PDSIZE
 40
0.0
  9
$PLINEWID
 40
0.0
  9
$COORDS
 70
     0
  9
$SPLFRAME
 70
     0
  9
$SPLINETYPE
 70
     6
  9
$SPLINESEGS
 70
     8
  9
$ATTDIA
 70
     0
  9
$ATTREQ
 70
     1
  9
$HANDLING
 70
-16383
  9
$HANDSEED
  5
34C
  9
$SURFTAB1
 70
     6
  9
$SURFTAB2
 70
     6
  9
$SURFTYPE
 70
     6
  9
$SURFU
 70
     6
  9
$SURFV
 70
     6
  9
$UCSNAME
  2

  9
$UCSORG
 10
0.0
 20
0.0
 30
0.0
  9
$UCSXDIR
 10
1.0
 20
0.0
 30
0.0
  9
$UCSYDIR
 10
0.0
 20
1.0
 30
0.0
  9
$PUCSNAME
  2

  9
$PUCSORG
 10
0.0
 20
0.0
 30
0.0
  9
$PUCSXDIR
 10
1.0
 20
0.0
 30
0.0
  9
$PUCSYDIR
 10
0.0
 20
1.0
 30
0.0
  9
$USERI1
 70
     0
  9
$USERI2
 70
     0
  9
$USERI3
 70
     0
  9
$USERI4
 70
     0
  9
$USERI5
 70
     0
  9
$USERR1
 40
0.0
  9
$USERR2
 40
0.0
  9
$USERR3
 40
0.0
  9
$USERR4
 40
0.0
  9
$USERR5
 40
0.0
  9
$WORLDVIEW
 70
     1
  9
$SHADEDGE
 70
     3
  9
$SHADEDIF
 70
    70
  9
$TILEMODE
 70
     1
  9
$MAXACTVP
 70
    64
  9
$PINSBASE
 10
0.0
 20
0.0
 30
0.0
  9
$PLIMCHECK
 70
     0
  9
$PEXTMIN
 10
1.000000000000000E+20
 20
1.000000000000000E+20
 30
1.000000000000000E+20
  9
$PEXTMAX
 10
-1.000000000000000E+20
 20
-1.000000000000000E+20
 30
-1.000000000000000E+20
  9
$PLIMMIN
 10
0.0
 20
0.0
  9
$PLIMMAX
 10
12.0
 20
9.0
  9
$UNITMODE
 70
     0
  9
$VISRETAIN
 70
     1
  9
$PLINEGEN
 70
     0
  9
$PSLTSCALE
 70
     1
  9
$TREEDEPTH
 70
  3020
  9
$PICKSTYLE
 70
     3
  9
$CMLSTYLE
  2
STANDARD
  9
$CMLJUST
 70
     0
  9
$CMLSCALE
 40
1.0
  9
$SAVEIMAGES
 70
     1
  0
ENDSEC
  0
SECTION
  2
CLASSES
  0
CLASS
  1
ACDBDICTIONARYWDFLT
  2
AcDbDictionaryWithDefault
  3
AutoCAD 2000
 90
    32768
280
     0
281
     0
  0
CLASS
  1
ACDBPLACEHOLDER
  2
AcDbPlaceHolder
  3
AutoCAD 2000
 90
    32768
280
     0
281
     0
  0
CLASS
  1
LAYOUT
  2
AcDbLayout
  3
AutoCAD 2000
 90
    32768
280
     0
281
     0
  0
CLASS
  1
DICTIONARYVAR
  2
AcDbDictionaryVar
  3
AutoCAD 2000
 90
    32768
280
     0
281
     0
  0
CLASS
  1
LONG_TRANSACTION
  2
AcDbLongTransaction
  3
AutoCAD 2000
 90
    32768
280
     0
281
     0
  0
CLASS
  1
LWPOLYLINE
  2
AcDbPolyline
  3
AutoCAD 2000
 90
    32768
280
     0
281
     1
  0
CLASS
  1
HATCH
  2
AcDbHatch
  3
AutoCAD 2000
 90
    32768
280
     0
281
     1
  0
CLASS
  1
XRECORD
  2
AcDbXrecord
  3
AutoCAD 2000
 90
    32768
280
     0
281
     0
  0
CLASS
  1
LONG_TRANSACTION
  2
AcDbLongTransaction
  3
AutoCAD 2000
 90
    32768
280
     0
281
     0
  0
CLASS
  1
LWPOLYLINE
  2
AcDbPolyline
  3
AutoCAD 2000
 90
    32768
280
     0
281
     1
  0
CLASS
  1
HATCH
  2
AcDbHatch
  3
AutoCAD 2000
 90
    32768
280
     0
281
     1
  0
CLASS
  1
XRECORD
  2
AcDbXrecord
  3
AutoCAD 2000
 90
    32768
280
     0
281
     0
  0
ENDSEC
  0
SECTION
  2
TABLES
  0
TABLE
  2
VPORT
  5
8
330
0
100
AcDbSymbolTable
 70
     2
  0
VPORT
  5
349
330
8
100
AcDbSymbolTableRecord
100
AcDbViewportTableRecord
  2
*ACTIVE
 70
     0
 10
0.0
 20
0.0
 11
1.0
 21
1.0
 12
202.5018320238472
 22
138.9944235930387
 13
0.0
 23
0.0
 14
1.0
 24
1.0
 15
0.0
 25
0.0
 16
0.0
 26
0.0
 36
1.0
 17
0.0
 27
0.0
 37
0.0
 40
274.0676578806492
 41
1.510025062656641
 42
50.0
 43
0.0
 44
0.0
 50
0.0
 51
0.0
 71
     0
 72
   100
 73
     1
 74
     1
 75
     0
 76
     0
 77
     0
 78
     0
  0
ENDTAB
  0
TABLE
  2
LTYPE
  5
5
330
0
100
AcDbSymbolTable
 70
     3
  0
LTYPE
  5
13
330
5
100
AcDbSymbolTableRecord
100
AcDbLinetypeTableRecord
  2
BYBLOCK
 70
     0
  3

 72
    65
 73
     0
 40
0.0
  0
LTYPE
  5
14
330
5
100
AcDbSymbolTableRecord
100
AcDbLinetypeTableRecord
  2
BYLAYER
 70
     0
  3

 72
    65
 73
     0
 40
0.0
  0
LTYPE
  5
15
330
5
100
AcDbSymbolTableRecord
100
AcDbLinetypeTableRecord
  2
CONTINUOUS
 70
     0
  3
Solid line
 72
    65
 73
     0
 40
0.0
  0
LTYPE
  5
25
330
5
100
AcDbSymbolTableRecord
100
AcDbLinetypeTableRecord
  2
DOT
 70
     0
  3
...............................................
 72
    65
 73
     2
 40
0.25
 49
0.0
 74
     0
 49
-0.25
 74
     0
  0
LTYPE
  5
28
330
5
100
AcDbSymbolTableRecord
100
AcDbLinetypeTableRecord
  2
CENTER
 70
     0
  3
____ _ ____ _ ____ _ ____ _ ____ _ ____ _ ____ 
 72
    65
 73
     4
 40
2.0
 49
1.25
 74
     0
 49
-0.25
 74
     0
 49
0.25
 74
     0
 49
-0.25
 74
     0
  0
ENDTAB
  0
TABLE
  2
LAYER
  5
2
330
0
100
AcDbSymbolTable
 70
     3
  0
LAYER
  5
10
330
2
100
AcDbSymbolTableRecord
100
AcDbLayerTableRecord
  2
0
 70
     0
 62
     7
  6
CONTINUOUS
  0
LAYER
  5
22
330
2
100
AcDbSymbolTableRecord
100
AcDbLayerTableRecord
  2
CSLAYER1
 70
     0
 62
     7
  6
CONTINUOUS
  0
LAYER
  5
32E
330
2
100
AcDbSymbolTableRecord
100
AcDbLayerTableRecord
  2
DEFPOINTS
 70
     0
 62
     7
  6
CONTINUOUS
  0
ENDTAB
  0
TABLE
  2
STYLE
  5
3
330
0
100
AcDbSymbolTable
 70
     3
  0
STYLE
  5
11
330
3
100
AcDbSymbolTableRecord
100
AcDbTextStyleTableRecord
  2
STANDARD
 70
     0
 40
0.0
 41
1.0
 50
0.0
 71
     0
 42
0.2
  3
txt
  4
extfont.shx
  0
STYLE
  5
3A
330
3
100
AcDbSymbolTableRecord
100
AcDbTextStyleTableRecord
  2
FX_FONT
 70
     0
 40
1.0
 41
1.0
 50
0.0
 71
     0
 42
1.0
  3
monotxt
  4
bigfont
  0
STYLE
  5
326
330
3
100
AcDbSymbolTableRecord
100
AcDbTextStyleTableRecord
  2
GOTHIC
 70
     0
 40
0.0
 41
1.0
 50
0.0
 71
     0
 42
0.2
  3
txt.shx
  4
extfont.shx
  0
ENDTAB
  0
TABLE
  2
VIEW
  5
6
330
0
100
AcDbSymbolTable
 70
     0
  0
ENDTAB
  0
TABLE
  2
UCS
  5
7
330
0
100
AcDbSymbolTable
 70
     0
  0
ENDTAB
  0
TABLE
  2
APPID
  5
9
330
0
100
AcDbSymbolTable
 70
     1
  0
APPID
  5
12
330
9
100
AcDbSymbolTableRecord
100
AcDbRegAppTableRecord
  2
ACAD
 70
     0
  0
ENDTAB
  0
TABLE
  2
DIMSTYLE
  5
A
330
0
100
AcDbSymbolTable
 70
     1
  0
DIMSTYLE
105
323
330
A
100
AcDbSymbolTableRecord
100
AcDbDimStyleTableRecord
  2
STANDARD
 70
     0
  3

  4

  5

  6

  7

 40
1.0
 41
0.18
 42
0.0625
 43
0.38
 44
0.18
 45
0.0
 46
0.0
 47
0.0
 48
0.0
140
0.18
141
0.09
142
0.0
143
25.4
144
1.0
145
0.0
146
1.0
147
0.09
 71
     0
 72
     0
 73
     1
 74
     1
 75
     0
 76
     0
 77
     0
 78
     0
170
     0
171
     2
172
     0
173
     0
174
     0
175
     0
176
     0
177
     0
178
     0
270
     2
271
     4
272
     4
273
     2
274
     2
340
11
275
     0
280
     0
281
     0
282
     0
283
     1
284
     0
285
     0
286
     0
287
     3
288
     0
  0
ENDTAB
  0
TABLE
  2
BLOCK_RECORD
  5
1
330
0
100
AcDbSymbolTable
 70
    31
  0
BLOCK_RECORD
  5
1E
102
{ACAD_XDICTIONARY
360
32C
102
}
330
1
100
AcDbSymbolTableRecord
100
AcDbBlockTableRecord
  2
*MODEL_SPACE
  0
BLOCK_RECORD
  5
1A
102
{ACAD_XDICTIONARY
360
32A
102
}
330
1
100
AcDbSymbolTableRecord
100
AcDbBlockTableRecord
  2
*PAPER_SPACE
  0
BLOCK_RECORD
  5
3F
330
1
100
AcDbSymbolTableRecord
100
AcDbBlockTableRecord
  2
*D0
  0
BLOCK_RECORD
  5
4A
330
1
100
AcDbSymbolTableRecord
100
AcDbBlockTableRecord
  2
*D1
  0
BLOCK_RECORD
  5
55
330
1
100
AcDbSymbolTableRecord
100
AcDbBlockTableRecord
  2
*D2
  0
BLOCK_RECORD
  5
60
330
1
100
AcDbSymbolTableRecord
100
AcDbBlockTableRecord
  2
*D3
  0
BLOCK_RECORD
  5
6B
330
1
100
AcDbSymbolTableRecord
100
AcDbBlockTableRecord
  2
*D4
  0
BLOCK_RECORD
  5
76
330
1
100
AcDbSymbolTableRecord
100
AcDbBlockTableRecord
  2
*D5
  0
BLOCK_RECORD
  5
80
330
1
100
AcDbSymbolTableRecord
100
AcDbBlockTableRecord
  2
*D6
  0
BLOCK_RECORD
  5
89
330
1
100
AcDbSymbolTableRecord
100
AcDbBlockTableRecord
  2
*D7
  0
BLOCK_RECORD
  5
93
330
1
100
AcDbSymbolTableRecord
100
AcDbBlockTableRecord
  2
*D8
  0
BLOCK_RECORD
  5
9E
330
1
100
AcDbSymbolTableRecord
100
AcDbBlockTableRecord
  2
*D9
  0
BLOCK_RECORD
  5
A7
330
1
100
AcDbSymbolTableRecord
100
AcDbBlockTableRecord
  2
*D10
  0
BLOCK_RECORD
  5
B1
330
1
100
AcDbSymbolTableRecord
100
AcDbBlockTableRecord
  2
*D11
  0
BLOCK_RECORD
  5
BC
330
1
100
AcDbSymbolTableRecord
100
AcDbBlockTableRecord
  2
*D12
  0
BLOCK_RECORD
  5
C7
330
1
100
AcDbSymbolTableRecord
100
AcDbBlockTableRecord
  2
*D13
  0
BLOCK_RECORD
  5
D2
330
1
100
AcDbSymbolTableRecord
100
AcDbBlockTableRecord
  2
*D14
  0
BLOCK_RECORD
  5
DD
330
1
100
AcDbSymbolTableRecord
100
AcDbBlockTableRecord
  2
*D15
  0
BLOCK_RECORD
  5
E8
330
1
100
AcDbSymbolTableRecord
100
AcDbBlockTableRecord
  2
*D16
  0
BLOCK_RECORD
  5
F2
330
1
100
AcDbSymbolTableRecord
100
AcDbBlockTableRecord
  2
*D17
  0
BLOCK_RECORD
  5
F9
330
1
100
AcDbSymbolTableRecord
100
AcDbBlockTableRecord
  2
FXDIM0000
  0
BLOCK_RECORD
  5
101
330
1
100
AcDbSymbolTableRecord
100
AcDbBlockTableRecord
  2
FXDIM0001
  0
BLOCK_RECORD
  5
109
330
1
100
AcDbSymbolTableRecord
100
AcDbBlockTableRecord
  2
*D20
  0
BLOCK_RECORD
  5
114
330
1
100
AcDbSymbolTableRecord
100
AcDbBlockTableRecord
  2
*D21
  0
BLOCK_RECORD
  5
11F
330
1
100
AcDbSymbolTableRecord
100
AcDbBlockTableRecord
  2
FXDIM0002
  0
BLOCK_RECORD
  5
127
330
1
100
AcDbSymbolTableRecord
100
AcDbBlockTableRecord
  2
*D23
  0
BLOCK_RECORD
  5
132
330
1
100
AcDbSymbolTableRecord
100
AcDbBlockTableRecord
  2
*D24
  0
BLOCK_RECORD
  5
13D
330
1
100
AcDbSymbolTableRecord
100
AcDbBlockTableRecord
  2
FXDIM0003
  0
BLOCK_RECORD
  5
145
330
1
100
AcDbSymbolTableRecord
100
AcDbBlockTableRecord
  2
*D26
  0
BLOCK_RECORD
  5
150
330
1
100
AcDbSymbolTableRecord
100
AcDbBlockTableRecord
  2
*D27
  0
BLOCK_RECORD
  5
15A
330
1
100
AcDbSymbolTableRecord
100
AcDbBlockTableRecord
  2
*D28
  0
BLOCK_RECORD
  5
164
330
1
100
AcDbSymbolTableRecord
100
AcDbBlockTableRecord
  2
*D29
  0
BLOCK_RECORD
  5
32F
330
1
100
AcDbSymbolTableRecord
100
AcDbBlockTableRecord
  2
*D30
  0
ENDTAB
  0
ENDSEC
  0
SECTION
  2
BLOCKS
  0
BLOCK
  5
1F
330
1E
100
AcDbEntity
  8
0
100
AcDbBlockBegin
  2
*MODEL_SPACE
 70
     0
 10
0.0
 20
0.0
 30
0.0
  3
*MODEL_SPACE
  1

  0
ENDBLK
  5
20
330
1E
100
AcDbEntity
  8
0
100
AcDbBlockEnd
  0
BLOCK
  5
1B
330
1A
100
AcDbEntity
 67
     1
  8
0
100
AcDbBlockBegin
  2
*PAPER_SPACE
 70
     0
 10
0.0
 20
0.0
 30
0.0
  3
*PAPER_SPACE
  1

  0
ENDBLK
  5
1C
330
1A
100
AcDbEntity
 67
     1
  8
0
100
AcDbBlockEnd
  0
BLOCK
  5
40
330
3F
100
AcDbEntity
  8
0
100
AcDbBlockBegin
  2
*D0
 70
     1
 10
0.0
 20
0.0
 30
0.0
  3
*D0
  1

  0
TEXT
  5
41
330
3F
100
AcDbEntity
  8
CSLAYER1
 62
     4
100
AcDbText
 10
26.708973
 20
184.722394
 30
0.0
 40
3.2
  1
45
 50
90.0
 41
1.199999999999985
 51
15.0
  7
FX_FONT
 72
     5
 11
26.708973
 21
191.1223939999999
 31
0.0
100
AcDbText
  0
LINE
  5
42
330
3F
100
AcDbEntity
  8
CSLAYER1
  6
CONTINUOUS
 62
     4
100
AcDbLine
 10
39.41169199999999
 20
165.4223919999999
 30
0.0
 11
26.208979
 21
165.4223919999999
 31
0.0
  0
LINE
  5
43
330
3F
100
AcDbEntity
  8
CSLAYER1
  6
CONTINUOUS
 62
     4
100
AcDbLine
 10
39.41169199999999
 20
210.4223919999999
 30
0.0
 11
26.208979
 21
210.4223919999999
 31
0.0
  0
LINE
  5
44
330
3F
100
AcDbEntity
  8
CSLAYER1
  6
CONTINUOUS
 62
     4
100
AcDbLine
 10
27.208979
 20
165.4223919999999
 30
0.0
 11
27.208979
 21
210.4223919999999
 31
0.0
  0
LINE
  5
45
330
3F
100
AcDbEntity
  8
CSLAYER1
  6
CONTINUOUS
 62
     4
100
AcDbLine
 10
27.208979
 20
165.4223919999999
 30
0.0
 11
26.432522
 21
168.3201699999998
 31
0.0
  0
LINE
  5
46
330
3F
100
AcDbEntity
  8
CSLAYER1
  6
CONTINUOUS
 62
     4
100
AcDbLine
 10
27.208979
 20
165.4223919999999
 30
0.0
 11
27.985436
 21
168.3201699999998
 31
0.0
  0
LINE
  5
47
330
3F
100
AcDbEntity
  8
CSLAYER1
  6
CONTINUOUS
 62
     4
100
AcDbLine
 10
27.208979
 20
210.4223919999999
 30
0.0
 11
26.432522
 21
207.5246149999999
 31
0.0
  0
LINE
  5
48
330
3F
100
AcDbEntity
  8
CSLAYER1
  6
CONTINUOUS
 62
     4
100
AcDbLine
 10
27.208979
 20
210.4223919999999
 30
0.0
 11
27.985436
 21
207.5246149999999
 31
0.0
  0
ENDBLK
  5
49
330
3F
100
AcDbEntity
  8
0
100
AcDbBlockEnd
  0
BLOCK
  5
4B
330
4A
100
AcDbEntity
  8
0
100
AcDbBlockBegin
  2
*D1
 70
     1
 10
0.0
 20
0.0
 30
0.0
  3
*D1
  1

  0
TEXT
  5
4C
330
4A
100
AcDbEntity
  8
CSLAYER1
 62
     4
100
AcDbText
 10
59.71167099999998
 20
232.78183
 30
0.0
 40
3.2
  1
45
 41
1.200000000000002
 51
15.0
  7
FX_FONT
 72
     5
 11
66.111671
 21
232.78183
 31
0.0
100
AcDbText
  0
LINE
  5
4D
330
4A
100
AcDbEntity
  8
CSLAYER1
  6
CONTINUOUS
 62
     4
100
AcDbLine
 10
40.41169199999998
 20
211.422392
 30
0.0
 11
40.41169199999998
 21
233.281829
 31
0.0
  0
LINE
  5
4E
330
4A
100
AcDbEntity
  8
CSLAYER1
  6
CONTINUOUS
 62
     4
100
AcDbLine
 10
85.411692
 20
211.422392
 30
0.0
 11
85.411692
 21
233.281829
 31
0.0
  0
LINE
  5
4F
330
4A
100
AcDbEntity
  8
CSLAYER1
  6
CONTINUOUS
 62
     4
100
AcDbLine
 10
40.41169199999998
 20
232.281829
 30
0.0
 11
85.411692
 21
232.281829
 31
0.0
  0
LINE
  5
50
330
4A
100
AcDbEntity
  8
CSLAYER1
  6
CONTINUOUS
 62
     4
100
AcDbLine
 10
40.41169199999998
 20
232.281829
 30
0.0
 11
43.30947
 21
233.0582859999999
 31
0.0
  0
LINE
  5
51
330
4A
100
AcDbEntity
  8
CSLAYER1
  6
CONTINUOUS
 62
     4
100
AcDbLine
 10
40.41169199999998
 20
232.281829
 30
0.0
 11
43.30947
 21
231.505372
 31
0.0
  0
LINE
  5
52
330
4A
100
AcDbEntity
  8
CSLAYER1
  6
CONTINUOUS
 62
     4
100
AcDbLine
 10
85.411692
 20
232.281829
 30
0.0
 11
82.513915
 21
233.0582859999999
 31
0.0
  0
LINE
  5
53
330
4A
100
AcDbEntity
  8
CSLAYER1
  6
CONTINUOUS
 62
     4
100
AcDbLine
 10
85.411692
 20
232.281829
 30
0.0
 11
82.513915
 21
231.505372
 31
0.0
  0
ENDBLK
  5
54
330
4A
100
AcDbEntity
  8
0
100
AcDbBlockEnd
  0
BLOCK
  5
56
330
55
100
AcDbEntity
  8
0
100
AcDbBlockBegin
  2
*D2
 70
     1
 10
0.0
 20
0.0
 30
0.0
  3
*D2
  1

  0
TEXT
  5
57
330
55
100
AcDbEntity
  8
CSLAYER1
 62
     4
100
AcDbText
 10
59.71167099999998
 20
226.78183
 30
0.0
 40
3.2
  1
26
 41
1.200000000000002
 51
15.0
  7
FX_FONT
 72
     5
 11
66.111671
 21
226.78183
 31
0.0
100
AcDbText
  0
LINE
  5
58
330
55
100
AcDbEntity
  8
CSLAYER1
  6
CONTINUOUS
 62
     4
100
AcDbLine
 10
49.91169199999998
 20
198.922392
 30
0.0
 11
49.91169199999998
 21
227.281829
 31
0.0
  0
LINE
  5
59
330
55
100
AcDbEntity
  8
CSLAYER1
  6
CONTINUOUS
 62
     4
100
AcDbLine
 10
75.911692
 20
198.922392
 30
0.0
 11
75.911692
 21
227.281829
 31
0.0
  0
LINE
  5
5A
330
55
100
AcDbEntity
  8
CSLAYER1
  6
CONTINUOUS
 62
     4
100
AcDbLine
 10
49.91169199999998
 20
226.281829
 30
0.0
 11
75.911692
 21
226.281829
 31
0.0
  0
LINE
  5
5B
330
55
100
AcDbEntity
  8
CSLAYER1
  6
CONTINUOUS
 62
     4
100
AcDbLine
 10
49.91169199999998
 20
226.281829
 30
0.0
 11
52.80947
 21
227.0582859999999
 31
0.0
  0
LINE
  5
5C
330
55
100
AcDbEntity
  8
CSLAYER1
  6
CONTINUOUS
 62
     4
100
AcDbLine
 10
49.91169199999998
 20
226.281829
 30
0.0
 11
52.80947
 21
225.505372
 31
0.0
  0
LINE
  5
5D
330
55
100
AcDbEntity
  8
CSLAYER1
  6
CONTINUOUS
 62
     4
100
AcDbLine
 10
75.911692
 20
226.281829
 30
0.0
 11
73.013915
 21
227.0582859999999
 31
0.0
  0
LINE
  5
5E
330
55
100
AcDbEntity
  8
CSLAYER1
  6
CONTINUOUS
 62
     4
100
AcDbLine
 10
75.911692
 20
226.281829
 30
0.0
 11
73.013915
 21
225.505372
 31
0.0
  0
ENDBLK
  5
5F
330
55
100
AcDbEntity
  8
0
100
AcDbBlockEnd
  0
BLOCK
  5
61
330
60
100
AcDbEntity
  8
0
100
AcDbBlockBegin
  2
*D3
 70
     1
 10
0.0
 20
0.0
 30
0.0
  3
*D3
  1

  0
TEXT
  5
62
330
60
100
AcDbEntity
  8
CSLAYER1
 62
     4
100
AcDbText
 10
59.71167099999998
 20
220.781845
 30
0.0
 40
3.2
  1
12
 41
1.200000000000002
 51
15.0
  7
FX_FONT
 72
     5
 11
66.111671
 21
220.781845
 31
0.0
100
AcDbText
  0
LINE
  5
63
330
60
100
AcDbEntity
  8
CSLAYER1
  6
CONTINUOUS
 62
     4
100
AcDbLine
 10
56.911692
 20
211.422392
 30
0.0
 11
56.911692
 21
221.281829
 31
0.0
  0
LINE
  5
64
330
60
100
AcDbEntity
  8
CSLAYER1
  6
CONTINUOUS
 62
     4
100
AcDbLine
 10
68.911692
 20
211.422392
 30
0.0
 11
68.911692
 21
221.281829
 31
0.0
  0
LINE
  5
65
330
60
100
AcDbEntity
  8
CSLAYER1
  6
CONTINUOUS
 62
     4
100
AcDbLine
 10
56.911692
 20
220.281829
 30
0.0
 11
68.911692
 21
220.281829
 31
0.0
  0
LINE
  5
66
330
60
100
AcDbEntity
  8
CSLAYER1
  6
CONTINUOUS
 62
     4
100
AcDbLine
 10
56.911692
 20
220.281829
 30
0.0
 11
59.80947
 21
221.0582859999999
 31
0.0
  0
LINE
  5
67
330
60
100
AcDbEntity
  8
CSLAYER1
  6
CONTINUOUS
 62
     4
100
AcDbLine
 10
56.911692
 20
220.281829
 30
0.0
 11
59.80947
 21
219.505372
 31
0.0
  0
LINE
  5
68
330
60
100
AcDbEntity
  8
CSLAYER1
  6
CONTINUOUS
 62
     4
100
AcDbLine
 10
68.911692
 20
220.281829
 30
0.0
 11
66.013915
 21
221.0582859999999
 31
0.0
  0
LINE
  5
69
330
60
100
AcDbEntity
  8
CSLAYER1
  6
CONTINUOUS
 62
     4
100
AcDbLine
 10
68.911692
 20
220.281829
 30
0.0
 11
66.013915
 21
219.505372
 31
0.0
  0
ENDBLK
  5
6A
330
60
100
AcDbEntity
  8
0
100
AcDbBlockEnd
  0
BLOCK
  5
6C
330
6B
100
AcDbEntity
  8
0
100
AcDbBlockBegin
  2
*D4
 70
     1
 10
0.0
 20
0.0
 30
0.0
  3
*D4
  1

  0
TEXT
  5
6D
330
6B
100
AcDbEntity
  8
CSLAYER1
 62
     4
100
AcDbText
 10
110.745369
 20
184.722394
 30
0.0
 40
3.2
  1
20
 50
90.0
 41
1.199999999999985
 51
15.0
  7
FX_FONT
 72
     5
 11
110.745369
 21
191.1223939999999
 31
0.0
100
AcDbText
  0
LINE
  5
6E
330
6B
100
AcDbEntity
  8
CSLAYER1
  6
CONTINUOUS
 62
     4
100
AcDbLine
 10
128.82808
 20
177.9223919999999
 30
0.0
 11
110.2453649999999
 21
177.9223919999999
 31
0.0
  0
LINE
  5
6F
330
6B
100
AcDbEntity
  8
CSLAYER1
  6
CONTINUOUS
 62
     4
100
AcDbLine
 10
128.82808
 20
197.922392
 30
0.0
 11
110.2453649999999
 21
197.922392
 31
0.0
  0
LINE
  5
70
330
6B
100
AcDbEntity
  8
CSLAYER1
  6
CONTINUOUS
 62
     4
100
AcDbLine
 10
111.2453649999999
 20
177.9223919999999
 30
0.0
 11
111.2453649999999
 21
197.922392
 31
0.0
  0
LINE
  5
71
330
6B
100
AcDbEntity
  8
CSLAYER1
  6
CONTINUOUS
 62
     4
100
AcDbLine
 10
111.2453649999999
 20
177.9223919999999
 30
0.0
 11
110.468908
 21
180.8201699999999
 31
0.0
  0
LINE
  5
72
330
6B
100
AcDbEntity
  8
CSLAYER1
  6
CONTINUOUS
 62
     4
100
AcDbLine
 10
111.2453649999999
 20
177.9223919999999
 30
0.0
 11
112.021823
 21
180.8201699999999
 31
0.0
  0
LINE
  5
73
330
6B
100
AcDbEntity
  8
CSLAYER1
  6
CONTINUOUS
 62
     4
100
AcDbLine
 10
111.2453649999999
 20
197.922392
 30
0.0
 11
110.468908
 21
195.0246149999999
 31
0.0
  0
LINE
  5
74
330
6B
100
AcDbEntity
  8
CSLAYER1
  6
CONTINUOUS
 62
     4
100
AcDbLine
 10
111.2453649999999
 20
197.922392
 30
0.0
 11
112.021823
 21
195.0246149999999
 31
0.0
  0
ENDBLK
  5
75
330
6B
100
AcDbEntity
  8
0
100
AcDbBlockEnd
  0
BLOCK
  5
77
330
76
100
AcDbEntity
  8
0
100
AcDbBlockBegin
  2
*D5
 70
     1
 10
0.0
 20
0.0
 30
0.0
  3
*D5
  1

  0
TEXT
  5
78
330
76
100
AcDbEntity
  8
CSLAYER1
 62
     4
100
AcDbText
 10
179.5280789999999
 20
233.2621
 30
0.0
 40
3.2
  1
109
 41
1.125000000000009
 51
15.0
  7
FX_FONT
 72
     5
 11
189.128079
 21
233.2621
 31
0.0
100
AcDbText
  0
LINE
  5
79
330
76
100
AcDbEntity
  8
CSLAYER1
  6
CONTINUOUS
 62
     4
100
AcDbLine
 10
238.8280799999999
 20
211.422392
 30
0.0
 11
238.8280799999999
 21
233.762106
 31
0.0
  0
LINE
  5
7A
330
76
100
AcDbEntity
  8
CSLAYER1
  6
CONTINUOUS
 62
     4
100
AcDbLine
 10
129.82808
 20
232.762106
 30
0.0
 11
238.8280799999999
 21
232.762106
 31
0.0
  0
LINE
  5
7B
330
76
100
AcDbEntity
  8
CSLAYER1
  6
CONTINUOUS
 62
     4
100
AcDbLine
 10
129.82808
 20
232.762106
 30
0.0
 11
132.725857
 21
233.5385629999999
 31
0.0
  0
LINE
  5
7C
330
76
100
AcDbEntity
  8
CSLAYER1
  6
CONTINUOUS
 62
     4
100
AcDbLine
 10
129.82808
 20
232.762106
 30
0.0
 11
132.725857
 21
231.985649
 31
0.0
  0
LINE
  5
7D
330
76
100
AcDbEntity
  8
CSLAYER1
  6
CONTINUOUS
 62
     4
100
AcDbLine
 10
238.8280799999999
 20
232.762106
 30
0.0
 11
235.930302
 21
233.5385629999999
 31
0.0
  0
LINE
  5
7E
330
76
100
AcDbEntity
  8
CSLAYER1
  6
CONTINUOUS
 62
     4
100
AcDbLine
 10
238.8280799999999
 20
232.762106
 30
0.0
 11
235.930302
 21
231.985649
 31
0.0
  0
ENDBLK
  5
7F
330
76
100
AcDbEntity
  8
0
100
AcDbBlockEnd
  0
BLOCK
  5
81
330
80
100
AcDbEntity
  8
0
100
AcDbBlockBegin
  2
*D6
 70
     1
 10
0.0
 20
0.0
 30
0.0
  3
*D6
  1

  0
TEXT
  5
82
330
80
100
AcDbEntity
  8
CSLAYER1
 62
     4
100
AcDbText
 10
245.628079
 20
233.2621
 30
0.0
 40
3.2
  1
20
 41
1.199999999999995
 51
15.0
  7
FX_FONT
 72
     5
 11
252.028079
 21
233.2621
 31
0.0
100
AcDbText
  0
LINE
  5
83
330
80
100
AcDbEntity
  8
CSLAYER1
  6
CONTINUOUS
 62
     4
100
AcDbLine
 10
238.8280799999999
 20
232.762106
 30
0.0
 11
258.82808
 21
232.762106
 31
0.0
  0
LINE
  5
84
330
80
100
AcDbEntity
  8
CSLAYER1
  6
CONTINUOUS
 62
     4
100
AcDbLine
 10
238.8280799999999
 20
232.762106
 30
0.0
 11
241.7258569999999
 21
233.5385629999999
 31
0.0
  0
LINE
  5
85
330
80
100
AcDbEntity
  8
CSLAYER1
  6
CONTINUOUS
 62
     4
100
AcDbLine
 10
238.8280799999999
 20
232.762106
 30
0.0
 11
241.7258569999999
 21
231.985649
 31
0.0
  0
LINE
  5
86
330
80
100
AcDbEntity
  8
CSLAYER1
  6
CONTINUOUS
 62
     4
100
AcDbLine
 10
258.82808
 20
232.762106
 30
0.0
 11
255.930302
 21
233.5385629999999
 31
0.0
  0
LINE
  5
87
330
80
100
AcDbEntity
  8
CSLAYER1
  6
CONTINUOUS
 62
     4
100
AcDbLine
 10
258.82808
 20
232.762106
 30
0.0
 11
255.930302
 21
231.985649
 31
0.0
  0
ENDBLK
  5
88
330
80
100
AcDbEntity
  8
0
100
AcDbBlockEnd
  0
BLOCK
  5
8A
330
89
100
AcDbEntity
  8
0
100
AcDbBlockBegin
  2
*D7
 70
     1
 10
0.0
 20
0.0
 30
0.0
  3
*D7
  1

  0
TEXT
  5
8B
330
89
100
AcDbEntity
  8
CSLAYER1
 62
     4
100
AcDbText
 10
193.128079
 20
227.2621
 30
0.0
 40
3.2
  1
85
 41
1.199999999999985
 51
15.0
  7
FX_FONT
 72
     5
 11
199.5280789999999
 21
227.2621
 31
0.0
100
AcDbText
  0
LINE
  5
8C
330
89
100
AcDbEntity
  8
CSLAYER1
  6
CONTINUOUS
 62
     4
100
AcDbLine
 10
153.82808
 20
211.422392
 30
0.0
 11
153.82808
 21
227.762106
 31
0.0
  0
LINE
  5
8D
330
89
100
AcDbEntity
  8
CSLAYER1
  6
CONTINUOUS
 62
     4
100
AcDbLine
 10
153.82808
 20
226.762106
 30
0.0
 11
238.8280799999999
 21
226.762106
 31
0.0
  0
LINE
  5
8E
330
89
100
AcDbEntity
  8
CSLAYER1
  6
CONTINUOUS
 62
     4
100
AcDbLine
 10
153.82808
 20
226.762106
 30
0.0
 11
156.725857
 21
227.5385629999999
 31
0.0
  0
LINE
  5
8F
330
89
100
AcDbEntity
  8
CSLAYER1
  6
CONTINUOUS
 62
     4
100
AcDbLine
 10
153.82808
 20
226.762106
 30
0.0
 11
156.725857
 21
225.985649
 31
0.0
  0
LINE
  5
90
330
89
100
AcDbEntity
  8
CSLAYER1
  6
CONTINUOUS
 62
     4
100
AcDbLine
 10
238.8280799999999
 20
226.762106
 30
0.0
 11
235.930302
 21
227.5385629999999
 31
0.0
  0
LINE
  5
91
330
89
100
AcDbEntity
  8
CSLAYER1
  6
CONTINUOUS
 62
     4
100
AcDbLine
 10
238.8280799999999
 20
226.762106
 30
0.0
 11
235.930302
 21
225.985649
 31
0.0
  0
ENDBLK
  5
92
330
89
100
AcDbEntity
  8
0
100
AcDbBlockEnd
  0
BLOCK
  5
94
330
93
100
AcDbEntity
  8
0
100
AcDbBlockBegin
  2
*D8
 70
     1
 10
0.0
 20
0.0
 30
0.0
  3
*D8
  1

  0
TEXT
  5
95
330
93
100
AcDbEntity
  8
CSLAYER1
 62
     4
100
AcDbText
 10
196.628079
 20
221.2620999999999
 30
0.0
 40
3.2
  1
40
 41
1.199999999999985
 51
15.0
  7
FX_FONT
 72
     5
 11
203.0280789999999
 21
221.2620999999999
 31
0.0
100
AcDbText
  0
LINE
  5
96
330
93
100
AcDbEntity
  8
CSLAYER1
  6
CONTINUOUS
 62
     4
100
AcDbLine
 10
179.82808
 20
220.762106
 30
0.0
 11
219.8280799999999
 21
220.762106
 31
0.0
  0
LINE
  5
97
330
93
100
AcDbEntity
  8
CSLAYER1
  6
CONTINUOUS
 62
     4
100
AcDbLine
 10
179.82808
 20
220.762106
 30
0.0
 11
182.725857
 21
221.5385629999999
 31
0.0
  0
LINE
  5
98
330
93
100
AcDbEntity
  8
CSLAYER1
  6
CONTINUOUS
 62
     4
100
AcDbLine
 10
179.82808
 20
220.762106
 30
0.0
 11
182.725857
 21
219.985649
 31
0.0
  0
LINE
  5
99
330
93
100
AcDbEntity
  8
CSLAYER1
  6
CONTINUOUS
 62
     4
100
AcDbLine
 10
219.8280799999999
 20
220.762106
 30
0.0
 11
216.930302
 21
221.5385629999999
 31
0.0
  0
LINE
  5
9A
330
93
100
AcDbEntity
  8
CSLAYER1
  6
CONTINUOUS
 62
     4
100
AcDbLine
 10
219.8280799999999
 20
220.762106
 30
0.0
 11
216.930302
 21
219.985649
 31
0.0
  0
LINE
  5
9B
330
93
100
AcDbEntity
  8
CSLAYER1
  6
CONTINUOUS
 62
     4
100
AcDbLine
 10
179.82808
 20
213.699662
 30
0.0
 11
179.82808
 21
221.762106
 31
0.0
  0
LINE
  5
9C
330
93
100
AcDbEntity
  8
CSLAYER1
  6
CONTINUOUS
 62
     4
100
AcDbLine
 10
219.8280799999999
 20
214.13098
 30
0.0
 11
219.8280799999999
 21
221.762106
 31
0.0
  0
ENDBLK
  5
9D
330
93
100
AcDbEntity
  8
0
100
AcDbBlockEnd
  0
BLOCK
  5
9F
330
9E
100
AcDbEntity
  8
0
100
AcDbBlockBegin
  2
*D9
 70
     1
 10
0.0
 20
0.0
 30
0.0
  3
*D9
  1

  0
TEXT
  5
A0
330
9E
100
AcDbEntity
  8
CSLAYER1
 62
     4
100
AcDbText
 10
226.128079
 20
221.2620999999999
 30
0.0
 40
3.2
  1
19
 41
1.199999999999985
 51
15.0
  7
FX_FONT
 72
     5
 11
232.5280789999999
 21
221.2620999999999
 31
0.0
100
AcDbText
  0
LINE
  5
A1
330
9E
100
AcDbEntity
  8
CSLAYER1
  6
CONTINUOUS
 62
     4
100
AcDbLine
 10
219.8280799999999
 20
220.762106
 30
0.0
 11
238.8280799999999
 21
220.762106
 31
0.0
  0
LINE
  5
A2
330
9E
100
AcDbEntity
  8
CSLAYER1
  6
CONTINUOUS
 62
     4
100
AcDbLine
 10
219.8280799999999
 20
220.762106
 30
0.0
 11
222.725857
 21
221.5385629999999
 31
0.0
  0
LINE
  5
A3
330
9E
100
AcDbEntity
  8
CSLAYER1
  6
CONTINUOUS
 62
     4
100
AcDbLine
 10
219.8280799999999
 20
220.762106
 30
0.0
 11
222.725857
 21
219.985649
 31
0.0
  0
LINE
  5
A4
330
9E
100
AcDbEntity
  8
CSLAYER1
  6
CONTINUOUS
 62
     4
100
AcDbLine
 10
238.8280799999999
 20
220.762106
 30
0.0
 11
235.930302
 21
221.5385629999999
 31
0.0
  0
LINE
  5
A5
330
9E
100
AcDbEntity
  8
CSLAYER1
  6
CONTINUOUS
 62
     4
100
AcDbLine
 10
238.8280799999999
 20
220.762106
 30
0.0
 11
235.930302
 21
219.985649
 31
0.0
  0
ENDBLK
  5
A6
330
9E
100
AcDbEntity
  8
0
100
AcDbBlockEnd
  0
BLOCK
  5
A8
330
A7
100
AcDbEntity
  8
0
100
AcDbBlockBegin
  2
*D10
 70
     1
 10
0.0
 20
0.0
 30
0.0
  3
*D10
  1

  0
TEXT
  5
A9
330
A7
100
AcDbEntity
  8
CSLAYER1
 62
     4
100
AcDbText
 10
248.1280939999999
 20
221.2620999999999
 30
0.0
 40
3.2
  1
15
 41
1.2000001875
 51
15.0
  7
FX_FONT
 72
     5
 11
254.5280949999999
 21
221.2620999999999
 31
0.0
100
AcDbText
  0
LINE
  5
AA
330
A7
100
AcDbEntity
  8
CSLAYER1
  6
CONTINUOUS
 62
     4
100
AcDbLine
 10
243.8280799999999
 20
211.422392
 30
0.0
 11
243.8280799999999
 21
221.762106
 31
0.0
  0
LINE
  5
AB
330
A7
100
AcDbEntity
  8
CSLAYER1
  6
CONTINUOUS
 62
     4
100
AcDbLine
 10
243.8280799999999
 20
220.762106
 30
0.0
 11
258.82808
 21
220.762106
 31
0.0
  0
LINE
  5
AC
330
A7
100
AcDbEntity
  8
CSLAYER1
  6
CONTINUOUS
 62
     4
100
AcDbLine
 10
243.8280799999999
 20
220.762106
 30
0.0
 11
246.7258569999999
 21
221.5385629999999
 31
0.0
  0
LINE
  5
AD
330
A7
100
AcDbEntity
  8
CSLAYER1
  6
CONTINUOUS
 62
     4
100
AcDbLine
 10
243.8280799999999
 20
220.762106
 30
0.0
 11
246.7258569999999
 21
219.985649
 31
0.0
  0
LINE
  5
AE
330
A7
100
AcDbEntity
  8
CSLAYER1
  6
CONTINUOUS
 62
     4
100
AcDbLine
 10
258.82808
 20
220.762106
 30
0.0
 11
255.930302
 21
221.5385629999999
 31
0.0
  0
LINE
  5
AF
330
A7
100
AcDbEntity
  8
CSLAYER1
  6
CONTINUOUS
 62
     4
100
AcDbLine
 10
258.82808
 20
220.762106
 30
0.0
 11
255.930302
 21
219.985649
 31
0.0
  0
ENDBLK
  5
B0
330
A7
100
AcDbEntity
  8
0
100
AcDbBlockEnd
  0
BLOCK
  5
B2
330
B1
100
AcDbEntity
  8
0
100
AcDbBlockBegin
  2
*D11
 70
     1
 10
0.0
 20
0.0
 30
0.0
  3
*D11
  1

  0
TEXT
  5
B3
330
B1
100
AcDbEntity
  8
CSLAYER1
 62
     4
100
AcDbText
 10
167.642075
 20
184.722394
 30
0.0
 40
3.2
  1
36
 50
90.0
 41
1.199999999999985
 51
15.0
  7
FX_FONT
 72
     5
 11
167.642075
 21
191.1223939999999
 31
0.0
100
AcDbText
  0
LINE
  5
B4
330
B1
100
AcDbEntity
  8
CSLAYER1
  6
CONTINUOUS
 62
     4
100
AcDbLine
 10
171.330937
 20
169.922392
 30
0.0
 11
167.1420799999999
 21
169.922392
 31
0.0
  0
LINE
  5
B5
330
B1
100
AcDbEntity
  8
CSLAYER1
  6
CONTINUOUS
 62
     4
100
AcDbLine
 10
171.330937
 20
205.9223919999999
 30
0.0
 11
167.1420799999999
 21
205.9223919999999
 31
0.0
  0
LINE
  5
B6
330
B1
100
AcDbEntity
  8
CSLAYER1
  6
CONTINUOUS
 62
     4
100
AcDbLine
 10
168.1420799999999
 20
169.922392
 30
0.0
 11
168.1420799999999
 21
205.9223919999999
 31
0.0
  0
LINE
  5
B7
330
B1
100
AcDbEntity
  8
CSLAYER1
  6
CONTINUOUS
 62
     4
100
AcDbLine
 10
168.1420799999999
 20
169.922392
 30
0.0
 11
167.3656229999999
 21
172.8201699999999
 31
0.0
  0
LINE
  5
B8
330
B1
100
AcDbEntity
  8
CSLAYER1
  6
CONTINUOUS
 62
     4
100
AcDbLine
 10
168.1420799999999
 20
169.922392
 30
0.0
 11
168.918537
 21
172.8201699999999
 31
0.0
  0
LINE
  5
B9
330
B1
100
AcDbEntity
  8
CSLAYER1
  6
CONTINUOUS
 62
     4
100
AcDbLine
 10
168.1420799999999
 20
205.9223919999999
 30
0.0
 11
167.3656229999999
 21
203.0246149999999
 31
0.0
  0
LINE
  5
BA
330
B1
100
AcDbEntity
  8
CSLAYER1
  6
CONTINUOUS
 62
     4
100
AcDbLine
 10
168.1420799999999
 20
205.9223919999999
 30
0.0
 11
168.918537
 21
203.0246149999999
 31
0.0
  0
ENDBLK
  5
BB
330
B1
100
AcDbEntity
  8
0
100
AcDbBlockEnd
  0
BLOCK
  5
BD
330
BC
100
AcDbEntity
  8
0
100
AcDbBlockBegin
  2
*D12
 70
     1
 10
0.0
 20
0.0
 30
0.0
  3
*D12
  1

  0
TEXT
  5
BE
330
BC
100
AcDbEntity
  8
CSLAYER1
 62
     4
100
AcDbText
 10
196.1449429999999
 20
89.47630799999997
 30
0.0
 40
3.2
  1
36
 50
90.0
 41
1.200000000000003
 51
15.0
  7
FX_FONT
 72
     5
 11
196.1449429999999
 21
95.87630799999999
 31
0.0
100
AcDbText
  0
LINE
  5
BF
330
BC
100
AcDbEntity
  8
CSLAYER1
  6
CONTINUOUS
 62
     4
100
AcDbLine
 10
196.4177939999999
 20
78.276678
 30
0.0
 11
195.9086509999999
 21
78.276678
 31
0.0
  0
LINE
  5
C0
330
BC
100
AcDbEntity
  8
CSLAYER1
  6
CONTINUOUS
 62
     4
100
AcDbLine
 10
196.926937
 20
114.276678
 30
0.0
 11
195.9086509999999
 21
114.276678
 31
0.0
  0
LINE
  5
C1
330
BC
100
AcDbEntity
  8
CSLAYER1
  6
CONTINUOUS
 62
     4
100
AcDbLine
 10
196.9086509999999
 20
78.276678
 30
0.0
 11
196.9086509999999
 21
114.276678
 31
0.0
  0
LINE
  5
C2
330
BC
100
AcDbEntity
  8
CSLAYER1
  6
CONTINUOUS
 62
     4
100
AcDbLine
 10
196.9086509999999
 20
78.276678
 30
0.0
 11
196.1321939999999
 21
81.174455
 31
0.0
  0
LINE
  5
C3
330
BC
100
AcDbEntity
  8
CSLAYER1
  6
CONTINUOUS
 62
     4
100
AcDbLine
 10
196.9086509999999
 20
78.276678
 30
0.0
 11
197.685108
 21
81.174455
 31
0.0
  0
LINE
  5
C4
330
BC
100
AcDbEntity
  8
CSLAYER1
  6
CONTINUOUS
 62
     4
100
AcDbLine
 10
196.9086509999999
 20
114.276678
 30
0.0
 11
196.1321939999999
 21
111.3789
 31
0.0
  0
LINE
  5
C5
330
BC
100
AcDbEntity
  8
CSLAYER1
  6
CONTINUOUS
 62
     4
100
AcDbLine
 10
196.9086509999999
 20
114.276678
 30
0.0
 11
197.685108
 21
111.3789
 31
0.0
  0
ENDBLK
  5
C6
330
BC
100
AcDbEntity
  8
0
100
AcDbBlockEnd
  0
BLOCK
  5
C8
330
C7
100
AcDbEntity
  8
0
100
AcDbBlockBegin
  2
*D13
 70
     1
 10
0.0
 20
0.0
 30
0.0
  3
*D13
  1

  0
TEXT
  5
C9
330
C7
100
AcDbEntity
  8
CSLAYER1
 62
     4
100
AcDbText
 10
191.628079
 20
63.93696600000001
 30
0.0
 40
3.2
  1
40
 41
1.199999999999985
 51
15.0
  7
FX_FONT
 72
     5
 11
198.0280789999999
 21
63.93696600000001
 31
0.0
100
AcDbText
  0
LINE
  5
CA
330
C7
100
AcDbEntity
  8
CSLAYER1
  6
CONTINUOUS
 62
     4
100
AcDbLine
 10
174.82808
 20
70.58324899999998
 30
0.0
 11
174.82808
 21
62.43696299999999
 31
0.0
  0
LINE
  5
CB
330
C7
100
AcDbEntity
  8
CSLAYER1
  6
CONTINUOUS
 62
     4
100
AcDbLine
 10
214.8280799999999
 20
71.09239200000001
 30
0.0
 11
214.8280799999999
 21
62.43696299999999
 31
0.0
  0
LINE
  5
CC
330
C7
100
AcDbEntity
  8
CSLAYER1
  6
CONTINUOUS
 62
     4
100
AcDbLine
 10
174.82808
 20
63.436963
 30
0.0
 11
214.8280799999999
 21
63.436963
 31
0.0
  0
LINE
  5
CD
330
C7
100
AcDbEntity
  8
CSLAYER1
  6
CONTINUOUS
 62
     4
100
AcDbLine
 10
174.82808
 20
63.436963
 30
0.0
 11
177.725857
 21
64.213421
 31
0.0
  0
LINE
  5
CE
330
C7
100
AcDbEntity
  8
CSLAYER1
  6
CONTINUOUS
 62
     4
100
AcDbLine
 10
174.82808
 20
63.436963
 30
0.0
 11
177.725857
 21
62.660506
 31
0.0
  0
LINE
  5
CF
330
C7
100
AcDbEntity
  8
CSLAYER1
  6
CONTINUOUS
 62
     4
100
AcDbLine
 10
214.8280799999999
 20
63.436963
 30
0.0
 11
211.930302
 21
64.213421
 31
0.0
  0
LINE
  5
D0
330
C7
100
AcDbEntity
  8
CSLAYER1
  6
CONTINUOUS
 62
     4
100
AcDbLine
 10
214.8280799999999
 20
63.436963
 30
0.0
 11
211.930302
 21
62.660506
 31
0.0
  0
ENDBLK
  5
D1
330
C7
100
AcDbEntity
  8
0
100
AcDbBlockEnd
  0
BLOCK
  5
D3
330
D2
100
AcDbEntity
  8
0
100
AcDbBlockBegin
  2
*D14
 70
     1
 10
0.0
 20
0.0
 30
0.0
  3
*D14
  1

  0
TEXT
  5
D4
330
D2
100
AcDbEntity
  8
CSLAYER1
 62
     4
100
AcDbText
 10
194.028085
 20
127.9119719999999
 30
0.0
 40
3.2
  1
76.8
 41
1.090909090909091
 51
15.0
  7
FX_FONT
 72
     5
 11
206.828085
 21
127.9119719999999
 31
0.0
100
AcDbText
  0
LINE
  5
D5
330
D2
100
AcDbEntity
  8
CSLAYER1
  6
CONTINUOUS
 62
     4
100
AcDbLine
 10
162.02808
 20
127.411976
 30
0.0
 11
238.8280799999999
 21
127.411976
 31
0.0
  0
LINE
  5
D6
330
D2
100
AcDbEntity
  8
CSLAYER1
  6
CONTINUOUS
 62
     4
100
AcDbLine
 10
162.02808
 20
127.411976
 30
0.0
 11
164.925857
 21
128.188433
 31
0.0
  0
LINE
  5
D7
330
D2
100
AcDbEntity
  8
CSLAYER1
  6
CONTINUOUS
 62
     4
100
AcDbLine
 10
162.02808
 20
127.411976
 30
0.0
 11
164.925857
 21
126.6355189999998
 31
0.0
  0
LINE
  5
D8
330
D2
100
AcDbEntity
  8
CSLAYER1
  6
CONTINUOUS
 62
     4
100
AcDbLine
 10
238.8280799999999
 20
127.411976
 30
0.0
 11
235.930302
 21
128.188433
 31
0.0
  0
LINE
  5
D9
330
D2
100
AcDbEntity
  8
CSLAYER1
  6
CONTINUOUS
 62
     4
100
AcDbLine
 10
238.8280799999999
 20
127.411976
 30
0.0
 11
235.930302
 21
126.6355189999998
 31
0.0
  0
LINE
  5
DA
330
D2
100
AcDbEntity
  8
CSLAYER1
  6
CONTINUOUS
 62
     4
100
AcDbLine
 10
162.02808
 20
103.2766779999999
 30
0.0
 11
162.02808
 21
128.411976
 31
0.0
  0
LINE
  5
DB
330
D2
100
AcDbEntity
  8
CSLAYER1
  6
CONTINUOUS
 62
     4
100
AcDbLine
 10
238.8280799999999
 20
121.410049
 30
0.0
 11
238.8280799999999
 21
128.411976
 31
0.0
  0
ENDBLK
  5
DC
330
D2
100
AcDbEntity
  8
0
100
AcDbBlockEnd
  0
BLOCK
  5
DE
330
DD
100
AcDbEntity
  8
0
100
AcDbBlockBegin
  2
*D15
 70
     1
 10
0.0
 20
0.0
 30
0.0
  3
*D15
  1

  0
TEXT
  5
DF
330
DD
100
AcDbEntity
  8
CSLAYER1
 62
     4
100
AcDbText
 10
274.3208309999999
 20
183.1223939999999
 30
0.0
 40
3.2
  1
%%c45
 50
90.0
 41
1.125000000000009
 51
15.0
  7
FX_FONT
 72
     5
 11
274.3208309999999
 21
192.722394
 31
0.0
100
AcDbText
  0
LINE
  5
E0
330
DD
100
AcDbEntity
  8
CSLAYER1
  6
CONTINUOUS
 62
     4
100
AcDbLine
 10
274.820843
 20
165.4223919999999
 30
0.0
 11
274.820843
 21
210.4223919999999
 31
0.0
  0
LINE
  5
E1
330
DD
100
AcDbEntity
  8
CSLAYER1
  6
CONTINUOUS
 62
     4
100
AcDbLine
 10
274.820843
 20
165.4223919999999
 30
0.0
 11
274.0443859999999
 21
168.3201699999998
 31
0.0
  0
LINE
  5
E2
330
DD
100
AcDbEntity
  8
CSLAYER1
  6
CONTINUOUS
 62
     4
100
AcDbLine
 10
274.820843
 20
165.4223919999999
 30
0.0
 11
275.5973
 21
168.3201699999998
 31
0.0
  0
LINE
  5
E3
330
DD
100
AcDbEntity
  8
CSLAYER1
  6
CONTINUOUS
 62
     4
100
AcDbLine
 10
274.820843
 20
210.4223919999999
 30
0.0
 11
274.0443859999999
 21
207.5246149999999
 31
0.0
  0
LINE
  5
E4
330
DD
100
AcDbEntity
  8
CSLAYER1
  6
CONTINUOUS
 62
     4
100
AcDbLine
 10
274.820843
 20
210.4223919999999
 30
0.0
 11
275.5973
 21
207.5246149999999
 31
0.0
  0
LINE
  5
E5
330
DD
100
AcDbEntity
  8
CSLAYER1
  6
CONTINUOUS
 62
     4
100
AcDbLine
 10
244.8280799999999
 20
165.4223919999999
 30
0.0
 11
275.820843
 21
165.4223919999999
 31
0.0
  0
LINE
  5
E6
330
DD
100
AcDbEntity
  8
CSLAYER1
  6
CONTINUOUS
 62
     4
100
AcDbLine
 10
244.8280799999999
 20
210.4223919999999
 30
0.0
 11
275.820843
 21
210.4223919999999
 31
0.0
  0
ENDBLK
  5
E7
330
DD
100
AcDbEntity
  8
0
100
AcDbBlockEnd
  0
BLOCK
  5
E9
330
E8
100
AcDbEntity
  8
0
100
AcDbBlockBegin
  2
*D16
 70
     1
 10
0.0
 20
0.0
 30
0.0
  3
*D16
  1

  0
TEXT
  5
EA
330
E8
100
AcDbEntity
  8
CSLAYER1
 62
     4
100
AcDbText
 10
132.728079
 20
227.337616
 30
0.0
 40
3.2
  1
9
 41
1.499999999999954
 51
15.0
  7
FX_FONT
 72
     5
 11
135.9280789999999
 21
227.337616
 31
0.0
100
AcDbText
  0
LINE
  5
EB
330
E8
100
AcDbEntity
  8
CSLAYER1
  6
CONTINUOUS
 62
     4
100
AcDbLine
 10
129.82808
 20
226.8376149999999
 30
0.0
 11
138.8280799999999
 21
226.8376149999999
 31
0.0
  0
LINE
  5
EC
330
E8
100
AcDbEntity
  8
CSLAYER1
  6
CONTINUOUS
 62
     4
100
AcDbLine
 10
129.82808
 20
226.8376149999999
 30
0.0
 11
132.725857
 21
227.614072
 31
0.0
  0
LINE
  5
ED
330
E8
100
AcDbEntity
  8
CSLAYER1
  6
CONTINUOUS
 62
     4
100
AcDbLine
 10
129.82808
 20
226.8376149999999
 30
0.0
 11
132.725857
 21
226.061157
 31
0.0
  0
LINE
  5
EE
330
E8
100
AcDbEntity
  8
CSLAYER1
  6
CONTINUOUS
 62
     4
100
AcDbLine
 10
138.8280799999999
 20
226.8376149999999
 30
0.0
 11
135.930302
 21
227.614072
 31
0.0
  0
LINE
  5
EF
330
E8
100
AcDbEntity
  8
CSLAYER1
  6
CONTINUOUS
 62
     4
100
AcDbLine
 10
138.8280799999999
 20
226.8376149999999
 30
0.0
 11
135.930302
 21
226.061157
 31
0.0
  0
LINE
  5
F0
330
E8
100
AcDbEntity
  8
CSLAYER1
  6
CONTINUOUS
 62
     4
100
AcDbLine
 10
138.8280799999999
 20
198.807661
 30
0.0
 11
138.8280799999999
 21
227.837615
 31
0.0
  0
ENDBLK
  5
F1
330
E8
100
AcDbEntity
  8
0
100
AcDbBlockEnd
  0
BLOCK
  5
F3
330
F2
100
AcDbEntity
  8
0
100
AcDbBlockBegin
  2
*D17
 70
     1
 10
0.0
 20
0.0
 30
0.0
  3
*D17
  1

  0
TEXT
  5
F4
330
F2
100
AcDbEntity
  8
CSLAYER1
 62
     4
100
AcDbText
 10
141.593654
 20
71.287692
 30
0.0
 40
3.2
  1
R14
 50
50.24119268246371
 41
1.125000016277129
 51
15.0
  7
FX_FONT
 72
     5
 11
147.733403
 21
78.66763
 31
0.0
100
AcDbText
  0
LINE
  5
F5
330
F2
100
AcDbEntity
  8
CSLAYER1
  6
CONTINUOUS
 62
     4
100
AcDbLine
 10
149.524805
 20
80.03908800000003
 30
0.0
 11
140.571006
 21
69.276678
 31
0.0
  0
LINE
  5
F6
330
F2
100
AcDbEntity
  8
CSLAYER1
  6
CONTINUOUS
 62
     4
100
AcDbLine
 10
149.524805
 20
80.03908800000003
 30
0.0
 11
148.268408
 21
77.314852
 31
0.0
  0
LINE
  5
F7
330
F2
100
AcDbEntity
  8
CSLAYER1
  6
CONTINUOUS
 62
     4
100
AcDbLine
 10
149.524805
 20
80.03908800000003
 30
0.0
 11
147.0746149999999
 21
78.30802900000001
 31
0.0
  0
ENDBLK
  5
F8
330
F2
100
AcDbEntity
  8
0
100
AcDbBlockEnd
  0
BLOCK
  5
FA
330
F9
100
AcDbEntity
  8
0
100
AcDbBlockBegin
  2
FXDIM0000
 70
     0
 10
0.0
 20
0.0
 30
0.0
  3
FXDIM0000
  1

  0
LINE
  5
FB
330
F9
100
AcDbEntity
  8
CSLAYER1
  6
CONTINUOUS
 62
     4
100
AcDbLine
 10
178.5799909999999
 20
168.3596139999998
 30
0.0
 11
166.80749
 21
153.5009969999999
 31
0.0
  0
LINE
  5
FC
330
F9
100
AcDbEntity
  8
CSLAYER1
  6
CONTINUOUS
 62
     4
100
AcDbLine
 10
178.5799909999999
 20
168.3596139999998
 30
0.0
 11
177.389036
 21
165.6061389999998
 31
0.0
  0
LINE
  5
FD
330
F9
100
AcDbEntity
  8
CSLAYER1
  6
CONTINUOUS
 62
     4
100
AcDbLine
 10
178.5799909999999
 20
168.3596139999998
 30
0.0
 11
176.171857
 21
166.570512
 31
0.0
  0
LINE
  5
FE
330
F9
100
AcDbEntity
  8
CSLAYER1
  6
CONTINUOUS
 62
     4
100
AcDbLine
 10
166.80749
 20
153.5009969999999
 30
0.0
 11
120.007489
 21
153.5009969999999
 31
0.0
  0
TEXT
  5
FF
330
F9
100
AcDbEntity
  8
CSLAYER1
 62
     4
100
AcDbText
 10
121.0074939999999
 20
154.0009919999999
 30
0.0
 40
3.2
  1
16-M4X0.7 ネジ深７
 41
1.000000022321428
 51
15.0
  7
FX_FONT
 72
     5
 11
165.8074949999999
 21
154.0009919999999
 31
0.0
100
AcDbText
  0
ENDBLK
  5
100
330
F9
100
AcDbEntity
  8
0
100
AcDbBlockEnd
  0
BLOCK
  5
102
330
101
100
AcDbEntity
  8
0
100
AcDbBlockBegin
  2
FXDIM0001
 70
     0
 10
0.0
 20
0.0
 30
0.0
  3
FXDIM0001
  1

  0
LINE
  5
103
330
101
100
AcDbEntity
  8
CSLAYER1
  6
CONTINUOUS
 62
     4
100
AcDbLine
 10
324.1491599999998
 20
174.931345
 30
0.0
 11
317.1142549999999
 21
152.603637
 31
0.0
  0
LINE
  5
104
330
101
100
AcDbEntity
  8
CSLAYER1
  6
CONTINUOUS
 62
     4
100
AcDbLine
 10
324.1491599999998
 20
174.931345
 30
0.0
 11
324.018912
 21
171.934174
 31
0.0
  0
LINE
  5
105
330
101
100
AcDbEntity
  8
CSLAYER1
  6
CONTINUOUS
 62
     4
100
AcDbLine
 10
324.1491599999998
 20
174.931345
 30
0.0
 11
322.5377759999998
 21
172.4008429999999
 31
0.0
  0
LINE
  5
106
330
101
100
AcDbEntity
  8
CSLAYER1
  6
CONTINUOUS
 62
     4
100
AcDbLine
 10
317.1142549999999
 20
152.603637
 30
0.0
 11
341.514255
 21
152.603637
 31
0.0
  0
TEXT
  5
107
330
101
100
AcDbEntity
  8
CSLAYER1
 62
     4
100
AcDbText
 10
318.1142579999999
 20
153.1036379999999
 30
0.0
 40
3.2
  1
M5ネジ深１２
 41
0.9210526315789461
 51
15.0
  7
FX_FONT
 72
     5
 11
340.5142579999998
 21
153.1036379999999
 31
0.0
100
AcDbText
  0
ENDBLK
  5
108
330
101
100
AcDbEntity
  8
0
100
AcDbBlockEnd
  0
BLOCK
  5
10A
330
109
100
AcDbEntity
  8
0
100
AcDbBlockBegin
  2
*D20
 70
     1
 10
0.0
 20
0.0
 30
0.0
  3
*D20
  1

  0
TEXT
  5
10B
330
109
100
AcDbEntity
  8
CSLAYER1
 62
     4
100
AcDbText
 10
375.813324
 20
184.722394
 30
0.0
 40
3.2
  1
36
 50
90.0
 41
1.199999999999985
 51
15.0
  7
FX_FONT
 72
     5
 11
375.813324
 21
191.1223939999999
 31
0.0
100
AcDbText
  0
LINE
  5
10C
330
109
100
AcDbEntity
  8
CSLAYER1
  6
CONTINUOUS
 62
     4
100
AcDbLine
 10
350.007041
 20
169.922392
 30
0.0
 11
377.313335
 21
169.922392
 31
0.0
  0
LINE
  5
10D
330
109
100
AcDbEntity
  8
CSLAYER1
  6
CONTINUOUS
 62
     4
100
AcDbLine
 10
350.007041
 20
205.9223919999999
 30
0.0
 11
377.313335
 21
205.9223919999999
 31
0.0
  0
LINE
  5
10E
330
109
100
AcDbEntity
  8
CSLAYER1
  6
CONTINUOUS
 62
     4
100
AcDbLine
 10
376.3133349999998
 20
169.922392
 30
0.0
 11
376.3133349999998
 21
205.9223919999999
 31
0.0
  0
LINE
  5
10F
330
109
100
AcDbEntity
  8
CSLAYER1
  6
CONTINUOUS
 62
     4
100
AcDbLine
 10
376.3133349999998
 20
169.922392
 30
0.0
 11
375.5368779999998
 21
172.8201699999999
 31
0.0
  0
LINE
  5
110
330
109
100
AcDbEntity
  8
CSLAYER1
  6
CONTINUOUS
 62
     4
100
AcDbLine
 10
376.3133349999998
 20
169.922392
 30
0.0
 11
377.0897919999999
 21
172.8201699999999
 31
0.0
  0
LINE
  5
111
330
109
100
AcDbEntity
  8
CSLAYER1
  6
CONTINUOUS
 62
     4
100
AcDbLine
 10
376.3133349999998
 20
205.9223919999999
 30
0.0
 11
375.5368779999998
 21
203.0246149999999
 31
0.0
  0
LINE
  5
112
330
109
100
AcDbEntity
  8
CSLAYER1
  6
CONTINUOUS
 62
     4
100
AcDbLine
 10
376.3133349999998
 20
205.9223919999999
 30
0.0
 11
377.0897919999999
 21
203.0246149999999
 31
0.0
  0
ENDBLK
  5
113
330
109
100
AcDbEntity
  8
0
100
AcDbBlockEnd
  0
BLOCK
  5
115
330
114
100
AcDbEntity
  8
0
100
AcDbBlockBegin
  2
*D21
 70
     1
 10
0.0
 20
0.0
 30
0.0
  3
*D21
  1

  0
TEXT
  5
116
330
114
100
AcDbEntity
  8
CSLAYER1
 62
     4
100
AcDbText
 10
189.5280789999999
 20
238.850388
 30
0.0
 40
3.2
  1
129
 41
1.125000000000009
 51
15.0
  7
FX_FONT
 72
     5
 11
199.128079
 21
238.850388
 31
0.0
100
AcDbText
  0
LINE
  5
117
330
114
100
AcDbEntity
  8
CSLAYER1
  6
CONTINUOUS
 62
     4
100
AcDbLine
 10
129.82808
 20
238.3503879999999
 30
0.0
 11
258.82808
 21
238.3503879999999
 31
0.0
  0
LINE
  5
118
330
114
100
AcDbEntity
  8
CSLAYER1
  6
CONTINUOUS
 62
     4
100
AcDbLine
 10
129.82808
 20
238.3503879999999
 30
0.0
 11
132.725857
 21
239.126845
 31
0.0
  0
LINE
  5
119
330
114
100
AcDbEntity
  8
CSLAYER1
  6
CONTINUOUS
 62
     4
100
AcDbLine
 10
129.82808
 20
238.3503879999999
 30
0.0
 11
132.725857
 21
237.5739299999999
 31
0.0
  0
LINE
  5
11A
330
114
100
AcDbEntity
  8
CSLAYER1
  6
CONTINUOUS
 62
     4
100
AcDbLine
 10
258.82808
 20
238.3503879999999
 30
0.0
 11
255.930302
 21
239.126845
 31
0.0
  0
LINE
  5
11B
330
114
100
AcDbEntity
  8
CSLAYER1
  6
CONTINUOUS
 62
     4
100
AcDbLine
 10
258.82808
 20
238.3503879999999
 30
0.0
 11
255.930302
 21
237.5739299999999
 31
0.0
  0
LINE
  5
11C
330
114
100
AcDbEntity
  8
CSLAYER1
  6
CONTINUOUS
 62
     4
100
AcDbLine
 10
129.82808
 20
198.922392
 30
0.0
 11
129.82808
 21
239.3503879999999
 31
0.0
  0
LINE
  5
11D
330
114
100
AcDbEntity
  8
CSLAYER1
  6
CONTINUOUS
 62
     4
100
AcDbLine
 10
258.82808
 20
205.422392
 30
0.0
 11
258.82808
 21
239.3503879999999
 31
0.0
  0
ENDBLK
  5
11E
330
114
100
AcDbEntity
  8
0
100
AcDbBlockEnd
  0
BLOCK
  5
120
330
11F
100
AcDbEntity
  8
0
100
AcDbBlockBegin
  2
FXDIM0002
 70
     0
 10
0.0
 20
0.0
 30
0.0
  3
FXDIM0002
  1

  0
LINE
  5
121
330
11F
100
AcDbEntity
  8
CSLAYER1
  6
CONTINUOUS
 62
     4
100
AcDbLine
 10
337.6696869999999
 20
192.1515129999999
 30
0.0
 11
349.225404
 21
221.278523
 31
0.0
  0
LINE
  5
122
330
11F
100
AcDbEntity
  8
CSLAYER1
  6
CONTINUOUS
 62
     4
100
AcDbLine
 10
337.6696869999999
 20
192.1515129999999
 30
0.0
 11
338.016578
 21
195.1313899999999
 31
0.0
  0
LINE
  5
123
330
11F
100
AcDbEntity
  8
CSLAYER1
  6
CONTINUOUS
 62
     4
100
AcDbLine
 10
337.6696869999999
 20
192.1515129999999
 30
0.0
 11
339.4600419999998
 21
194.558716
 31
0.0
  0
LINE
  5
124
330
11F
100
AcDbEntity
  8
CSLAYER1
  6
CONTINUOUS
 62
     4
100
AcDbLine
 10
349.225404
 20
221.278523
 30
0.0
 11
373.6254049999998
 21
221.278523
 31
0.0
  0
TEXT
  5
125
330
11F
100
AcDbEntity
  8
CSLAYER1
 62
     4
100
AcDbText
 10
350.225415
 20
221.7785189999999
 30
0.0
 40
3.2
  1
Rc1/8ネジ
 41
0.981308411214947
 51
15.0
  7
FX_FONT
 72
     5
 11
372.6254149999998
 21
221.7785189999999
 31
0.0
100
AcDbText
  0
ENDBLK
  5
126
330
11F
100
AcDbEntity
  8
0
100
AcDbBlockEnd
  0
BLOCK
  5
128
330
127
100
AcDbEntity
  8
0
100
AcDbBlockBegin
  2
*D23
 70
     1
 10
0.0
 20
0.0
 30
0.0
  3
*D23
  1

  0
TEXT
  5
129
330
127
100
AcDbEntity
  8
CSLAYER1
 62
     4
100
AcDbText
 10
305.607724
 20
170.342218
 30
0.0
 40
3.2
  1
45%%d
 50
112.4999991574818
 41
1.285714348609493
 51
15.0
  7
FX_FONT
 72
     5
 11
301.933963
 21
179.211462
 31
0.0
100
AcDbText
  0
ARC
  5
12A
330
127
100
AcDbEntity
  8
CSLAYER1
  6
CONTINUOUS
 62
     4
100
AcDbCircle
 10
335.507041
 20
187.922392
 30
0.0
 40
33.85100399999998
100
AcDbArc
 50
180.0
 51
225.0
  0
LINE
  5
12B
330
127
100
AcDbEntity
  8
CSLAYER1
  6
CONTINUOUS
 62
     4
100
AcDbLine
 10
301.656037
 20
187.922392
 30
0.0
 11
300.8795799999998
 21
185.0246149999999
 31
0.0
  0
LINE
  5
12C
330
127
100
AcDbEntity
  8
CSLAYER1
  6
CONTINUOUS
 62
     4
100
AcDbLine
 10
301.656037
 20
187.922392
 30
0.0
 11
302.432494
 21
185.0246149999999
 31
0.0
  0
LINE
  5
12D
330
127
100
AcDbEntity
  8
CSLAYER1
  6
CONTINUOUS
 62
     4
100
AcDbLine
 10
311.5707669999999
 20
163.986118
 30
0.0
 11
308.97269
 21
165.486118
 31
0.0
  0
LINE
  5
12E
330
127
100
AcDbEntity
  8
CSLAYER1
  6
CONTINUOUS
 62
     4
100
AcDbLine
 10
311.5707669999999
 20
163.986118
 30
0.0
 11
310.0707669999998
 21
166.5841939999999
 31
0.0
  0
LINE
  5
12F
330
127
100
AcDbEntity
  8
CSLAYER1
  6
CONTINUOUS
 62
     4
100
AcDbLine
 10
306.7338589999998
 20
187.922392
 30
0.0
 11
300.656037
 21
187.922392
 31
0.0
  0
LINE
  5
130
330
127
100
AcDbEntity
  8
CSLAYER1
  6
CONTINUOUS
 62
     4
100
AcDbLine
 10
321.1283279999999
 20
173.543679
 30
0.0
 11
310.86366
 21
163.279011
 31
0.0
  0
ENDBLK
  5
131
330
127
100
AcDbEntity
  8
0
100
AcDbBlockEnd
  0
BLOCK
  5
133
330
132
100
AcDbEntity
  8
0
100
AcDbBlockBegin
  2
*D24
 70
     1
 10
0.0
 20
0.0
 30
0.0
  3
*D24
  1

  0
TEXT
  5
134
330
132
100
AcDbEntity
  8
CSLAYER1
 62
     4
100
AcDbText
 10
309.9663029999998
 20
209.438879
 30
0.0
 40
3.2
  1
30
 50
44.28562056356031
 41
1.199999962020853
 51
15.0
  7
FX_FONT
 72
     5
 11
314.547858
 21
213.907587
 31
0.0
100
AcDbText
  0
LINE
  5
135
330
132
100
AcDbEntity
  8
CSLAYER1
  6
CONTINUOUS
 62
     4
100
AcDbLine
 10
301.867331
 20
200.8409499999999
 30
0.0
 11
323.3450389999998
 21
221.7896479999999
 31
0.0
  0
LINE
  5
136
330
132
100
AcDbEntity
  8
CSLAYER1
  6
CONTINUOUS
 62
     4
100
AcDbLine
 10
301.867331
 20
200.8409499999999
 30
0.0
 11
303.399607
 21
203.4201219999999
 31
0.0
  0
LINE
  5
137
330
132
100
AcDbEntity
  8
CSLAYER1
  6
CONTINUOUS
 62
     4
100
AcDbLine
 10
301.867331
 20
200.8409499999999
 30
0.0
 11
304.483907
 21
202.308441
 31
0.0
  0
LINE
  5
138
330
132
100
AcDbEntity
  8
CSLAYER1
  6
CONTINUOUS
 62
     4
100
AcDbLine
 10
323.3450389999998
 20
221.7896479999999
 30
0.0
 11
321.8127629999999
 21
219.2104759999998
 31
0.0
  0
LINE
  5
139
330
132
100
AcDbEntity
  8
CSLAYER1
  6
CONTINUOUS
 62
     4
100
AcDbLine
 10
323.3450389999998
 20
221.7896479999999
 30
0.0
 11
320.7284629999998
 21
220.322158
 31
0.0
  0
LINE
  5
13A
330
132
100
AcDbEntity
  8
CSLAYER1
  6
CONTINUOUS
 62
     4
100
AcDbLine
 10
320.654247
 20
181.5796149999999
 30
0.0
 11
301.169095
 21
201.5568179999999
 31
0.0
  0
LINE
  5
13B
330
132
100
AcDbEntity
  8
CSLAYER1
  6
CONTINUOUS
 62
     4
100
AcDbLine
 10
342.131955
 20
202.5283139999999
 30
0.0
 11
322.646804
 21
222.505516
 31
0.0
  0
ENDBLK
  5
13C
330
132
100
AcDbEntity
  8
0
100
AcDbBlockEnd
  0
BLOCK
  5
13E
330
13D
100
AcDbEntity
  8
0
100
AcDbBlockBegin
  2
FXDIM0003
 70
     0
 10
0.0
 20
0.0
 30
0.0
  3
FXDIM0003
  1

  0
LINE
  5
13F
330
13D
100
AcDbEntity
  8
CSLAYER1
  6
CONTINUOUS
 62
     4
100
AcDbLine
 10
250.9907259999998
 20
197.974941
 30
0.0
 11
269.356002
 21
223.3645829999999
 31
0.0
  0
LINE
  5
140
330
13D
100
AcDbEntity
  8
CSLAYER1
  6
CONTINUOUS
 62
     4
100
AcDbLine
 10
250.9907259999998
 20
197.974941
 30
0.0
 11
252.059943
 21
200.777935
 31
0.0
  0
LINE
  5
141
330
13D
100
AcDbEntity
  8
CSLAYER1
  6
CONTINUOUS
 62
     4
100
AcDbLine
 10
250.9907259999998
 20
197.974941
 30
0.0
 11
253.318192
 21
199.8677969999999
 31
0.0
  0
LINE
  5
142
330
13D
100
AcDbEntity
  8
CSLAYER1
  6
CONTINUOUS
 62
     4
100
AcDbLine
 10
269.356002
 20
223.3645829999999
 30
0.0
 11
293.7560029999999
 21
223.3645829999999
 31
0.0
  0
TEXT
  5
143
330
13D
100
AcDbEntity
  8
CSLAYER1
 62
     4
100
AcDbText
 10
270.3560299999999
 20
223.8645779999999
 30
0.0
 40
3.2
  1
Rc1/8ネジ
 41
0.9813084112149574
 51
15.0
  7
FX_FONT
 72
     5
 11
292.75603
 21
223.8645779999999
 31
0.0
100
AcDbText
  0
ENDBLK
  5
144
330
13D
100
AcDbEntity
  8
0
100
AcDbBlockEnd
  0
BLOCK
  5
146
330
145
100
AcDbEntity
  8
0
100
AcDbBlockBegin
  2
*D26
 70
     1
 10
0.0
 20
0.0
 30
0.0
  3
*D26
  1

  0
TEXT
  5
147
330
145
100
AcDbEntity
  8
CSLAYER1
 62
     4
100
AcDbText
 10
194.128079
 20
151.487732
 30
0.0
 40
3.2
  1
25
 41
1.199999999999995
 51
15.0
  7
FX_FONT
 72
     5
 11
200.528079
 21
151.487732
 31
0.0
100
AcDbText
  0
LINE
  5
148
330
145
100
AcDbEntity
  8
CSLAYER1
  6
CONTINUOUS
 62
     4
100
AcDbLine
 10
184.8280799999999
 20
150.987726
 30
0.0
 11
209.8280799999999
 21
150.987726
 31
0.0
  0
LINE
  5
149
330
145
100
AcDbEntity
  8
CSLAYER1
  6
CONTINUOUS
 62
     4
100
AcDbLine
 10
184.8280799999999
 20
150.987726
 30
0.0
 11
187.725857
 21
151.764183
 31
0.0
  0
LINE
  5
14A
330
145
100
AcDbEntity
  8
CSLAYER1
  6
CONTINUOUS
 62
     4
100
AcDbLine
 10
184.8280799999999
 20
150.987726
 30
0.0
 11
187.725857
 21
150.2112689999998
 31
0.0
  0
LINE
  5
14B
330
145
100
AcDbEntity
  8
CSLAYER1
  6
CONTINUOUS
 62
     4
100
AcDbLine
 10
209.8280799999999
 20
150.987726
 30
0.0
 11
206.9303019999999
 21
151.764183
 31
0.0
  0
LINE
  5
14C
330
145
100
AcDbEntity
  8
CSLAYER1
  6
CONTINUOUS
 62
     4
100
AcDbLine
 10
209.8280799999999
 20
150.987726
 30
0.0
 11
206.9303019999999
 21
150.2112689999998
 31
0.0
  0
LINE
  5
14D
330
145
100
AcDbEntity
  8
CSLAYER1
  6
CONTINUOUS
 62
     4
100
AcDbLine
 10
184.8280799999999
 20
164.4223919999999
 30
0.0
 11
184.8280799999999
 21
149.987726
 31
0.0
  0
LINE
  5
14E
330
145
100
AcDbEntity
  8
CSLAYER1
  6
CONTINUOUS
 62
     4
100
AcDbLine
 10
209.8280799999999
 20
164.4223919999999
 30
0.0
 11
209.8280799999999
 21
149.987726
 31
0.0
  0
ENDBLK
  5
14F
330
145
100
AcDbEntity
  8
0
100
AcDbBlockEnd
  0
BLOCK
  5
151
330
150
100
AcDbEntity
  8
0
100
AcDbBlockBegin
  2
*D27
 70
     1
 10
0.0
 20
0.0
 30
0.0
  3
*D27
  1

  0
TEXT
  5
152
330
150
100
AcDbEntity
  8
CSLAYER1
 62
     4
100
AcDbText
 10
221.1280789999999
 20
151.487732
 30
0.0
 40
3.2
  1
29
 41
1.200000000000011
 51
15.0
  7
FX_FONT
 72
     5
 11
227.528079
 21
151.487732
 31
0.0
100
AcDbText
  0
LINE
  5
153
330
150
100
AcDbEntity
  8
CSLAYER1
  6
CONTINUOUS
 62
     4
100
AcDbLine
 10
209.8280799999999
 20
150.987726
 30
0.0
 11
238.8280799999999
 21
150.987726
 31
0.0
  0
LINE
  5
154
330
150
100
AcDbEntity
  8
CSLAYER1
  6
CONTINUOUS
 62
     4
100
AcDbLine
 10
209.8280799999999
 20
150.987726
 30
0.0
 11
212.7258569999999
 21
151.764183
 31
0.0
  0
LINE
  5
155
330
150
100
AcDbEntity
  8
CSLAYER1
  6
CONTINUOUS
 62
     4
100
AcDbLine
 10
209.8280799999999
 20
150.987726
 30
0.0
 11
212.7258569999999
 21
150.2112689999998
 31
0.0
  0
LINE
  5
156
330
150
100
AcDbEntity
  8
CSLAYER1
  6
CONTINUOUS
 62
     4
100
AcDbLine
 10
238.8280799999999
 20
150.987726
 30
0.0
 11
235.930302
 21
151.764183
 31
0.0
  0
LINE
  5
157
330
150
100
AcDbEntity
  8
CSLAYER1
  6
CONTINUOUS
 62
     4
100
AcDbLine
 10
238.8280799999999
 20
150.987726
 30
0.0
 11
235.930302
 21
150.2112689999998
 31
0.0
  0
LINE
  5
158
330
150
100
AcDbEntity
  8
CSLAYER1
  6
CONTINUOUS
 62
     4
100
AcDbLine
 10
238.8280799999999
 20
164.7223919999998
 30
0.0
 11
238.8280799999999
 21
149.987726
 31
0.0
  0
ENDBLK
  5
159
330
150
100
AcDbEntity
  8
0
100
AcDbBlockEnd
  0
BLOCK
  5
15B
330
15A
100
AcDbEntity
  8
0
100
AcDbBlockBegin
  2
*D28
 70
     1
 10
0.0
 20
0.0
 30
0.0
  3
*D28
  1

  0
TEXT
  5
15C
330
15A
100
AcDbEntity
  8
CSLAYER1
 62
     4
100
AcDbText
 10
228.628079
 20
157.4877319999998
 30
0.0
 40
3.2
  1
14
 41
1.199999999999985
 51
15.0
  7
FX_FONT
 72
     5
 11
235.0280789999999
 21
157.4877319999998
 31
0.0
100
AcDbText
  0
LINE
  5
15D
330
15A
100
AcDbEntity
  8
CSLAYER1
  6
CONTINUOUS
 62
     4
100
AcDbLine
 10
224.8280799999999
 20
156.987726
 30
0.0
 11
238.8280799999999
 21
156.987726
 31
0.0
  0
LINE
  5
15E
330
15A
100
AcDbEntity
  8
CSLAYER1
  6
CONTINUOUS
 62
     4
100
AcDbLine
 10
224.8280799999999
 20
156.987726
 30
0.0
 11
227.7258569999999
 21
157.764183
 31
0.0
  0
LINE
  5
15F
330
15A
100
AcDbEntity
  8
CSLAYER1
  6
CONTINUOUS
 62
     4
100
AcDbLine
 10
224.8280799999999
 20
156.987726
 30
0.0
 11
227.7258569999999
 21
156.211269
 31
0.0
  0
LINE
  5
160
330
15A
100
AcDbEntity
  8
CSLAYER1
  6
CONTINUOUS
 62
     4
100
AcDbLine
 10
238.8280799999999
 20
156.987726
 30
0.0
 11
235.930302
 21
157.764183
 31
0.0
  0
LINE
  5
161
330
15A
100
AcDbEntity
  8
CSLAYER1
  6
CONTINUOUS
 62
     4
100
AcDbLine
 10
238.8280799999999
 20
156.987726
 30
0.0
 11
235.930302
 21
156.211269
 31
0.0
  0
LINE
  5
162
330
15A
100
AcDbEntity
  8
CSLAYER1
  6
CONTINUOUS
 62
     4
100
AcDbLine
 10
224.8280799999999
 20
164.4223919999999
 30
0.0
 11
224.8280799999999
 21
155.987726
 31
0.0
  0
ENDBLK
  5
163
330
15A
100
AcDbEntity
  8
0
100
AcDbBlockEnd
  0
BLOCK
  5
165
330
164
100
AcDbEntity
  8
0
100
AcDbBlockBegin
  2
*D29
 70
     1
 10
0.0
 20
0.0
 30
0.0
  3
*D29
  1

  0
TEXT
  5
166
330
164
100
AcDbEntity
  8
CSLAYER1
 62
     4
100
AcDbText
 10
223.628079
 20
63.936962
 30
0.0
 40
3.2
  1
24
 41
1.199999999999985
 51
15.0
  7
FX_FONT
 72
     5
 11
230.0280789999999
 21
63.936962
 31
0.0
100
AcDbText
  0
LINE
  5
167
330
164
100
AcDbEntity
  8
CSLAYER1
  6
CONTINUOUS
 62
     4
100
AcDbLine
 10
214.8280799999999
 20
63.436963
 30
0.0
 11
238.8280799999999
 21
63.436963
 31
0.0
  0
LINE
  5
168
330
164
100
AcDbEntity
  8
CSLAYER1
  6
CONTINUOUS
 62
     4
100
AcDbLine
 10
214.8280799999999
 20
63.436963
 30
0.0
 11
217.7258569999999
 21
64.213421
 31
0.0
  0
LINE
  5
169
330
164
100
AcDbEntity
  8
CSLAYER1
  6
CONTINUOUS
 62
     4
100
AcDbLine
 10
214.8280799999999
 20
63.436963
 30
0.0
 11
217.7258569999999
 21
62.660506
 31
0.0
  0
LINE
  5
16A
330
164
100
AcDbEntity
  8
CSLAYER1
  6
CONTINUOUS
 62
     4
100
AcDbLine
 10
238.8280799999999
 20
63.436963
 30
0.0
 11
235.930302
 21
64.213421
 31
0.0
  0
LINE
  5
16B
330
164
100
AcDbEntity
  8
CSLAYER1
  6
CONTINUOUS
 62
     4
100
AcDbLine
 10
238.8280799999999
 20
63.436963
 30
0.0
 11
235.930302
 21
62.660506
 31
0.0
  0
LINE
  5
16C
330
164
100
AcDbEntity
  8
CSLAYER1
  6
CONTINUOUS
 62
     4
100
AcDbLine
 10
238.8280799999999
 20
73.076678
 30
0.0
 11
238.8280799999999
 21
62.43696299999999
 31
0.0
  0
ENDBLK
  5
16D
330
164
100
AcDbEntity
  8
0
100
AcDbBlockEnd
  0
BLOCK
  5
33C
330
32F
100
AcDbEntity
  8
0
100
AcDbBlockBegin
  2
*D30
 70
     1
 10
0.0
 20
0.0
 30
0.0
  3
*D30
  1

  0
LINE
  5
330
330
32F
100
AcDbEntity
  8
CSLAYER1
 62
     0
100
AcDbLine
 10
307.671359
 20
187.922392
 30
0.0
 11
301.4760369225133
 21
187.922392
 31
0.0
  0
LINE
  5
331
330
32F
100
AcDbEntity
  8
CSLAYER1
 62
     0
100
AcDbLine
 10
321.7912398245595
 20
174.2065918277921
 30
0.0
 11
311.4434863661662
 21
163.8588391262778
 31
0.0
  0
ARC
  5
332
330
32F
100
AcDbEntity
  8
CSLAYER1
 62
     0
100
AcDbCircle
 10
335.5070410000001
 20
187.922392
 30
0.0
 40
33.85100407748672
100
AcDbArc
 50
180.3046660725056
 51
202.1706215039118
  0
ARC
  5
333
330
32F
100
AcDbEntity
  8
CSLAYER1
 62
     0
100
AcDbCircle
 10
335.5070410000001
 20
187.922392
 30
0.0
 40
33.85100407748672
100
AcDbArc
 50
202.8301625987799
 51
224.6953318320645
  0
SOLID
  5
334
330
32F
100
AcDbEntity
  8
CSLAYER1
 62
     0
100
AcDbTrace
 10
301.6265155963283
 20
187.7423128748903
 30
0.0
 11
301.6865153842658
 21
187.7424723974849
 31
0.0
 12
301.6560369225131
 22
187.922392
 32
0.0
 13
301.6560369225131
 23
187.922392
 33
0.0
  0
SOLID
  5
335
330
32F
100
AcDbEntity
  8
CSLAYER1
 62
     0
100
AcDbTrace
 10
311.4650947528541
 20
164.1348922440934
 30
0.0
 11
311.4225556948778
 21
164.0925787882371
 31
0.0
 12
311.5707655914346
 22
163.9861183422366
 32
0.0
 13
311.5707655914346
 23
163.9861183422366
 33
0.0
  0
MTEXT
  5
336
330
32F
100
AcDbEntity
  8
CSLAYER1
 62
     0
100
AcDbMText
 10
304.2327909409721
 20
174.9681741425059
 30
0.0
 40
0.18
 41
0.0
 71
     5
 72
     1
  1
\A1;45°
1001
ACAD
1000
MTEXTBEGIN
1070
    73
1070
     1
1070
    44
1040
1.0
1070
    74
1070
     0
1000
MTEXTEND
  0
POINT
  5
337
330
32F
100
AcDbEntity
  8
DEFPOINTS
 62
     0
100
AcDbPoint
 10
302.8094818089328
 20
179.1611078475099
 30
0.0
  0
POINT
  5
338
330
32F
100
AcDbEntity
  8
DEFPOINTS
 62
     0
100
AcDbPoint
 10
335.507041
 20
187.922392
 30
0.0
  0
POINT
  5
339
330
32F
100
AcDbEntity
  8
DEFPOINTS
 62
     0
100
AcDbPoint
 10
321.8354339999998
 20
174.250786
 30
0.0
  0
POINT
  5
33A
330
32F
100
AcDbEntity
  8
DEFPOINTS
 62
     0
100
AcDbPoint
 10
335.507041
 20
187.922392
 30
0.0
  0
POINT
  5
33B
330
32F
100
AcDbEntity
  8
DEFPOINTS
 62
     0
100
AcDbPoint
 10
307.733859
 20
187.922392
 30
0.0
  0
ENDBLK
  5
33D
330
32F
100
AcDbEntity
  8
0
100
AcDbBlockEnd
  0
ENDSEC
  0
SECTION
  2
ENTITIES
  0
LINE
  5
16E
330
1E
100
AcDbEntity
  8
CSLAYER1
  6
CONTINUOUS
 62
     3
100
AcDbLine
 10
258.82808
 20
75.276678
 30
0.0
 11
258.82808
 21
117.276678
 31
0.0
  0
LINE
  5
16F
330
1E
100
AcDbEntity
  8
CSLAYER1
  6
CONTINUOUS
 62
     3
100
AcDbLine
 10
258.82808
 20
117.276678
 30
0.0
 11
257.32808
 21
118.776678
 31
0.0
  0
LINE
  5
170
330
1E
100
AcDbEntity
  8
CSLAYER1
  6
CONTINUOUS
 62
     3
100
AcDbLine
 10
257.32808
 20
118.776678
 30
0.0
 11
257.32808
 21
109.776678
 31
0.0
  0
LINE
  5
171
330
1E
100
AcDbEntity
  8
CSLAYER1
  6
CONTINUOUS
 62
     3
100
AcDbLine
 10
257.32808
 20
109.776678
 30
0.0
 11
243.8280799999999
 21
109.776678
 31
0.0
  0
LINE
  5
172
330
1E
100
AcDbEntity
  8
CSLAYER1
  6
CONTINUOUS
 62
     3
100
AcDbLine
 10
243.8280799999999
 20
109.776678
 30
0.0
 11
243.8280799999999
 21
82.77667800000001
 31
0.0
  0
LINE
  5
173
330
1E
100
AcDbEntity
  8
CSLAYER1
  6
CONTINUOUS
 62
     3
100
AcDbLine
 10
243.8280799999999
 20
82.77667800000001
 30
0.0
 11
257.32808
 21
82.77667800000001
 31
0.0
  0
LINE
  5
174
330
1E
100
AcDbEntity
  8
CSLAYER1
  6
CONTINUOUS
 62
     3
100
AcDbLine
 10
257.32808
 20
82.77667800000001
 30
0.0
 11
258.82808
 21
84.276678
 31
0.0
  0
LINE
  5
175
330
1E
100
AcDbEntity
  8
CSLAYER1
  6
CONTINUOUS
 62
     3
100
AcDbLine
 10
257.32808
 20
82.77667800000001
 30
0.0
 11
257.32808
 21
73.77667800000001
 31
0.0
  0
LINE
  5
176
330
1E
100
AcDbEntity
  8
CSLAYER1
  6
CONTINUOUS
 62
     3
100
AcDbLine
 10
257.32808
 20
73.77667800000001
 30
0.0
 11
258.82808
 21
75.276678
 31
0.0
  0
LINE
  5
177
330
1E
100
AcDbEntity
  8
CSLAYER1
  6
CONTINUOUS
 62
     3
100
AcDbLine
 10
238.8280799999999
 20
87.58131800000002
 30
0.0
 11
237.8280799999999
 21
86.58131800000003
 31
0.0
  0
LINE
  5
178
330
1E
100
AcDbEntity
  8
CSLAYER1
  6
CONTINUOUS
 62
     3
100
AcDbLine
 10
237.8280799999999
 20
86.58131800000003
 30
0.0
 11
237.8280799999999
 21
105.972037
 31
0.0
  0
LINE
  5
179
330
1E
100
AcDbEntity
  8
CSLAYER1
  6
CONTINUOUS
 62
     3
100
AcDbLine
 10
237.8280799999999
 20
105.972037
 30
0.0
 11
226.8280799999998
 21
105.972037
 31
0.0
  0
ARC
  5
17A
330
1E
100
AcDbEntity
  8
CSLAYER1
  6
CONTINUOUS
 62
     3
100
AcDbCircle
 10
226.8280799999998
 20
107.972037
 30
0.0
 40
2.0
100
AcDbArc
 50
180.0
 51
270.0
  0
LINE
  5
17B
330
1E
100
AcDbEntity
  8
CSLAYER1
  6
CONTINUOUS
 62
     3
100
AcDbLine
 10
224.8280799999999
 20
107.972037
 30
0.0
 11
224.8280799999999
 21
118.776678
 31
0.0
  0
CIRCLE
  5
17C
330
1E
100
AcDbEntity
  8
CSLAYER1
  6
CONTINUOUS
 62
     3
100
AcDbCircle
 10
214.8280799999999
 20
114.276678
 30
0.0
 40
1.649999999999999
  0
LINE
  5
17D
330
1E
100
AcDbEntity
  8
CSLAYER1
  6
CONTINUOUS
 62
     3
100
AcDbLine
 10
238.8280799999999
 20
118.476678
 30
0.0
 11
239.12808
 21
118.776678
 31
0.0
  0
LINE
  5
17E
330
1E
100
AcDbEntity
  8
CSLAYER1
  6
CONTINUOUS
 62
     3
100
AcDbLine
 10
239.12808
 20
118.776678
 30
0.0
 11
257.32808
 21
118.776678
 31
0.0
  0
LINE
  5
17F
330
1E
100
AcDbEntity
  8
CSLAYER1
  6
CONTINUOUS
 62
     3
100
AcDbLine
 10
257.32808
 20
109.776678
 30
0.0
 11
258.82808
 21
108.276678
 31
0.0
  0
LINE
  5
180
330
1E
100
AcDbEntity
  8
CSLAYER1
  6
CONTINUOUS
 62
     3
100
AcDbLine
 10
238.8280799999999
 20
104.972037
 30
0.0
 11
237.8280799999999
 21
105.972037
 31
0.0
  0
LINE
  5
181
330
1E
100
AcDbEntity
  8
CSLAYER1
  6
CONTINUOUS
 62
     3
100
AcDbLine
 10
238.8280799999999
 20
118.776678
 30
0.0
 11
238.8280799999999
 21
73.77667800000001
 31
0.0
  0
LINE
  5
182
330
1E
100
AcDbEntity
  8
CSLAYER1
  6
CONTINUOUS
 62
     3
100
AcDbLine
 10
238.8280799999999
 20
73.77667800000001
 30
0.0
 11
153.82808
 21
73.77667800000001
 31
0.0
  0
LINE
  5
183
330
1E
100
AcDbEntity
  8
CSLAYER1
  6
CONTINUOUS
 62
     3
100
AcDbLine
 10
153.82808
 20
73.77667800000001
 30
0.0
 11
153.82808
 21
90.27667800000001
 31
0.0
  0
LINE
  5
184
330
1E
100
AcDbEntity
  8
CSLAYER1
  6
CONTINUOUS
 62
     3
100
AcDbLine
 10
162.02808
 20
90.27667800000001
 30
0.0
 11
162.02808
 21
102.2766779999999
 31
0.0
  0
LINE
  5
185
330
1E
100
AcDbEntity
  8
CSLAYER1
  6
CONTINUOUS
 62
     3
100
AcDbLine
 10
162.02808
 20
102.2766779999999
 30
0.0
 11
129.82808
 21
102.2766779999999
 31
0.0
  0
LINE
  5
186
330
1E
100
AcDbEntity
  8
CSLAYER1
  6
CONTINUOUS
 62
     3
100
AcDbLine
 10
129.82808
 20
102.2766779999999
 30
0.0
 11
129.82808
 21
109.276678
 31
0.0
  0
LINE
  5
187
330
1E
100
AcDbEntity
  8
CSLAYER1
  6
CONTINUOUS
 62
     3
100
AcDbLine
 10
129.82808
 20
109.276678
 30
0.0
 11
140.571006
 21
109.276678
 31
0.0
  0
ARC
  5
188
330
1E
100
AcDbEntity
  8
CSLAYER1
  6
CONTINUOUS
 62
     3
100
AcDbCircle
 10
140.571006
 20
123.276678
 30
0.0
 40
14.0
100
AcDbArc
 50
270.0
 51
341.250659
  0
LINE
  5
189
330
1E
100
AcDbEntity
  8
CSLAYER1
  6
CONTINUOUS
 62
     3
100
AcDbLine
 10
153.82808
 20
118.776678
 30
0.0
 11
238.8280799999999
 21
118.776678
 31
0.0
  0
LINE
  5
18A
330
1E
100
AcDbEntity
  8
CSLAYER1
  6
CONTINUOUS
 62
     3
100
AcDbLine
 10
237.8280799999999
 20
86.58131800000003
 30
0.0
 11
226.8280799999998
 21
86.58131800000003
 31
0.0
  0
ARC
  5
18B
330
1E
100
AcDbEntity
  8
CSLAYER1
  6
CONTINUOUS
 62
     3
100
AcDbCircle
 10
226.8280799999998
 20
84.58131800000002
 30
0.0
 40
2.0
100
AcDbArc
 50
90.0
 51
180.0
  0
LINE
  5
18C
330
1E
100
AcDbEntity
  8
CSLAYER1
  6
CONTINUOUS
 62
     3
100
AcDbLine
 10
224.8280799999999
 20
84.58131800000002
 30
0.0
 11
224.8280799999999
 21
73.77667800000001
 31
0.0
  0
LINE
  5
18D
330
1E
100
AcDbEntity
  8
CSLAYER1
  6
CONTINUOUS
 62
     3
100
AcDbLine
 10
238.8280799999999
 20
74.076678
 30
0.0
 11
239.12808
 21
73.77667800000001
 31
0.0
  0
LINE
  5
18E
330
1E
100
AcDbEntity
  8
CSLAYER1
  6
CONTINUOUS
 62
     3
100
AcDbLine
 10
239.12808
 20
73.77667800000001
 30
0.0
 11
257.32808
 21
73.77667800000001
 31
0.0
  0
CIRCLE
  5
18F
330
1E
100
AcDbEntity
  8
CSLAYER1
  6
CONTINUOUS
 62
     3
100
AcDbCircle
 10
214.8280799999999
 20
78.276678
 30
0.0
 40
1.649999999999999
  0
LINE
  5
190
330
1E
100
AcDbEntity
  8
CSLAYER1
  6
CONTINUOUS
 62
     3
100
AcDbLine
 10
209.8280799999999
 20
73.77667800000001
 30
0.0
 11
209.8280799999999
 21
118.776678
 31
0.0
  0
LINE
  5
191
330
1E
100
AcDbEntity
  8
CSLAYER1
  6
CONTINUOUS
 62
     3
100
AcDbLine
 10
184.8280799999999
 20
118.776678
 30
0.0
 11
184.8280799999999
 21
73.77667800000001
 31
0.0
  0
ARC
  5
192
330
1E
100
AcDbEntity
  8
CSLAYER1
  6
CONTINUOUS
 62
     3
100
AcDbCircle
 10
140.571006
 20
69.276678
 30
0.0
 40
14.0
100
AcDbArc
 50
18.749341
 51
90.0
  0
LINE
  5
193
330
1E
100
AcDbEntity
  8
CSLAYER1
  6
CONTINUOUS
 62
     3
100
AcDbLine
 10
140.571006
 20
83.276678
 30
0.0
 11
129.82808
 21
83.276678
 31
0.0
  0
LINE
  5
194
330
1E
100
AcDbEntity
  8
CSLAYER1
  6
CONTINUOUS
 62
     3
100
AcDbLine
 10
129.82808
 20
83.276678
 30
0.0
 11
129.82808
 21
90.27667800000001
 31
0.0
  0
LINE
  5
195
330
1E
100
AcDbEntity
  8
CSLAYER1
  6
CONTINUOUS
 62
     3
100
AcDbLine
 10
129.82808
 20
90.27667800000001
 30
0.0
 11
162.02808
 21
90.27667800000001
 31
0.0
  0
LINE
  5
196
330
1E
100
AcDbEntity
  8
CSLAYER1
  6
CONTINUOUS
 62
     3
100
AcDbLine
 10
144.239025
 20
82.787623
 30
0.0
 11
144.02808
 21
82.576678
 31
0.0
  0
LINE
  5
197
330
1E
100
AcDbEntity
  8
CSLAYER1
  6
CONTINUOUS
 62
     3
100
AcDbLine
 10
144.02808
 20
82.576678
 30
0.0
 11
133.62808
 21
82.576678
 31
0.0
  0
LINE
  5
198
330
1E
100
AcDbEntity
  8
CSLAYER1
  6
CONTINUOUS
 62
     3
100
AcDbLine
 10
133.62808
 20
82.576678
 30
0.0
 11
133.32808
 21
82.87667799999999
 31
0.0
  0
LINE
  5
199
330
1E
100
AcDbEntity
  8
CSLAYER1
  6
CONTINUOUS
 62
     3
100
AcDbLine
 10
133.32808
 20
82.87667799999999
 30
0.0
 11
133.32808
 21
83.276678
 31
0.0
  0
LINE
  5
19A
330
1E
100
AcDbEntity
  8
CSLAYER1
  6
CONTINUOUS
 62
     3
100
AcDbLine
 10
133.32808
 20
82.87667799999999
 30
0.0
 11
143.8936559999999
 21
82.87667799999999
 31
0.0
  0
ARC
  5
19B
330
1E
100
AcDbEntity
  8
CSLAYER1
  6
CONTINUOUS
 62
     3
100
AcDbCircle
 10
141.42808
 20
81.576678
 30
0.0
 40
0.5
100
AcDbArc
 50
270.0
 51
90.0
  0
LINE
  5
19C
330
1E
100
AcDbEntity
  8
CSLAYER1
  6
CONTINUOUS
 62
     3
100
AcDbLine
 10
141.42808
 20
81.07667799999999
 30
0.0
 11
137.4280799999999
 21
81.07667799999999
 31
0.0
  0
ARC
  5
19D
330
1E
100
AcDbEntity
  8
CSLAYER1
  6
CONTINUOUS
 62
     3
100
AcDbCircle
 10
137.4280799999999
 20
81.576678
 30
0.0
 40
0.5
100
AcDbArc
 50
90.0
 51
270.0
  0
LINE
  5
19E
330
1E
100
AcDbEntity
  8
CSLAYER1
  6
CONTINUOUS
 62
     3
100
AcDbLine
 10
137.4280799999999
 20
82.07667800000001
 30
0.0
 11
141.42808
 21
82.07667800000001
 31
0.0
  0
LINE
  5
19F
330
1E
100
AcDbEntity
  8
CSLAYER1
  6
CONTINUOUS
 62
     3
100
AcDbLine
 10
140.8280799999999
 20
82.07667800000001
 30
0.0
 11
140.8280799999999
 21
82.576678
 31
0.0
  0
LINE
  5
1A0
330
1E
100
AcDbEntity
  8
CSLAYER1
  6
CONTINUOUS
 62
     3
100
AcDbLine
 10
140.8280799999999
 20
81.07667799999999
 30
0.0
 11
140.8280799999999
 21
80.27667800000001
 31
0.0
  0
LINE
  5
1A1
330
1E
100
AcDbEntity
  8
CSLAYER1
  6
CONTINUOUS
 62
     3
100
AcDbLine
 10
140.8280799999999
 20
80.27667800000001
 30
0.0
 11
140.32808
 21
79.776678
 31
0.0
  0
LINE
  5
1A2
330
1E
100
AcDbEntity
  8
CSLAYER1
  6
CONTINUOUS
 62
     3
100
AcDbLine
 10
140.32808
 20
79.776678
 30
0.0
 11
137.32808
 21
79.776678
 31
0.0
  0
LINE
  5
1A3
330
1E
100
AcDbEntity
  8
CSLAYER1
  6
CONTINUOUS
 62
     3
100
AcDbLine
 10
137.32808
 20
79.776678
 30
0.0
 11
136.8280799999999
 21
80.27667800000001
 31
0.0
  0
LINE
  5
1A4
330
1E
100
AcDbEntity
  8
CSLAYER1
  6
CONTINUOUS
 62
     3
100
AcDbLine
 10
136.8280799999999
 20
80.27667800000001
 30
0.0
 11
136.8280799999999
 21
82.576678
 31
0.0
  0
ARC
  5
1A5
330
1E
100
AcDbEntity
  8
CSLAYER1
  6
CONTINUOUS
 62
     3
100
AcDbCircle
 10
138.8280799999999
 20
81.576678
 30
0.0
 40
0.6
100
AcDbArc
 50
56.44269000000001
 51
123.55731
  0
ARC
  5
1A6
330
1E
100
AcDbEntity
  8
CSLAYER1
  6
CONTINUOUS
 62
     3
100
AcDbCircle
 10
138.8280799999999
 20
81.576678
 30
0.0
 40
0.6
100
AcDbArc
 50
236.44269
 51
303.55731
  0
LINE
  5
1A7
330
1E
100
AcDbEntity
  8
CSLAYER1
  6
CONTINUOUS
 62
     3
100
AcDbLine
 10
136.8280799999999
 20
80.27667800000001
 30
0.0
 11
140.8280799999999
 21
80.27667800000001
 31
0.0
  0
LINE
  5
1A8
330
1E
100
AcDbEntity
  8
CSLAYER1
  6
CONTINUOUS
 62
     3
100
AcDbLine
 10
140.8280799999999
 20
90.27667800000001
 30
0.0
 11
140.8280799999999
 21
102.2766779999999
 31
0.0
  0
LINE
  5
1A9
330
1E
100
AcDbEntity
  8
CSLAYER1
  6
CONTINUOUS
 62
     3
100
AcDbLine
 10
136.8280799999999
 20
102.2766779999999
 30
0.0
 11
136.8280799999999
 21
90.27667800000001
 31
0.0
  0
LINE
  5
1AA
330
1E
100
AcDbEntity
  8
CSLAYER1
  6
CONTINUOUS
 62
     3
100
AcDbLine
 10
133.32808
 20
109.276678
 30
0.0
 11
133.32808
 21
109.676678
 31
0.0
  0
LINE
  5
1AB
330
1E
100
AcDbEntity
  8
CSLAYER1
  6
CONTINUOUS
 62
     3
100
AcDbLine
 10
133.32808
 20
109.676678
 30
0.0
 11
133.62808
 21
109.976678
 31
0.0
  0
LINE
  5
1AC
330
1E
100
AcDbEntity
  8
CSLAYER1
  6
CONTINUOUS
 62
     3
100
AcDbLine
 10
133.62808
 20
109.976678
 30
0.0
 11
144.02808
 21
109.976678
 31
0.0
  0
LINE
  5
1AD
330
1E
100
AcDbEntity
  8
CSLAYER1
  6
CONTINUOUS
 62
     3
100
AcDbLine
 10
144.02808
 20
109.976678
 30
0.0
 11
144.239025
 21
109.765733
 31
0.0
  0
LINE
  5
1AE
330
1E
100
AcDbEntity
  8
CSLAYER1
  6
CONTINUOUS
 62
     3
100
AcDbLine
 10
143.8936559999999
 20
109.676678
 30
0.0
 11
133.32808
 21
109.676678
 31
0.0
  0
LINE
  5
1AF
330
1E
100
AcDbEntity
  8
CSLAYER1
  6
CONTINUOUS
 62
     3
100
AcDbLine
 10
136.8280799999999
 20
109.976678
 30
0.0
 11
136.8280799999999
 21
112.276678
 31
0.0
  0
LINE
  5
1B0
330
1E
100
AcDbEntity
  8
CSLAYER1
  6
CONTINUOUS
 62
     3
100
AcDbLine
 10
136.8280799999999
 20
112.276678
 30
0.0
 11
137.32808
 21
112.7766779999999
 31
0.0
  0
LINE
  5
1B1
330
1E
100
AcDbEntity
  8
CSLAYER1
  6
CONTINUOUS
 62
     3
100
AcDbLine
 10
137.32808
 20
112.7766779999999
 30
0.0
 11
140.32808
 21
112.7766779999999
 31
0.0
  0
LINE
  5
1B2
330
1E
100
AcDbEntity
  8
CSLAYER1
  6
CONTINUOUS
 62
     3
100
AcDbLine
 10
140.32808
 20
112.7766779999999
 30
0.0
 11
140.8280799999999
 21
112.276678
 31
0.0
  0
LINE
  5
1B3
330
1E
100
AcDbEntity
  8
CSLAYER1
  6
CONTINUOUS
 62
     3
100
AcDbLine
 10
140.8280799999999
 20
112.276678
 30
0.0
 11
136.8280799999999
 21
112.276678
 31
0.0
  0
CIRCLE
  5
1B4
330
1E
100
AcDbEntity
  8
CSLAYER1
  6
CONTINUOUS
 62
     3
100
AcDbCircle
 10
138.8280799999999
 20
110.976678
 30
0.0
 40
0.6
  0
CIRCLE
  5
1B5
330
1E
100
AcDbEntity
  8
CSLAYER1
  6
CONTINUOUS
 62
     3
100
AcDbCircle
 10
138.8280799999999
 20
110.976678
 30
0.0
 40
0.5
  0
LINE
  5
1B6
330
1E
100
AcDbEntity
  8
CSLAYER1
  6
CONTINUOUS
 62
     3
100
AcDbLine
 10
140.32808
 20
111.476678
 30
0.0
 11
142.024053
 21
111.476678
 31
0.0
  0
CIRCLE
  5
1B7
330
1E
100
AcDbEntity
  8
CSLAYER1
  6
CONTINUOUS
 62
     3
100
AcDbCircle
 10
142.024053
 20
110.976678
 30
0.0
 40
0.5
  0
LINE
  5
1B8
330
1E
100
AcDbEntity
  8
CSLAYER1
  6
CONTINUOUS
 62
     3
100
AcDbLine
 10
142.024053
 20
110.476678
 30
0.0
 11
140.32808
 21
110.476678
 31
0.0
  0
ARC
  5
1B9
330
1E
100
AcDbEntity
  8
CSLAYER1
  6
CONTINUOUS
 62
     3
100
AcDbCircle
 10
140.32808
 20
110.976678
 30
0.0
 40
0.5
100
AcDbArc
 50
90.0
 51
270.0
  0
LINE
  5
1BA
330
1E
100
AcDbEntity
  8
CSLAYER1
  6
CONTINUOUS
 62
     3
100
AcDbLine
 10
140.8280799999999
 20
111.476678
 30
0.0
 11
140.8280799999999
 21
112.276678
 31
0.0
  0
LINE
  5
1BB
330
1E
100
AcDbEntity
  8
CSLAYER1
  6
CONTINUOUS
 62
     3
100
AcDbLine
 10
140.8280799999999
 20
110.476678
 30
0.0
 11
140.8280799999999
 21
109.976678
 31
0.0
  0
LINE
  5
1BC
330
1E
100
AcDbEntity
  8
CSLAYER1
  6
CONTINUOUS
 62
     3
100
AcDbLine
 10
153.82808
 20
102.2766779999999
 30
0.0
 11
153.82808
 21
118.776678
 31
0.0
  0
CIRCLE
  5
1BD
330
1E
100
AcDbEntity
  8
CSLAYER1
  6
CONTINUOUS
 62
     3
100
AcDbCircle
 10
174.82808
 20
114.276678
 30
0.0
 40
1.649999999999999
  0
CIRCLE
  5
1BE
330
1E
100
AcDbEntity
  8
CSLAYER1
  6
CONTINUOUS
 62
     3
100
AcDbCircle
 10
174.82808
 20
78.276678
 30
0.0
 40
1.649999999999999
  0
LINE
  5
1BF
330
1E
100
AcDbEntity
  8
CSLAYER1
  6
CONTINUOUS
 62
     3
100
AcDbLine
 10
184.8280799999999
 20
165.4223919999999
 30
0.0
 11
184.8280799999999
 21
210.4223919999999
 31
0.0
  0
CIRCLE
  5
1C0
330
1E
100
AcDbEntity
  8
CSLAYER1
  6
CONTINUOUS
 62
     3
100
AcDbCircle
 10
179.82808
 20
205.9223919999999
 30
0.0
 40
1.649999999999999
  0
LINE
  5
1C1
330
1E
100
AcDbEntity
  8
CSLAYER1
  6
CONTINUOUS
 62
     3
100
AcDbLine
 10
153.82808
 20
210.4223919999999
 30
0.0
 11
238.8280799999999
 21
210.4223919999999
 31
0.0
  0
LINE
  5
1C2
330
1E
100
AcDbEntity
  8
CSLAYER1
  6
CONTINUOUS
 62
     3
100
AcDbLine
 10
238.8280799999999
 20
210.4223919999999
 30
0.0
 11
238.8280799999999
 21
165.4223919999999
 31
0.0
  0
LINE
  5
1C3
330
1E
100
AcDbEntity
  8
CSLAYER1
  6
CONTINUOUS
 62
     3
100
AcDbLine
 10
238.8280799999999
 20
165.4223919999999
 30
0.0
 11
153.82808
 21
165.4223919999999
 31
0.0
  0
LINE
  5
1C4
330
1E
100
AcDbEntity
  8
CSLAYER1
  6
CONTINUOUS
 62
     3
100
AcDbLine
 10
153.82808
 20
165.4223919999999
 30
0.0
 11
129.82808
 21
177.9223919999999
 31
0.0
  0
LINE
  5
1C5
330
1E
100
AcDbEntity
  8
CSLAYER1
  6
CONTINUOUS
 62
     3
100
AcDbLine
 10
129.82808
 20
177.9223919999999
 30
0.0
 11
129.82808
 21
197.922392
 31
0.0
  0
LINE
  5
1C6
330
1E
100
AcDbEntity
  8
CSLAYER1
  6
CONTINUOUS
 62
     3
100
AcDbLine
 10
129.82808
 20
197.922392
 30
0.0
 11
153.82808
 21
210.4223919999999
 31
0.0
  0
LINE
  5
1C7
330
1E
100
AcDbEntity
  8
CSLAYER1
  6
CONTINUOUS
 62
     3
100
AcDbLine
 10
153.82808
 20
210.4223919999999
 30
0.0
 11
153.82808
 21
165.4223919999999
 31
0.0
  0
LINE
  5
1C8
330
1E
100
AcDbEntity
  8
CSLAYER1
  6
CONTINUOUS
 62
     3
100
AcDbLine
 10
141.758009
 20
181.6223919999999
 30
0.0
 11
140.4992179999998
 21
183.122561
 31
0.0
  0
ARC
  5
1C9
330
1E
100
AcDbEntity
  8
CSLAYER1
  6
CONTINUOUS
 62
     3
100
AcDbCircle
 10
142.696736
 20
184.966498
 30
0.0
 40
2.868656
100
AcDbArc
 50
142.617917
 51
220.0
  0
ARC
  5
1CA
330
1E
100
AcDbEntity
  8
CSLAYER1
  6
CONTINUOUS
 62
     3
100
AcDbCircle
 10
138.8280799999999
 20
187.922392
 30
0.0
 40
3.0
100
AcDbArc
 50
322.6179169999999
 51
38.156077
  0
ARC
  5
1CB
330
1E
100
AcDbEntity
  8
CSLAYER1
  6
CONTINUOUS
 62
     3
100
AcDbCircle
 10
142.759733
 20
191.0114209999999
 30
0.0
 40
2.0
100
AcDbArc
 50
139.693036
 51
218.156077
  0
ARC
  5
1CC
330
1E
100
AcDbEntity
  8
CSLAYER1
  6
CONTINUOUS
 62
     3
100
AcDbCircle
 10
139.32808
 20
193.922392
 30
0.0
 40
2.5
100
AcDbArc
 50
319.693036
 51
235.150095
  0
ARC
  5
1CD
330
1E
100
AcDbEntity
  8
CSLAYER1
  6
CONTINUOUS
 62
     3
100
AcDbCircle
 10
137.32808
 20
191.050111
 30
0.0
 40
1.0
100
AcDbArc
 50
0.0
 51
55.15009499999999
  0
LINE
  5
1CE
330
1E
100
AcDbEntity
  8
CSLAYER1
  6
CONTINUOUS
 62
     3
100
AcDbLine
 10
138.32808
 20
191.050111
 30
0.0
 11
138.32808
 21
189.858884
 31
0.0
  0
LINE
  5
1CF
330
1E
100
AcDbEntity
  8
CSLAYER1
  6
CONTINUOUS
 62
     3
100
AcDbLine
 10
139.32808
 20
189.858884
 30
0.0
 11
139.32808
 21
191.631104
 31
0.0
  0
ARC
  5
1D0
330
1E
100
AcDbEntity
  8
CSLAYER1
  6
CONTINUOUS
 62
     3
100
AcDbCircle
 10
138.32808
 20
191.631104
 30
0.0
 40
1.0
100
AcDbArc
 50
0.0
 51
66.42182199999999
  0
ARC
  5
1D1
330
1E
100
AcDbEntity
  8
CSLAYER1
  6
CONTINUOUS
 62
     3
100
AcDbCircle
 10
139.32808
 20
193.922392
 30
0.0
 40
1.5
100
AcDbArc
 50
319.693036
 51
246.421822
  0
ARC
  5
1D2
330
1E
100
AcDbEntity
  8
CSLAYER1
  6
CONTINUOUS
 62
     3
100
AcDbCircle
 10
142.759733
 20
191.0114209999999
 30
0.0
 40
3.0
100
AcDbArc
 50
139.693036
 51
218.156077
  0
CIRCLE
  5
1D3
330
1E
100
AcDbEntity
  8
CSLAYER1
  6
CONTINUOUS
 62
     3
100
AcDbCircle
 10
138.8280799999999
 20
187.922392
 30
0.0
 40
1.5
  0
CIRCLE
  5
1D4
330
1E
100
AcDbEntity
  8
CSLAYER1
  6
CONTINUOUS
 62
     3
100
AcDbCircle
 10
138.8280799999999
 20
187.922392
 30
0.0
 40
2.0
  0
LINE
  5
1D5
330
1E
100
AcDbEntity
  8
CSLAYER1
  6
CONTINUOUS
 62
     3
100
AcDbLine
 10
139.32808
 20
185.9858999999999
 30
0.0
 11
139.32808
 21
180.1223919999999
 31
0.0
  0
LINE
  5
1D6
330
1E
100
AcDbEntity
  8
CSLAYER1
  6
CONTINUOUS
 62
     3
100
AcDbLine
 10
139.32808
 20
180.1223919999999
 30
0.0
 11
138.32808
 21
180.1223919999999
 31
0.0
  0
LINE
  5
1D7
330
1E
100
AcDbEntity
  8
CSLAYER1
  6
CONTINUOUS
 62
     3
100
AcDbLine
 10
138.32808
 20
180.1223919999999
 30
0.0
 11
138.32808
 21
185.9858999999999
 31
0.0
  0
ARC
  5
1D8
330
1E
100
AcDbEntity
  8
CSLAYER1
  6
CONTINUOUS
 62
     3
100
AcDbCircle
 10
142.696736
 20
184.966498
 30
0.0
 40
1.868656
100
AcDbArc
 50
142.617917
 51
220.0
  0
LINE
  5
1D9
330
1E
100
AcDbEntity
  8
CSLAYER1
  6
CONTINUOUS
 62
     3
100
AcDbLine
 10
141.265262
 20
183.7653479999999
 30
0.0
 11
142.524053
 21
182.26518
 31
0.0
  0
LINE
  5
1DA
330
1E
100
AcDbEntity
  8
CSLAYER1
  6
CONTINUOUS
 62
     3
100
AcDbLine
 10
142.524053
 20
182.26518
 30
0.0
 11
141.758009
 21
181.6223919999999
 31
0.0
  0
ARC
  5
1DB
330
1E
100
AcDbEntity
  8
CSLAYER1
  6
CONTINUOUS
 62
     3
100
AcDbCircle
 10
138.8280799999999
 20
187.922392
 30
0.0
 40
5.5
100
AcDbArc
 50
275.215909
 51
290.840375
  0
ARC
  5
1DC
330
1E
100
AcDbEntity
  8
CSLAYER1
  6
CONTINUOUS
 62
     3
100
AcDbCircle
 10
138.8280799999999
 20
187.922392
 30
0.0
 40
5.2
100
AcDbArc
 50
275.5177339999999
 51
289.687774
  0
ARC
  5
1DD
330
1E
100
AcDbEntity
  8
CSLAYER1
  6
CONTINUOUS
 62
     3
100
AcDbCircle
 10
138.8280799999999
 20
187.922392
 30
0.0
 40
5.2
100
AcDbArc
 50
301.0931749999999
 51
60.87263499999998
  0
ARC
  5
1DE
330
1E
100
AcDbEntity
  8
CSLAYER1
  6
CONTINUOUS
 62
     3
100
AcDbCircle
 10
138.8280799999999
 20
187.922392
 30
0.0
 40
5.5
100
AcDbArc
 50
301.582631
 51
60.70380099999999
  0
ARC
  5
1DF
330
1E
100
AcDbEntity
  8
CSLAYER1
  6
CONTINUOUS
 62
     3
100
AcDbCircle
 10
138.8280799999999
 20
187.922392
 30
0.0
 40
5.2
100
AcDbArc
 50
109.600082
 51
264.482266
  0
ARC
  5
1E0
330
1E
100
AcDbEntity
  8
CSLAYER1
  6
CONTINUOUS
 62
     3
100
AcDbCircle
 10
138.8280799999999
 20
187.922392
 30
0.0
 40
5.5
100
AcDbArc
 50
109.7689149999999
 51
264.7840909999999
  0
ARC
  5
1E1
330
1E
100
AcDbEntity
  8
CSLAYER1
  6
CONTINUOUS
 62
     3
100
AcDbCircle
 10
138.8280799999999
 20
187.922392
 30
0.0
 40
5.2
100
AcDbArc
 50
72.29366999999998
 51
98.11967199999999
  0
ARC
  5
1E2
330
1E
100
AcDbEntity
  8
CSLAYER1
  6
CONTINUOUS
 62
     3
100
AcDbCircle
 10
138.8280799999999
 20
187.922392
 30
0.0
 40
5.5
100
AcDbArc
 50
71.195319
 51
99.277397
  0
CIRCLE
  5
1E3
330
1E
100
AcDbEntity
  8
CSLAYER1
  6
CONTINUOUS
 62
     3
100
AcDbCircle
 10
179.82808
 20
169.922392
 30
0.0
 40
1.649999999999999
  0
LINE
  5
1E4
330
1E
100
AcDbEntity
  8
CSLAYER1
  6
CONTINUOUS
 62
     3
100
AcDbLine
 10
209.8280799999999
 20
165.4223919999999
 30
0.0
 11
209.8280799999999
 21
210.4223919999999
 31
0.0
  0
CIRCLE
  5
1E5
330
1E
100
AcDbEntity
  8
CSLAYER1
  6
CONTINUOUS
 62
     3
100
AcDbCircle
 10
219.8280799999999
 20
205.9223919999999
 30
0.0
 40
1.649999999999999
  0
LINE
  5
1E6
330
1E
100
AcDbEntity
  8
CSLAYER1
  6
CONTINUOUS
 62
     3
100
AcDbLine
 10
224.8280799999999
 20
210.4223919999999
 30
0.0
 11
224.8280799999999
 21
199.6177519999999
 31
0.0
  0
ARC
  5
1E7
330
1E
100
AcDbEntity
  8
CSLAYER1
  6
CONTINUOUS
 62
     3
100
AcDbCircle
 10
226.8280799999998
 20
199.6177519999999
 30
0.0
 40
2.0
100
AcDbArc
 50
180.0
 51
270.0
  0
LINE
  5
1E8
330
1E
100
AcDbEntity
  8
CSLAYER1
  6
CONTINUOUS
 62
     3
100
AcDbLine
 10
226.8280799999998
 20
197.617752
 30
0.0
 11
237.8280799999999
 21
197.617752
 31
0.0
  0
LINE
  5
1E9
330
1E
100
AcDbEntity
  8
CSLAYER1
  6
CONTINUOUS
 62
     3
100
AcDbLine
 10
237.8280799999999
 20
197.617752
 30
0.0
 11
238.8280799999999
 21
196.617752
 31
0.0
  0
LINE
  5
1EA
330
1E
100
AcDbEntity
  8
CSLAYER1
  6
CONTINUOUS
 62
     3
100
AcDbLine
 10
237.8280799999999
 20
197.617752
 30
0.0
 11
237.8280799999999
 21
178.227032
 31
0.0
  0
LINE
  5
1EB
330
1E
100
AcDbEntity
  8
CSLAYER1
  6
CONTINUOUS
 62
     3
100
AcDbLine
 10
237.8280799999999
 20
178.227032
 30
0.0
 11
226.8280799999998
 21
178.227032
 31
0.0
  0
ARC
  5
1EC
330
1E
100
AcDbEntity
  8
CSLAYER1
  6
CONTINUOUS
 62
     3
100
AcDbCircle
 10
226.8280799999998
 20
176.227032
 30
0.0
 40
2.0
100
AcDbArc
 50
90.0
 51
180.0
  0
LINE
  5
1ED
330
1E
100
AcDbEntity
  8
CSLAYER1
  6
CONTINUOUS
 62
     3
100
AcDbLine
 10
224.8280799999999
 20
176.227032
 30
0.0
 11
224.8280799999999
 21
165.4223919999999
 31
0.0
  0
CIRCLE
  5
1EE
330
1E
100
AcDbEntity
  8
CSLAYER1
  6
CONTINUOUS
 62
     3
100
AcDbCircle
 10
219.8280799999999
 20
169.922392
 30
0.0
 40
1.649999999999999
  0
LINE
  5
1EF
330
1E
100
AcDbEntity
  8
CSLAYER1
  6
CONTINUOUS
 62
     3
100
AcDbLine
 10
238.8280799999999
 20
165.7223919999998
 30
0.0
 11
239.12808
 21
165.4223919999999
 31
0.0
  0
LINE
  5
1F0
330
1E
100
AcDbEntity
  8
CSLAYER1
  6
CONTINUOUS
 62
     3
100
AcDbLine
 10
239.12808
 20
165.4223919999999
 30
0.0
 11
243.8280799999999
 21
165.4223919999999
 31
0.0
  0
LINE
  5
1F1
330
1E
100
AcDbEntity
  8
CSLAYER1
  6
CONTINUOUS
 62
     3
100
AcDbLine
 10
243.8280799999999
 20
165.4223919999999
 30
0.0
 11
243.8280799999999
 21
167.922392
 31
0.0
  0
ARC
  5
1F2
330
1E
100
AcDbEntity
  8
CSLAYER1
  6
CONTINUOUS
 62
     3
100
AcDbCircle
 10
245.8280799999999
 20
167.922392
 30
0.0
 40
2.0
100
AcDbArc
 50
90.0
 51
180.0
  0
LINE
  5
1F3
330
1E
100
AcDbEntity
  8
CSLAYER1
  6
CONTINUOUS
 62
     3
100
AcDbLine
 10
245.8280799999999
 20
169.922392
 30
0.0
 11
257.32808
 21
169.922392
 31
0.0
  0
LINE
  5
1F4
330
1E
100
AcDbEntity
  8
CSLAYER1
  6
CONTINUOUS
 62
     3
100
AcDbLine
 10
257.32808
 20
169.922392
 30
0.0
 11
257.32808
 21
205.9223919999999
 31
0.0
  0
LINE
  5
1F5
330
1E
100
AcDbEntity
  8
CSLAYER1
  6
CONTINUOUS
 62
     3
100
AcDbLine
 10
257.32808
 20
205.9223919999999
 30
0.0
 11
245.8280799999999
 21
205.9223919999999
 31
0.0
  0
ARC
  5
1F6
330
1E
100
AcDbEntity
  8
CSLAYER1
  6
CONTINUOUS
 62
     3
100
AcDbCircle
 10
245.8280799999999
 20
207.922392
 30
0.0
 40
2.0
100
AcDbArc
 50
180.0
 51
270.0
  0
LINE
  5
1F7
330
1E
100
AcDbEntity
  8
CSLAYER1
  6
CONTINUOUS
 62
     3
100
AcDbLine
 10
243.8280799999999
 20
207.922392
 30
0.0
 11
243.8280799999999
 21
210.4223919999999
 31
0.0
  0
LINE
  5
1F8
330
1E
100
AcDbEntity
  8
CSLAYER1
  6
CONTINUOUS
 62
     3
100
AcDbLine
 10
243.8280799999999
 20
210.4223919999999
 30
0.0
 11
239.12808
 21
210.4223919999999
 31
0.0
  0
LINE
  5
1F9
330
1E
100
AcDbEntity
  8
CSLAYER1
  6
CONTINUOUS
 62
     3
100
AcDbLine
 10
239.12808
 20
210.4223919999999
 30
0.0
 11
238.8280799999999
 21
210.1223919999999
 31
0.0
  0
LINE
  5
1FA
330
1E
100
AcDbEntity
  8
CSLAYER1
  6
CONTINUOUS
 62
     3
100
AcDbLine
 10
257.32808
 20
205.9223919999999
 30
0.0
 11
258.82808
 21
204.4223919999999
 31
0.0
  0
LINE
  5
1FB
330
1E
100
AcDbEntity
  8
CSLAYER1
  6
CONTINUOUS
 62
     3
100
AcDbLine
 10
258.82808
 20
204.4223919999999
 30
0.0
 11
258.82808
 21
171.422392
 31
0.0
  0
LINE
  5
1FC
330
1E
100
AcDbEntity
  8
CSLAYER1
  6
CONTINUOUS
 62
     3
100
AcDbLine
 10
258.82808
 20
171.422392
 30
0.0
 11
257.32808
 21
169.922392
 31
0.0
  0
LINE
  5
1FD
330
1E
100
AcDbEntity
  8
CSLAYER1
  6
CONTINUOUS
 62
     3
100
AcDbLine
 10
238.8280799999999
 20
179.227032
 30
0.0
 11
237.8280799999999
 21
178.227032
 31
0.0
  0
LINE
  5
1FE
330
1E
100
AcDbEntity
  8
CSLAYER1
  6
CONTINUOUS
 62
     3
100
AcDbLine
 10
313.007041
 20
165.4223919999999
 30
0.0
 11
358.007041
 21
165.4223919999999
 31
0.0
  0
LINE
  5
1FF
330
1E
100
AcDbEntity
  8
CSLAYER1
  6
CONTINUOUS
 62
     3
100
AcDbLine
 10
358.007041
 20
165.4223919999999
 30
0.0
 11
358.007041
 21
210.4223919999999
 31
0.0
  0
LINE
  5
200
330
1E
100
AcDbEntity
  8
CSLAYER1
  6
CONTINUOUS
 62
     3
100
AcDbLine
 10
358.007041
 20
210.4223919999999
 30
0.0
 11
313.007041
 21
210.4223919999999
 31
0.0
  0
LINE
  5
201
330
1E
100
AcDbEntity
  8
CSLAYER1
  6
CONTINUOUS
 62
     3
100
AcDbLine
 10
313.007041
 20
210.4223919999999
 30
0.0
 11
313.007041
 21
165.4223919999999
 31
0.0
  0
LINE
  5
202
330
1E
100
AcDbEntity
  8
CSLAYER1
  6
CONTINUOUS
 62
     3
100
AcDbLine
 10
322.007041
 20
169.922392
 30
0.0
 11
349.007041
 21
169.922392
 31
0.0
  0
ARC
  5
203
330
1E
100
AcDbEntity
  8
CSLAYER1
  6
CONTINUOUS
 62
     3
100
AcDbCircle
 10
335.507041
 20
187.922392
 30
0.0
 40
21.0
100
AcDbArc
 50
301.002719
 51
58.997281
  0
LINE
  5
204
330
1E
100
AcDbEntity
  8
CSLAYER1
  6
CONTINUOUS
 62
     3
100
AcDbLine
 10
349.007041
 20
205.9223919999999
 30
0.0
 11
322.007041
 21
205.9223919999999
 31
0.0
  0
ARC
  5
205
330
1E
100
AcDbEntity
  8
CSLAYER1
  6
CONTINUOUS
 62
     3
100
AcDbCircle
 10
335.507041
 20
187.922392
 30
0.0
 40
21.0
100
AcDbArc
 50
121.0027189999998
 51
238.997281
  0
CIRCLE
  5
206
330
1E
100
AcDbEntity
  8
CSLAYER1
  6
CONTINUOUS
 62
     3
100
AcDbCircle
 10
324.900439
 20
177.3157899999999
 30
0.0
 40
2.1
  0
CIRCLE
  5
207
330
1E
100
AcDbEntity
  8
CSLAYER1
  6
CONTINUOUS
 62
     3
100
AcDbCircle
 10
335.507041
 20
187.922392
 30
0.0
 40
4.25
  0
CIRCLE
  5
208
330
1E
100
AcDbEntity
  8
CSLAYER1
  6
CONTINUOUS
 62
     3
100
AcDbCircle
 10
335.507041
 20
187.922392
 30
0.0
 40
3.0
  0
CIRCLE
  5
209
330
1E
100
AcDbEntity
  8
CSLAYER1
  6
CONTINUOUS
 62
     3
100
AcDbCircle
 10
335.507041
 20
187.922392
 30
0.0
 40
22.5
  0
CIRCLE
  5
20A
330
1E
100
AcDbEntity
  8
CSLAYER1
  6
CONTINUOUS
 62
     3
100
AcDbCircle
 10
346.113643
 20
198.5289939999999
 30
0.0
 40
2.1
  0
LINE
  5
20B
330
1E
100
AcDbEntity
  8
CSLAYER1
  6
CONTINUOUS
 62
     3
100
AcDbLine
 10
85.411692
 20
210.4223919999999
 30
0.0
 11
85.411692
 21
165.4223919999999
 31
0.0
  0
LINE
  5
20C
330
1E
100
AcDbEntity
  8
CSLAYER1
  6
CONTINUOUS
 62
     3
100
AcDbLine
 10
85.411692
 20
165.4223919999999
 30
0.0
 11
40.41169199999998
 21
165.4223919999999
 31
0.0
  0
LINE
  5
20D
330
1E
100
AcDbEntity
  8
CSLAYER1
  6
CONTINUOUS
 62
     3
100
AcDbLine
 10
40.41169199999998
 20
165.4223919999999
 30
0.0
 11
40.41169199999998
 21
210.4223919999999
 31
0.0
  0
LINE
  5
20E
330
1E
100
AcDbEntity
  8
CSLAYER1
  6
CONTINUOUS
 62
     3
100
AcDbLine
 10
40.41169199999998
 20
210.4223919999999
 30
0.0
 11
85.411692
 21
210.4223919999999
 31
0.0
  0
ARC
  5
20F
330
1E
100
AcDbEntity
  8
CSLAYER1
  6
CONTINUOUS
 62
     3
100
AcDbCircle
 10
89.91169199999999
 20
197.1653179999999
 30
0.0
 40
14.0
100
AcDbArc
 50
108.7493409999999
 51
180.0
  0
LINE
  5
210
330
1E
100
AcDbEntity
  8
CSLAYER1
  6
CONTINUOUS
 62
     3
100
AcDbLine
 10
75.911692
 20
197.1653179999999
 30
0.0
 11
75.911692
 21
178.6794659999999
 31
0.0
  0
ARC
  5
211
330
1E
100
AcDbEntity
  8
CSLAYER1
  6
CONTINUOUS
 62
     3
100
AcDbCircle
 10
89.91169199999999
 20
178.6794659999999
 30
0.0
 40
14.0
100
AcDbArc
 50
180.0
 51
251.250659
  0
LINE
  5
212
330
1E
100
AcDbEntity
  8
CSLAYER1
  6
CONTINUOUS
 62
     3
100
AcDbLine
 10
75.911692
 20
177.9223919999999
 30
0.0
 11
68.911692
 21
177.9223919999999
 31
0.0
  0
LINE
  5
213
330
1E
100
AcDbEntity
  8
CSLAYER1
  6
CONTINUOUS
 62
     3
100
AcDbLine
 10
68.911692
 20
185.9223919999999
 30
0.0
 11
56.911692
 21
185.9223919999999
 31
0.0
  0
LINE
  5
214
330
1E
100
AcDbEntity
  8
CSLAYER1
  6
CONTINUOUS
 62
     3
100
AcDbLine
 10
56.911692
 20
189.922392
 30
0.0
 11
68.911692
 21
189.922392
 31
0.0
  0
LINE
  5
215
330
1E
100
AcDbEntity
  8
CSLAYER1
  6
CONTINUOUS
 62
     3
100
AcDbLine
 10
76.611692
 20
189.922392
 30
0.0
 11
78.911692
 21
189.922392
 31
0.0
  0
LINE
  5
216
330
1E
100
AcDbEntity
  8
CSLAYER1
  6
CONTINUOUS
 62
     3
100
AcDbLine
 10
78.911692
 20
189.922392
 30
0.0
 11
79.411692
 21
189.4223919999999
 31
0.0
  0
LINE
  5
217
330
1E
100
AcDbEntity
  8
CSLAYER1
  6
CONTINUOUS
 62
     3
100
AcDbLine
 10
79.411692
 20
189.4223919999999
 30
0.0
 11
79.411692
 21
186.422392
 31
0.0
  0
LINE
  5
218
330
1E
100
AcDbEntity
  8
CSLAYER1
  6
CONTINUOUS
 62
     3
100
AcDbLine
 10
79.411692
 20
186.422392
 30
0.0
 11
78.911692
 21
185.9223919999999
 31
0.0
  0
LINE
  5
219
330
1E
100
AcDbEntity
  8
CSLAYER1
  6
CONTINUOUS
 62
     3
100
AcDbLine
 10
78.911692
 20
185.9223919999999
 30
0.0
 11
76.611692
 21
185.9223919999999
 31
0.0
  0
LINE
  5
21A
330
1E
100
AcDbEntity
  8
CSLAYER1
  6
CONTINUOUS
 62
     3
100
AcDbLine
 10
77.111692
 20
185.9223919999999
 30
0.0
 11
77.111692
 21
180.1223919999999
 31
0.0
  0
LINE
  5
21B
330
1E
100
AcDbEntity
  8
CSLAYER1
  6
CONTINUOUS
 62
     3
100
AcDbLine
 10
77.111692
 20
180.1223919999999
 30
0.0
 11
78.11169200000001
 21
180.1223919999999
 31
0.0
  0
LINE
  5
21C
330
1E
100
AcDbEntity
  8
CSLAYER1
  6
CONTINUOUS
 62
     3
100
AcDbLine
 10
78.11169200000001
 20
180.1223919999999
 30
0.0
 11
78.11169200000001
 21
185.9223919999999
 31
0.0
  0
LINE
  5
21D
330
1E
100
AcDbEntity
  8
CSLAYER1
  6
CONTINUOUS
 62
     3
100
AcDbLine
 10
78.911692
 20
185.9223919999999
 30
0.0
 11
78.911692
 21
189.922392
 31
0.0
  0
LINE
  5
21E
330
1E
100
AcDbEntity
  8
CSLAYER1
  6
CONTINUOUS
 62
     3
100
AcDbLine
 10
78.11169200000001
 20
189.922392
 30
0.0
 11
78.11169200000001
 21
195.922392
 31
0.0
  0
ARC
  5
21F
330
1E
100
AcDbEntity
  8
CSLAYER1
  6
CONTINUOUS
 62
     3
100
AcDbCircle
 10
77.61169200000002
 20
195.922392
 30
0.0
 40
0.5
100
AcDbArc
 50
0.0
 51
180.0
  0
LINE
  5
220
330
1E
100
AcDbEntity
  8
CSLAYER1
  6
CONTINUOUS
 62
     3
100
AcDbLine
 10
77.111692
 20
195.922392
 30
0.0
 11
77.111692
 21
189.922392
 31
0.0
  0
LINE
  5
221
330
1E
100
AcDbEntity
  8
CSLAYER1
  6
CONTINUOUS
 62
     3
100
AcDbLine
 10
76.611692
 20
193.1223919999999
 30
0.0
 11
76.611692
 21
182.7223919999999
 31
0.0
  0
LINE
  5
222
330
1E
100
AcDbEntity
  8
CSLAYER1
  6
CONTINUOUS
 62
     3
100
AcDbLine
 10
76.611692
 20
182.7223919999999
 30
0.0
 11
76.31169200000002
 21
182.422392
 31
0.0
  0
LINE
  5
223
330
1E
100
AcDbEntity
  8
CSLAYER1
  6
CONTINUOUS
 62
     3
100
AcDbLine
 10
76.31169200000002
 20
182.422392
 30
0.0
 11
75.911692
 21
182.422392
 31
0.0
  0
LINE
  5
224
330
1E
100
AcDbEntity
  8
CSLAYER1
  6
CONTINUOUS
 62
     3
100
AcDbLine
 10
76.31169200000002
 20
182.422392
 30
0.0
 11
76.31169200000002
 21
193.4223919999999
 31
0.0
  0
LINE
  5
225
330
1E
100
AcDbEntity
  8
CSLAYER1
  6
CONTINUOUS
 62
     3
100
AcDbLine
 10
76.31169200000002
 20
193.4223919999999
 30
0.0
 11
76.611692
 21
193.1223919999999
 31
0.0
  0
LINE
  5
226
330
1E
100
AcDbEntity
  8
CSLAYER1
  6
CONTINUOUS
 62
     3
100
AcDbLine
 10
76.31169200000002
 20
193.4223919999999
 30
0.0
 11
75.911692
 21
193.4223919999999
 31
0.0
  0
LINE
  5
227
330
1E
100
AcDbEntity
  8
CSLAYER1
  6
CONTINUOUS
 62
     3
100
AcDbLine
 10
75.911692
 20
197.922392
 30
0.0
 11
68.911692
 21
197.922392
 31
0.0
  0
ARC
  5
228
330
1E
100
AcDbEntity
  8
CSLAYER1
  6
CONTINUOUS
 62
     3
100
AcDbCircle
 10
62.911692
 20
187.922392
 30
0.0
 40
19.19999999999999
100
AcDbArc
 50
71.79004300000002
 51
108.209957
  0
LINE
  5
229
330
1E
100
AcDbEntity
  8
CSLAYER1
  6
CONTINUOUS
 62
     3
100
AcDbLine
 10
56.911692
 20
210.4223919999999
 30
0.0
 11
56.911692
 21
165.4223919999999
 31
0.0
  0
ARC
  5
22A
330
1E
100
AcDbEntity
  8
CSLAYER1
  6
CONTINUOUS
 62
     3
100
AcDbCircle
 10
62.911692
 20
187.922392
 30
0.0
 40
19.19999999999999
100
AcDbArc
 50
251.790043
 51
288.2099569999998
  0
LINE
  5
22B
330
1E
100
AcDbEntity
  8
CSLAYER1
  6
CONTINUOUS
 62
     3
100
AcDbLine
 10
68.911692
 20
165.4223919999999
 30
0.0
 11
68.911692
 21
210.4223919999999
 31
0.0
  0
LINE
  5
22C
330
1E
100
AcDbEntity
  8
CSLAYER1
  6
CONTINUOUS
 62
     3
100
AcDbLine
 10
56.911692
 20
197.922392
 30
0.0
 11
49.91169199999998
 21
197.922392
 31
0.0
  0
LINE
  5
22D
330
1E
100
AcDbEntity
  8
CSLAYER1
  6
CONTINUOUS
 62
     3
100
AcDbLine
 10
49.91169199999998
 20
197.1653179999999
 30
0.0
 11
49.91169199999998
 21
178.6794659999999
 31
0.0
  0
ARC
  5
22E
330
1E
100
AcDbEntity
  8
CSLAYER1
  6
CONTINUOUS
 62
     3
100
AcDbCircle
 10
35.91169199999999
 20
178.6794659999999
 30
0.0
 40
14.0
100
AcDbArc
 50
288.749341
 51
0.0
  0
LINE
  5
22F
330
1E
100
AcDbEntity
  8
CSLAYER1
  6
CONTINUOUS
 62
     3
100
AcDbLine
 10
49.91169199999998
 20
177.9223919999999
 30
0.0
 11
56.911692
 21
177.9223919999999
 31
0.0
  0
LINE
  5
230
330
1E
100
AcDbEntity
  8
CSLAYER1
  6
CONTINUOUS
 62
     3
100
AcDbLine
 10
49.91169199999998
 20
182.422392
 30
0.0
 11
49.51169199999998
 21
182.422392
 31
0.0
  0
LINE
  5
231
330
1E
100
AcDbEntity
  8
CSLAYER1
  6
CONTINUOUS
 62
     3
100
AcDbLine
 10
49.51169199999998
 20
182.422392
 30
0.0
 11
49.51169199999998
 21
193.4223919999999
 31
0.0
  0
LINE
  5
232
330
1E
100
AcDbEntity
  8
CSLAYER1
  6
CONTINUOUS
 62
     3
100
AcDbLine
 10
49.51169199999998
 20
193.4223919999999
 30
0.0
 11
49.211692
 21
193.1223919999999
 31
0.0
  0
LINE
  5
233
330
1E
100
AcDbEntity
  8
CSLAYER1
  6
CONTINUOUS
 62
     3
100
AcDbLine
 10
49.211692
 20
193.1223919999999
 30
0.0
 11
49.211692
 21
182.7223919999999
 31
0.0
  0
LINE
  5
234
330
1E
100
AcDbEntity
  8
CSLAYER1
  6
CONTINUOUS
 62
     3
100
AcDbLine
 10
49.211692
 20
182.7223919999999
 30
0.0
 11
49.51169199999998
 21
182.422392
 31
0.0
  0
ARC
  5
235
330
1E
100
AcDbEntity
  8
CSLAYER1
  6
CONTINUOUS
 62
     3
100
AcDbCircle
 10
48.21169199999999
 20
179.922392
 30
0.0
 40
0.5
100
AcDbArc
 50
180.0
 51
0.0
  0
LINE
  5
236
330
1E
100
AcDbEntity
  8
CSLAYER1
  6
CONTINUOUS
 62
     3
100
AcDbLine
 10
47.711692
 20
179.922392
 30
0.0
 11
47.711692
 21
185.9223919999999
 31
0.0
  0
LINE
  5
237
330
1E
100
AcDbEntity
  8
CSLAYER1
  6
CONTINUOUS
 62
     3
100
AcDbLine
 10
46.911692
 20
185.9223919999999
 30
0.0
 11
46.41169199999999
 21
186.422392
 31
0.0
  0
LINE
  5
238
330
1E
100
AcDbEntity
  8
CSLAYER1
  6
CONTINUOUS
 62
     3
100
AcDbLine
 10
46.41169199999999
 20
186.422392
 30
0.0
 11
46.41169199999999
 21
189.4223919999999
 31
0.0
  0
LINE
  5
239
330
1E
100
AcDbEntity
  8
CSLAYER1
  6
CONTINUOUS
 62
     3
100
AcDbLine
 10
46.41169199999999
 20
189.4223919999999
 30
0.0
 11
46.911692
 21
189.922392
 31
0.0
  0
LINE
  5
23A
330
1E
100
AcDbEntity
  8
CSLAYER1
  6
CONTINUOUS
 62
     3
100
AcDbLine
 10
46.911692
 20
189.922392
 30
0.0
 11
46.911692
 21
185.9223919999999
 31
0.0
  0
LINE
  5
23B
330
1E
100
AcDbEntity
  8
CSLAYER1
  6
CONTINUOUS
 62
     3
100
AcDbLine
 10
46.911692
 20
185.9223919999999
 30
0.0
 11
49.211692
 21
185.9223919999999
 31
0.0
  0
LINE
  5
23C
330
1E
100
AcDbEntity
  8
CSLAYER1
  6
CONTINUOUS
 62
     3
100
AcDbLine
 10
48.711692
 20
185.9223919999999
 30
0.0
 11
48.711692
 21
179.922392
 31
0.0
  0
LINE
  5
23D
330
1E
100
AcDbEntity
  8
CSLAYER1
  6
CONTINUOUS
 62
     3
100
AcDbLine
 10
48.711692
 20
189.922392
 30
0.0
 11
48.711692
 21
195.7223919999999
 31
0.0
  0
LINE
  5
23E
330
1E
100
AcDbEntity
  8
CSLAYER1
  6
CONTINUOUS
 62
     3
100
AcDbLine
 10
48.711692
 20
195.7223919999999
 30
0.0
 11
47.711692
 21
195.7223919999999
 31
0.0
  0
LINE
  5
23F
330
1E
100
AcDbEntity
  8
CSLAYER1
  6
CONTINUOUS
 62
     3
100
AcDbLine
 10
47.711692
 20
195.7223919999999
 30
0.0
 11
47.711692
 21
189.922392
 31
0.0
  0
LINE
  5
240
330
1E
100
AcDbEntity
  8
CSLAYER1
  6
CONTINUOUS
 62
     3
100
AcDbLine
 10
46.911692
 20
189.922392
 30
0.0
 11
49.211692
 21
189.922392
 31
0.0
  0
LINE
  5
241
330
1E
100
AcDbEntity
  8
CSLAYER1
  6
CONTINUOUS
 62
     3
100
AcDbLine
 10
49.51169199999998
 20
193.4223919999999
 30
0.0
 11
49.91169199999998
 21
193.4223919999999
 31
0.0
  0
ARC
  5
242
330
1E
100
AcDbEntity
  8
CSLAYER1
  6
CONTINUOUS
 62
     3
100
AcDbCircle
 10
35.91169199999999
 20
197.1653179999999
 30
0.0
 40
14.0
100
AcDbArc
 50
0.0
 51
71.250659
  0
POINT
  5
243
330
1E
100
AcDbEntity
  8
CSLAYER1
 62
     3
100
AcDbPoint
 10
10.0
 20
3.0
 30
0.0
  0
POINT
  5
244
330
1E
100
AcDbEntity
  8
CSLAYER1
 62
     3
100
AcDbPoint
 10
365.5
 20
20.5
 30
0.0
  0
TEXT
  5
245
330
1E
100
AcDbEntity
  8
CSLAYER1
 62
     3
100
AcDbText
 10
354.3
 20
18.89999999999998
 30
0.0
 40
3.2
  1
GT-NS20
 41
1.049999999999993
  7
FX_FONT
 72
     5
 11
376.6999999999999
 21
18.89999999999998
 31
0.0
100
AcDbText
  0
POLYLINE
  5
246
330
1E
100
AcDbEntity
  8
CSLAYER1
  6
CONTINUOUS
 62
     3
100
AcDb2dPolyline
 66
     1
 10
0.0
 20
0.0
 30
0.0
  0
VERTEX
  5
247
330
246
100
AcDbEntity
  8
CSLAYER1
  6
CONTINUOUS
 62
     3
100
AcDbVertex
100
AcDb2dVertex
 10
248.8280799999999
 20
197.995821
 30
0.0
  0
VERTEX
  5
248
330
246
100
AcDbEntity
  8
CSLAYER1
  6
CONTINUOUS
 62
     3
100
AcDbVertex
100
AcDb2dVertex
 10
248.4703049999999
 20
197.979648
 30
0.0
  0
VERTEX
  5
249
330
246
100
AcDbEntity
  8
CSLAYER1
  6
CONTINUOUS
 62
     3
100
AcDbVertex
100
AcDb2dVertex
 10
248.115254
 20
197.9312529999999
 30
0.0
  0
VERTEX
  5
24A
330
246
100
AcDbEntity
  8
CSLAYER1
  6
CONTINUOUS
 62
     3
100
AcDbVertex
100
AcDb2dVertex
 10
247.765628
 20
197.851005
 30
0.0
  0
VERTEX
  5
24B
330
246
100
AcDbEntity
  8
CSLAYER1
  6
CONTINUOUS
 62
     3
100
AcDbVertex
100
AcDb2dVertex
 10
247.424087
 20
197.7395139999999
 30
0.0
  0
VERTEX
  5
24C
330
246
100
AcDbEntity
  8
CSLAYER1
  6
CONTINUOUS
 62
     3
100
AcDbVertex
100
AcDb2dVertex
 10
247.0932319999999
 20
197.597629
 30
0.0
  0
VERTEX
  5
24D
330
246
100
AcDbEntity
  8
CSLAYER1
  6
CONTINUOUS
 62
     3
100
AcDbVertex
100
AcDb2dVertex
 10
246.7755799999999
 20
197.426429
 30
0.0
  0
VERTEX
  5
24E
330
246
100
AcDbEntity
  8
CSLAYER1
  6
CONTINUOUS
 62
     3
100
AcDbVertex
100
AcDb2dVertex
 10
246.4735479999999
 20
197.227217
 30
0.0
  0
VERTEX
  5
24F
330
246
100
AcDbEntity
  8
CSLAYER1
  6
CONTINUOUS
 62
     3
100
AcDbVertex
100
AcDb2dVertex
 10
246.1894369999999
 20
197.001509
 30
0.0
  0
VERTEX
  5
250
330
246
100
AcDbEntity
  8
CSLAYER1
  6
CONTINUOUS
 62
     3
100
AcDbVertex
100
AcDb2dVertex
 10
245.925406
 20
196.751024
 30
0.0
  0
VERTEX
  5
251
330
246
100
AcDbEntity
  8
CSLAYER1
  6
CONTINUOUS
 62
     3
100
AcDbVertex
100
AcDb2dVertex
 10
245.6834669999999
 20
196.4776679999999
 30
0.0
  0
VERTEX
  5
252
330
246
100
AcDbEntity
  8
CSLAYER1
  6
CONTINUOUS
 62
     3
100
AcDbVertex
100
AcDb2dVertex
 10
245.4654609999999
 20
196.1835199999999
 30
0.0
  0
VERTEX
  5
253
330
246
100
AcDbEntity
  8
CSLAYER1
  6
CONTINUOUS
 62
     3
100
AcDbVertex
100
AcDb2dVertex
 10
245.273045
 20
195.870821
 30
0.0
  0
VERTEX
  5
254
330
246
100
AcDbEntity
  8
CSLAYER1
  6
CONTINUOUS
 62
     3
100
AcDbVertex
100
AcDb2dVertex
 10
245.107686
 20
195.5419479999999
 30
0.0
  0
VERTEX
  5
255
330
246
100
AcDbEntity
  8
CSLAYER1
  6
CONTINUOUS
 62
     3
100
AcDbVertex
100
AcDb2dVertex
 10
244.970641
 20
195.199406
 30
0.0
  0
VERTEX
  5
256
330
246
100
AcDbEntity
  8
CSLAYER1
  6
CONTINUOUS
 62
     3
100
AcDbVertex
100
AcDb2dVertex
 10
244.862954
 20
194.8458009999999
 30
0.0
  0
VERTEX
  5
257
330
246
100
AcDbEntity
  8
CSLAYER1
  6
CONTINUOUS
 62
     3
100
AcDbVertex
100
AcDb2dVertex
 10
244.7854439999999
 20
194.483825
 30
0.0
  0
VERTEX
  5
258
330
246
100
AcDbEntity
  8
CSLAYER1
  6
CONTINUOUS
 62
     3
100
AcDbVertex
100
AcDb2dVertex
 10
244.7386999999999
 20
194.116232
 30
0.0
  0
VERTEX
  5
259
330
246
100
AcDbEntity
  8
CSLAYER1
  6
CONTINUOUS
 62
     3
100
AcDbVertex
100
AcDb2dVertex
 10
244.7230799999999
 20
193.745821
 30
0.0
  0
VERTEX
  5
25A
330
246
100
AcDbEntity
  8
CSLAYER1
  6
CONTINUOUS
 62
     3
100
AcDbVertex
100
AcDb2dVertex
 10
244.7386999999999
 20
193.375409
 30
0.0
  0
VERTEX
  5
25B
330
246
100
AcDbEntity
  8
CSLAYER1
  6
CONTINUOUS
 62
     3
100
AcDbVertex
100
AcDb2dVertex
 10
244.7854439999999
 20
193.0078159999999
 30
0.0
  0
VERTEX
  5
25C
330
246
100
AcDbEntity
  8
CSLAYER1
  6
CONTINUOUS
 62
     3
100
AcDbVertex
100
AcDb2dVertex
 10
244.862954
 20
192.6458399999999
 30
0.0
  0
VERTEX
  5
25D
330
246
100
AcDbEntity
  8
CSLAYER1
  6
CONTINUOUS
 62
     3
100
AcDbVertex
100
AcDb2dVertex
 10
244.970641
 20
192.292235
 30
0.0
  0
VERTEX
  5
25E
330
246
100
AcDbEntity
  8
CSLAYER1
  6
CONTINUOUS
 62
     3
100
AcDbVertex
100
AcDb2dVertex
 10
245.107686
 20
191.949693
 30
0.0
  0
VERTEX
  5
25F
330
246
100
AcDbEntity
  8
CSLAYER1
  6
CONTINUOUS
 62
     3
100
AcDbVertex
100
AcDb2dVertex
 10
245.273045
 20
191.620821
 30
0.0
  0
VERTEX
  5
260
330
246
100
AcDbEntity
  8
CSLAYER1
  6
CONTINUOUS
 62
     3
100
AcDbVertex
100
AcDb2dVertex
 10
245.4654609999999
 20
191.3081209999999
 30
0.0
  0
VERTEX
  5
261
330
246
100
AcDbEntity
  8
CSLAYER1
  6
CONTINUOUS
 62
     3
100
AcDbVertex
100
AcDb2dVertex
 10
245.6834669999999
 20
191.013973
 30
0.0
  0
VERTEX
  5
262
330
246
100
AcDbEntity
  8
CSLAYER1
  6
CONTINUOUS
 62
     3
100
AcDbVertex
100
AcDb2dVertex
 10
245.925406
 20
190.7406169999999
 30
0.0
  0
VERTEX
  5
263
330
246
100
AcDbEntity
  8
CSLAYER1
  6
CONTINUOUS
 62
     3
100
AcDbVertex
100
AcDb2dVertex
 10
246.1894369999999
 20
190.490132
 30
0.0
  0
VERTEX
  5
264
330
246
100
AcDbEntity
  8
CSLAYER1
  6
CONTINUOUS
 62
     3
100
AcDbVertex
100
AcDb2dVertex
 10
246.4735479999999
 20
190.2644239999999
 30
0.0
  0
VERTEX
  5
265
330
246
100
AcDbEntity
  8
CSLAYER1
  6
CONTINUOUS
 62
     3
100
AcDbVertex
100
AcDb2dVertex
 10
246.7755799999999
 20
190.065213
 30
0.0
  0
VERTEX
  5
266
330
246
100
AcDbEntity
  8
CSLAYER1
  6
CONTINUOUS
 62
     3
100
AcDbVertex
100
AcDb2dVertex
 10
247.0932319999999
 20
189.8940119999999
 30
0.0
  0
VERTEX
  5
267
330
246
100
AcDbEntity
  8
CSLAYER1
  6
CONTINUOUS
 62
     3
100
AcDbVertex
100
AcDb2dVertex
 10
247.424087
 20
189.752127
 30
0.0
  0
VERTEX
  5
268
330
246
100
AcDbEntity
  8
CSLAYER1
  6
CONTINUOUS
 62
     3
100
AcDbVertex
100
AcDb2dVertex
 10
247.765628
 20
189.640636
 30
0.0
  0
VERTEX
  5
269
330
246
100
AcDbEntity
  8
CSLAYER1
  6
CONTINUOUS
 62
     3
100
AcDbVertex
100
AcDb2dVertex
 10
248.115254
 20
189.5603879999999
 30
0.0
  0
VERTEX
  5
26A
330
246
100
AcDbEntity
  8
CSLAYER1
  6
CONTINUOUS
 62
     3
100
AcDbVertex
100
AcDb2dVertex
 10
248.4703049999999
 20
189.5119929999999
 30
0.0
  0
VERTEX
  5
26B
330
246
100
AcDbEntity
  8
CSLAYER1
  6
CONTINUOUS
 62
     3
100
AcDbVertex
100
AcDb2dVertex
 10
248.8280799999999
 20
189.495821
 30
0.0
  0
VERTEX
  5
26C
330
246
100
AcDbEntity
  8
CSLAYER1
  6
CONTINUOUS
 62
     3
100
AcDbVertex
100
AcDb2dVertex
 10
249.1858539999999
 20
189.5119929999999
 30
0.0
  0
VERTEX
  5
26D
330
246
100
AcDbEntity
  8
CSLAYER1
  6
CONTINUOUS
 62
     3
100
AcDbVertex
100
AcDb2dVertex
 10
249.5409049999999
 20
189.5603879999999
 30
0.0
  0
VERTEX
  5
26E
330
246
100
AcDbEntity
  8
CSLAYER1
  6
CONTINUOUS
 62
     3
100
AcDbVertex
100
AcDb2dVertex
 10
249.8905319999999
 20
189.640636
 30
0.0
  0
VERTEX
  5
26F
330
246
100
AcDbEntity
  8
CSLAYER1
  6
CONTINUOUS
 62
     3
100
AcDbVertex
100
AcDb2dVertex
 10
250.232072
 20
189.752127
 30
0.0
  0
VERTEX
  5
270
330
246
100
AcDbEntity
  8
CSLAYER1
  6
CONTINUOUS
 62
     3
100
AcDbVertex
100
AcDb2dVertex
 10
250.5629279999999
 20
189.8940119999999
 30
0.0
  0
VERTEX
  5
271
330
246
100
AcDbEntity
  8
CSLAYER1
  6
CONTINUOUS
 62
     3
100
AcDbVertex
100
AcDb2dVertex
 10
250.8805799999999
 20
190.065213
 30
0.0
  0
VERTEX
  5
272
330
246
100
AcDbEntity
  8
CSLAYER1
  6
CONTINUOUS
 62
     3
100
AcDbVertex
100
AcDb2dVertex
 10
251.1826109999999
 20
190.2644239999999
 30
0.0
  0
VERTEX
  5
273
330
246
100
AcDbEntity
  8
CSLAYER1
  6
CONTINUOUS
 62
     3
100
AcDbVertex
100
AcDb2dVertex
 10
251.466723
 20
190.490132
 30
0.0
  0
VERTEX
  5
274
330
246
100
AcDbEntity
  8
CSLAYER1
  6
CONTINUOUS
 62
     3
100
AcDbVertex
100
AcDb2dVertex
 10
251.730753
 20
190.7406169999999
 30
0.0
  0
VERTEX
  5
275
330
246
100
AcDbEntity
  8
CSLAYER1
  6
CONTINUOUS
 62
     3
100
AcDbVertex
100
AcDb2dVertex
 10
251.972692
 20
191.013973
 30
0.0
  0
VERTEX
  5
276
330
246
100
AcDbEntity
  8
CSLAYER1
  6
CONTINUOUS
 62
     3
100
AcDbVertex
100
AcDb2dVertex
 10
252.190699
 20
191.3081209999999
 30
0.0
  0
VERTEX
  5
277
330
246
100
AcDbEntity
  8
CSLAYER1
  6
CONTINUOUS
 62
     3
100
AcDbVertex
100
AcDb2dVertex
 10
252.3831139999999
 20
191.620821
 30
0.0
  0
VERTEX
  5
278
330
246
100
AcDbEntity
  8
CSLAYER1
  6
CONTINUOUS
 62
     3
100
AcDbVertex
100
AcDb2dVertex
 10
252.548473
 20
191.949693
 30
0.0
  0
VERTEX
  5
279
330
246
100
AcDbEntity
  8
CSLAYER1
  6
CONTINUOUS
 62
     3
100
AcDbVertex
100
AcDb2dVertex
 10
252.685518
 20
192.292235
 30
0.0
  0
VERTEX
  5
27A
330
246
100
AcDbEntity
  8
CSLAYER1
  6
CONTINUOUS
 62
     3
100
AcDbVertex
100
AcDb2dVertex
 10
252.7932049999999
 20
192.6458399999999
 30
0.0
  0
VERTEX
  5
27B
330
246
100
AcDbEntity
  8
CSLAYER1
  6
CONTINUOUS
 62
     3
100
AcDbVertex
100
AcDb2dVertex
 10
252.870716
 20
193.0078159999999
 30
0.0
  0
VERTEX
  5
27C
330
246
100
AcDbEntity
  8
CSLAYER1
  6
CONTINUOUS
 62
     3
100
AcDbVertex
100
AcDb2dVertex
 10
252.9174589999999
 20
193.375409
 30
0.0
  0
VERTEX
  5
27D
330
246
100
AcDbEntity
  8
CSLAYER1
  6
CONTINUOUS
 62
     3
100
AcDbVertex
100
AcDb2dVertex
 10
252.9330799999999
 20
193.745821
 30
0.0
  0
VERTEX
  5
27E
330
246
100
AcDbEntity
  8
CSLAYER1
  6
CONTINUOUS
 62
     3
100
AcDbVertex
100
AcDb2dVertex
 10
252.9174589999999
 20
194.116232
 30
0.0
  0
VERTEX
  5
27F
330
246
100
AcDbEntity
  8
CSLAYER1
  6
CONTINUOUS
 62
     3
100
AcDbVertex
100
AcDb2dVertex
 10
252.870716
 20
194.483825
 30
0.0
  0
VERTEX
  5
280
330
246
100
AcDbEntity
  8
CSLAYER1
  6
CONTINUOUS
 62
     3
100
AcDbVertex
100
AcDb2dVertex
 10
252.7932049999999
 20
194.8458009999999
 30
0.0
  0
VERTEX
  5
281
330
246
100
AcDbEntity
  8
CSLAYER1
  6
CONTINUOUS
 62
     3
100
AcDbVertex
100
AcDb2dVertex
 10
252.685518
 20
195.199406
 30
0.0
  0
VERTEX
  5
282
330
246
100
AcDbEntity
  8
CSLAYER1
  6
CONTINUOUS
 62
     3
100
AcDbVertex
100
AcDb2dVertex
 10
252.548473
 20
195.5419479999999
 30
0.0
  0
VERTEX
  5
283
330
246
100
AcDbEntity
  8
CSLAYER1
  6
CONTINUOUS
 62
     3
100
AcDbVertex
100
AcDb2dVertex
 10
252.3831139999999
 20
195.870821
 30
0.0
  0
VERTEX
  5
284
330
246
100
AcDbEntity
  8
CSLAYER1
  6
CONTINUOUS
 62
     3
100
AcDbVertex
100
AcDb2dVertex
 10
252.190699
 20
196.1835199999999
 30
0.0
  0
VERTEX
  5
285
330
246
100
AcDbEntity
  8
CSLAYER1
  6
CONTINUOUS
 62
     3
100
AcDbVertex
100
AcDb2dVertex
 10
251.972692
 20
196.4776679999999
 30
0.0
  0
VERTEX
  5
286
330
246
100
AcDbEntity
  8
CSLAYER1
  6
CONTINUOUS
 62
     3
100
AcDbVertex
100
AcDb2dVertex
 10
251.730753
 20
196.751024
 30
0.0
  0
VERTEX
  5
287
330
246
100
AcDbEntity
  8
CSLAYER1
  6
CONTINUOUS
 62
     3
100
AcDbVertex
100
AcDb2dVertex
 10
251.466723
 20
197.001509
 30
0.0
  0
VERTEX
  5
288
330
246
100
AcDbEntity
  8
CSLAYER1
  6
CONTINUOUS
 62
     3
100
AcDbVertex
100
AcDb2dVertex
 10
251.1826109999999
 20
197.227217
 30
0.0
  0
VERTEX
  5
289
330
246
100
AcDbEntity
  8
CSLAYER1
  6
CONTINUOUS
 62
     3
100
AcDbVertex
100
AcDb2dVertex
 10
250.8805799999999
 20
197.426429
 30
0.0
  0
VERTEX
  5
28A
330
246
100
AcDbEntity
  8
CSLAYER1
  6
CONTINUOUS
 62
     3
100
AcDbVertex
100
AcDb2dVertex
 10
250.5629279999999
 20
197.597629
 30
0.0
  0
VERTEX
  5
28B
330
246
100
AcDbEntity
  8
CSLAYER1
  6
CONTINUOUS
 62
     3
100
AcDbVertex
100
AcDb2dVertex
 10
250.232072
 20
197.7395139999999
 30
0.0
  0
VERTEX
  5
28C
330
246
100
AcDbEntity
  8
CSLAYER1
  6
CONTINUOUS
 62
     3
100
AcDbVertex
100
AcDb2dVertex
 10
249.8905319999999
 20
197.851005
 30
0.0
  0
VERTEX
  5
28D
330
246
100
AcDbEntity
  8
CSLAYER1
  6
CONTINUOUS
 62
     3
100
AcDbVertex
100
AcDb2dVertex
 10
249.5409049999999
 20
197.9312529999999
 30
0.0
  0
VERTEX
  5
28E
330
246
100
AcDbEntity
  8
CSLAYER1
  6
CONTINUOUS
 62
     3
100
AcDbVertex
100
AcDb2dVertex
 10
249.1858539999999
 20
197.979648
 30
0.0
  0
VERTEX
  5
28F
330
246
100
AcDbEntity
  8
CSLAYER1
  6
CONTINUOUS
 62
     3
100
AcDbVertex
100
AcDb2dVertex
 10
248.8280799999999
 20
197.995821
 30
0.0
  0
SEQEND
  5
290
330
246
100
AcDbEntity
  8
CSLAYER1
 62
     3
  0
LINE
  5
291
330
1E
100
AcDbEntity
  8
CSLAYER1
  6
CENTER
 62
     4
100
AcDbLine
 10
214.8280799999999
 20
70.747609
 30
0.0
 11
214.8280799999999
 21
82.45517900000001
 31
0.0
  0
CIRCLE
  5
292
330
1E
100
AcDbEntity
  8
CSLAYER1
  6
CONTINUOUS
 62
     4
100
AcDbCircle
 10
214.8280799999999
 20
78.276678
 30
0.0
 40
2.0
  0
LINE
  5
293
330
1E
100
AcDbEntity
  8
CSLAYER1
  6
CENTER
 62
     4
100
AcDbLine
 10
221.3684289999999
 20
78.276678
 30
0.0
 11
168.4848
 21
78.276678
 31
0.0
  0
CIRCLE
  5
294
330
1E
100
AcDbEntity
  8
CSLAYER1
  6
CONTINUOUS
 62
     4
100
AcDbCircle
 10
174.82808
 20
78.276678
 30
0.0
 40
2.0
  0
LINE
  5
295
330
1E
100
AcDbEntity
  8
CSLAYER1
  6
CENTER
 62
     4
100
AcDbLine
 10
174.82808
 20
82.94299499999999
 30
0.0
 11
174.82808
 21
69.771978
 31
0.0
  0
LINE
  5
296
330
1E
100
AcDbEntity
  8
CSLAYER1
  6
CENTER
 62
     4
100
AcDbLine
 10
138.8280799999999
 20
77.50859799999997
 30
0.0
 11
138.8280799999999
 21
114.7620169999999
 31
0.0
  0
LINE
  5
297
330
1E
100
AcDbEntity
  8
CSLAYER1
  6
CENTER
 62
     4
100
AcDbLine
 10
168.4848
 20
114.276678
 30
0.0
 11
221.3684289999999
 21
114.276678
 31
0.0
  0
CIRCLE
  5
298
330
1E
100
AcDbEntity
  8
CSLAYER1
  6
CONTINUOUS
 62
     4
100
AcDbCircle
 10
214.8280799999999
 20
114.276678
 30
0.0
 40
2.0
  0
LINE
  5
299
330
1E
100
AcDbEntity
  8
CSLAYER1
  6
CENTER
 62
     4
100
AcDbLine
 10
214.8280799999999
 20
110.098176
 30
0.0
 11
214.8280799999999
 21
121.8057469999999
 31
0.0
  0
LINE
  5
29A
330
1E
100
AcDbEntity
  8
CSLAYER1
  6
CENTER
 62
     4
100
AcDbLine
 10
264.795349
 20
96.27667800000001
 30
0.0
 11
126.961128
 21
96.27667800000001
 31
0.0
  0
LINE
  5
29B
330
1E
100
AcDbEntity
  8
CSLAYER1
  6
CENTER
 62
     4
100
AcDbLine
 10
174.82808
 20
109.610361
 30
0.0
 11
174.82808
 21
120.474753
 31
0.0
  0
CIRCLE
  5
29C
330
1E
100
AcDbEntity
  8
CSLAYER1
  6
CONTINUOUS
 62
     4
100
AcDbCircle
 10
174.82808
 20
114.276678
 30
0.0
 40
2.0
  0
LINE
  5
29D
330
1E
100
AcDbEntity
  8
CSLAYER1
  6
CENTER
 62
     4
100
AcDbLine
 10
179.82808
 20
163.8888179999999
 30
0.0
 11
179.82808
 21
174.7849629999999
 31
0.0
  0
CIRCLE
  5
29E
330
1E
100
AcDbEntity
  8
CSLAYER1
  6
CONTINUOUS
 62
     4
100
AcDbCircle
 10
179.82808
 20
169.922392
 30
0.0
 40
2.0
  0
LINE
  5
29F
330
1E
100
AcDbEntity
  8
CSLAYER1
  6
CENTER
 62
     4
100
AcDbLine
 10
172.330937
 20
169.922392
 30
0.0
 11
228.614365
 21
169.922392
 31
0.0
  0
CIRCLE
  5
2A0
330
1E
100
AcDbEntity
  8
CSLAYER1
  6
CONTINUOUS
 62
     4
100
AcDbCircle
 10
219.8280799999999
 20
169.922392
 30
0.0
 40
2.0
  0
LINE
  5
2A1
330
1E
100
AcDbEntity
  8
CSLAYER1
  6
CENTER
 62
     4
100
AcDbLine
 10
219.8280799999999
 20
174.2912489999999
 30
0.0
 11
219.8280799999999
 21
164.1763629999998
 31
0.0
  0
LINE
  5
2A2
330
1E
100
AcDbEntity
  8
CSLAYER1
  6
CENTER
 62
     4
100
AcDbLine
 10
241.504873
 20
193.745821
 30
0.0
 11
256.096291
 21
193.745821
 31
0.0
  0
LINE
  5
2A3
330
1E
100
AcDbEntity
  8
CSLAYER1
  6
CENTER
 62
     4
100
AcDbLine
 10
248.8280799999999
 20
200.721565
 30
0.0
 11
248.8280799999999
 21
186.637185
 31
0.0
  0
LINE
  5
2A4
330
1E
100
AcDbEntity
  8
CSLAYER1
  6
CENTER
 62
     4
100
AcDbLine
 10
265.255814
 20
187.922392
 30
0.0
 11
122.443807
 21
187.922392
 31
0.0
  0
LINE
  5
2A5
330
1E
100
AcDbEntity
  8
CSLAYER1
  6
CENTER
 62
     4
100
AcDbLine
 10
138.8280799999999
 20
178.8451379999999
 30
0.0
 11
138.8280799999999
 21
197.807661
 31
0.0
  0
LINE
  5
2A6
330
1E
100
AcDbEntity
  8
CSLAYER1
  6
CENTER
 62
     4
100
AcDbLine
 10
172.330937
 20
205.9223919999999
 30
0.0
 11
228.614365
 21
205.9223919999999
 31
0.0
  0
CIRCLE
  5
2A7
330
1E
100
AcDbEntity
  8
CSLAYER1
  6
CONTINUOUS
 62
     4
100
AcDbCircle
 10
219.8280799999999
 20
205.9223919999999
 30
0.0
 40
2.0
  0
LINE
  5
2A8
330
1E
100
AcDbEntity
  8
CSLAYER1
  6
CENTER
 62
     4
100
AcDbLine
 10
219.8280799999999
 20
201.5535349999999
 30
0.0
 11
219.8280799999999
 21
213.1309799999999
 31
0.0
  0
LINE
  5
2A9
330
1E
100
AcDbEntity
  8
CSLAYER1
  6
CENTER
 62
     4
100
AcDbLine
 10
309.4053479999999
 20
194.9163199999999
 30
0.0
 11
335.507041
 21
187.922392
 31
0.0
  0
CIRCLE
  5
2AA
330
1E
100
AcDbEntity
  8
CSLAYER1
  6
CONTINUOUS
 62
     4
100
AcDbCircle
 10
335.507041
 20
187.922392
 30
0.0
 40
4.75
  0
CIRCLE
  5
2AB
330
1E
100
AcDbEntity
  8
CSLAYER1
  6
CONTINUOUS
 62
     4
100
AcDbCircle
 10
346.113643
 20
198.5289939999999
 30
0.0
 40
2.5
  0
LINE
  5
2AC
330
1E
100
AcDbEntity
  8
CSLAYER1
  6
CENTER
 62
     4
100
AcDbLine
 10
349.310561
 20
195.3320749999999
 30
0.0
 11
342.830191
 21
201.812446
 31
0.0
  0
LINE
  5
2AD
330
1E
100
AcDbEntity
  8
CSLAYER1
  6
CENTER
 62
     4
100
AcDbLine
 10
349.331008
 20
201.746359
 30
0.0
 11
321.8354339999998
 21
174.250786
 31
0.0
  0
CIRCLE
  5
2AE
330
1E
100
AcDbEntity
  8
CSLAYER1
  6
CONTINUOUS
 62
     4
100
AcDbCircle
 10
324.900439
 20
177.3157899999999
 30
0.0
 40
2.5
  0
LINE
  5
2AF
330
1E
100
AcDbEntity
  8
CSLAYER1
  6
CENTER
 62
     4
100
AcDbLine
 10
321.3524819999999
 20
180.8637469999999
 30
0.0
 11
329.353756
 21
172.8624739999999
 31
0.0
  0
LINE
  5
2B0
330
1E
100
AcDbEntity
  8
CSLAYER1
  6
CENTER
 62
     4
100
AcDbLine
 10
335.507041
 20
159.473623
 30
0.0
 11
335.507041
 21
216.7223939999999
 31
0.0
  0
LINE
  5
2B1
330
1E
100
AcDbEntity
  8
CSLAYER1
  6
CENTER
 62
     4
100
AcDbLine
 10
363.0833819999998
 20
187.922392
 30
0.0
 11
307.733859
 21
187.922392
 31
0.0
  0
LINE
  5
2B2
330
1E
100
AcDbEntity
  8
CSLAYER1
  6
CENTER
 62
     4
100
AcDbLine
 10
179.82808
 20
201.0598209999999
 30
0.0
 11
179.82808
 21
212.699662
 31
0.0
  0
CIRCLE
  5
2B3
330
1E
100
AcDbEntity
  8
CSLAYER1
  6
CONTINUOUS
 62
     4
100
AcDbCircle
 10
179.82808
 20
205.9223919999999
 30
0.0
 40
2.0
  0
LINE
  5
2B4
330
1E
100
AcDbEntity
  8
CSLAYER1
  6
CENTER
 62
     4
100
AcDbLine
 10
88.393446
 20
187.922392
 30
0.0
 11
36.700173
 21
187.922392
 31
0.0
  0
LINE
  5
2B5
330
1E
100
AcDbEntity
  8
CSLAYER1
  6
CENTER
 62
     4
100
AcDbLine
 10
62.911692
 20
162.154279
 30
0.0
 11
62.911692
 21
213.695512
 31
0.0
  0
POLYLINE
  5
2B6
330
1E
100
AcDbEntity
  8
CSLAYER1
  6
CONTINUOUS
 62
     4
100
AcDb2dPolyline
 66
     1
 10
0.0
 20
0.0
 30
0.0
  0
VERTEX
  5
2B7
330
2B6
100
AcDbEntity
  8
CSLAYER1
  6
CONTINUOUS
 62
     4
100
AcDbVertex
100
AcDb2dVertex
 10
248.8280799999999
 20
198.495821
 30
0.0
  0
VERTEX
  5
2B8
330
2B6
100
AcDbEntity
  8
CSLAYER1
  6
CONTINUOUS
 62
     4
100
AcDbVertex
100
AcDb2dVertex
 10
248.428471
 20
198.4777449999999
 30
0.0
  0
VERTEX
  5
2B9
330
2B6
100
AcDbEntity
  8
CSLAYER1
  6
CONTINUOUS
 62
     4
100
AcDbVertex
100
AcDb2dVertex
 10
248.0319029999999
 20
198.423657
 30
0.0
  0
VERTEX
  5
2BA
330
2B6
100
AcDbEntity
  8
CSLAYER1
  6
CONTINUOUS
 62
     4
100
AcDbVertex
100
AcDb2dVertex
 10
247.641394
 20
198.333968
 30
0.0
  0
VERTEX
  5
2BB
330
2B6
100
AcDbEntity
  8
CSLAYER1
  6
CONTINUOUS
 62
     4
100
AcDbVertex
100
AcDb2dVertex
 10
247.259917
 20
198.2093599999999
 30
0.0
  0
VERTEX
  5
2BC
330
2B6
100
AcDbEntity
  8
CSLAYER1
  6
CONTINUOUS
 62
     4
100
AcDbVertex
100
AcDb2dVertex
 10
246.8903749999999
 20
198.050783
 30
0.0
  0
VERTEX
  5
2BD
330
2B6
100
AcDbEntity
  8
CSLAYER1
  6
CONTINUOUS
 62
     4
100
AcDbVertex
100
AcDb2dVertex
 10
246.5355799999999
 20
197.859441
 30
0.0
  0
VERTEX
  5
2BE
330
2B6
100
AcDbEntity
  8
CSLAYER1
  6
CONTINUOUS
 62
     4
100
AcDbVertex
100
AcDb2dVertex
 10
246.198232
 20
197.6367929999999
 30
0.0
  0
VERTEX
  5
2BF
330
2B6
100
AcDbEntity
  8
CSLAYER1
  6
CONTINUOUS
 62
     4
100
AcDbVertex
100
AcDb2dVertex
 10
245.880898
 20
197.384532
 30
0.0
  0
VERTEX
  5
2C0
330
2B6
100
AcDbEntity
  8
CSLAYER1
  6
CONTINUOUS
 62
     4
100
AcDbVertex
100
AcDb2dVertex
 10
245.585995
 20
197.104578
 30
0.0
  0
VERTEX
  5
2C1
330
2B6
100
AcDbEntity
  8
CSLAYER1
  6
CONTINUOUS
 62
     4
100
AcDbVertex
100
AcDb2dVertex
 10
245.315766
 20
196.799062
 30
0.0
  0
VERTEX
  5
2C2
330
2B6
100
AcDbEntity
  8
CSLAYER1
  6
CONTINUOUS
 62
     4
100
AcDbVertex
100
AcDb2dVertex
 10
245.072268
 20
196.470309
 30
0.0
  0
VERTEX
  5
2C3
330
2B6
100
AcDbEntity
  8
CSLAYER1
  6
CONTINUOUS
 62
     4
100
AcDbVertex
100
AcDb2dVertex
 10
244.8573529999999
 20
196.120821
 30
0.0
  0
VERTEX
  5
2C4
330
2B6
100
AcDbEntity
  8
CSLAYER1
  6
CONTINUOUS
 62
     4
100
AcDbVertex
100
AcDb2dVertex
 10
244.6726579999999
 20
195.753257
 30
0.0
  0
VERTEX
  5
2C5
330
2B6
100
AcDbEntity
  8
CSLAYER1
  6
CONTINUOUS
 62
     4
100
AcDbVertex
100
AcDb2dVertex
 10
244.519589
 20
195.3704159999999
 30
0.0
  0
VERTEX
  5
2C6
330
2B6
100
AcDbEntity
  8
CSLAYER1
  6
CONTINUOUS
 62
     4
100
AcDbVertex
100
AcDb2dVertex
 10
244.39931
 20
194.975211
 30
0.0
  0
VERTEX
  5
2C7
330
2B6
100
AcDbEntity
  8
CSLAYER1
  6
CONTINUOUS
 62
     4
100
AcDbVertex
100
AcDb2dVertex
 10
244.312736
 20
194.570649
 30
0.0
  0
VERTEX
  5
2C8
330
2B6
100
AcDbEntity
  8
CSLAYER1
  6
CONTINUOUS
 62
     4
100
AcDbVertex
100
AcDb2dVertex
 10
244.260527
 20
194.15981
 30
0.0
  0
VERTEX
  5
2C9
330
2B6
100
AcDbEntity
  8
CSLAYER1
  6
CONTINUOUS
 62
     4
100
AcDbVertex
100
AcDb2dVertex
 10
244.2430799999999
 20
193.745821
 30
0.0
  0
VERTEX
  5
2CA
330
2B6
100
AcDbEntity
  8
CSLAYER1
  6
CONTINUOUS
 62
     4
100
AcDbVertex
100
AcDb2dVertex
 10
244.260527
 20
193.3318309999999
 30
0.0
  0
VERTEX
  5
2CB
330
2B6
100
AcDbEntity
  8
CSLAYER1
  6
CONTINUOUS
 62
     4
100
AcDbVertex
100
AcDb2dVertex
 10
244.312736
 20
192.9209919999999
 30
0.0
  0
VERTEX
  5
2CC
330
2B6
100
AcDbEntity
  8
CSLAYER1
  6
CONTINUOUS
 62
     4
100
AcDbVertex
100
AcDb2dVertex
 10
244.39931
 20
192.51643
 30
0.0
  0
VERTEX
  5
2CD
330
2B6
100
AcDbEntity
  8
CSLAYER1
  6
CONTINUOUS
 62
     4
100
AcDbVertex
100
AcDb2dVertex
 10
244.519589
 20
192.121225
 30
0.0
  0
VERTEX
  5
2CE
330
2B6
100
AcDbEntity
  8
CSLAYER1
  6
CONTINUOUS
 62
     4
100
AcDbVertex
100
AcDb2dVertex
 10
244.6726579999999
 20
191.738384
 30
0.0
  0
VERTEX
  5
2CF
330
2B6
100
AcDbEntity
  8
CSLAYER1
  6
CONTINUOUS
 62
     4
100
AcDbVertex
100
AcDb2dVertex
 10
244.8573529999999
 20
191.370821
 30
0.0
  0
VERTEX
  5
2D0
330
2B6
100
AcDbEntity
  8
CSLAYER1
  6
CONTINUOUS
 62
     4
100
AcDbVertex
100
AcDb2dVertex
 10
245.072268
 20
191.021332
 30
0.0
  0
VERTEX
  5
2D1
330
2B6
100
AcDbEntity
  8
CSLAYER1
  6
CONTINUOUS
 62
     4
100
AcDbVertex
100
AcDb2dVertex
 10
245.315766
 20
190.692579
 30
0.0
  0
VERTEX
  5
2D2
330
2B6
100
AcDbEntity
  8
CSLAYER1
  6
CONTINUOUS
 62
     4
100
AcDbVertex
100
AcDb2dVertex
 10
245.585995
 20
190.3870629999999
 30
0.0
  0
VERTEX
  5
2D3
330
2B6
100
AcDbEntity
  8
CSLAYER1
  6
CONTINUOUS
 62
     4
100
AcDbVertex
100
AcDb2dVertex
 10
245.880898
 20
190.107109
 30
0.0
  0
VERTEX
  5
2D4
330
2B6
100
AcDbEntity
  8
CSLAYER1
  6
CONTINUOUS
 62
     4
100
AcDbVertex
100
AcDb2dVertex
 10
246.198232
 20
189.854848
 30
0.0
  0
VERTEX
  5
2D5
330
2B6
100
AcDbEntity
  8
CSLAYER1
  6
CONTINUOUS
 62
     4
100
AcDbVertex
100
AcDb2dVertex
 10
246.5355799999999
 20
189.6321999999999
 30
0.0
  0
VERTEX
  5
2D6
330
2B6
100
AcDbEntity
  8
CSLAYER1
  6
CONTINUOUS
 62
     4
100
AcDbVertex
100
AcDb2dVertex
 10
246.8903749999999
 20
189.440859
 30
0.0
  0
VERTEX
  5
2D7
330
2B6
100
AcDbEntity
  8
CSLAYER1
  6
CONTINUOUS
 62
     4
100
AcDbVertex
100
AcDb2dVertex
 10
247.259917
 20
189.282281
 30
0.0
  0
VERTEX
  5
2D8
330
2B6
100
AcDbEntity
  8
CSLAYER1
  6
CONTINUOUS
 62
     4
100
AcDbVertex
100
AcDb2dVertex
 10
247.641394
 20
189.1576729999999
 30
0.0
  0
VERTEX
  5
2D9
330
2B6
100
AcDbEntity
  8
CSLAYER1
  6
CONTINUOUS
 62
     4
100
AcDbVertex
100
AcDb2dVertex
 10
248.0319029999999
 20
189.0679839999999
 30
0.0
  0
VERTEX
  5
2DA
330
2B6
100
AcDbEntity
  8
CSLAYER1
  6
CONTINUOUS
 62
     4
100
AcDbVertex
100
AcDb2dVertex
 10
248.428471
 20
189.0138959999999
 30
0.0
  0
VERTEX
  5
2DB
330
2B6
100
AcDbEntity
  8
CSLAYER1
  6
CONTINUOUS
 62
     4
100
AcDbVertex
100
AcDb2dVertex
 10
248.8280799999999
 20
188.9958209999999
 30
0.0
  0
VERTEX
  5
2DC
330
2B6
100
AcDbEntity
  8
CSLAYER1
  6
CONTINUOUS
 62
     4
100
AcDbVertex
100
AcDb2dVertex
 10
249.227689
 20
189.0138959999999
 30
0.0
  0
VERTEX
  5
2DD
330
2B6
100
AcDbEntity
  8
CSLAYER1
  6
CONTINUOUS
 62
     4
100
AcDbVertex
100
AcDb2dVertex
 10
249.6242569999999
 20
189.0679839999999
 30
0.0
  0
VERTEX
  5
2DE
330
2B6
100
AcDbEntity
  8
CSLAYER1
  6
CONTINUOUS
 62
     4
100
AcDbVertex
100
AcDb2dVertex
 10
250.0147649999999
 20
189.1576729999999
 30
0.0
  0
VERTEX
  5
2DF
330
2B6
100
AcDbEntity
  8
CSLAYER1
  6
CONTINUOUS
 62
     4
100
AcDbVertex
100
AcDb2dVertex
 10
250.396242
 20
189.282281
 30
0.0
  0
VERTEX
  5
2E0
330
2B6
100
AcDbEntity
  8
CSLAYER1
  6
CONTINUOUS
 62
     4
100
AcDbVertex
100
AcDb2dVertex
 10
250.7657839999999
 20
189.440859
 30
0.0
  0
VERTEX
  5
2E1
330
2B6
100
AcDbEntity
  8
CSLAYER1
  6
CONTINUOUS
 62
     4
100
AcDbVertex
100
AcDb2dVertex
 10
251.1205799999999
 20
189.6321999999999
 30
0.0
  0
VERTEX
  5
2E2
330
2B6
100
AcDbEntity
  8
CSLAYER1
  6
CONTINUOUS
 62
     4
100
AcDbVertex
100
AcDb2dVertex
 10
251.4579279999999
 20
189.854848
 30
0.0
  0
VERTEX
  5
2E3
330
2B6
100
AcDbEntity
  8
CSLAYER1
  6
CONTINUOUS
 62
     4
100
AcDbVertex
100
AcDb2dVertex
 10
251.775261
 20
190.107109
 30
0.0
  0
VERTEX
  5
2E4
330
2B6
100
AcDbEntity
  8
CSLAYER1
  6
CONTINUOUS
 62
     4
100
AcDbVertex
100
AcDb2dVertex
 10
252.0701639999999
 20
190.3870629999999
 30
0.0
  0
VERTEX
  5
2E5
330
2B6
100
AcDbEntity
  8
CSLAYER1
  6
CONTINUOUS
 62
     4
100
AcDbVertex
100
AcDb2dVertex
 10
252.340393
 20
190.692579
 30
0.0
  0
VERTEX
  5
2E6
330
2B6
100
AcDbEntity
  8
CSLAYER1
  6
CONTINUOUS
 62
     4
100
AcDbVertex
100
AcDb2dVertex
 10
252.5838919999999
 20
191.021332
 30
0.0
  0
VERTEX
  5
2E7
330
2B6
100
AcDbEntity
  8
CSLAYER1
  6
CONTINUOUS
 62
     4
100
AcDbVertex
100
AcDb2dVertex
 10
252.798806
 20
191.370821
 30
0.0
  0
VERTEX
  5
2E8
330
2B6
100
AcDbEntity
  8
CSLAYER1
  6
CONTINUOUS
 62
     4
100
AcDbVertex
100
AcDb2dVertex
 10
252.9835009999999
 20
191.738384
 30
0.0
  0
VERTEX
  5
2E9
330
2B6
100
AcDbEntity
  8
CSLAYER1
  6
CONTINUOUS
 62
     4
100
AcDbVertex
100
AcDb2dVertex
 10
253.13657
 20
192.121225
 30
0.0
  0
VERTEX
  5
2EA
330
2B6
100
AcDbEntity
  8
CSLAYER1
  6
CONTINUOUS
 62
     4
100
AcDbVertex
100
AcDb2dVertex
 10
253.25685
 20
192.51643
 30
0.0
  0
VERTEX
  5
2EB
330
2B6
100
AcDbEntity
  8
CSLAYER1
  6
CONTINUOUS
 62
     4
100
AcDbVertex
100
AcDb2dVertex
 10
253.343423
 20
192.9209919999999
 30
0.0
  0
VERTEX
  5
2EC
330
2B6
100
AcDbEntity
  8
CSLAYER1
  6
CONTINUOUS
 62
     4
100
AcDbVertex
100
AcDb2dVertex
 10
253.3956319999999
 20
193.3318309999999
 30
0.0
  0
VERTEX
  5
2ED
330
2B6
100
AcDbEntity
  8
CSLAYER1
  6
CONTINUOUS
 62
     4
100
AcDbVertex
100
AcDb2dVertex
 10
253.4130799999999
 20
193.745821
 30
0.0
  0
VERTEX
  5
2EE
330
2B6
100
AcDbEntity
  8
CSLAYER1
  6
CONTINUOUS
 62
     4
100
AcDbVertex
100
AcDb2dVertex
 10
253.3956319999999
 20
194.15981
 30
0.0
  0
VERTEX
  5
2EF
330
2B6
100
AcDbEntity
  8
CSLAYER1
  6
CONTINUOUS
 62
     4
100
AcDbVertex
100
AcDb2dVertex
 10
253.343423
 20
194.570649
 30
0.0
  0
VERTEX
  5
2F0
330
2B6
100
AcDbEntity
  8
CSLAYER1
  6
CONTINUOUS
 62
     4
100
AcDbVertex
100
AcDb2dVertex
 10
253.25685
 20
194.975211
 30
0.0
  0
VERTEX
  5
2F1
330
2B6
100
AcDbEntity
  8
CSLAYER1
  6
CONTINUOUS
 62
     4
100
AcDbVertex
100
AcDb2dVertex
 10
253.13657
 20
195.3704159999999
 30
0.0
  0
VERTEX
  5
2F2
330
2B6
100
AcDbEntity
  8
CSLAYER1
  6
CONTINUOUS
 62
     4
100
AcDbVertex
100
AcDb2dVertex
 10
252.9835009999999
 20
195.753257
 30
0.0
  0
VERTEX
  5
2F3
330
2B6
100
AcDbEntity
  8
CSLAYER1
  6
CONTINUOUS
 62
     4
100
AcDbVertex
100
AcDb2dVertex
 10
252.798806
 20
196.120821
 30
0.0
  0
VERTEX
  5
2F4
330
2B6
100
AcDbEntity
  8
CSLAYER1
  6
CONTINUOUS
 62
     4
100
AcDbVertex
100
AcDb2dVertex
 10
252.5838919999999
 20
196.470309
 30
0.0
  0
VERTEX
  5
2F5
330
2B6
100
AcDbEntity
  8
CSLAYER1
  6
CONTINUOUS
 62
     4
100
AcDbVertex
100
AcDb2dVertex
 10
252.340393
 20
196.799062
 30
0.0
  0
VERTEX
  5
2F6
330
2B6
100
AcDbEntity
  8
CSLAYER1
  6
CONTINUOUS
 62
     4
100
AcDbVertex
100
AcDb2dVertex
 10
252.0701639999999
 20
197.104578
 30
0.0
  0
VERTEX
  5
2F7
330
2B6
100
AcDbEntity
  8
CSLAYER1
  6
CONTINUOUS
 62
     4
100
AcDbVertex
100
AcDb2dVertex
 10
251.775261
 20
197.384532
 30
0.0
  0
VERTEX
  5
2F8
330
2B6
100
AcDbEntity
  8
CSLAYER1
  6
CONTINUOUS
 62
     4
100
AcDbVertex
100
AcDb2dVertex
 10
251.4579279999999
 20
197.6367929999999
 30
0.0
  0
VERTEX
  5
2F9
330
2B6
100
AcDbEntity
  8
CSLAYER1
  6
CONTINUOUS
 62
     4
100
AcDbVertex
100
AcDb2dVertex
 10
251.1205799999999
 20
197.859441
 30
0.0
  0
VERTEX
  5
2FA
330
2B6
100
AcDbEntity
  8
CSLAYER1
  6
CONTINUOUS
 62
     4
100
AcDbVertex
100
AcDb2dVertex
 10
250.7657839999999
 20
198.050783
 30
0.0
  0
VERTEX
  5
2FB
330
2B6
100
AcDbEntity
  8
CSLAYER1
  6
CONTINUOUS
 62
     4
100
AcDbVertex
100
AcDb2dVertex
 10
250.396242
 20
198.2093599999999
 30
0.0
  0
VERTEX
  5
2FC
330
2B6
100
AcDbEntity
  8
CSLAYER1
  6
CONTINUOUS
 62
     4
100
AcDbVertex
100
AcDb2dVertex
 10
250.0147649999999
 20
198.333968
 30
0.0
  0
VERTEX
  5
2FD
330
2B6
100
AcDbEntity
  8
CSLAYER1
  6
CONTINUOUS
 62
     4
100
AcDbVertex
100
AcDb2dVertex
 10
249.6242569999999
 20
198.423657
 30
0.0
  0
VERTEX
  5
2FE
330
2B6
100
AcDbEntity
  8
CSLAYER1
  6
CONTINUOUS
 62
     4
100
AcDbVertex
100
AcDb2dVertex
 10
249.227689
 20
198.4777449999999
 30
0.0
  0
VERTEX
  5
2FF
330
2B6
100
AcDbEntity
  8
CSLAYER1
  6
CONTINUOUS
 62
     4
100
AcDbVertex
100
AcDb2dVertex
 10
248.8280799999999
 20
198.495821
 30
0.0
  0
SEQEND
  5
300
330
2B6
100
AcDbEntity
  8
CSLAYER1
 62
     4
  0
DIMENSION
  5
301
330
1E
100
AcDbEntity
  8
CSLAYER1
 62
     4
100
AcDbDimension
  2
*D0
 10
27.208979
 20
210.4223919999999
 30
0.0
 11
26.708973
 21
187.9223939999999
 31
0.0
 70
     1
100
AcDbAlignedDimension
 13
40.41169199999998
 23
165.4223919999999
 33
0.0
 14
40.41169199999998
 24
210.4223919999999
 34
0.0
  0
DIMENSION
  5
302
330
1E
100
AcDbEntity
  8
CSLAYER1
 62
     4
100
AcDbDimension
  2
*D1
 10
85.411692
 20
232.281829
 30
0.0
 11
62.911671
 21
232.78183
 31
0.0
 70
     1
100
AcDbAlignedDimension
 13
40.41169199999998
 23
210.4223919999999
 33
0.0
 14
85.411692
 24
210.4223919999999
 34
0.0
  0
DIMENSION
  5
303
330
1E
100
AcDbEntity
  8
CSLAYER1
 62
     4
100
AcDbDimension
  2
*D2
 10
75.911692
 20
226.281829
 30
0.0
 11
62.911671
 21
226.78183
 31
0.0
 70
     1
100
AcDbAlignedDimension
 13
49.91169199999998
 23
197.922392
 33
0.0
 14
75.911692
 24
197.922392
 34
0.0
  0
DIMENSION
  5
304
330
1E
100
AcDbEntity
  8
CSLAYER1
 62
     4
100
AcDbDimension
  2
*D3
 10
68.911692
 20
220.281829
 30
0.0
 11
62.911671
 21
220.781845
 31
0.0
 70
     1
100
AcDbAlignedDimension
 13
56.911692
 23
210.4223919999999
 33
0.0
 14
68.911692
 24
210.4223919999999
 34
0.0
  0
DIMENSION
  5
305
330
1E
100
AcDbEntity
  8
CSLAYER1
 62
     4
100
AcDbDimension
  2
*D4
 10
111.2453649999999
 20
197.922392
 30
0.0
 11
110.745369
 21
187.9223939999999
 31
0.0
 70
     1
100
AcDbAlignedDimension
 13
129.82808
 23
177.9223919999999
 33
0.0
 14
129.82808
 24
197.922392
 34
0.0
  0
DIMENSION
  5
306
330
1E
100
AcDbEntity
  8
CSLAYER1
 62
     4
100
AcDbDimension
  2
*D5
 10
238.8280799999999
 20
232.762106
 30
0.0
 11
184.328079
 21
233.2621
 31
0.0
100
AcDbAlignedDimension
 13
129.82808
 23
197.922392
 33
0.0
 14
238.8280799999999
 24
210.4223919999999
 34
0.0
100
AcDbRotatedDimension
  0
DIMENSION
  5
307
330
1E
100
AcDbEntity
  8
CSLAYER1
 62
     4
100
AcDbDimension
  2
*D6
 10
258.82808
 20
232.762106
 30
0.0
 11
248.828079
 21
233.2621
 31
0.0
 52
270.0
100
AcDbAlignedDimension
 13
238.8280799999999
 23
233.762106
 33
0.0
 14
258.82808
 24
204.4223919999999
 34
0.0
100
AcDbRotatedDimension
  0
DIMENSION
  5
308
330
1E
100
AcDbEntity
  8
CSLAYER1
 62
     4
100
AcDbDimension
  2
*D7
 10
238.8280799999999
 20
226.762106
 30
0.0
 11
196.3280789999999
 21
227.2621
 31
0.0
 70
     1
100
AcDbAlignedDimension
 13
153.82808
 23
210.4223919999999
 33
0.0
 14
238.8280799999999
 24
210.4223919999999
 34
0.0
  0
DIMENSION
  5
309
330
1E
100
AcDbEntity
  8
CSLAYER1
 62
     4
100
AcDbDimension
  2
*D8
 10
219.8280799999999
 20
220.762106
 30
0.0
 11
199.828079
 21
221.2620999999999
 31
0.0
100
AcDbAlignedDimension
 13
179.82808
 23
212.699662
 33
0.0
 14
219.8280799999999
 24
213.1309799999999
 34
0.0
100
AcDbRotatedDimension
  0
DIMENSION
  5
30A
330
1E
100
AcDbEntity
  8
CSLAYER1
 62
     4
100
AcDbDimension
  2
*D9
 10
219.8280799999999
 20
220.762106
 30
0.0
 11
229.328079
 21
221.2620999999999
 31
0.0
 70
     1
100
AcDbAlignedDimension
 13
238.8280799999999
 23
220.762106
 33
0.0
 14
219.8280799999999
 24
220.762106
 34
0.0
  0
DIMENSION
  5
30B
330
1E
100
AcDbEntity
  8
CSLAYER1
 62
     4
100
AcDbDimension
  2
*D10
 10
258.82808
 20
220.762106
 30
0.0
 11
251.328094
 21
221.2620999999999
 31
0.0
 70
     1
100
AcDbAlignedDimension
 13
243.8280799999999
 23
210.4223919999999
 33
0.0
 14
258.82808
 24
210.4223919999999
 34
0.0
  0
DIMENSION
  5
30C
330
1E
100
AcDbEntity
  8
CSLAYER1
 62
     4
100
AcDbDimension
  2
*D11
 10
168.1420799999999
 20
205.9223919999999
 30
0.0
 11
167.642075
 21
187.9223939999999
 31
0.0
 70
     1
100
AcDbAlignedDimension
 13
172.330937
 23
169.922392
 33
0.0
 14
172.330937
 24
205.9223919999999
 34
0.0
  0
DIMENSION
  5
30D
330
1E
100
AcDbEntity
  8
CSLAYER1
 62
     4
100
AcDbDimension
  2
*D12
 10
196.9086509999999
 20
78.276678
 30
0.0
 11
196.1449429999999
 21
92.676308
 31
0.0
 70
     1
100
AcDbAlignedDimension
 13
196.9086509999999
 23
114.276678
 33
0.0
 14
196.9086509999999
 24
78.276678
 34
0.0
  0
DIMENSION
  5
30E
330
1E
100
AcDbEntity
  8
CSLAYER1
 62
     4
100
AcDbDimension
  2
*D13
 10
214.8280799999999
 20
63.436963
 30
0.0
 11
194.828079
 21
63.93696600000001
 31
0.0
 52
270.0
100
AcDbAlignedDimension
 13
174.82808
 23
71.583249
 33
0.0
 14
214.8280799999999
 24
72.092392
 34
0.0
100
AcDbRotatedDimension
  0
DIMENSION
  5
30F
330
1E
100
AcDbEntity
  8
CSLAYER1
 62
     4
100
AcDbDimension
  2
*D14
 10
238.8280799999999
 20
127.411976
 30
0.0
 11
200.428085
 21
127.9119719999999
 31
0.0
100
AcDbAlignedDimension
 13
162.02808
 23
102.2766779999999
 33
0.0
 14
238.8280799999999
 24
120.410049
 34
0.0
100
AcDbRotatedDimension
  0
DIMENSION
  5
310
330
1E
100
AcDbEntity
  8
CSLAYER1
 62
     4
100
AcDbDimension
  2
*D15
 10
274.820843
 20
210.4223919999999
 30
0.0
 11
274.3208309999999
 21
187.9223939999999
 31
0.0
 70
     1
100
AcDbAlignedDimension
 13
243.8280799999999
 23
165.4223919999999
 33
0.0
 14
243.8280799999999
 24
210.4223919999999
 34
0.0
  0
DIMENSION
  5
311
330
1E
100
AcDbEntity
  8
CSLAYER1
 62
     4
100
AcDbDimension
  2
*D16
 10
138.8280799999999
 20
226.8376149999999
 30
0.0
 11
134.328079
 21
227.337616
 31
0.0
100
AcDbAlignedDimension
 13
129.82808
 23
196.5006929999999
 33
0.0
 14
138.8280799999999
 24
197.807661
 34
0.0
100
AcDbRotatedDimension
  0
DIMENSION
  5
312
330
1E
100
AcDbEntity
  8
CSLAYER1
 62
     4
100
AcDbDimension
  2
*D17
 10
140.571006
 20
69.276678
 30
0.0
 11
144.663528
 21
74.97766099999998
 31
0.0
 70
     4
100
AcDbRadialDimension
 15
149.524805
 25
80.03908800000003
 35
0.0
 40
0.0
  0
INSERT
  5
313
330
1E
100
AcDbEntity
  8
CSLAYER1
100
AcDbBlockReference
  2
FXDIM0000
 10
0.0
 20
0.0
 30
0.0
  0
INSERT
  5
314
330
1E
100
AcDbEntity
  8
CSLAYER1
100
AcDbBlockReference
  2
FXDIM0001
 10
0.0
 20
0.0
 30
0.0
  0
DIMENSION
  5
315
330
1E
100
AcDbEntity
  8
CSLAYER1
 62
     4
100
AcDbDimension
  2
*D20
 10
376.3133349999998
 20
205.9223919999999
 30
0.0
 11
375.813324
 21
187.9223939999999
 31
0.0
 70
     1
100
AcDbAlignedDimension
 13
349.007041
 23
169.922392
 33
0.0
 14
349.007041
 24
205.9223919999999
 34
0.0
  0
DIMENSION
  5
316
330
1E
100
AcDbEntity
  8
CSLAYER1
 62
     4
100
AcDbDimension
  2
*D21
 10
258.82808
 20
238.3503879999999
 30
0.0
 11
194.328079
 21
238.850388
 31
0.0
100
AcDbAlignedDimension
 13
129.82808
 23
197.922392
 33
0.0
 14
258.82808
 24
204.4223919999999
 34
0.0
100
AcDbRotatedDimension
  0
INSERT
  5
317
330
1E
100
AcDbEntity
  8
CSLAYER1
100
AcDbBlockReference
  2
FXDIM0002
 10
0.0
 20
0.0
 30
0.0
  0
DIMENSION
  5
319
330
1E
100
AcDbEntity
  8
CSLAYER1
 62
     4
100
AcDbDimension
  2
*D24
 10
323.3450389999998
 20
221.7896479999999
 30
0.0
 11
312.2570799999998
 21
211.673233
 31
0.0
 70
     1
100
AcDbAlignedDimension
 13
321.3524819999999
 23
180.8637469999999
 33
0.0
 14
342.830191
 24
201.812446
 34
0.0
  0
INSERT
  5
31A
330
1E
100
AcDbEntity
  8
CSLAYER1
100
AcDbBlockReference
  2
FXDIM0003
 10
0.0
 20
0.0
 30
0.0
  0
DIMENSION
  5
31B
330
1E
100
AcDbEntity
  8
CSLAYER1
 62
     4
100
AcDbDimension
  2
*D26
 10
209.8280799999999
 20
150.987726
 30
0.0
 11
197.328079
 21
151.487732
 31
0.0
 70
     1
 52
270.0
100
AcDbAlignedDimension
 13
184.8280799999999
 23
165.4223919999999
 33
0.0
 14
209.8280799999999
 24
165.4223919999999
 34
0.0
  0
DIMENSION
  5
31C
330
1E
100
AcDbEntity
  8
CSLAYER1
 62
     4
100
AcDbDimension
  2
*D27
 10
238.8280799999999
 20
150.987726
 30
0.0
 11
224.328079
 21
151.487732
 31
0.0
 52
270.0
100
AcDbAlignedDimension
 13
209.8280799999999
 23
165.4223919999999
 33
0.0
 14
238.8280799999999
 24
165.7223919999998
 34
0.0
100
AcDbRotatedDimension
  0
DIMENSION
  5
31D
330
1E
100
AcDbEntity
  8
CSLAYER1
 62
     4
100
AcDbDimension
  2
*D28
 10
238.8280799999999
 20
156.987726
 30
0.0
 11
231.828079
 21
157.4877319999998
 31
0.0
 52
270.0
100
AcDbAlignedDimension
 13
224.8280799999999
 23
165.4223919999999
 33
0.0
 14
238.8280799999999
 24
165.7223919999998
 34
0.0
100
AcDbRotatedDimension
  0
DIMENSION
  5
31E
330
1E
100
AcDbEntity
  8
CSLAYER1
 62
     4
100
AcDbDimension
  2
*D29
 10
238.8280799999999
 20
63.436963
 30
0.0
 11
226.8280789999999
 21
63.936962
 31
0.0
100
AcDbAlignedDimension
 13
214.8280799999999
 23
63.436963
 33
0.0
 14
238.8280799999999
 24
74.076678
 34
0.0
100
AcDbRotatedDimension
  0
LINE
  5
31F
330
1E
100
AcDbEntity
  8
CSLAYER1
  6
DOT
 62
     3
100
AcDbLine
 10
395.0
 20
275.0
 30
0.0
 11
10.0
 21
275.0
 31
0.0
  0
LINE
  5
320
330
1E
100
AcDbEntity
  8
CSLAYER1
  6
DOT
 62
     3
100
AcDbLine
 10
10.0
 20
3.0
 30
0.0
 11
395.0
 21
3.0
 31
0.0
  0
LINE
  5
321
330
1E
100
AcDbEntity
  8
CSLAYER1
  6
DOT
 62
     3
100
AcDbLine
 10
395.0
 20
3.0
 30
0.0
 11
395.0
 21
275.0
 31
0.0
  0
LINE
  5
322
330
1E
100
AcDbEntity
  8
CSLAYER1
  6
DOT
 62
     3
100
AcDbLine
 10
10.0
 20
275.0
 30
0.0
 11
10.0
 21
3.0
 31
0.0
  0
ENDSEC
  0
SECTION
  2
OBJECTS
  0
DICTIONARY
  5
C
330
0
100
AcDbDictionary
  3
ACAD_GROUP
350
D
  3
ACAD_LAYOUT
350
19
  3
ACAD_MLINESTYLE
350
16
  3
ACAD_PLOTSETTINGS
350
18
1001
ACAD
1000
TREAT_AS_HARD
1070
     0
1000
TREAT_AS_HARD
1070
     0
  0
DICTIONARY
  5
32C
330
1E
100
AcDbDictionary
  3
ACAD_LAYOUTSELFREF
350
34B
1001
ACAD
1000
TREAT_AS_HARD
1070
     0
  0
DICTIONARY
  5
32A
330
1A
100
AcDbDictionary
  3
ACAD_LAYOUTSELFREF
350
34A
1001
ACAD
1000
TREAT_AS_HARD
1070
     0
  0
DICTIONARY
  5
D
102
{ACAD_REACTORS
330
C
102
}
330
C
100
AcDbDictionary
1001
ACAD
1000
TREAT_AS_HARD
1070
     0
1000
TREAT_AS_HARD
1070
     0
  0
DICTIONARY
  5
19
102
{ACAD_REACTORS
330
C
102
}
330
C
100
AcDbDictionary
1001
ACAD
1000
TREAT_AS_HARD
1070
     0
1000
TREAT_AS_HARD
1070
     0
  0
DICTIONARY
  5
16
102
{ACAD_REACTORS
330
C
102
}
330
C
100
AcDbDictionary
  3
STANDARD
350
17
1001
ACAD
1000
TREAT_AS_HARD
1070
     0
1000
TREAT_AS_HARD
1070
     0
  0
DICTIONARY
  5
18
102
{ACAD_REACTORS
330
C
102
}
330
C
100
AcDbDictionary
1001
ACAD
1000
TREAT_AS_HARD
1070
     0
1000
TREAT_AS_HARD
1070
     0
  0
XRECORD
  5
34B
102
{ACAD_REACTORS
330
32C
102
}
330
32C
100
AcDbXrecord
340
1E
  0
XRECORD
  5
34A
102
{ACAD_REACTORS
330
32A
102
}
330
32A
100
AcDbXrecord
340
1A
  0
MLINESTYLE
  5
17
102
{ACAD_REACTORS
330
16
102
}
330
16
100
AcDbMlineStyle
  2
STANDARD
 70
     0
  3

 62
   256
 51
90.0
 52
90.0
 71
     2
 49
0.5
 62
   256
  6
BYLAYER
 49
-0.5
 62
   256
  6
BYLAYER
  0
ENDSEC
  0
EOF
