  0
SECTION
  2
HEADER
  9
$ACADVER
  1
AC1012
  9
$DWGCODEPAGE
  3
dos932
  9
$INSBASE
 10
0.0
 20
0.0
 30
0.0
  9
$EXTMIN
 10
9.98474220045
 20
2.981964806306564
 30
-0.0015258207003583
  9
$EXTMAX
 10
395.0189218472444
 20
275.0068823797708
 30
0.0000000349246037
  9
$LIMMIN
 10
0.0
 20
0.0
  9
$LIMMAX
 10
420.0
 20
297.0
  9
$ORTHOMODE
 70
     0
  9
$REGENMODE
 70
     1
  9
$FILLMODE
 70
     1
  9
$QTEXTMODE
 70
     0
  9
$MIRRTEXT
 70
     1
  9
$DRAGMODE
 70
     2
  9
$LTSCALE
 40
15.0
  9
$OSMODE
 70
    37
  9
$ATTMODE
 70
     1
  9
$TEXTSIZE
 40
0.2
  9
$TRACEWID
 40
0.05
  9
$TEXTSTYLE
  7
GOTHIC
  9
$CLAYER
  8
CSLAYER1
  9
$CELTYPE
  6
BYLAYER
  9
$CECOLOR
 62
   256
  9
$CELTSCALE
 40
1.0
  9
$DELOBJ
 70
     1
  9
$DISPSILH
 70
     0
  9
$DIMSCALE
 40
1.0
  9
$DIMASZ
 40
0.18
  9
$DIMEXO
 40
0.0625
  9
$DIMDLI
 40
0.38
  9
$DIMRND
 40
0.0
  9
$DIMDLE
 40
0.0
  9
$DIMEXE
 40
0.18
  9
$DIMTP
 40
0.0
  9
$DIMTM
 40
0.0
  9
$DIMTXT
 40
0.18
  9
$DIMCEN
 40
0.09
  9
$DIMTSZ
 40
0.0
  9
$DIMTOL
 70
     0
  9
$DIMLIM
 70
     0
  9
$DIMTIH
 70
     1
  9
$DIMTOH
 70
     1
  9
$DIMSE1
 70
     0
  9
$DIMSE2
 70
     0
  9
$DIMTAD
 70
     0
  9
$DIMZIN
 70
     0
  9
$DIMBLK
  1

  9
$DIMASO
 70
     1
  9
$DIMSHO
 70
     1
  9
$DIMPOST
  1

  9
$DIMAPOST
  1

  9
$DIMALT
 70
     0
  9
$DIMALTD
 70
     2
  9
$DIMALTF
 40
25.4
  9
$DIMLFAC
 40
1.0
  9
$DIMTOFL
 70
     0
  9
$DIMTVP
 40
0.0
  9
$DIMTIX
 70
     0
  9
$DIMSOXD
 70
     0
  9
$DIMSAH
 70
     0
  9
$DIMBLK1
  1

  9
$DIMBLK2
  1

  9
$DIMSTYLE
  2
STANDARD
  9
$DIMCLRD
 70
     0
  9
$DIMCLRE
 70
     0
  9
$DIMCLRT
 70
     0
  9
$DIMTFAC
 40
1.0
  9
$DIMGAP
 40
0.09
  9
$DIMJUST
 70
     0
  9
$DIMSD1
 70
     0
  9
$DIMSD2
 70
     0
  9
$DIMTOLJ
 70
     1
  9
$DIMTZIN
 70
     0
  9
$DIMALTZ
 70
     0
  9
$DIMALTTZ
 70
     0
  9
$DIMFIT
 70
     3
  9
$DIMUPT
 70
     0
  9
$DIMUNIT
 70
     2
  9
$DIMDEC
 70
     4
  9
$DIMTDEC
 70
     4
  9
$DIMALTU
 70
     2
  9
$DIMALTTD
 70
     2
  9
$DIMTXSTY
  7
STANDARD
  9
$DIMAUNIT
 70
     0
  9
$LUNITS
 70
     2
  9
$LUPREC
 70
     4
  9
$SKETCHINC
 40
0.1
  9
$FILLETRAD
 40
0.0
  9
$AUNITS
 70
     0
  9
$AUPREC
 70
     0
  9
$MENU
  1
ACAD
  9
$ELEVATION
 40
0.0
  9
$PELEVATION
 40
0.0
  9
$THICKNESS
 40
0.0
  9
$LIMCHECK
 70
     0
  9
$BLIPMODE
 70
     1
  9
$CHAMFERA
 40
0.0
  9
$CHAMFERB
 40
0.0
  9
$CHAMFERC
 40
0.0
  9
$CHAMFERD
 40
0.0
  9
$SKPOLY
 70
     0
  9
$TDCREATE
 40
2453482.000000000
  9
$TDUPDATE
 40
2453516.457626296
  9
$TDINDWG
 40
0.0002306481
  9
$TDUSRTIMER
 40
0.0002305324
  9
$USRTIMER
 70
     1
  9
$ANGBASE
 50
0.0
  9
$ANGDIR
 70
     0
  9
$PDMODE
 70
     0
  9
$PDSIZE
 40
0.0
  9
$PLINEWID
 40
0.0
  9
$COORDS
 70
     0
  9
$SPLFRAME
 70
     0
  9
$SPLINETYPE
 70
     6
  9
$SPLINESEGS
 70
     8
  9
$ATTDIA
 70
     0
  9
$ATTREQ
 70
     1
  9
$HANDLING
 70
-16383
  9
$HANDSEED
  5
34D
  9
$SURFTAB1
 70
     6
  9
$SURFTAB2
 70
     6
  9
$SURFTYPE
 70
     6
  9
$SURFU
 70
     6
  9
$SURFV
 70
     6
  9
$UCSNAME
  2

  9
$UCSORG
 10
0.0
 20
0.0
 30
0.0
  9
$UCSXDIR
 10
1.0
 20
0.0
 30
0.0
  9
$UCSYDIR
 10
0.0
 20
1.0
 30
0.0
  9
$PUCSNAME
  2

  9
$PUCSORG
 10
0.0
 20
0.0
 30
0.0
  9
$PUCSXDIR
 10
1.0
 20
0.0
 30
0.0
  9
$PUCSYDIR
 10
0.0
 20
1.0
 30
0.0
  9
$USERI1
 70
     0
  9
$USERI2
 70
     0
  9
$USERI3
 70
     0
  9
$USERI4
 70
     0
  9
$USERI5
 70
     0
  9
$USERR1
 40
0.0
  9
$USERR2
 40
0.0
  9
$USERR3
 40
0.0
  9
$USERR4
 40
0.0
  9
$USERR5
 40
0.0
  9
$WORLDVIEW
 70
     1
  9
$SHADEDGE
 70
     3
  9
$SHADEDIF
 70
    70
  9
$TILEMODE
 70
     1
  9
$MAXACTVP
 70
    64
  9
$PINSBASE
 10
0.0
 20
0.0
 30
0.0
  9
$PLIMCHECK
 70
     0
  9
$PEXTMIN
 10
1.000000000000000E+20
 20
1.000000000000000E+20
 30
1.000000000000000E+20
  9
$PEXTMAX
 10
-1.000000000000000E+20
 20
-1.000000000000000E+20
 30
-1.000000000000000E+20
  9
$PLIMMIN
 10
0.0
 20
0.0
  9
$PLIMMAX
 10
12.0
 20
9.0
  9
$UNITMODE
 70
     0
  9
$VISRETAIN
 70
     1
  9
$PLINEGEN
 70
     0
  9
$PSLTSCALE
 70
     1
  9
$TREEDEPTH
 70
  3020
  9
$PICKSTYLE
 70
     3
  9
$CMLSTYLE
  2
STANDARD
  9
$CMLJUST
 70
     0
  9
$CMLSCALE
 40
1.0
  9
$SAVEIMAGES
 70
     1
  0
ENDSEC
  0
SECTION
  2
CLASSES
  0
CLASS
  1
ACDBDICTIONARYWDFLT
  2
AcDbDictionaryWithDefault
  3
AutoCAD 2000
 90
    32768
280
     0
281
     0
  0
CLASS
  1
ACDBPLACEHOLDER
  2
AcDbPlaceHolder
  3
AutoCAD 2000
 90
    32768
280
     0
281
     0
  0
CLASS
  1
LAYOUT
  2
AcDbLayout
  3
AutoCAD 2000
 90
    32768
280
     0
281
     0
  0
CLASS
  1
DICTIONARYVAR
  2
AcDbDictionaryVar
  3
AutoCAD 2000
 90
    32768
280
     0
281
     0
  0
CLASS
  1
LONG_TRANSACTION
  2
AcDbLongTransaction
  3
AutoCAD 2000
 90
    32768
280
     0
281
     0
  0
CLASS
  1
LWPOLYLINE
  2
AcDbPolyline
  3
AutoCAD 2000
 90
    32768
280
     0
281
     1
  0
CLASS
  1
HATCH
  2
AcDbHatch
  3
AutoCAD 2000
 90
    32768
280
     0
281
     1
  0
CLASS
  1
XRECORD
  2
AcDbXrecord
  3
AutoCAD 2000
 90
    32768
280
     0
281
     0
  0
CLASS
  1
LONG_TRANSACTION
  2
AcDbLongTransaction
  3
AutoCAD 2000
 90
    32768
280
     0
281
     0
  0
CLASS
  1
LWPOLYLINE
  2
AcDbPolyline
  3
AutoCAD 2000
 90
    32768
280
     0
281
     1
  0
CLASS
  1
HATCH
  2
AcDbHatch
  3
AutoCAD 2000
 90
    32768
280
     0
281
     1
  0
CLASS
  1
XRECORD
  2
AcDbXrecord
  3
AutoCAD 2000
 90
    32768
280
     0
281
     0
  0
ENDSEC
  0
SECTION
  2
TABLES
  0
TABLE
  2
VPORT
  5
8
330
0
100
AcDbSymbolTable
 70
     2
  0
VPORT
  5
34A
330
8
100
AcDbSymbolTableRecord
100
AcDbViewportTableRecord
  2
*ACTIVE
 70
     0
 10
0.0
 20
0.0
 11
1.0
 21
1.0
 12
202.5018320238472
 22
138.9944235930387
 13
0.0
 23
0.0
 14
1.0
 24
1.0
 15
0.0
 25
0.0
 16
0.0
 26
0.0
 36
1.0
 17
0.0
 27
0.0
 37
0.0
 40
274.0676578806492
 41
1.510025062656641
 42
50.0
 43
0.0
 44
0.0
 50
0.0
 51
0.0
 71
     0
 72
   100
 73
     1
 74
     1
 75
     0
 76
     0
 77
     0
 78
     0
  0
ENDTAB
  0
TABLE
  2
LTYPE
  5
5
330
0
100
AcDbSymbolTable
 70
     3
  0
LTYPE
  5
13
330
5
100
AcDbSymbolTableRecord
100
AcDbLinetypeTableRecord
  2
BYBLOCK
 70
     0
  3

 72
    65
 73
     0
 40
0.0
  0
LTYPE
  5
14
330
5
100
AcDbSymbolTableRecord
100
AcDbLinetypeTableRecord
  2
BYLAYER
 70
     0
  3

 72
    65
 73
     0
 40
0.0
  0
LTYPE
  5
15
330
5
100
AcDbSymbolTableRecord
100
AcDbLinetypeTableRecord
  2
CONTINUOUS
 70
     0
  3
Solid line
 72
    65
 73
     0
 40
0.0
  0
LTYPE
  5
25
330
5
100
AcDbSymbolTableRecord
100
AcDbLinetypeTableRecord
  2
DOT
 70
     0
  3
...............................................
 72
    65
 73
     2
 40
0.25
 49
0.0
 74
     0
 49
-0.25
 74
     0
  0
LTYPE
  5
28
330
5
100
AcDbSymbolTableRecord
100
AcDbLinetypeTableRecord
  2
CENTER
 70
     0
  3
____ _ ____ _ ____ _ ____ _ ____ _ ____ _ ____ 
 72
    65
 73
     4
 40
2.0
 49
1.25
 74
     0
 49
-0.25
 74
     0
 49
0.25
 74
     0
 49
-0.25
 74
     0
  0
ENDTAB
  0
TABLE
  2
LAYER
  5
2
330
0
100
AcDbSymbolTable
 70
     3
  0
LAYER
  5
10
330
2
100
AcDbSymbolTableRecord
100
AcDbLayerTableRecord
  2
0
 70
     0
 62
     7
  6
CONTINUOUS
  0
LAYER
  5
22
330
2
100
AcDbSymbolTableRecord
100
AcDbLayerTableRecord
  2
CSLAYER1
 70
     0
 62
     7
  6
CONTINUOUS
  0
LAYER
  5
32F
330
2
100
AcDbSymbolTableRecord
100
AcDbLayerTableRecord
  2
DEFPOINTS
 70
     0
 62
     7
  6
CONTINUOUS
  0
ENDTAB
  0
TABLE
  2
STYLE
  5
3
330
0
100
AcDbSymbolTable
 70
     3
  0
STYLE
  5
11
330
3
100
AcDbSymbolTableRecord
100
AcDbTextStyleTableRecord
  2
STANDARD
 70
     0
 40
0.0
 41
1.0
 50
0.0
 71
     0
 42
0.2
  3
txt
  4
extfont.shx
  0
STYLE
  5
3A
330
3
100
AcDbSymbolTableRecord
100
AcDbTextStyleTableRecord
  2
FX_FONT
 70
     0
 40
1.0
 41
1.0
 50
0.0
 71
     0
 42
1.0
  3
monotxt
  4
bigfont
  0
STYLE
  5
327
330
3
100
AcDbSymbolTableRecord
100
AcDbTextStyleTableRecord
  2
GOTHIC
 70
     0
 40
0.0
 41
1.0
 50
0.0
 71
     0
 42
0.2
  3
txt.shx
  4
extfont.shx
  0
ENDTAB
  0
TABLE
  2
VIEW
  5
6
330
0
100
AcDbSymbolTable
 70
     0
  0
ENDTAB
  0
TABLE
  2
UCS
  5
7
330
0
100
AcDbSymbolTable
 70
     0
  0
ENDTAB
  0
TABLE
  2
APPID
  5
9
330
0
100
AcDbSymbolTable
 70
     1
  0
APPID
  5
12
330
9
100
AcDbSymbolTableRecord
100
AcDbRegAppTableRecord
  2
ACAD
 70
     0
  0
ENDTAB
  0
TABLE
  2
DIMSTYLE
  5
A
330
0
100
AcDbSymbolTable
 70
     1
  0
DIMSTYLE
105
324
330
A
100
AcDbSymbolTableRecord
100
AcDbDimStyleTableRecord
  2
STANDARD
 70
     0
  3

  4

  5

  6

  7

 40
1.0
 41
0.18
 42
0.0625
 43
0.38
 44
0.18
 45
0.0
 46
0.0
 47
0.0
 48
0.0
140
0.18
141
0.09
142
0.0
143
25.4
144
1.0
145
0.0
146
1.0
147
0.09
 71
     0
 72
     0
 73
     1
 74
     1
 75
     0
 76
     0
 77
     0
 78
     0
170
     0
171
     2
172
     0
173
     0
174
     0
175
     0
176
     0
177
     0
178
     0
270
     2
271
     4
272
     4
273
     2
274
     2
340
11
275
     0
280
     0
281
     0
282
     0
283
     1
284
     0
285
     0
286
     0
287
     3
288
     0
  0
ENDTAB
  0
TABLE
  2
BLOCK_RECORD
  5
1
330
0
100
AcDbSymbolTable
 70
    31
  0
BLOCK_RECORD
  5
1E
102
{ACAD_XDICTIONARY
360
32D
102
}
330
1
100
AcDbSymbolTableRecord
100
AcDbBlockTableRecord
  2
*MODEL_SPACE
  0
BLOCK_RECORD
  5
1A
102
{ACAD_XDICTIONARY
360
32B
102
}
330
1
100
AcDbSymbolTableRecord
100
AcDbBlockTableRecord
  2
*PAPER_SPACE
  0
BLOCK_RECORD
  5
3F
330
1
100
AcDbSymbolTableRecord
100
AcDbBlockTableRecord
  2
*D0
  0
BLOCK_RECORD
  5
4A
330
1
100
AcDbSymbolTableRecord
100
AcDbBlockTableRecord
  2
*D1
  0
BLOCK_RECORD
  5
55
330
1
100
AcDbSymbolTableRecord
100
AcDbBlockTableRecord
  2
*D2
  0
BLOCK_RECORD
  5
60
330
1
100
AcDbSymbolTableRecord
100
AcDbBlockTableRecord
  2
*D3
  0
BLOCK_RECORD
  5
6B
330
1
100
AcDbSymbolTableRecord
100
AcDbBlockTableRecord
  2
*D4
  0
BLOCK_RECORD
  5
76
330
1
100
AcDbSymbolTableRecord
100
AcDbBlockTableRecord
  2
*D5
  0
BLOCK_RECORD
  5
80
330
1
100
AcDbSymbolTableRecord
100
AcDbBlockTableRecord
  2
*D6
  0
BLOCK_RECORD
  5
8A
330
1
100
AcDbSymbolTableRecord
100
AcDbBlockTableRecord
  2
*D7
  0
BLOCK_RECORD
  5
95
330
1
100
AcDbSymbolTableRecord
100
AcDbBlockTableRecord
  2
*D8
  0
BLOCK_RECORD
  5
9E
330
1
100
AcDbSymbolTableRecord
100
AcDbBlockTableRecord
  2
*D9
  0
BLOCK_RECORD
  5
A7
330
1
100
AcDbSymbolTableRecord
100
AcDbBlockTableRecord
  2
*D10
  0
BLOCK_RECORD
  5
B1
330
1
100
AcDbSymbolTableRecord
100
AcDbBlockTableRecord
  2
*D11
  0
BLOCK_RECORD
  5
BB
330
1
100
AcDbSymbolTableRecord
100
AcDbBlockTableRecord
  2
*D12
  0
BLOCK_RECORD
  5
C6
330
1
100
AcDbSymbolTableRecord
100
AcDbBlockTableRecord
  2
*D13
  0
BLOCK_RECORD
  5
D1
330
1
100
AcDbSymbolTableRecord
100
AcDbBlockTableRecord
  2
*D14
  0
BLOCK_RECORD
  5
DC
330
1
100
AcDbSymbolTableRecord
100
AcDbBlockTableRecord
  2
*D15
  0
BLOCK_RECORD
  5
E7
330
1
100
AcDbSymbolTableRecord
100
AcDbBlockTableRecord
  2
*D16
  0
BLOCK_RECORD
  5
F2
330
1
100
AcDbSymbolTableRecord
100
AcDbBlockTableRecord
  2
*D17
  0
BLOCK_RECORD
  5
F9
330
1
100
AcDbSymbolTableRecord
100
AcDbBlockTableRecord
  2
*D18
  0
BLOCK_RECORD
  5
104
330
1
100
AcDbSymbolTableRecord
100
AcDbBlockTableRecord
  2
*D19
  0
BLOCK_RECORD
  5
10F
330
1
100
AcDbSymbolTableRecord
100
AcDbBlockTableRecord
  2
FXDIM0000
  0
BLOCK_RECORD
  5
117
330
1
100
AcDbSymbolTableRecord
100
AcDbBlockTableRecord
  2
FXDIM0001
  0
BLOCK_RECORD
  5
11F
330
1
100
AcDbSymbolTableRecord
100
AcDbBlockTableRecord
  2
*D22
  0
BLOCK_RECORD
  5
12A
330
1
100
AcDbSymbolTableRecord
100
AcDbBlockTableRecord
  2
*D23
  0
BLOCK_RECORD
  5
135
330
1
100
AcDbSymbolTableRecord
100
AcDbBlockTableRecord
  2
FXDIM0002
  0
BLOCK_RECORD
  5
13D
330
1
100
AcDbSymbolTableRecord
100
AcDbBlockTableRecord
  2
FXDIM0003
  0
BLOCK_RECORD
  5
145
330
1
100
AcDbSymbolTableRecord
100
AcDbBlockTableRecord
  2
*D26
  0
BLOCK_RECORD
  5
150
330
1
100
AcDbSymbolTableRecord
100
AcDbBlockTableRecord
  2
*D27
  0
BLOCK_RECORD
  5
15A
330
1
100
AcDbSymbolTableRecord
100
AcDbBlockTableRecord
  2
*D28
  0
BLOCK_RECORD
  5
164
330
1
100
AcDbSymbolTableRecord
100
AcDbBlockTableRecord
  2
*D29
  0
BLOCK_RECORD
  5
330
330
1
100
AcDbSymbolTableRecord
100
AcDbBlockTableRecord
  2
*D30
  0
ENDTAB
  0
ENDSEC
  0
SECTION
  2
BLOCKS
  0
BLOCK
  5
1F
330
1E
100
AcDbEntity
  8
0
100
AcDbBlockBegin
  2
*MODEL_SPACE
 70
     0
 10
0.0
 20
0.0
 30
0.0
  3
*MODEL_SPACE
  1

  0
ENDBLK
  5
20
330
1E
100
AcDbEntity
  8
0
100
AcDbBlockEnd
  0
BLOCK
  5
1B
330
1A
100
AcDbEntity
 67
     1
  8
0
100
AcDbBlockBegin
  2
*PAPER_SPACE
 70
     0
 10
0.0
 20
0.0
 30
0.0
  3
*PAPER_SPACE
  1

  0
ENDBLK
  5
1C
330
1A
100
AcDbEntity
 67
     1
  8
0
100
AcDbBlockEnd
  0
BLOCK
  5
40
330
3F
100
AcDbEntity
  8
0
100
AcDbBlockBegin
  2
*D0
 70
     1
 10
0.0
 20
0.0
 30
0.0
  3
*D0
  1

  0
TEXT
  5
41
330
3F
100
AcDbEntity
  8
CSLAYER1
 62
     4
100
AcDbText
 10
21.08828499999999
 20
186.8200039999999
 30
0.0
 40
3.2
  1
56
 50
90.0
 41
1.200000000000017
 51
15.0
  7
FX_FONT
 72
     5
 11
21.08828499999999
 21
193.220004
 31
0.0
100
AcDbText
  0
LINE
  5
42
330
3F
100
AcDbEntity
  8
CSLAYER1
  6
CONTINUOUS
 62
     4
100
AcDbLine
 10
31.334857
 20
162.02
 30
0.0
 11
20.588286
 21
162.02
 31
0.0
  0
LINE
  5
43
330
3F
100
AcDbEntity
  8
CSLAYER1
  6
CONTINUOUS
 62
     4
100
AcDbLine
 10
31.334857
 20
218.02
 30
0.0
 11
20.588286
 21
218.02
 31
0.0
  0
LINE
  5
44
330
3F
100
AcDbEntity
  8
CSLAYER1
  6
CONTINUOUS
 62
     4
100
AcDbLine
 10
21.588286
 20
162.02
 30
0.0
 11
21.588286
 21
218.02
 31
0.0
  0
LINE
  5
45
330
3F
100
AcDbEntity
  8
CSLAYER1
  6
CONTINUOUS
 62
     4
100
AcDbLine
 10
21.588286
 20
162.02
 30
0.0
 11
20.81182899999999
 21
164.917777
 31
0.0
  0
LINE
  5
46
330
3F
100
AcDbEntity
  8
CSLAYER1
  6
CONTINUOUS
 62
     4
100
AcDbLine
 10
21.588286
 20
162.02
 30
0.0
 11
22.364743
 21
164.917777
 31
0.0
  0
LINE
  5
47
330
3F
100
AcDbEntity
  8
CSLAYER1
  6
CONTINUOUS
 62
     4
100
AcDbLine
 10
21.588286
 20
218.02
 30
0.0
 11
20.81182899999999
 21
215.122223
 31
0.0
  0
LINE
  5
48
330
3F
100
AcDbEntity
  8
CSLAYER1
  6
CONTINUOUS
 62
     4
100
AcDbLine
 10
21.588286
 20
218.02
 30
0.0
 11
22.364743
 21
215.122223
 31
0.0
  0
ENDBLK
  5
49
330
3F
100
AcDbEntity
  8
0
100
AcDbBlockEnd
  0
BLOCK
  5
4B
330
4A
100
AcDbEntity
  8
0
100
AcDbBlockBegin
  2
*D1
 70
     1
 10
0.0
 20
0.0
 30
0.0
  3
*D1
  1

  0
TEXT
  5
4C
330
4A
100
AcDbEntity
  8
CSLAYER1
 62
     4
100
AcDbText
 10
57.13485799999999
 20
241.0357209999999
 30
0.0
 40
3.2
  1
56
 41
1.200000000000001
 51
15.0
  7
FX_FONT
 72
     5
 11
63.53485799999999
 21
241.0357209999999
 31
0.0
100
AcDbText
  0
LINE
  5
4D
330
4A
100
AcDbEntity
  8
CSLAYER1
  6
CONTINUOUS
 62
     4
100
AcDbLine
 10
32.334857
 20
219.02
 30
0.0
 11
32.334857
 21
241.535714
 31
0.0
  0
LINE
  5
4E
330
4A
100
AcDbEntity
  8
CSLAYER1
  6
CONTINUOUS
 62
     4
100
AcDbLine
 10
88.334857
 20
219.02
 30
0.0
 11
88.334857
 21
241.535714
 31
0.0
  0
LINE
  5
4F
330
4A
100
AcDbEntity
  8
CSLAYER1
  6
CONTINUOUS
 62
     4
100
AcDbLine
 10
32.334857
 20
240.535714
 30
0.0
 11
88.334857
 21
240.535714
 31
0.0
  0
LINE
  5
50
330
4A
100
AcDbEntity
  8
CSLAYER1
  6
CONTINUOUS
 62
     4
100
AcDbLine
 10
32.334857
 20
240.535714
 30
0.0
 11
35.23263499999998
 21
241.3121709999999
 31
0.0
  0
LINE
  5
51
330
4A
100
AcDbEntity
  8
CSLAYER1
  6
CONTINUOUS
 62
     4
100
AcDbLine
 10
32.334857
 20
240.535714
 30
0.0
 11
35.23263499999998
 21
239.759257
 31
0.0
  0
LINE
  5
52
330
4A
100
AcDbEntity
  8
CSLAYER1
  6
CONTINUOUS
 62
     4
100
AcDbLine
 10
88.334857
 20
240.535714
 30
0.0
 11
85.43708
 21
241.3121709999999
 31
0.0
  0
LINE
  5
53
330
4A
100
AcDbEntity
  8
CSLAYER1
  6
CONTINUOUS
 62
     4
100
AcDbLine
 10
88.334857
 20
240.535714
 30
0.0
 11
85.43708
 21
239.759257
 31
0.0
  0
ENDBLK
  5
54
330
4A
100
AcDbEntity
  8
0
100
AcDbBlockEnd
  0
BLOCK
  5
56
330
55
100
AcDbEntity
  8
0
100
AcDbBlockBegin
  2
*D2
 70
     1
 10
0.0
 20
0.0
 30
0.0
  3
*D2
  1

  0
TEXT
  5
57
330
55
100
AcDbEntity
  8
CSLAYER1
 62
     4
100
AcDbText
 10
57.13485799999999
 20
235.0357209999998
 30
0.0
 40
3.2
  1
36
 41
1.2
 51
15.0
  7
FX_FONT
 72
     5
 11
63.53485799999999
 21
235.0357209999998
 31
0.0
100
AcDbText
  0
LINE
  5
58
330
55
100
AcDbEntity
  8
CSLAYER1
  6
CONTINUOUS
 62
     4
100
AcDbLine
 10
42.334857
 20
205.02
 30
0.0
 11
42.334857
 21
235.535714
 31
0.0
  0
LINE
  5
59
330
55
100
AcDbEntity
  8
CSLAYER1
  6
CONTINUOUS
 62
     4
100
AcDbLine
 10
78.334857
 20
205.02
 30
0.0
 11
78.334857
 21
235.535714
 31
0.0
  0
LINE
  5
5A
330
55
100
AcDbEntity
  8
CSLAYER1
  6
CONTINUOUS
 62
     4
100
AcDbLine
 10
42.334857
 20
234.535714
 30
0.0
 11
78.334857
 21
234.535714
 31
0.0
  0
LINE
  5
5B
330
55
100
AcDbEntity
  8
CSLAYER1
  6
CONTINUOUS
 62
     4
100
AcDbLine
 10
42.334857
 20
234.535714
 30
0.0
 11
45.23263499999998
 21
235.3121709999999
 31
0.0
  0
LINE
  5
5C
330
55
100
AcDbEntity
  8
CSLAYER1
  6
CONTINUOUS
 62
     4
100
AcDbLine
 10
42.334857
 20
234.535714
 30
0.0
 11
45.23263499999998
 21
233.7592569999999
 31
0.0
  0
LINE
  5
5D
330
55
100
AcDbEntity
  8
CSLAYER1
  6
CONTINUOUS
 62
     4
100
AcDbLine
 10
78.334857
 20
234.535714
 30
0.0
 11
75.43708000000002
 21
235.3121709999999
 31
0.0
  0
LINE
  5
5E
330
55
100
AcDbEntity
  8
CSLAYER1
  6
CONTINUOUS
 62
     4
100
AcDbLine
 10
78.334857
 20
234.535714
 30
0.0
 11
75.43708000000002
 21
233.7592569999999
 31
0.0
  0
ENDBLK
  5
5F
330
55
100
AcDbEntity
  8
0
100
AcDbBlockEnd
  0
BLOCK
  5
61
330
60
100
AcDbEntity
  8
0
100
AcDbBlockBegin
  2
*D3
 70
     1
 10
0.0
 20
0.0
 30
0.0
  3
*D3
  1

  0
TEXT
  5
62
330
60
100
AcDbEntity
  8
CSLAYER1
 62
     4
100
AcDbText
 10
54.927121
 20
229.087845
 30
0.0
 40
3.2
  1
17
 41
1.199999999999998
 51
15.0
  7
FX_FONT
 72
     5
 11
61.32712099999999
 21
229.087845
 31
0.0
100
AcDbText
  0
LINE
  5
63
330
60
100
AcDbEntity
  8
CSLAYER1
  6
CONTINUOUS
 62
     4
100
AcDbLine
 10
51.834857
 20
219.02
 30
0.0
 11
51.834857
 21
229.535714
 31
0.0
  0
LINE
  5
64
330
60
100
AcDbEntity
  8
CSLAYER1
  6
CONTINUOUS
 62
     4
100
AcDbLine
 10
68.834857
 20
219.02
 30
0.0
 11
68.834857
 21
229.535714
 31
0.0
  0
LINE
  5
65
330
60
100
AcDbEntity
  8
CSLAYER1
  6
CONTINUOUS
 62
     4
100
AcDbLine
 10
51.834857
 20
228.535714
 30
0.0
 11
68.834857
 21
228.535714
 31
0.0
  0
LINE
  5
66
330
60
100
AcDbEntity
  8
CSLAYER1
  6
CONTINUOUS
 62
     4
100
AcDbLine
 10
51.834857
 20
228.535714
 30
0.0
 11
54.73263499999998
 21
229.312171
 31
0.0
  0
LINE
  5
67
330
60
100
AcDbEntity
  8
CSLAYER1
  6
CONTINUOUS
 62
     4
100
AcDbLine
 10
51.834857
 20
228.535714
 30
0.0
 11
54.73263499999998
 21
227.7592569999999
 31
0.0
  0
LINE
  5
68
330
60
100
AcDbEntity
  8
CSLAYER1
  6
CONTINUOUS
 62
     4
100
AcDbLine
 10
68.834857
 20
228.535714
 30
0.0
 11
65.93708000000001
 21
229.312171
 31
0.0
  0
LINE
  5
69
330
60
100
AcDbEntity
  8
CSLAYER1
  6
CONTINUOUS
 62
     4
100
AcDbLine
 10
68.834857
 20
228.535714
 30
0.0
 11
65.93708000000001
 21
227.7592569999999
 31
0.0
  0
ENDBLK
  5
6A
330
60
100
AcDbEntity
  8
0
100
AcDbBlockEnd
  0
BLOCK
  5
6C
330
6B
100
AcDbEntity
  8
0
100
AcDbBlockBegin
  2
*D4
 70
     1
 10
0.0
 20
0.0
 30
0.0
  3
*D4
  1

  0
TEXT
  5
6D
330
6B
100
AcDbEntity
  8
CSLAYER1
 62
     4
100
AcDbText
 10
99.241585
 20
186.8200039999999
 30
0.0
 40
3.2
  1
28
 50
90.0
 41
1.200000000000017
 51
15.0
  7
FX_FONT
 72
     5
 11
99.241585
 21
193.220004
 31
0.0
100
AcDbText
  0
LINE
  5
6E
330
6B
100
AcDbEntity
  8
CSLAYER1
  6
CONTINUOUS
 62
     4
100
AcDbLine
 10
99.741583
 20
176.02
 30
0.0
 11
99.741583
 21
204.02
 31
0.0
  0
LINE
  5
6F
330
6B
100
AcDbEntity
  8
CSLAYER1
  6
CONTINUOUS
 62
     4
100
AcDbLine
 10
99.741583
 20
176.02
 30
0.0
 11
98.96512600000001
 21
178.917777
 31
0.0
  0
LINE
  5
70
330
6B
100
AcDbEntity
  8
CSLAYER1
  6
CONTINUOUS
 62
     4
100
AcDbLine
 10
99.741583
 20
176.02
 30
0.0
 11
100.5180399999999
 21
178.917777
 31
0.0
  0
LINE
  5
71
330
6B
100
AcDbEntity
  8
CSLAYER1
  6
CONTINUOUS
 62
     4
100
AcDbLine
 10
99.741583
 20
204.02
 30
0.0
 11
98.96512600000001
 21
201.1222229999999
 31
0.0
  0
LINE
  5
72
330
6B
100
AcDbEntity
  8
CSLAYER1
  6
CONTINUOUS
 62
     4
100
AcDbLine
 10
99.741583
 20
204.02
 30
0.0
 11
100.5180399999999
 21
201.1222229999999
 31
0.0
  0
LINE
  5
73
330
6B
100
AcDbEntity
  8
CSLAYER1
  6
CONTINUOUS
 62
     4
100
AcDbLine
 10
109.5881179999999
 20
176.02
 30
0.0
 11
98.74158300000001
 21
176.02
 31
0.0
  0
LINE
  5
74
330
6B
100
AcDbEntity
  8
CSLAYER1
  6
CONTINUOUS
 62
     4
100
AcDbLine
 10
109.5881179999999
 20
204.02
 30
0.0
 11
98.74158300000001
 21
204.02
 31
0.0
  0
ENDBLK
  5
75
330
6B
100
AcDbEntity
  8
0
100
AcDbBlockEnd
  0
BLOCK
  5
77
330
76
100
AcDbEntity
  8
0
100
AcDbBlockBegin
  2
*D5
 70
     1
 10
0.0
 20
0.0
 30
0.0
  3
*D5
  1

  0
TEXT
  5
78
330
76
100
AcDbEntity
  8
CSLAYER1
 62
     4
100
AcDbText
 10
180.7881189999999
 20
241.021545
 30
0.0
 40
3.2
  1
150
 41
1.125000117187499
 51
15.0
  7
FX_FONT
 72
     5
 11
190.3881199999999
 21
241.021545
 31
0.0
100
AcDbText
  0
LINE
  5
79
330
76
100
AcDbEntity
  8
CSLAYER1
  6
CONTINUOUS
 62
     4
100
AcDbLine
 10
260.588118
 20
219.02
 30
0.0
 11
260.588118
 21
241.834615
 31
0.0
  0
LINE
  5
7A
330
76
100
AcDbEntity
  8
CSLAYER1
  6
CONTINUOUS
 62
     4
100
AcDbLine
 10
110.5881179999999
 20
240.5215459999999
 30
0.0
 11
260.588118
 21
240.5215459999999
 31
0.0
  0
LINE
  5
7B
330
76
100
AcDbEntity
  8
CSLAYER1
  6
CONTINUOUS
 62
     4
100
AcDbLine
 10
110.5881179999999
 20
240.5215459999999
 30
0.0
 11
113.485896
 21
241.2980039999999
 31
0.0
  0
LINE
  5
7C
330
76
100
AcDbEntity
  8
CSLAYER1
  6
CONTINUOUS
 62
     4
100
AcDbLine
 10
110.5881179999999
 20
240.5215459999999
 30
0.0
 11
113.485896
 21
239.745089
 31
0.0
  0
LINE
  5
7D
330
76
100
AcDbEntity
  8
CSLAYER1
  6
CONTINUOUS
 62
     4
100
AcDbLine
 10
260.588118
 20
240.5215459999999
 30
0.0
 11
257.6903409999999
 21
241.2980039999999
 31
0.0
  0
LINE
  5
7E
330
76
100
AcDbEntity
  8
CSLAYER1
  6
CONTINUOUS
 62
     4
100
AcDbLine
 10
260.588118
 20
240.5215459999999
 30
0.0
 11
257.6903409999999
 21
239.745089
 31
0.0
  0
ENDBLK
  5
7F
330
76
100
AcDbEntity
  8
0
100
AcDbBlockEnd
  0
BLOCK
  5
81
330
80
100
AcDbEntity
  8
0
100
AcDbBlockBegin
  2
*D6
 70
     1
 10
0.0
 20
0.0
 30
0.0
  3
*D6
  1

  0
TEXT
  5
82
330
80
100
AcDbEntity
  8
CSLAYER1
 62
     4
100
AcDbText
 10
198.288119
 20
235.021545
 30
0.0
 40
3.2
  1
115
 41
1.125000117187499
 51
15.0
  7
FX_FONT
 72
     5
 11
207.88812
 21
235.021545
 31
0.0
100
AcDbText
  0
LINE
  5
83
330
80
100
AcDbEntity
  8
CSLAYER1
  6
CONTINUOUS
 62
     4
100
AcDbLine
 10
145.5881179999998
 20
219.02
 30
0.0
 11
145.5881179999998
 21
235.521546
 31
0.0
  0
LINE
  5
84
330
80
100
AcDbEntity
  8
CSLAYER1
  6
CONTINUOUS
 62
     4
100
AcDbLine
 10
145.5881179999998
 20
234.5215459999999
 30
0.0
 11
260.588118
 21
234.5215459999999
 31
0.0
  0
LINE
  5
85
330
80
100
AcDbEntity
  8
CSLAYER1
  6
CONTINUOUS
 62
     4
100
AcDbLine
 10
145.5881179999998
 20
234.5215459999999
 30
0.0
 11
148.4858959999999
 21
235.2980039999999
 31
0.0
  0
LINE
  5
86
330
80
100
AcDbEntity
  8
CSLAYER1
  6
CONTINUOUS
 62
     4
100
AcDbLine
 10
145.5881179999998
 20
234.5215459999999
 30
0.0
 11
148.4858959999999
 21
233.7450889999999
 31
0.0
  0
LINE
  5
87
330
80
100
AcDbEntity
  8
CSLAYER1
  6
CONTINUOUS
 62
     4
100
AcDbLine
 10
260.588118
 20
234.5215459999999
 30
0.0
 11
257.6903409999999
 21
235.2980039999999
 31
0.0
  0
LINE
  5
88
330
80
100
AcDbEntity
  8
CSLAYER1
  6
CONTINUOUS
 62
     4
100
AcDbLine
 10
260.588118
 20
234.5215459999999
 30
0.0
 11
257.6903409999999
 21
233.7450889999999
 31
0.0
  0
ENDBLK
  5
89
330
80
100
AcDbEntity
  8
0
100
AcDbBlockEnd
  0
BLOCK
  5
8B
330
8A
100
AcDbEntity
  8
0
100
AcDbBlockBegin
  2
*D7
 70
     1
 10
0.0
 20
0.0
 30
0.0
  3
*D7
  1

  0
TEXT
  5
8C
330
8A
100
AcDbEntity
  8
CSLAYER1
 62
     4
100
AcDbText
 10
207.3881189999999
 20
229.021545
 30
0.0
 40
3.2
  1
60
 41
1.200000187500016
 51
15.0
  7
FX_FONT
 72
     5
 11
213.78812
 21
229.021545
 31
0.0
100
AcDbText
  0
LINE
  5
8D
330
8A
100
AcDbEntity
  8
CSLAYER1
  6
CONTINUOUS
 62
     4
100
AcDbLine
 10
180.5881179999999
 20
223.713143
 30
0.0
 11
180.5881179999999
 21
229.521546
 31
0.0
  0
LINE
  5
8E
330
8A
100
AcDbEntity
  8
CSLAYER1
  6
CONTINUOUS
 62
     4
100
AcDbLine
 10
240.588118
 20
223.9548569999999
 30
0.0
 11
240.588118
 21
229.521546
 31
0.0
  0
LINE
  5
8F
330
8A
100
AcDbEntity
  8
CSLAYER1
  6
CONTINUOUS
 62
     4
100
AcDbLine
 10
180.5881179999999
 20
228.5215459999999
 30
0.0
 11
240.588118
 21
228.5215459999999
 31
0.0
  0
LINE
  5
90
330
8A
100
AcDbEntity
  8
CSLAYER1
  6
CONTINUOUS
 62
     4
100
AcDbLine
 10
180.5881179999999
 20
228.5215459999999
 30
0.0
 11
183.485896
 21
229.2980039999999
 31
0.0
  0
LINE
  5
91
330
8A
100
AcDbEntity
  8
CSLAYER1
  6
CONTINUOUS
 62
     4
100
AcDbLine
 10
180.5881179999999
 20
228.5215459999999
 30
0.0
 11
183.485896
 21
227.745089
 31
0.0
  0
LINE
  5
92
330
8A
100
AcDbEntity
  8
CSLAYER1
  6
CONTINUOUS
 62
     4
100
AcDbLine
 10
240.588118
 20
228.5215459999999
 30
0.0
 11
237.690341
 21
229.2980039999999
 31
0.0
  0
LINE
  5
93
330
8A
100
AcDbEntity
  8
CSLAYER1
  6
CONTINUOUS
 62
     4
100
AcDbLine
 10
240.588118
 20
228.5215459999999
 30
0.0
 11
237.690341
 21
227.745089
 31
0.0
  0
ENDBLK
  5
94
330
8A
100
AcDbEntity
  8
0
100
AcDbBlockEnd
  0
BLOCK
  5
96
330
95
100
AcDbEntity
  8
0
100
AcDbBlockBegin
  2
*D8
 70
     1
 10
0.0
 20
0.0
 30
0.0
  3
*D8
  1

  0
TEXT
  5
97
330
95
100
AcDbEntity
  8
CSLAYER1
 62
     4
100
AcDbText
 10
247.388104
 20
229.021545
 30
0.0
 40
3.2
  1
20
 41
1.200000000000001
 51
15.0
  7
FX_FONT
 72
     5
 11
253.788104
 21
229.021545
 31
0.0
100
AcDbText
  0
LINE
  5
98
330
95
100
AcDbEntity
  8
CSLAYER1
  6
CONTINUOUS
 62
     4
100
AcDbLine
 10
240.588118
 20
228.5215459999999
 30
0.0
 11
260.588118
 21
228.5215459999999
 31
0.0
  0
LINE
  5
99
330
95
100
AcDbEntity
  8
CSLAYER1
  6
CONTINUOUS
 62
     4
100
AcDbLine
 10
240.588118
 20
228.5215459999999
 30
0.0
 11
243.485896
 21
229.2980039999999
 31
0.0
  0
LINE
  5
9A
330
95
100
AcDbEntity
  8
CSLAYER1
  6
CONTINUOUS
 62
     4
100
AcDbLine
 10
240.588118
 20
228.5215459999999
 30
0.0
 11
243.485896
 21
227.745089
 31
0.0
  0
LINE
  5
9B
330
95
100
AcDbEntity
  8
CSLAYER1
  6
CONTINUOUS
 62
     4
100
AcDbLine
 10
260.588118
 20
228.5215459999999
 30
0.0
 11
257.6903409999999
 21
229.2980039999999
 31
0.0
  0
LINE
  5
9C
330
95
100
AcDbEntity
  8
CSLAYER1
  6
CONTINUOUS
 62
     4
100
AcDbLine
 10
260.588118
 20
228.5215459999999
 30
0.0
 11
257.6903409999999
 21
227.745089
 31
0.0
  0
ENDBLK
  5
9D
330
95
100
AcDbEntity
  8
0
100
AcDbBlockEnd
  0
BLOCK
  5
9F
330
9E
100
AcDbEntity
  8
0
100
AcDbBlockBegin
  2
*D9
 70
     1
 10
0.0
 20
0.0
 30
0.0
  3
*D9
  1

  0
TEXT
  5
A0
330
9E
100
AcDbEntity
  8
CSLAYER1
 62
     4
100
AcDbText
 10
268.086438
 20
241.1109619999999
 30
0.0
 40
3.2
  1
20
 41
1.199999999999985
 51
15.0
  7
FX_FONT
 72
     5
 11
274.4864379999999
 21
241.1109619999999
 31
0.0
100
AcDbText
  0
LINE
  5
A1
330
9E
100
AcDbEntity
  8
CSLAYER1
  6
CONTINUOUS
 62
     4
100
AcDbLine
 10
260.588118
 20
240.5215459999999
 30
0.0
 11
280.588118
 21
240.5215459999999
 31
0.0
  0
LINE
  5
A2
330
9E
100
AcDbEntity
  8
CSLAYER1
  6
CONTINUOUS
 62
     4
100
AcDbLine
 10
260.588118
 20
240.5215459999999
 30
0.0
 11
263.4858959999998
 21
241.2980039999999
 31
0.0
  0
LINE
  5
A3
330
9E
100
AcDbEntity
  8
CSLAYER1
  6
CONTINUOUS
 62
     4
100
AcDbLine
 10
260.588118
 20
240.5215459999999
 30
0.0
 11
263.4858959999998
 21
239.745089
 31
0.0
  0
LINE
  5
A4
330
9E
100
AcDbEntity
  8
CSLAYER1
  6
CONTINUOUS
 62
     4
100
AcDbLine
 10
280.588118
 20
240.5215459999999
 30
0.0
 11
277.690341
 21
241.2980039999999
 31
0.0
  0
LINE
  5
A5
330
9E
100
AcDbEntity
  8
CSLAYER1
  6
CONTINUOUS
 62
     4
100
AcDbLine
 10
280.588118
 20
240.5215459999999
 30
0.0
 11
277.690341
 21
239.745089
 31
0.0
  0
ENDBLK
  5
A6
330
9E
100
AcDbEntity
  8
0
100
AcDbBlockEnd
  0
BLOCK
  5
A8
330
A7
100
AcDbEntity
  8
0
100
AcDbBlockBegin
  2
*D10
 70
     1
 10
0.0
 20
0.0
 30
0.0
  3
*D10
  1

  0
TEXT
  5
A9
330
A7
100
AcDbEntity
  8
CSLAYER1
 62
     4
100
AcDbText
 10
269.8881039999999
 20
235.021545
 30
0.0
 40
3.2
  1
15
 41
1.199999999999995
 51
15.0
  7
FX_FONT
 72
     5
 11
276.2881039999999
 21
235.021545
 31
0.0
100
AcDbText
  0
LINE
  5
AA
330
A7
100
AcDbEntity
  8
CSLAYER1
  6
CONTINUOUS
 62
     4
100
AcDbLine
 10
265.588118
 20
219.02
 30
0.0
 11
265.588118
 21
235.521546
 31
0.0
  0
LINE
  5
AB
330
A7
100
AcDbEntity
  8
CSLAYER1
  6
CONTINUOUS
 62
     4
100
AcDbLine
 10
265.588118
 20
234.5215459999999
 30
0.0
 11
280.588118
 21
234.5215459999999
 31
0.0
  0
LINE
  5
AC
330
A7
100
AcDbEntity
  8
CSLAYER1
  6
CONTINUOUS
 62
     4
100
AcDbLine
 10
265.588118
 20
234.5215459999999
 30
0.0
 11
268.4858959999999
 21
235.2980039999999
 31
0.0
  0
LINE
  5
AD
330
A7
100
AcDbEntity
  8
CSLAYER1
  6
CONTINUOUS
 62
     4
100
AcDbLine
 10
265.588118
 20
234.5215459999999
 30
0.0
 11
268.4858959999999
 21
233.7450889999999
 31
0.0
  0
LINE
  5
AE
330
A7
100
AcDbEntity
  8
CSLAYER1
  6
CONTINUOUS
 62
     4
100
AcDbLine
 10
280.588118
 20
234.5215459999999
 30
0.0
 11
277.690341
 21
235.2980039999999
 31
0.0
  0
LINE
  5
AF
330
A7
100
AcDbEntity
  8
CSLAYER1
  6
CONTINUOUS
 62
     4
100
AcDbLine
 10
280.588118
 20
234.5215459999999
 30
0.0
 11
277.690341
 21
233.7450889999999
 31
0.0
  0
ENDBLK
  5
B0
330
A7
100
AcDbEntity
  8
0
100
AcDbBlockEnd
  0
BLOCK
  5
B2
330
B1
100
AcDbEntity
  8
0
100
AcDbBlockBegin
  2
*D11
 70
     1
 10
0.0
 20
0.0
 30
0.0
  3
*D11
  1

  0
TEXT
  5
B3
330
B1
100
AcDbEntity
  8
CSLAYER1
 62
     4
100
AcDbText
 10
114.8881189999999
 20
229.337265
 30
0.0
 40
3.2
  1
15
 41
1.2000001875
 51
15.0
  7
FX_FONT
 72
     5
 11
121.2881199999999
 21
229.337265
 31
0.0
100
AcDbText
  0
LINE
  5
B4
330
B1
100
AcDbEntity
  8
CSLAYER1
  6
CONTINUOUS
 62
     4
100
AcDbLine
 10
110.5881179999999
 20
228.837266
 30
0.0
 11
125.588118
 21
228.837266
 31
0.0
  0
LINE
  5
B5
330
B1
100
AcDbEntity
  8
CSLAYER1
  6
CONTINUOUS
 62
     4
100
AcDbLine
 10
110.5881179999999
 20
228.837266
 30
0.0
 11
113.485896
 21
229.6137229999999
 31
0.0
  0
LINE
  5
B6
330
B1
100
AcDbEntity
  8
CSLAYER1
  6
CONTINUOUS
 62
     4
100
AcDbLine
 10
110.5881179999999
 20
228.837266
 30
0.0
 11
113.485896
 21
228.0608089999999
 31
0.0
  0
LINE
  5
B7
330
B1
100
AcDbEntity
  8
CSLAYER1
  6
CONTINUOUS
 62
     4
100
AcDbLine
 10
125.588118
 20
228.837266
 30
0.0
 11
122.690341
 21
229.6137229999999
 31
0.0
  0
LINE
  5
B8
330
B1
100
AcDbEntity
  8
CSLAYER1
  6
CONTINUOUS
 62
     4
100
AcDbLine
 10
125.588118
 20
228.837266
 30
0.0
 11
122.690341
 21
228.0608089999999
 31
0.0
  0
LINE
  5
B9
330
B1
100
AcDbEntity
  8
CSLAYER1
  6
CONTINUOUS
 62
     4
100
AcDbLine
 10
125.588118
 20
201.9948419999999
 30
0.0
 11
125.588118
 21
229.837266
 31
0.0
  0
ENDBLK
  5
BA
330
B1
100
AcDbEntity
  8
0
100
AcDbBlockEnd
  0
BLOCK
  5
BC
330
BB
100
AcDbEntity
  8
0
100
AcDbBlockBegin
  2
*D12
 70
     1
 10
0.0
 20
0.0
 30
0.0
  3
*D12
  1

  0
TEXT
  5
BD
330
BB
100
AcDbEntity
  8
CSLAYER1
 62
     4
100
AcDbText
 10
170.479034
 20
186.8200039999999
 30
0.0
 40
3.2
  1
46
 50
90.0
 41
1.200000000000017
 51
15.0
  7
FX_FONT
 72
     5
 11
170.479034
 21
193.220004
 31
0.0
100
AcDbText
  0
LINE
  5
BE
330
BB
100
AcDbEntity
  8
CSLAYER1
  6
CONTINUOUS
 62
     4
100
AcDbLine
 10
175.218555
 20
167.02
 30
0.0
 11
169.9790389999999
 21
167.02
 31
0.0
  0
LINE
  5
BF
330
BB
100
AcDbEntity
  8
CSLAYER1
  6
CONTINUOUS
 62
     4
100
AcDbLine
 10
174.1345169999999
 20
213.02
 30
0.0
 11
169.9790389999999
 21
213.02
 31
0.0
  0
LINE
  5
C0
330
BB
100
AcDbEntity
  8
CSLAYER1
  6
CONTINUOUS
 62
     4
100
AcDbLine
 10
170.979039
 20
167.02
 30
0.0
 11
170.979039
 21
213.02
 31
0.0
  0
LINE
  5
C1
330
BB
100
AcDbEntity
  8
CSLAYER1
  6
CONTINUOUS
 62
     4
100
AcDbLine
 10
170.979039
 20
167.02
 30
0.0
 11
170.202581
 21
169.917777
 31
0.0
  0
LINE
  5
C2
330
BB
100
AcDbEntity
  8
CSLAYER1
  6
CONTINUOUS
 62
     4
100
AcDbLine
 10
170.979039
 20
167.02
 30
0.0
 11
171.755496
 21
169.917777
 31
0.0
  0
LINE
  5
C3
330
BB
100
AcDbEntity
  8
CSLAYER1
  6
CONTINUOUS
 62
     4
100
AcDbLine
 10
170.979039
 20
213.02
 30
0.0
 11
170.202581
 21
210.1222229999999
 31
0.0
  0
LINE
  5
C4
330
BB
100
AcDbEntity
  8
CSLAYER1
  6
CONTINUOUS
 62
     4
100
AcDbLine
 10
170.979039
 20
213.02
 30
0.0
 11
171.755496
 21
210.1222229999999
 31
0.0
  0
ENDBLK
  5
C5
330
BB
100
AcDbEntity
  8
0
100
AcDbBlockEnd
  0
BLOCK
  5
C7
330
C6
100
AcDbEntity
  8
0
100
AcDbBlockBegin
  2
*D13
 70
     1
 10
0.0
 20
0.0
 30
0.0
  3
*D13
  1

  0
TEXT
  5
C8
330
C6
100
AcDbEntity
  8
CSLAYER1
 62
     4
100
AcDbText
 10
289.3932799999999
 20
185.220004
 30
0.0
 40
3.2
  1
%%c56
 50
90.0
 41
1.124999999999999
 51
15.0
  7
FX_FONT
 72
     5
 11
289.3932799999999
 21
194.820004
 31
0.0
100
AcDbText
  0
LINE
  5
C9
330
C6
100
AcDbEntity
  8
CSLAYER1
  6
CONTINUOUS
 62
     4
100
AcDbLine
 10
266.5881179999999
 20
162.02
 30
0.0
 11
290.8932709999999
 21
162.02
 31
0.0
  0
LINE
  5
CA
330
C6
100
AcDbEntity
  8
CSLAYER1
  6
CONTINUOUS
 62
     4
100
AcDbLine
 10
266.5881179999999
 20
218.02
 30
0.0
 11
290.8932709999999
 21
218.02
 31
0.0
  0
LINE
  5
CB
330
C6
100
AcDbEntity
  8
CSLAYER1
  6
CONTINUOUS
 62
     4
100
AcDbLine
 10
289.893271
 20
162.02
 30
0.0
 11
289.893271
 21
218.02
 31
0.0
  0
LINE
  5
CC
330
C6
100
AcDbEntity
  8
CSLAYER1
  6
CONTINUOUS
 62
     4
100
AcDbLine
 10
289.893271
 20
162.02
 30
0.0
 11
289.116814
 21
164.917777
 31
0.0
  0
LINE
  5
CD
330
C6
100
AcDbEntity
  8
CSLAYER1
  6
CONTINUOUS
 62
     4
100
AcDbLine
 10
289.893271
 20
162.02
 30
0.0
 11
290.6697279999999
 21
164.917777
 31
0.0
  0
LINE
  5
CE
330
C6
100
AcDbEntity
  8
CSLAYER1
  6
CONTINUOUS
 62
     4
100
AcDbLine
 10
289.893271
 20
218.02
 30
0.0
 11
289.116814
 21
215.122223
 31
0.0
  0
LINE
  5
CF
330
C6
100
AcDbEntity
  8
CSLAYER1
  6
CONTINUOUS
 62
     4
100
AcDbLine
 10
289.893271
 20
218.02
 30
0.0
 11
290.6697279999999
 21
215.122223
 31
0.0
  0
ENDBLK
  5
D0
330
C6
100
AcDbEntity
  8
0
100
AcDbBlockEnd
  0
BLOCK
  5
D2
330
D1
100
AcDbEntity
  8
0
100
AcDbBlockBegin
  2
*D14
 70
     1
 10
0.0
 20
0.0
 30
0.0
  3
*D14
  1

  0
TEXT
  5
D3
330
D1
100
AcDbEntity
  8
CSLAYER1
 62
     4
100
AcDbText
 10
200.68811
 20
132.3371429999999
 30
0.0
 40
3.2
  1
103.8
 41
1.071428571428571
 51
15.0
  7
FX_FONT
 72
     5
 11
216.68811
 21
132.3371429999999
 31
0.0
100
AcDbText
  0
LINE
  5
D4
330
D1
100
AcDbEntity
  8
CSLAYER1
  6
CONTINUOUS
 62
     4
100
AcDbLine
 10
156.788118
 20
103.6342859999999
 30
0.0
 11
156.788118
 21
132.837143
 31
0.0
  0
LINE
  5
D5
330
D1
100
AcDbEntity
  8
CSLAYER1
  6
CONTINUOUS
 62
     4
100
AcDbLine
 10
260.588118
 20
123.134286
 30
0.0
 11
260.588118
 21
132.837143
 31
0.0
  0
LINE
  5
D6
330
D1
100
AcDbEntity
  8
CSLAYER1
  6
CONTINUOUS
 62
     4
100
AcDbLine
 10
156.788118
 20
131.837143
 30
0.0
 11
260.588118
 21
131.837143
 31
0.0
  0
LINE
  5
D7
330
D1
100
AcDbEntity
  8
CSLAYER1
  6
CONTINUOUS
 62
     4
100
AcDbLine
 10
156.788118
 20
131.837143
 30
0.0
 11
159.6858959999998
 21
132.6135999999999
 31
0.0
  0
LINE
  5
D8
330
D1
100
AcDbEntity
  8
CSLAYER1
  6
CONTINUOUS
 62
     4
100
AcDbLine
 10
156.788118
 20
131.837143
 30
0.0
 11
159.6858959999998
 21
131.060686
 31
0.0
  0
LINE
  5
D9
330
D1
100
AcDbEntity
  8
CSLAYER1
  6
CONTINUOUS
 62
     4
100
AcDbLine
 10
260.588118
 20
131.837143
 30
0.0
 11
257.6903409999999
 21
132.6135999999999
 31
0.0
  0
LINE
  5
DA
330
D1
100
AcDbEntity
  8
CSLAYER1
  6
CONTINUOUS
 62
     4
100
AcDbLine
 10
260.588118
 20
131.837143
 30
0.0
 11
257.6903409999999
 21
131.060686
 31
0.0
  0
ENDBLK
  5
DB
330
D1
100
AcDbEntity
  8
0
100
AcDbBlockEnd
  0
BLOCK
  5
DD
330
DC
100
AcDbEntity
  8
0
100
AcDbBlockBegin
  2
*D15
 70
     1
 10
0.0
 20
0.0
 30
0.0
  3
*D15
  1

  0
TEXT
  5
DE
330
DC
100
AcDbEntity
  8
CSLAYER1
 62
     4
100
AcDbText
 10
197.3881189999999
 20
54.49485799999999
 30
0.0
 40
3.2
  1
60
 41
1.200000187500011
 51
15.0
  7
FX_FONT
 72
     5
 11
203.78812
 21
54.49485799999999
 31
0.0
100
AcDbText
  0
LINE
  5
DF
330
DC
100
AcDbEntity
  8
CSLAYER1
  6
CONTINUOUS
 62
     4
100
AcDbLine
 10
170.5881179999998
 20
53.99485699999999
 30
0.0
 11
230.588118
 21
53.99485699999999
 31
0.0
  0
LINE
  5
E0
330
DC
100
AcDbEntity
  8
CSLAYER1
  6
CONTINUOUS
 62
     4
100
AcDbLine
 10
170.5881179999998
 20
53.99485699999999
 30
0.0
 11
173.4858959999999
 21
54.77131400000001
 31
0.0
  0
LINE
  5
E1
330
DC
100
AcDbEntity
  8
CSLAYER1
  6
CONTINUOUS
 62
     4
100
AcDbLine
 10
170.5881179999998
 20
53.99485699999999
 30
0.0
 11
173.4858959999999
 21
53.2184
 31
0.0
  0
LINE
  5
E2
330
DC
100
AcDbEntity
  8
CSLAYER1
  6
CONTINUOUS
 62
     4
100
AcDbLine
 10
230.588118
 20
53.99485699999999
 30
0.0
 11
227.690341
 21
54.77131400000001
 31
0.0
  0
LINE
  5
E3
330
DC
100
AcDbEntity
  8
CSLAYER1
  6
CONTINUOUS
 62
     4
100
AcDbLine
 10
230.588118
 20
53.99485699999999
 30
0.0
 11
227.690341
 21
53.2184
 31
0.0
  0
LINE
  5
E4
330
DC
100
AcDbEntity
  8
CSLAYER1
  6
CONTINUOUS
 62
     4
100
AcDbLine
 10
170.5881179999998
 20
62.544331
 30
0.0
 11
170.5881179999998
 21
52.99485699999999
 31
0.0
  0
LINE
  5
E5
330
DC
100
AcDbEntity
  8
CSLAYER1
  6
CONTINUOUS
 62
     4
100
AcDbLine
 10
230.588118
 20
62.064436
 30
0.0
 11
230.588118
 21
52.99485699999999
 31
0.0
  0
ENDBLK
  5
E6
330
DC
100
AcDbEntity
  8
0
100
AcDbBlockEnd
  0
BLOCK
  5
E8
330
E7
100
AcDbEntity
  8
0
100
AcDbBlockBegin
  2
*D16
 70
     1
 10
0.0
 20
0.0
 30
0.0
  3
*D16
  1

  0
TEXT
  5
E9
330
E7
100
AcDbEntity
  8
CSLAYER1
 62
     4
100
AcDbText
 10
201.450974
 20
90.89542800000002
 30
0.0
 40
3.2
  1
46
 50
90.0
 41
1.200000187499995
 51
15.0
  7
FX_FONT
 72
     5
 11
201.450974
 21
97.295429
 31
0.0
100
AcDbText
  0
LINE
  5
EA
330
E7
100
AcDbEntity
  8
CSLAYER1
  6
CONTINUOUS
 62
     4
100
AcDbLine
 10
206.2584039999999
 20
71.09657099999998
 30
0.0
 11
200.9509749999998
 21
71.09657099999998
 31
0.0
  0
LINE
  5
EB
330
E7
100
AcDbEntity
  8
CSLAYER1
  6
CONTINUOUS
 62
     4
100
AcDbLine
 10
203.014975
 20
117.094286
 30
0.0
 11
200.9509749999998
 21
117.094286
 31
0.0
  0
LINE
  5
EC
330
E7
100
AcDbEntity
  8
CSLAYER1
  6
CONTINUOUS
 62
     4
100
AcDbLine
 10
201.950975
 20
71.09657099999998
 30
0.0
 11
201.950975
 21
117.094286
 31
0.0
  0
LINE
  5
ED
330
E7
100
AcDbEntity
  8
CSLAYER1
  6
CONTINUOUS
 62
     4
100
AcDbLine
 10
201.950975
 20
71.09657099999998
 30
0.0
 11
201.174518
 21
73.994349
 31
0.0
  0
LINE
  5
EE
330
E7
100
AcDbEntity
  8
CSLAYER1
  6
CONTINUOUS
 62
     4
100
AcDbLine
 10
201.950975
 20
71.09657099999998
 30
0.0
 11
202.727433
 21
73.994349
 31
0.0
  0
LINE
  5
EF
330
E7
100
AcDbEntity
  8
CSLAYER1
  6
CONTINUOUS
 62
     4
100
AcDbLine
 10
201.950975
 20
117.094286
 30
0.0
 11
201.174518
 21
114.196508
 31
0.0
  0
LINE
  5
F0
330
E7
100
AcDbEntity
  8
CSLAYER1
  6
CONTINUOUS
 62
     4
100
AcDbLine
 10
201.950975
 20
117.094286
 30
0.0
 11
202.727433
 21
114.196508
 31
0.0
  0
ENDBLK
  5
F1
330
E7
100
AcDbEntity
  8
0
100
AcDbBlockEnd
  0
BLOCK
  5
F3
330
F2
100
AcDbEntity
  8
0
100
AcDbBlockBegin
  2
*D17
 70
     1
 10
0.0
 20
0.0
 30
0.0
  3
*D17
  1

  0
TEXT
  5
F4
330
F2
100
AcDbEntity
  8
CSLAYER1
 62
     4
100
AcDbText
 10
132.88538
 20
64.27453800000001
 30
0.0
 40
3.2
  1
R14
 50
58.75451959468687
 41
1.125000029888823
 51
15.0
  7
FX_FONT
 72
     5
 11
137.864956
 21
72.482085
 31
0.0
100
AcDbText
  0
LINE
  5
F5
330
F2
100
AcDbEntity
  8
CSLAYER1
  6
CONTINUOUS
 62
     4
100
AcDbLine
 10
139.433592
 20
74.10362499999997
 30
0.0
 11
132.17171
 21
62.134286
 31
0.0
  0
LINE
  5
F6
330
F2
100
AcDbEntity
  8
CSLAYER1
  6
CONTINUOUS
 62
     4
100
AcDbLine
 10
139.433592
 20
74.10362499999997
 30
0.0
 11
138.594332
 21
71.22340900000001
 31
0.0
  0
LINE
  5
F7
330
F2
100
AcDbEntity
  8
CSLAYER1
  6
CONTINUOUS
 62
     4
100
AcDbLine
 10
139.433592
 20
74.10362499999997
 30
0.0
 11
137.266664
 21
72.02891499999998
 31
0.0
  0
ENDBLK
  5
F8
330
F2
100
AcDbEntity
  8
0
100
AcDbBlockEnd
  0
BLOCK
  5
FA
330
F9
100
AcDbEntity
  8
0
100
AcDbBlockBegin
  2
*D18
 70
     1
 10
0.0
 20
0.0
 30
0.0
  3
*D18
  1

  0
TEXT
  5
FB
330
F9
100
AcDbEntity
  8
CSLAYER1
 62
     4
100
AcDbText
 10
190.7881189999999
 20
247.161118
 30
0.0
 40
3.2
  1
170
 41
1.125000117187499
 51
15.0
  7
FX_FONT
 72
     5
 11
200.3881199999999
 21
247.161118
 31
0.0
100
AcDbText
  0
LINE
  5
FC
330
F9
100
AcDbEntity
  8
CSLAYER1
  6
CONTINUOUS
 62
     4
100
AcDbLine
 10
110.5881179999999
 20
246.661122
 30
0.0
 11
280.588118
 21
246.661122
 31
0.0
  0
LINE
  5
FD
330
F9
100
AcDbEntity
  8
CSLAYER1
  6
CONTINUOUS
 62
     4
100
AcDbLine
 10
110.5881179999999
 20
246.661122
 30
0.0
 11
113.485896
 21
247.4375789999999
 31
0.0
  0
LINE
  5
FE
330
F9
100
AcDbEntity
  8
CSLAYER1
  6
CONTINUOUS
 62
     4
100
AcDbLine
 10
110.5881179999999
 20
246.661122
 30
0.0
 11
113.485896
 21
245.8846649999999
 31
0.0
  0
LINE
  5
FF
330
F9
100
AcDbEntity
  8
CSLAYER1
  6
CONTINUOUS
 62
     4
100
AcDbLine
 10
280.588118
 20
246.661122
 30
0.0
 11
277.690341
 21
247.4375789999999
 31
0.0
  0
LINE
  5
100
330
F9
100
AcDbEntity
  8
CSLAYER1
  6
CONTINUOUS
 62
     4
100
AcDbLine
 10
280.588118
 20
246.661122
 30
0.0
 11
277.690341
 21
245.8846649999999
 31
0.0
  0
LINE
  5
101
330
F9
100
AcDbEntity
  8
CSLAYER1
  6
CONTINUOUS
 62
     4
100
AcDbLine
 10
110.5881179999999
 20
205.02
 30
0.0
 11
110.5881179999999
 21
247.661122
 31
0.0
  0
LINE
  5
102
330
F9
100
AcDbEntity
  8
CSLAYER1
  6
CONTINUOUS
 62
     4
100
AcDbLine
 10
280.588118
 20
212.5199999999999
 30
0.0
 11
280.588118
 21
247.661122
 31
0.0
  0
ENDBLK
  5
103
330
F9
100
AcDbEntity
  8
0
100
AcDbBlockEnd
  0
BLOCK
  5
105
330
104
100
AcDbEntity
  8
0
100
AcDbBlockBegin
  2
*D19
 70
     1
 10
0.0
 20
0.0
 30
0.0
  3
*D19
  1

  0
TEXT
  5
106
330
104
100
AcDbEntity
  8
CSLAYER1
 62
     4
100
AcDbText
 10
374.1311339999998
 20
186.8200039999999
 30
0.0
 40
3.2
  1
46
 50
90.0
 41
1.200000000000017
 51
15.0
  7
FX_FONT
 72
     5
 11
374.1311339999998
 21
193.220004
 31
0.0
100
AcDbText
  0
LINE
  5
107
330
104
100
AcDbEntity
  8
CSLAYER1
  6
CONTINUOUS
 62
     4
100
AcDbLine
 10
354.6122279999998
 20
167.02
 30
0.0
 11
375.6311509999998
 21
167.02
 31
0.0
  0
LINE
  5
108
330
104
100
AcDbEntity
  8
CSLAYER1
  6
CONTINUOUS
 62
     4
100
AcDbLine
 10
354.6122279999998
 20
213.02
 30
0.0
 11
375.6311509999998
 21
213.02
 31
0.0
  0
LINE
  5
109
330
104
100
AcDbEntity
  8
CSLAYER1
  6
CONTINUOUS
 62
     4
100
AcDbLine
 10
374.6311509999998
 20
167.02
 30
0.0
 11
374.6311509999998
 21
213.02
 31
0.0
  0
LINE
  5
10A
330
104
100
AcDbEntity
  8
CSLAYER1
  6
CONTINUOUS
 62
     4
100
AcDbLine
 10
374.6311509999998
 20
167.02
 30
0.0
 11
373.854693
 21
169.917777
 31
0.0
  0
LINE
  5
10B
330
104
100
AcDbEntity
  8
CSLAYER1
  6
CONTINUOUS
 62
     4
100
AcDbLine
 10
374.6311509999998
 20
167.02
 30
0.0
 11
375.4076079999998
 21
169.917777
 31
0.0
  0
LINE
  5
10C
330
104
100
AcDbEntity
  8
CSLAYER1
  6
CONTINUOUS
 62
     4
100
AcDbLine
 10
374.6311509999998
 20
213.02
 30
0.0
 11
373.854693
 21
210.1222229999999
 31
0.0
  0
LINE
  5
10D
330
104
100
AcDbEntity
  8
CSLAYER1
  6
CONTINUOUS
 62
     4
100
AcDbLine
 10
374.6311509999998
 20
213.02
 30
0.0
 11
375.4076079999998
 21
210.1222229999999
 31
0.0
  0
ENDBLK
  5
10E
330
104
100
AcDbEntity
  8
0
100
AcDbBlockEnd
  0
BLOCK
  5
110
330
10F
100
AcDbEntity
  8
0
100
AcDbBlockBegin
  2
FXDIM0000
 70
     0
 10
0.0
 20
0.0
 30
0.0
  3
FXDIM0000
  1

  0
LINE
  5
111
330
10F
100
AcDbEntity
  8
CSLAYER1
  6
CONTINUOUS
 62
     4
100
AcDbLine
 10
322.342561
 20
173.109934
 30
0.0
 11
310.155671
 21
147.804784
 31
0.0
  0
LINE
  5
112
330
10F
100
AcDbEntity
  8
CSLAYER1
  6
CONTINUOUS
 62
     4
100
AcDbLine
 10
322.342561
 20
173.109934
 30
0.0
 11
321.784772
 21
170.1622439999999
 31
0.0
  0
LINE
  5
113
330
10F
100
AcDbEntity
  8
CSLAYER1
  6
CONTINUOUS
 62
     4
100
AcDbLine
 10
322.342561
 20
173.109934
 30
0.0
 11
320.3856569999998
 21
170.8360539999999
 31
0.0
  0
LINE
  5
114
330
10F
100
AcDbEntity
  8
CSLAYER1
  6
CONTINUOUS
 62
     4
100
AcDbLine
 10
310.155671
 20
147.804784
 30
0.0
 11
334.555672
 21
147.804784
 31
0.0
  0
TEXT
  5
115
330
10F
100
AcDbEntity
  8
CSLAYER1
 62
     4
100
AcDbText
 10
311.15567
 20
148.304779
 30
0.0
 40
3.2
  1
M6ネジ深１２
 41
0.9210526315789461
 51
15.0
  7
FX_FONT
 72
     5
 11
333.55567
 21
148.304779
 31
0.0
100
AcDbText
  0
ENDBLK
  5
116
330
10F
100
AcDbEntity
  8
0
100
AcDbBlockEnd
  0
BLOCK
  5
118
330
117
100
AcDbEntity
  8
0
100
AcDbBlockBegin
  2
FXDIM0001
 70
     0
 10
0.0
 20
0.0
 30
0.0
  3
FXDIM0001
  1

  0
LINE
  5
119
330
117
100
AcDbEntity
  8
CSLAYER1
  6
CONTINUOUS
 62
     4
100
AcDbLine
 10
339.806154
 20
194.249121
 30
0.0
 11
349.0390279999998
 21
233.1395009999999
 31
0.0
  0
LINE
  5
11A
330
117
100
AcDbEntity
  8
CSLAYER1
  6
CONTINUOUS
 62
     4
100
AcDbLine
 10
339.806154
 20
194.249121
 30
0.0
 11
339.720045
 21
197.247885
 31
0.0
  0
LINE
  5
11B
330
117
100
AcDbEntity
  8
CSLAYER1
  6
CONTINUOUS
 62
     4
100
AcDbLine
 10
339.806154
 20
194.249121
 30
0.0
 11
341.230964
 21
196.889181
 31
0.0
  0
LINE
  5
11C
330
117
100
AcDbEntity
  8
CSLAYER1
  6
CONTINUOUS
 62
     4
100
AcDbLine
 10
349.0390279999998
 20
233.1395009999999
 30
0.0
 11
373.4390279999998
 21
233.1395009999999
 31
0.0
  0
TEXT
  5
11D
330
117
100
AcDbEntity
  8
CSLAYER1
 62
     4
100
AcDbText
 10
350.0390439999998
 20
233.639511
 30
0.0
 40
3.2
  1
Rc1/8ネジ
 41
0.9813084112149544
 51
15.0
  7
FX_FONT
 72
     5
 11
372.4390439999998
 21
233.639511
 31
0.0
100
AcDbText
  0
ENDBLK
  5
11E
330
117
100
AcDbEntity
  8
0
100
AcDbBlockEnd
  0
BLOCK
  5
120
330
11F
100
AcDbEntity
  8
0
100
AcDbBlockBegin
  2
*D22
 70
     1
 10
0.0
 20
0.0
 30
0.0
  3
*D22
  1

  0
TEXT
  5
121
330
11F
100
AcDbEntity
  8
CSLAYER1
 62
     4
100
AcDbText
 10
304.7851709999998
 20
218.352874
 30
0.0
 40
3.2
  1
40
 50
45.00000633034892
 41
1.200000026624195
 51
15.0
  7
FX_FONT
 72
     5
 11
309.3106539999999
 21
222.878358
 31
0.0
100
AcDbText
  0
LINE
  5
122
330
11F
100
AcDbEntity
  8
CSLAYER1
  6
CONTINUOUS
 62
     4
100
AcDbLine
 10
293.2593089999998
 20
206.119928
 30
0.0
 11
321.5435799999998
 21
234.404199
 31
0.0
  0
LINE
  5
123
330
11F
100
AcDbEntity
  8
CSLAYER1
  6
CONTINUOUS
 62
     4
100
AcDbLine
 10
293.2593089999998
 20
206.119928
 30
0.0
 11
294.7593089999998
 21
208.718004
 31
0.0
  0
LINE
  5
124
330
11F
100
AcDbEntity
  8
CSLAYER1
  6
CONTINUOUS
 62
     4
100
AcDbLine
 10
293.2593089999998
 20
206.119928
 30
0.0
 11
295.857385
 21
207.6199279999999
 31
0.0
  0
LINE
  5
125
330
11F
100
AcDbEntity
  8
CSLAYER1
  6
CONTINUOUS
 62
     4
100
AcDbLine
 10
321.5435799999998
 20
234.404199
 30
0.0
 11
320.0435799999999
 21
231.806123
 31
0.0
  0
LINE
  5
126
330
11F
100
AcDbEntity
  8
CSLAYER1
  6
CONTINUOUS
 62
     4
100
AcDbLine
 10
321.5435799999998
 20
234.404199
 30
0.0
 11
318.945504
 21
232.904199
 31
0.0
  0
LINE
  5
127
330
11F
100
AcDbEntity
  8
CSLAYER1
  6
CONTINUOUS
 62
     4
100
AcDbLine
 10
322.794266
 20
176.5849709999999
 30
0.0
 11
292.552202
 21
206.827035
 31
0.0
  0
LINE
  5
128
330
11F
100
AcDbEntity
  8
CSLAYER1
  6
CONTINUOUS
 62
     4
100
AcDbLine
 10
351.0785369999998
 20
204.869242
 30
0.0
 11
320.8364729999999
 21
235.111306
 31
0.0
  0
ENDBLK
  5
129
330
11F
100
AcDbEntity
  8
0
100
AcDbBlockEnd
  0
BLOCK
  5
12B
330
12A
100
AcDbEntity
  8
0
100
AcDbBlockBegin
  2
*D23
 70
     1
 10
0.0
 20
0.0
 30
0.0
  3
*D23
  1

  0
TEXT
  5
12C
330
12A
100
AcDbEntity
  8
CSLAYER1
 62
     4
100
AcDbText
 10
299.1232569999999
 20
168.8688909999999
 30
0.0
 40
3.2
  1
45%%d
 50
112.5000014414547
 41
1.285714224875622
 51
15.0
  7
FX_FONT
 72
     5
 11
295.449496
 21
177.7381339999999
 31
0.0
100
AcDbText
  0
ARC
  5
12D
330
12A
100
AcDbEntity
  8
CSLAYER1
  6
CONTINUOUS
 62
     4
100
AcDbCircle
 10
337.643508
 20
190.02
 30
0.0
 40
43.182271
100
AcDbArc
 50
180.0
 51
225.0
  0
LINE
  5
12E
330
12A
100
AcDbEntity
  8
CSLAYER1
  6
CONTINUOUS
 62
     4
100
AcDbLine
 10
294.4612369999998
 20
190.02
 30
0.0
 11
293.6847799999998
 21
187.1222229999999
 31
0.0
  0
LINE
  5
12F
330
12A
100
AcDbEntity
  8
CSLAYER1
  6
CONTINUOUS
 62
     4
100
AcDbLine
 10
294.4612369999998
 20
190.02
 30
0.0
 11
295.2376939999998
 21
187.1222229999999
 31
0.0
  0
LINE
  5
130
330
12A
100
AcDbEntity
  8
CSLAYER1
  6
CONTINUOUS
 62
     4
100
AcDbLine
 10
307.109031
 20
159.485523
 30
0.0
 11
304.5109549999999
 21
160.9855229999999
 31
0.0
  0
LINE
  5
131
330
12A
100
AcDbEntity
  8
CSLAYER1
  6
CONTINUOUS
 62
     4
100
AcDbLine
 10
307.109031
 20
159.485523
 30
0.0
 11
305.609031
 21
162.0835989999999
 31
0.0
  0
LINE
  5
132
330
12A
100
AcDbEntity
  8
CSLAYER1
  6
CONTINUOUS
 62
     4
100
AcDbLine
 10
302.952956
 20
190.02
 30
0.0
 11
293.4612369999998
 21
190.02
 31
0.0
  0
LINE
  5
133
330
12A
100
AcDbEntity
  8
CSLAYER1
  6
CONTINUOUS
 62
     4
100
AcDbLine
 10
319.087902
 20
171.464394
 30
0.0
 11
306.401925
 21
158.7784159999999
 31
0.0
  0
ENDBLK
  5
134
330
12A
100
AcDbEntity
  8
0
100
AcDbBlockEnd
  0
BLOCK
  5
136
330
135
100
AcDbEntity
  8
0
100
AcDbBlockBegin
  2
FXDIM0002
 70
     0
 10
0.0
 20
0.0
 30
0.0
  3
FXDIM0002
  1

  0
LINE
  5
137
330
135
100
AcDbEntity
  8
CSLAYER1
  6
CONTINUOUS
 62
     4
100
AcDbLine
 10
272.750764
 20
201.496054
 30
0.0
 11
287.9784349999998
 21
235.2462669999999
 31
0.0
  0
LINE
  5
138
330
135
100
AcDbEntity
  8
CSLAYER1
  6
CONTINUOUS
 62
     4
100
AcDbLine
 10
272.750764
 20
201.496054
 30
0.0
 11
273.234764
 21
204.456754
 31
0.0
  0
LINE
  5
139
330
135
100
AcDbEntity
  8
CSLAYER1
  6
CONTINUOUS
 62
     4
100
AcDbLine
 10
272.750764
 20
201.496054
 30
0.0
 11
274.6502709999999
 21
203.818095
 31
0.0
  0
LINE
  5
13A
330
135
100
AcDbEntity
  8
CSLAYER1
  6
CONTINUOUS
 62
     4
100
AcDbLine
 10
287.9784349999998
 20
235.2462669999999
 30
0.0
 11
312.378435
 21
235.2462669999999
 31
0.0
  0
TEXT
  5
13B
330
135
100
AcDbEntity
  8
CSLAYER1
 62
     4
100
AcDbText
 10
288.9784669999999
 20
235.746277
 30
0.0
 40
3.2
  1
Rc1/8ネジ
 41
0.9813084112149574
 51
15.0
  7
FX_FONT
 72
     5
 11
311.378467
 21
235.746277
 31
0.0
100
AcDbText
  0
ENDBLK
  5
13C
330
135
100
AcDbEntity
  8
0
100
AcDbBlockEnd
  0
BLOCK
  5
13E
330
13D
100
AcDbEntity
  8
0
100
AcDbBlockBegin
  2
FXDIM0003
 70
     0
 10
0.0
 20
0.0
 30
0.0
  3
FXDIM0003
  1

  0
LINE
  5
13F
330
13D
100
AcDbEntity
  8
CSLAYER1
  6
CONTINUOUS
 62
     4
100
AcDbLine
 10
178.679237
 20
165.405636
 30
0.0
 11
160.680962
 21
147.2755999999999
 31
0.0
  0
LINE
  5
140
330
13D
100
AcDbEntity
  8
CSLAYER1
  6
CONTINUOUS
 62
     4
100
AcDbLine
 10
178.679237
 20
165.405636
 30
0.0
 11
177.1887219999999
 21
162.802107
 31
0.0
  0
LINE
  5
141
330
13D
100
AcDbEntity
  8
CSLAYER1
  6
CONTINUOUS
 62
     4
100
AcDbLine
 10
178.679237
 20
165.405636
 30
0.0
 11
176.0866479999999
 21
163.896171
 31
0.0
  0
LINE
  5
142
330
13D
100
AcDbEntity
  8
CSLAYER1
  6
CONTINUOUS
 62
     4
100
AcDbLine
 10
160.680962
 20
147.2755999999999
 30
0.0
 11
110.680961
 21
147.2755999999999
 31
0.0
  0
TEXT
  5
143
330
13D
100
AcDbEntity
  8
CSLAYER1
 62
     4
100
AcDbText
 10
111.6809689999999
 20
147.775604
 30
0.0
 40
3.2
  1
16-M5x0.8 ネジ深10
 41
1.008968609865473
 51
15.0
  7
FX_FONT
 72
     5
 11
159.680969
 21
147.775604
 31
0.0
100
AcDbText
  0
ENDBLK
  5
144
330
13D
100
AcDbEntity
  8
0
100
AcDbBlockEnd
  0
BLOCK
  5
146
330
145
100
AcDbEntity
  8
0
100
AcDbBlockBegin
  2
*D26
 70
     1
 10
0.0
 20
0.0
 30
0.0
  3
*D26
  1

  0
TEXT
  5
147
330
145
100
AcDbEntity
  8
CSLAYER1
 62
     4
100
AcDbText
 10
202.3881189999999
 20
147.553482
 30
0.0
 40
3.2
  1
40
 41
1.2000001875
 51
15.0
  7
FX_FONT
 72
     5
 11
208.7881199999999
 21
147.553482
 31
0.0
100
AcDbText
  0
LINE
  5
148
330
145
100
AcDbEntity
  8
CSLAYER1
  6
CONTINUOUS
 62
     4
100
AcDbLine
 10
185.5881179999999
 20
147.0534879999999
 30
0.0
 11
225.588118
 21
147.0534879999999
 31
0.0
  0
LINE
  5
149
330
145
100
AcDbEntity
  8
CSLAYER1
  6
CONTINUOUS
 62
     4
100
AcDbLine
 10
185.5881179999999
 20
147.0534879999999
 30
0.0
 11
188.485896
 21
147.829946
 31
0.0
  0
LINE
  5
14A
330
145
100
AcDbEntity
  8
CSLAYER1
  6
CONTINUOUS
 62
     4
100
AcDbLine
 10
185.5881179999999
 20
147.0534879999999
 30
0.0
 11
188.485896
 21
146.2770309999999
 31
0.0
  0
LINE
  5
14B
330
145
100
AcDbEntity
  8
CSLAYER1
  6
CONTINUOUS
 62
     4
100
AcDbLine
 10
225.588118
 20
147.0534879999999
 30
0.0
 11
222.690341
 21
147.829946
 31
0.0
  0
LINE
  5
14C
330
145
100
AcDbEntity
  8
CSLAYER1
  6
CONTINUOUS
 62
     4
100
AcDbLine
 10
225.588118
 20
147.0534879999999
 30
0.0
 11
222.690341
 21
146.2770309999999
 31
0.0
  0
LINE
  5
14D
330
145
100
AcDbEntity
  8
CSLAYER1
  6
CONTINUOUS
 62
     4
100
AcDbLine
 10
185.5881179999999
 20
161.02
 30
0.0
 11
185.5881179999999
 21
146.0534879999999
 31
0.0
  0
LINE
  5
14E
330
145
100
AcDbEntity
  8
CSLAYER1
  6
CONTINUOUS
 62
     4
100
AcDbLine
 10
225.588118
 20
161.02
 30
0.0
 11
225.588118
 21
146.0534879999999
 31
0.0
  0
ENDBLK
  5
14F
330
145
100
AcDbEntity
  8
0
100
AcDbBlockEnd
  0
BLOCK
  5
151
330
150
100
AcDbEntity
  8
0
100
AcDbBlockBegin
  2
*D27
 70
     1
 10
0.0
 20
0.0
 30
0.0
  3
*D27
  1

  0
TEXT
  5
152
330
150
100
AcDbEntity
  8
CSLAYER1
 62
     4
100
AcDbText
 10
239.8881189999999
 20
147.553482
 30
0.0
 40
3.2
  1
35
 41
1.200000187500016
 51
15.0
  7
FX_FONT
 72
     5
 11
246.28812
 21
147.553482
 31
0.0
100
AcDbText
  0
LINE
  5
153
330
150
100
AcDbEntity
  8
CSLAYER1
  6
CONTINUOUS
 62
     4
100
AcDbLine
 10
225.588118
 20
147.0534879999999
 30
0.0
 11
260.588118
 21
147.0534879999999
 31
0.0
  0
LINE
  5
154
330
150
100
AcDbEntity
  8
CSLAYER1
  6
CONTINUOUS
 62
     4
100
AcDbLine
 10
225.588118
 20
147.0534879999999
 30
0.0
 11
228.485896
 21
147.829946
 31
0.0
  0
LINE
  5
155
330
150
100
AcDbEntity
  8
CSLAYER1
  6
CONTINUOUS
 62
     4
100
AcDbLine
 10
225.588118
 20
147.0534879999999
 30
0.0
 11
228.485896
 21
146.2770309999999
 31
0.0
  0
LINE
  5
156
330
150
100
AcDbEntity
  8
CSLAYER1
  6
CONTINUOUS
 62
     4
100
AcDbLine
 10
260.588118
 20
147.0534879999999
 30
0.0
 11
257.6903409999999
 21
147.829946
 31
0.0
  0
LINE
  5
157
330
150
100
AcDbEntity
  8
CSLAYER1
  6
CONTINUOUS
 62
     4
100
AcDbLine
 10
260.588118
 20
147.0534879999999
 30
0.0
 11
257.6903409999999
 21
146.2770309999999
 31
0.0
  0
LINE
  5
158
330
150
100
AcDbEntity
  8
CSLAYER1
  6
CONTINUOUS
 62
     4
100
AcDbLine
 10
260.588118
 20
161.02
 30
0.0
 11
260.588118
 21
146.0534879999999
 31
0.0
  0
ENDBLK
  5
159
330
150
100
AcDbEntity
  8
0
100
AcDbBlockEnd
  0
BLOCK
  5
15B
330
15A
100
AcDbEntity
  8
0
100
AcDbBlockBegin
  2
*D28
 70
     1
 10
0.0
 20
0.0
 30
0.0
  3
*D28
  1

  0
TEXT
  5
15C
330
15A
100
AcDbEntity
  8
CSLAYER1
 62
     4
100
AcDbText
 10
249.888119
 20
153.553482
 30
0.0
 40
3.2
  1
15
 41
1.2000001875
 51
15.0
  7
FX_FONT
 72
     5
 11
256.28812
 21
153.553482
 31
0.0
100
AcDbText
  0
LINE
  5
15D
330
15A
100
AcDbEntity
  8
CSLAYER1
  6
CONTINUOUS
 62
     4
100
AcDbLine
 10
245.5881179999999
 20
153.0534879999999
 30
0.0
 11
260.588118
 21
153.0534879999999
 31
0.0
  0
LINE
  5
15E
330
15A
100
AcDbEntity
  8
CSLAYER1
  6
CONTINUOUS
 62
     4
100
AcDbLine
 10
245.5881179999999
 20
153.0534879999999
 30
0.0
 11
248.4858959999999
 21
153.829946
 31
0.0
  0
LINE
  5
15F
330
15A
100
AcDbEntity
  8
CSLAYER1
  6
CONTINUOUS
 62
     4
100
AcDbLine
 10
245.5881179999999
 20
153.0534879999999
 30
0.0
 11
248.4858959999999
 21
152.277031
 31
0.0
  0
LINE
  5
160
330
15A
100
AcDbEntity
  8
CSLAYER1
  6
CONTINUOUS
 62
     4
100
AcDbLine
 10
260.588118
 20
153.0534879999999
 30
0.0
 11
257.6903409999999
 21
153.829946
 31
0.0
  0
LINE
  5
161
330
15A
100
AcDbEntity
  8
CSLAYER1
  6
CONTINUOUS
 62
     4
100
AcDbLine
 10
260.588118
 20
153.0534879999999
 30
0.0
 11
257.6903409999999
 21
152.277031
 31
0.0
  0
LINE
  5
162
330
15A
100
AcDbEntity
  8
CSLAYER1
  6
CONTINUOUS
 62
     4
100
AcDbLine
 10
245.5881179999999
 20
161.02
 30
0.0
 11
245.5881179999999
 21
152.0534879999999
 31
0.0
  0
ENDBLK
  5
163
330
15A
100
AcDbEntity
  8
0
100
AcDbBlockEnd
  0
BLOCK
  5
165
330
164
100
AcDbEntity
  8
0
100
AcDbBlockBegin
  2
*D29
 70
     1
 10
0.0
 20
0.0
 30
0.0
  3
*D29
  1

  0
TEXT
  5
166
330
164
100
AcDbEntity
  8
CSLAYER1
 62
     4
100
AcDbText
 10
242.3881189999999
 20
54.49485799999999
 30
0.0
 40
3.2
  1
30
 41
1.200000187500016
 51
15.0
  7
FX_FONT
 72
     5
 11
248.78812
 21
54.49485799999999
 31
0.0
100
AcDbText
  0
LINE
  5
167
330
164
100
AcDbEntity
  8
CSLAYER1
  6
CONTINUOUS
 62
     4
100
AcDbLine
 10
230.588118
 20
53.99485699999999
 30
0.0
 11
260.588118
 21
53.99485699999999
 31
0.0
  0
LINE
  5
168
330
164
100
AcDbEntity
  8
CSLAYER1
  6
CONTINUOUS
 62
     4
100
AcDbLine
 10
230.588118
 20
53.99485699999999
 30
0.0
 11
233.485896
 21
54.77131400000001
 31
0.0
  0
LINE
  5
169
330
164
100
AcDbEntity
  8
CSLAYER1
  6
CONTINUOUS
 62
     4
100
AcDbLine
 10
230.588118
 20
53.99485699999999
 30
0.0
 11
233.485896
 21
53.2184
 31
0.0
  0
LINE
  5
16A
330
164
100
AcDbEntity
  8
CSLAYER1
  6
CONTINUOUS
 62
     4
100
AcDbLine
 10
260.588118
 20
53.99485699999999
 30
0.0
 11
257.6903409999999
 21
54.77131400000001
 31
0.0
  0
LINE
  5
16B
330
164
100
AcDbEntity
  8
CSLAYER1
  6
CONTINUOUS
 62
     4
100
AcDbLine
 10
260.588118
 20
53.99485699999999
 30
0.0
 11
257.6903409999999
 21
53.2184
 31
0.0
  0
LINE
  5
16C
330
164
100
AcDbEntity
  8
CSLAYER1
  6
CONTINUOUS
 62
     4
100
AcDbLine
 10
260.588118
 20
65.13428600000001
 30
0.0
 11
260.588118
 21
52.99485699999999
 31
0.0
  0
ENDBLK
  5
16D
330
164
100
AcDbEntity
  8
0
100
AcDbBlockEnd
  0
BLOCK
  5
33D
330
330
100
AcDbEntity
  8
0
100
AcDbBlockBegin
  2
*D30
 70
     1
 10
0.0
 20
0.0
 30
0.0
  3
*D30
  1

  0
LINE
  5
331
330
330
100
AcDbEntity
  8
CSLAYER1
 62
     0
100
AcDbLine
 10
303.8904560000001
 20
190.02
 30
0.0
 11
294.2812371969694
 21
190.02
 31
0.0
  0
LINE
  5
332
330
330
100
AcDbEntity
  8
CSLAYER1
 62
     0
100
AcDbLine
 10
319.7508148261758
 20
172.1273068261758
 30
0.0
 11
306.9817522675296
 21
159.3582442675296
 31
0.0
  0
ARC
  5
333
330
330
100
AcDbEntity
  8
CSLAYER1
 62
     0
100
AcDbCircle
 10
337.643508
 20
190.0199999999999
 30
0.0
 40
43.1822708030304
100
AcDbArc
 50
180.2388306030945
 51
202.2417320387837
  0
ARC
  5
334
330
330
100
AcDbEntity
  8
CSLAYER1
 62
     0
100
AcDbCircle
 10
337.643508
 20
190.0199999999999
 30
0.0
 40
43.1822708030304
100
AcDbArc
 50
202.7587510854682
 51
224.7611693969053
  0
SOLID
  5
335
330
330
100
AcDbEntity
  8
CSLAYER1
 62
     0
100
AcDbTrace
 10
294.4316124160897
 20
189.8399378652858
 30
0.0
 11
294.4916122857744
 21
189.8400629166065
 31
0.0
 12
294.4612371969696
 22
190.02
 32
0.0
 13
294.4612371969696
 23
190.02
 33
0.0
  0
SOLID
  5
336
330
330
100
AcDbEntity
  8
CSLAYER1
 62
     0
100
AcDbTrace
 10
307.0032751875618
 20
159.6342366512706
 30
0.0
 11
306.9607604482006
 21
159.5918987611833
 31
0.0
 12
307.1090314881432
 22
159.4855234881433
 32
0.0
 13
307.1090314881432
 23
159.4855234881433
 33
0.0
  0
MTEXT
  5
337
330
330
100
AcDbEntity
  8
CSLAYER1
 62
     0
100
AcDbMText
 10
297.7482918377202
 20
173.4948603917775
 30
0.0
 40
0.18
 41
0.0
 71
     5
 72
     1
  1
\A1;45°
1001
ACAD
1000
MTEXTBEGIN
1070
    73
1070
     1
1070
    44
1040
1.0
1070
    74
1070
     0
1000
MTEXTEND
  0
POINT
  5
338
330
330
100
AcDbEntity
  8
DEFPOINTS
 62
     0
100
AcDbPoint
 10
295.9326373935445
 20
178.8436059054012
 30
0.0
  0
POINT
  5
339
330
330
100
AcDbEntity
  8
DEFPOINTS
 62
     0
100
AcDbPoint
 10
337.643508
 20
190.0199999999999
 30
0.0
  0
POINT
  5
33A
330
330
100
AcDbEntity
  8
DEFPOINTS
 62
     0
100
AcDbPoint
 10
319.7950089999999
 20
172.171501
 30
0.0
  0
POINT
  5
33B
330
330
100
AcDbEntity
  8
DEFPOINTS
 62
     0
100
AcDbPoint
 10
326.9433819999998
 20
179.319874
 30
0.0
  0
POINT
  5
33C
330
330
100
AcDbEntity
  8
DEFPOINTS
 62
     0
100
AcDbPoint
 10
303.952956
 20
190.02
 30
0.0
  0
ENDBLK
  5
33E
330
330
100
AcDbEntity
  8
0
100
AcDbBlockEnd
  0
ENDSEC
  0
SECTION
  2
ENTITIES
  0
LINE
  5
16E
330
1E
100
AcDbEntity
  8
CSLAYER1
  6
CONTINUOUS
 62
     3
100
AcDbLine
 10
280.588118
 20
67.63428600000001
 30
0.0
 11
280.588118
 21
120.634286
 31
0.0
  0
LINE
  5
16F
330
1E
100
AcDbEntity
  8
CSLAYER1
  6
CONTINUOUS
 62
     3
100
AcDbLine
 10
280.588118
 20
120.634286
 30
0.0
 11
279.0881179999999
 21
122.134286
 31
0.0
  0
LINE
  5
170
330
1E
100
AcDbEntity
  8
CSLAYER1
  6
CONTINUOUS
 62
     3
100
AcDbLine
 10
279.0881179999999
 20
122.134286
 30
0.0
 11
145.5881179999998
 21
122.134286
 31
0.0
  0
ARC
  5
171
330
1E
100
AcDbEntity
  8
CSLAYER1
  6
CONTINUOUS
 62
     3
100
AcDbCircle
 10
132.17171
 20
126.134286
 30
0.0
 40
14.0
100
AcDbArc
 50
270.0
 51
343.39845
  0
LINE
  5
172
330
1E
100
AcDbEntity
  8
CSLAYER1
  6
CONTINUOUS
 62
     3
100
AcDbLine
 10
132.17171
 20
112.134286
 30
0.0
 11
110.5881179999999
 21
112.134286
 31
0.0
  0
LINE
  5
173
330
1E
100
AcDbEntity
  8
CSLAYER1
  6
CONTINUOUS
 62
     3
100
AcDbLine
 10
110.5881179999999
 20
112.134286
 30
0.0
 11
110.5881179999999
 21
102.6342859999999
 31
0.0
  0
LINE
  5
174
330
1E
100
AcDbEntity
  8
CSLAYER1
  6
CONTINUOUS
 62
     3
100
AcDbLine
 10
110.5881179999999
 20
102.6342859999999
 30
0.0
 11
156.788118
 21
102.6342859999999
 31
0.0
  0
LINE
  5
175
330
1E
100
AcDbEntity
  8
CSLAYER1
  6
CONTINUOUS
 62
     3
100
AcDbLine
 10
156.788118
 20
102.6342859999999
 30
0.0
 11
156.788118
 21
85.63428599999998
 31
0.0
  0
LINE
  5
176
330
1E
100
AcDbEntity
  8
CSLAYER1
  6
CONTINUOUS
 62
     3
100
AcDbLine
 10
156.788118
 20
85.63428599999998
 30
0.0
 11
110.5881179999999
 21
85.63428599999998
 31
0.0
  0
LINE
  5
177
330
1E
100
AcDbEntity
  8
CSLAYER1
  6
CONTINUOUS
 62
     3
100
AcDbLine
 10
110.5881179999999
 20
85.63428599999998
 30
0.0
 11
110.5881179999999
 21
76.134286
 31
0.0
  0
LINE
  5
178
330
1E
100
AcDbEntity
  8
CSLAYER1
  6
CONTINUOUS
 62
     3
100
AcDbLine
 10
110.5881179999999
 20
76.134286
 30
0.0
 11
132.17171
 21
76.134286
 31
0.0
  0
ARC
  5
179
330
1E
100
AcDbEntity
  8
CSLAYER1
  6
CONTINUOUS
 62
     3
100
AcDbCircle
 10
132.17171
 20
62.134286
 30
0.0
 40
14.0
100
AcDbArc
 50
16.60155
 51
90.0
  0
LINE
  5
17A
330
1E
100
AcDbEntity
  8
CSLAYER1
  6
CONTINUOUS
 62
     3
100
AcDbLine
 10
145.5881179999998
 20
66.134286
 30
0.0
 11
279.0881179999999
 21
66.134286
 31
0.0
  0
LINE
  5
17B
330
1E
100
AcDbEntity
  8
CSLAYER1
  6
CONTINUOUS
 62
     3
100
AcDbLine
 10
279.0881179999999
 20
66.134286
 30
0.0
 11
280.588118
 21
67.63428600000001
 31
0.0
  0
LINE
  5
17C
330
1E
100
AcDbEntity
  8
CSLAYER1
  6
CONTINUOUS
 62
     3
100
AcDbLine
 10
279.0881179999999
 20
66.134286
 30
0.0
 11
279.0881179999999
 21
78.165566
 31
0.0
  0
LINE
  5
17D
330
1E
100
AcDbEntity
  8
CSLAYER1
  6
CONTINUOUS
 62
     3
100
AcDbLine
 10
279.0881179999999
 20
78.165566
 30
0.0
 11
267.588118
 21
78.165566
 31
0.0
  0
ARC
  5
17E
330
1E
100
AcDbEntity
  8
CSLAYER1
  6
CONTINUOUS
 62
     3
100
AcDbCircle
 10
267.588118
 20
80.16556599999999
 30
0.0
 40
2.0
100
AcDbArc
 50
180.0
 51
270.0
  0
LINE
  5
17F
330
1E
100
AcDbEntity
  8
CSLAYER1
  6
CONTINUOUS
 62
     3
100
AcDbLine
 10
265.588118
 20
80.16556599999999
 30
0.0
 11
265.588118
 21
108.103005
 31
0.0
  0
ARC
  5
180
330
1E
100
AcDbEntity
  8
CSLAYER1
  6
CONTINUOUS
 62
     3
100
AcDbCircle
 10
267.588118
 20
108.103005
 30
0.0
 40
2.0
100
AcDbArc
 50
90.0
 51
180.0
  0
LINE
  5
181
330
1E
100
AcDbEntity
  8
CSLAYER1
  6
CONTINUOUS
 62
     3
100
AcDbLine
 10
267.588118
 20
110.103005
 30
0.0
 11
279.0881179999999
 21
110.103005
 31
0.0
  0
LINE
  5
182
330
1E
100
AcDbEntity
  8
CSLAYER1
  6
CONTINUOUS
 62
     3
100
AcDbLine
 10
279.0881179999999
 20
110.103005
 30
0.0
 11
279.0881179999999
 21
122.134286
 31
0.0
  0
LINE
  5
183
330
1E
100
AcDbEntity
  8
CSLAYER1
  6
CONTINUOUS
 62
     3
100
AcDbLine
 10
279.0881179999999
 20
110.103005
 30
0.0
 11
280.588118
 21
108.603005
 31
0.0
  0
LINE
  5
184
330
1E
100
AcDbEntity
  8
CSLAYER1
  6
CONTINUOUS
 62
     3
100
AcDbLine
 10
260.588118
 20
103.904615
 30
0.0
 11
259.588118
 21
104.9046149999999
 31
0.0
  0
LINE
  5
185
330
1E
100
AcDbEntity
  8
CSLAYER1
  6
CONTINUOUS
 62
     3
100
AcDbLine
 10
259.588118
 20
104.9046149999999
 30
0.0
 11
247.588118
 21
104.9046149999999
 31
0.0
  0
ARC
  5
186
330
1E
100
AcDbEntity
  8
CSLAYER1
  6
CONTINUOUS
 62
     3
100
AcDbCircle
 10
247.588118
 20
106.9046149999999
 30
0.0
 40
2.0
100
AcDbArc
 50
180.0
 51
270.0
  0
LINE
  5
187
330
1E
100
AcDbEntity
  8
CSLAYER1
  6
CONTINUOUS
 62
     3
100
AcDbLine
 10
245.5881179999999
 20
106.9046149999999
 30
0.0
 11
245.5881179999999
 21
122.134286
 31
0.0
  0
LINE
  5
188
330
1E
100
AcDbEntity
  8
CSLAYER1
  6
CONTINUOUS
 62
     3
100
AcDbLine
 10
260.588118
 20
122.134286
 30
0.0
 11
260.588118
 21
66.134286
 31
0.0
  0
LINE
  5
189
330
1E
100
AcDbEntity
  8
CSLAYER1
  6
CONTINUOUS
 62
     3
100
AcDbLine
 10
245.5881179999999
 20
66.134286
 30
0.0
 11
245.5881179999999
 21
81.363956
 31
0.0
  0
ARC
  5
18A
330
1E
100
AcDbEntity
  8
CSLAYER1
  6
CONTINUOUS
 62
     3
100
AcDbCircle
 10
247.588118
 20
81.363956
 30
0.0
 40
2.0
100
AcDbArc
 50
90.0
 51
180.0
  0
LINE
  5
18B
330
1E
100
AcDbEntity
  8
CSLAYER1
  6
CONTINUOUS
 62
     3
100
AcDbLine
 10
247.588118
 20
83.36395600000001
 30
0.0
 11
259.588118
 21
83.36395600000001
 31
0.0
  0
LINE
  5
18C
330
1E
100
AcDbEntity
  8
CSLAYER1
  6
CONTINUOUS
 62
     3
100
AcDbLine
 10
259.588118
 20
83.36395600000001
 30
0.0
 11
260.588118
 21
84.363956
 31
0.0
  0
LINE
  5
18D
330
1E
100
AcDbEntity
  8
CSLAYER1
  6
CONTINUOUS
 62
     3
100
AcDbLine
 10
259.588118
 20
83.36395600000001
 30
0.0
 11
259.588118
 21
104.9046149999999
 31
0.0
  0
CIRCLE
  5
18E
330
1E
100
AcDbEntity
  8
CSLAYER1
  6
CONTINUOUS
 62
     3
100
AcDbCircle
 10
230.588118
 20
117.134286
 30
0.0
 40
2.1
  0
LINE
  5
18F
330
1E
100
AcDbEntity
  8
CSLAYER1
  6
CONTINUOUS
 62
     3
100
AcDbLine
 10
225.588118
 20
122.134286
 30
0.0
 11
225.588118
 21
66.134286
 31
0.0
  0
CIRCLE
  5
190
330
1E
100
AcDbEntity
  8
CSLAYER1
  6
CONTINUOUS
 62
     3
100
AcDbCircle
 10
230.588118
 20
71.134286
 30
0.0
 40
2.1
  0
LINE
  5
191
330
1E
100
AcDbEntity
  8
CSLAYER1
  6
CONTINUOUS
 62
     3
100
AcDbLine
 10
185.5881179999999
 20
66.134286
 30
0.0
 11
185.5881179999999
 21
122.134286
 31
0.0
  0
CIRCLE
  5
192
330
1E
100
AcDbEntity
  8
CSLAYER1
  6
CONTINUOUS
 62
     3
100
AcDbCircle
 10
170.5881179999998
 20
117.134286
 30
0.0
 40
2.1
  0
LINE
  5
193
330
1E
100
AcDbEntity
  8
CSLAYER1
  6
CONTINUOUS
 62
     3
100
AcDbLine
 10
145.5881179999998
 20
122.134286
 30
0.0
 11
145.5881179999998
 21
102.6342859999999
 31
0.0
  0
LINE
  5
194
330
1E
100
AcDbEntity
  8
CSLAYER1
  6
CONTINUOUS
 62
     3
100
AcDbLine
 10
132.0881179999998
 20
112.134286
 30
0.0
 11
132.0881179999998
 21
112.834286
 31
0.0
  0
LINE
  5
195
330
1E
100
AcDbEntity
  8
CSLAYER1
  6
CONTINUOUS
 62
     3
100
AcDbLine
 10
132.0881179999998
 20
112.834286
 30
0.0
 11
119.0881179999999
 21
112.834286
 31
0.0
  0
LINE
  5
196
330
1E
100
AcDbEntity
  8
CSLAYER1
  6
CONTINUOUS
 62
     3
100
AcDbLine
 10
119.0881179999999
 20
112.834286
 30
0.0
 11
119.0881179999999
 21
112.134286
 31
0.0
  0
LINE
  5
197
330
1E
100
AcDbEntity
  8
CSLAYER1
  6
CONTINUOUS
 62
     3
100
AcDbLine
 10
119.0881179999999
 20
112.834286
 30
0.0
 11
119.3881179999999
 21
113.134286
 31
0.0
  0
LINE
  5
198
330
1E
100
AcDbEntity
  8
CSLAYER1
  6
CONTINUOUS
 62
     3
100
AcDbLine
 10
119.3881179999999
 20
113.134286
 30
0.0
 11
131.788118
 21
113.134286
 31
0.0
  0
LINE
  5
199
330
1E
100
AcDbEntity
  8
CSLAYER1
  6
CONTINUOUS
 62
     3
100
AcDbLine
 10
131.788118
 20
113.134286
 30
0.0
 11
132.0881179999998
 21
112.834286
 31
0.0
  0
LINE
  5
19A
330
1E
100
AcDbEntity
  8
CSLAYER1
  6
CONTINUOUS
 62
     3
100
AcDbLine
 10
129.0881179999999
 20
113.634286
 30
0.0
 11
127.0881179999999
 21
113.634286
 31
0.0
  0
ARC
  5
19B
330
1E
100
AcDbEntity
  8
CSLAYER1
  6
CONTINUOUS
 62
     3
100
AcDbCircle
 10
127.0881179999999
 20
114.134286
 30
0.0
 40
0.5
100
AcDbArc
 50
90.0
 51
270.0
  0
LINE
  5
19C
330
1E
100
AcDbEntity
  8
CSLAYER1
  6
CONTINUOUS
 62
     3
100
AcDbLine
 10
127.0881179999999
 20
114.634286
 30
0.0
 11
129.0881179999999
 21
114.634286
 31
0.0
  0
CIRCLE
  5
19D
330
1E
100
AcDbEntity
  8
CSLAYER1
  6
CONTINUOUS
 62
     3
100
AcDbCircle
 10
129.0881179999999
 20
114.134286
 30
0.0
 40
0.5
  0
LINE
  5
19E
330
1E
100
AcDbEntity
  8
CSLAYER1
  6
CONTINUOUS
 62
     3
100
AcDbLine
 10
128.0881179999999
 20
114.634286
 30
0.0
 11
128.0881179999999
 21
115.634286
 31
0.0
  0
LINE
  5
19F
330
1E
100
AcDbEntity
  8
CSLAYER1
  6
CONTINUOUS
 62
     3
100
AcDbLine
 10
128.0881179999999
 20
115.634286
 30
0.0
 11
127.588118
 21
116.134286
 31
0.0
  0
LINE
  5
1A0
330
1E
100
AcDbEntity
  8
CSLAYER1
  6
CONTINUOUS
 62
     3
100
AcDbLine
 10
127.588118
 20
116.134286
 30
0.0
 11
123.588118
 21
116.134286
 31
0.0
  0
LINE
  5
1A1
330
1E
100
AcDbEntity
  8
CSLAYER1
  6
CONTINUOUS
 62
     3
100
AcDbLine
 10
123.588118
 20
116.134286
 30
0.0
 11
123.0881179999999
 21
115.634286
 31
0.0
  0
LINE
  5
1A2
330
1E
100
AcDbEntity
  8
CSLAYER1
  6
CONTINUOUS
 62
     3
100
AcDbLine
 10
123.0881179999999
 20
115.634286
 30
0.0
 11
123.0881179999999
 21
113.134286
 31
0.0
  0
LINE
  5
1A3
330
1E
100
AcDbEntity
  8
CSLAYER1
  6
CONTINUOUS
 62
     3
100
AcDbLine
 10
123.0881179999999
 20
115.634286
 30
0.0
 11
128.0881179999999
 21
115.634286
 31
0.0
  0
LINE
  5
1A4
330
1E
100
AcDbEntity
  8
CSLAYER1
  6
CONTINUOUS
 62
     3
100
AcDbLine
 10
128.0881179999999
 20
113.634286
 30
0.0
 11
128.0881179999999
 21
113.134286
 31
0.0
  0
CIRCLE
  5
1A5
330
1E
100
AcDbEntity
  8
CSLAYER1
  6
CONTINUOUS
 62
     3
100
AcDbCircle
 10
125.588118
 20
114.134286
 30
0.0
 40
0.6
  0
CIRCLE
  5
1A6
330
1E
100
AcDbEntity
  8
CSLAYER1
  6
CONTINUOUS
 62
     3
100
AcDbCircle
 10
125.588118
 20
114.134286
 30
0.0
 40
0.5
  0
LINE
  5
1A7
330
1E
100
AcDbEntity
  8
CSLAYER1
  6
CONTINUOUS
 62
     3
100
AcDbLine
 10
128.0881179999999
 20
102.6342859999999
 30
0.0
 11
128.0881179999999
 21
85.63428599999998
 31
0.0
  0
LINE
  5
1A8
330
1E
100
AcDbEntity
  8
CSLAYER1
  6
CONTINUOUS
 62
     3
100
AcDbLine
 10
123.0881179999999
 20
85.63428599999998
 30
0.0
 11
123.0881179999999
 21
102.6342859999999
 31
0.0
  0
LINE
  5
1A9
330
1E
100
AcDbEntity
  8
CSLAYER1
  6
CONTINUOUS
 62
     3
100
AcDbLine
 10
119.0881179999999
 20
76.134286
 30
0.0
 11
119.0881179999999
 21
75.434286
 31
0.0
  0
LINE
  5
1AA
330
1E
100
AcDbEntity
  8
CSLAYER1
  6
CONTINUOUS
 62
     3
100
AcDbLine
 10
119.0881179999999
 20
75.434286
 30
0.0
 11
119.3881179999999
 21
75.13428600000001
 31
0.0
  0
LINE
  5
1AB
330
1E
100
AcDbEntity
  8
CSLAYER1
  6
CONTINUOUS
 62
     3
100
AcDbLine
 10
119.3881179999999
 20
75.13428600000001
 30
0.0
 11
131.788118
 21
75.13428600000001
 31
0.0
  0
LINE
  5
1AC
330
1E
100
AcDbEntity
  8
CSLAYER1
  6
CONTINUOUS
 62
     3
100
AcDbLine
 10
131.788118
 20
75.13428600000001
 30
0.0
 11
132.0881179999998
 21
75.434286
 31
0.0
  0
LINE
  5
1AD
330
1E
100
AcDbEntity
  8
CSLAYER1
  6
CONTINUOUS
 62
     3
100
AcDbLine
 10
132.0881179999998
 20
75.434286
 30
0.0
 11
119.0881179999999
 21
75.434286
 31
0.0
  0
LINE
  5
1AE
330
1E
100
AcDbEntity
  8
CSLAYER1
  6
CONTINUOUS
 62
     3
100
AcDbLine
 10
123.0881179999999
 20
75.13428600000001
 30
0.0
 11
123.0881179999999
 21
72.63428600000001
 31
0.0
  0
LINE
  5
1AF
330
1E
100
AcDbEntity
  8
CSLAYER1
  6
CONTINUOUS
 62
     3
100
AcDbLine
 10
123.0881179999999
 20
72.63428600000001
 30
0.0
 11
123.588118
 21
72.134286
 31
0.0
  0
LINE
  5
1B0
330
1E
100
AcDbEntity
  8
CSLAYER1
  6
CONTINUOUS
 62
     3
100
AcDbLine
 10
123.588118
 20
72.134286
 30
0.0
 11
127.588118
 21
72.134286
 31
0.0
  0
LINE
  5
1B1
330
1E
100
AcDbEntity
  8
CSLAYER1
  6
CONTINUOUS
 62
     3
100
AcDbLine
 10
127.588118
 20
72.134286
 30
0.0
 11
128.0881179999999
 21
72.63428600000001
 31
0.0
  0
LINE
  5
1B2
330
1E
100
AcDbEntity
  8
CSLAYER1
  6
CONTINUOUS
 62
     3
100
AcDbLine
 10
128.0881179999999
 20
72.63428600000001
 30
0.0
 11
128.0881179999999
 21
73.634286
 31
0.0
  0
LINE
  5
1B3
330
1E
100
AcDbEntity
  8
CSLAYER1
  6
CONTINUOUS
 62
     3
100
AcDbLine
 10
128.0881179999999
 20
73.634286
 30
0.0
 11
124.0881179999999
 21
73.634286
 31
0.0
  0
ARC
  5
1B4
330
1E
100
AcDbEntity
  8
CSLAYER1
  6
CONTINUOUS
 62
     3
100
AcDbCircle
 10
124.0881179999999
 20
74.134286
 30
0.0
 40
0.5
100
AcDbArc
 50
90.0
 51
270.0
  0
LINE
  5
1B5
330
1E
100
AcDbEntity
  8
CSLAYER1
  6
CONTINUOUS
 62
     3
100
AcDbLine
 10
124.0881179999999
 20
74.634286
 30
0.0
 11
128.0881179999999
 21
74.634286
 31
0.0
  0
LINE
  5
1B6
330
1E
100
AcDbEntity
  8
CSLAYER1
  6
CONTINUOUS
 62
     3
100
AcDbLine
 10
128.0881179999999
 20
74.634286
 30
0.0
 11
128.0881179999999
 21
75.13428600000001
 31
0.0
  0
ARC
  5
1B7
330
1E
100
AcDbEntity
  8
CSLAYER1
  6
CONTINUOUS
 62
     3
100
AcDbCircle
 10
128.0881179999999
 20
74.134286
 30
0.0
 40
0.5
100
AcDbArc
 50
270.0
 51
90.0
  0
LINE
  5
1B8
330
1E
100
AcDbEntity
  8
CSLAYER1
  6
CONTINUOUS
 62
     3
100
AcDbLine
 10
128.0881179999999
 20
72.63428600000001
 30
0.0
 11
123.0881179999999
 21
72.63428600000001
 31
0.0
  0
ARC
  5
1B9
330
1E
100
AcDbEntity
  8
CSLAYER1
  6
CONTINUOUS
 62
     3
100
AcDbCircle
 10
125.588118
 20
74.134286
 30
0.0
 40
0.6
100
AcDbArc
 50
236.44269
 51
303.55731
  0
LINE
  5
1BA
330
1E
100
AcDbEntity
  8
CSLAYER1
  6
CONTINUOUS
 62
     3
100
AcDbLine
 10
145.5881179999998
 20
66.134286
 30
0.0
 11
145.5881179999998
 21
85.63428599999998
 31
0.0
  0
LINE
  5
1BB
330
1E
100
AcDbEntity
  8
CSLAYER1
  6
CONTINUOUS
 62
     3
100
AcDbLine
 10
132.0881179999998
 20
76.134286
 30
0.0
 11
132.0881179999998
 21
75.434286
 31
0.0
  0
ARC
  5
1BC
330
1E
100
AcDbEntity
  8
CSLAYER1
  6
CONTINUOUS
 62
     3
100
AcDbCircle
 10
125.588118
 20
74.134286
 30
0.0
 40
0.6
100
AcDbArc
 50
56.44269000000001
 51
123.55731
  0
CIRCLE
  5
1BD
330
1E
100
AcDbEntity
  8
CSLAYER1
  6
CONTINUOUS
 62
     3
100
AcDbCircle
 10
170.5881179999998
 20
71.134286
 30
0.0
 40
2.1
  0
LINE
  5
1BE
330
1E
100
AcDbEntity
  8
CSLAYER1
  6
CONTINUOUS
 62
     3
100
AcDbLine
 10
279.0881179999999
 20
78.165566
 30
0.0
 11
280.588118
 21
79.665566
 31
0.0
  0
LINE
  5
1BF
330
1E
100
AcDbEntity
  8
CSLAYER1
  6
CONTINUOUS
 62
     3
100
AcDbLine
 10
265.588118
 20
162.02
 30
0.0
 11
265.588118
 21
165.02
 31
0.0
  0
ARC
  5
1C0
330
1E
100
AcDbEntity
  8
CSLAYER1
  6
CONTINUOUS
 62
     3
100
AcDbCircle
 10
267.588118
 20
165.02
 30
0.0
 40
2.0
100
AcDbArc
 50
90.0
 51
180.0
  0
LINE
  5
1C1
330
1E
100
AcDbEntity
  8
CSLAYER1
  6
CONTINUOUS
 62
     3
100
AcDbLine
 10
267.588118
 20
167.02
 30
0.0
 11
279.0881179999999
 21
167.02
 31
0.0
  0
LINE
  5
1C2
330
1E
100
AcDbEntity
  8
CSLAYER1
  6
CONTINUOUS
 62
     3
100
AcDbLine
 10
279.0881179999999
 20
167.02
 30
0.0
 11
280.588118
 21
168.52
 31
0.0
  0
LINE
  5
1C3
330
1E
100
AcDbEntity
  8
CSLAYER1
  6
CONTINUOUS
 62
     3
100
AcDbLine
 10
280.588118
 20
168.52
 30
0.0
 11
280.588118
 21
211.52
 31
0.0
  0
LINE
  5
1C4
330
1E
100
AcDbEntity
  8
CSLAYER1
  6
CONTINUOUS
 62
     3
100
AcDbLine
 10
280.588118
 20
211.52
 30
0.0
 11
279.0881179999999
 21
213.02
 31
0.0
  0
LINE
  5
1C5
330
1E
100
AcDbEntity
  8
CSLAYER1
  6
CONTINUOUS
 62
     3
100
AcDbLine
 10
279.0881179999999
 20
213.02
 30
0.0
 11
267.588118
 21
213.02
 31
0.0
  0
ARC
  5
1C6
330
1E
100
AcDbEntity
  8
CSLAYER1
  6
CONTINUOUS
 62
     3
100
AcDbCircle
 10
267.588118
 20
215.02
 30
0.0
 40
2.0
100
AcDbArc
 50
180.0
 51
270.0
  0
LINE
  5
1C7
330
1E
100
AcDbEntity
  8
CSLAYER1
  6
CONTINUOUS
 62
     3
100
AcDbLine
 10
265.588118
 20
215.02
 30
0.0
 11
265.588118
 21
218.02
 31
0.0
  0
LINE
  5
1C8
330
1E
100
AcDbEntity
  8
CSLAYER1
  6
CONTINUOUS
 62
     3
100
AcDbLine
 10
265.588118
 20
218.02
 30
0.0
 11
260.888118
 21
218.02
 31
0.0
  0
LINE
  5
1C9
330
1E
100
AcDbEntity
  8
CSLAYER1
  6
CONTINUOUS
 62
     3
100
AcDbLine
 10
260.888118
 20
218.02
 30
0.0
 11
260.588118
 21
217.72
 31
0.0
  0
LINE
  5
1CA
330
1E
100
AcDbEntity
  8
CSLAYER1
  6
CONTINUOUS
 62
     3
100
AcDbLine
 10
260.588118
 20
218.02
 30
0.0
 11
145.5881179999998
 21
218.02
 31
0.0
  0
LINE
  5
1CB
330
1E
100
AcDbEntity
  8
CSLAYER1
  6
CONTINUOUS
 62
     3
100
AcDbLine
 10
145.5881179999998
 20
218.02
 30
0.0
 11
110.5881179999999
 21
204.02
 31
0.0
  0
LINE
  5
1CC
330
1E
100
AcDbEntity
  8
CSLAYER1
  6
CONTINUOUS
 62
     3
100
AcDbLine
 10
110.5881179999999
 20
204.02
 30
0.0
 11
110.5881179999999
 21
176.02
 31
0.0
  0
LINE
  5
1CD
330
1E
100
AcDbEntity
  8
CSLAYER1
  6
CONTINUOUS
 62
     3
100
AcDbLine
 10
110.5881179999999
 20
176.02
 30
0.0
 11
145.5881179999998
 21
162.02
 31
0.0
  0
LINE
  5
1CE
330
1E
100
AcDbEntity
  8
CSLAYER1
  6
CONTINUOUS
 62
     3
100
AcDbLine
 10
145.5881179999998
 20
162.02
 30
0.0
 11
260.588118
 21
162.02
 31
0.0
  0
LINE
  5
1CF
330
1E
100
AcDbEntity
  8
CSLAYER1
  6
CONTINUOUS
 62
     3
100
AcDbLine
 10
260.588118
 20
162.02
 30
0.0
 11
260.588118
 21
218.02
 31
0.0
  0
LINE
  5
1D0
330
1E
100
AcDbEntity
  8
CSLAYER1
  6
CONTINUOUS
 62
     3
100
AcDbLine
 10
245.5881179999999
 20
218.02
 30
0.0
 11
245.5881179999999
 21
202.79033
 31
0.0
  0
ARC
  5
1D1
330
1E
100
AcDbEntity
  8
CSLAYER1
  6
CONTINUOUS
 62
     3
100
AcDbCircle
 10
247.588118
 20
202.79033
 30
0.0
 40
2.0
100
AcDbArc
 50
180.0
 51
270.0
  0
LINE
  5
1D2
330
1E
100
AcDbEntity
  8
CSLAYER1
  6
CONTINUOUS
 62
     3
100
AcDbLine
 10
247.588118
 20
200.79033
 30
0.0
 11
259.588118
 21
200.79033
 31
0.0
  0
LINE
  5
1D3
330
1E
100
AcDbEntity
  8
CSLAYER1
  6
CONTINUOUS
 62
     3
100
AcDbLine
 10
259.588118
 20
200.79033
 30
0.0
 11
259.588118
 21
179.24967
 31
0.0
  0
LINE
  5
1D4
330
1E
100
AcDbEntity
  8
CSLAYER1
  6
CONTINUOUS
 62
     3
100
AcDbLine
 10
259.588118
 20
179.24967
 30
0.0
 11
247.588118
 21
179.24967
 31
0.0
  0
ARC
  5
1D5
330
1E
100
AcDbEntity
  8
CSLAYER1
  6
CONTINUOUS
 62
     3
100
AcDbCircle
 10
247.588118
 20
177.24967
 30
0.0
 40
2.0
100
AcDbArc
 50
90.0
 51
180.0
  0
LINE
  5
1D6
330
1E
100
AcDbEntity
  8
CSLAYER1
  6
CONTINUOUS
 62
     3
100
AcDbLine
 10
245.5881179999999
 20
177.24967
 30
0.0
 11
245.5881179999999
 21
162.02
 31
0.0
  0
CIRCLE
  5
1D7
330
1E
100
AcDbEntity
  8
CSLAYER1
  6
CONTINUOUS
 62
     3
100
AcDbCircle
 10
240.588118
 20
167.02
 30
0.0
 40
2.1
  0
LINE
  5
1D8
330
1E
100
AcDbEntity
  8
CSLAYER1
  6
CONTINUOUS
 62
     3
100
AcDbLine
 10
225.588118
 20
162.02
 30
0.0
 11
225.588118
 21
218.02
 31
0.0
  0
CIRCLE
  5
1D9
330
1E
100
AcDbEntity
  8
CSLAYER1
  6
CONTINUOUS
 62
     3
100
AcDbCircle
 10
240.588118
 20
213.02
 30
0.0
 40
2.1
  0
LINE
  5
1DA
330
1E
100
AcDbEntity
  8
CSLAYER1
  6
CONTINUOUS
 62
     3
100
AcDbLine
 10
259.588118
 20
200.79033
 30
0.0
 11
260.588118
 21
199.79033
 31
0.0
  0
LINE
  5
1DB
330
1E
100
AcDbEntity
  8
CSLAYER1
  6
CONTINUOUS
 62
     3
100
AcDbLine
 10
260.588118
 20
180.24967
 30
0.0
 11
259.588118
 21
179.24967
 31
0.0
  0
LINE
  5
1DC
330
1E
100
AcDbEntity
  8
CSLAYER1
  6
CONTINUOUS
 62
     3
100
AcDbLine
 10
260.588118
 20
162.3199999999999
 30
0.0
 11
260.888118
 21
162.02
 31
0.0
  0
LINE
  5
1DD
330
1E
100
AcDbEntity
  8
CSLAYER1
  6
CONTINUOUS
 62
     3
100
AcDbLine
 10
260.888118
 20
162.02
 30
0.0
 11
265.588118
 21
162.02
 31
0.0
  0
LINE
  5
1DE
330
1E
100
AcDbEntity
  8
CSLAYER1
  6
CONTINUOUS
 62
     3
100
AcDbLine
 10
279.0881179999999
 20
167.02
 30
0.0
 11
279.0881179999999
 21
213.02
 31
0.0
  0
LINE
  5
1DF
330
1E
100
AcDbEntity
  8
CSLAYER1
  6
CONTINUOUS
 62
     3
100
AcDbLine
 10
309.643508
 20
218.02
 30
0.0
 11
365.643508
 21
218.02
 31
0.0
  0
LINE
  5
1E0
330
1E
100
AcDbEntity
  8
CSLAYER1
  6
CONTINUOUS
 62
     3
100
AcDbLine
 10
365.643508
 20
218.02
 30
0.0
 11
365.643508
 21
162.02
 31
0.0
  0
LINE
  5
1E1
330
1E
100
AcDbEntity
  8
CSLAYER1
  6
CONTINUOUS
 62
     3
100
AcDbLine
 10
365.643508
 20
162.02
 30
0.0
 11
309.643508
 21
162.02
 31
0.0
  0
LINE
  5
1E2
330
1E
100
AcDbEntity
  8
CSLAYER1
  6
CONTINUOUS
 62
     3
100
AcDbLine
 10
309.643508
 20
162.02
 30
0.0
 11
309.643508
 21
218.02
 31
0.0
  0
LINE
  5
1E3
330
1E
100
AcDbEntity
  8
CSLAYER1
  6
CONTINUOUS
 62
     3
100
AcDbLine
 10
321.674789
 20
213.02
 30
0.0
 11
353.6122279999998
 21
213.02
 31
0.0
  0
ARC
  5
1E4
330
1E
100
AcDbEntity
  8
CSLAYER1
  6
CONTINUOUS
 62
     3
100
AcDbCircle
 10
337.643508
 20
190.02
 30
0.0
 40
26.5
100
AcDbArc
 50
299.7816549999999
 51
60.21834499999999
  0
LINE
  5
1E5
330
1E
100
AcDbEntity
  8
CSLAYER1
  6
CONTINUOUS
 62
     3
100
AcDbLine
 10
353.6122279999998
 20
167.02
 30
0.0
 11
321.674789
 21
167.02
 31
0.0
  0
ARC
  5
1E6
330
1E
100
AcDbEntity
  8
CSLAYER1
  6
CONTINUOUS
 62
     3
100
AcDbCircle
 10
337.643508
 20
190.02
 30
0.0
 40
26.5
100
AcDbArc
 50
119.781655
 51
240.218345
  0
CIRCLE
  5
1E7
330
1E
100
AcDbEntity
  8
CSLAYER1
  6
CONTINUOUS
 62
     3
100
AcDbCircle
 10
337.643508
 20
190.02
 30
0.0
 40
4.25
  0
CIRCLE
  5
1E8
330
1E
100
AcDbEntity
  8
CSLAYER1
  6
CONTINUOUS
 62
     3
100
AcDbCircle
 10
337.643508
 20
190.02
 30
0.0
 40
28.0
  0
CIRCLE
  5
1E9
330
1E
100
AcDbEntity
  8
CSLAYER1
  6
CONTINUOUS
 62
     3
100
AcDbCircle
 10
337.643508
 20
190.02
 30
0.0
 40
3.0
  0
CIRCLE
  5
1EA
330
1E
100
AcDbEntity
  8
CSLAYER1
  6
CONTINUOUS
 62
     3
100
AcDbCircle
 10
323.5013729999999
 20
175.8778639999999
 30
0.0
 40
2.5
  0
CIRCLE
  5
1EB
330
1E
100
AcDbEntity
  8
CSLAYER1
  6
CONTINUOUS
 62
     3
100
AcDbCircle
 10
351.785644
 20
204.162136
 30
0.0
 40
2.5
  0
LINE
  5
1EC
330
1E
100
AcDbEntity
  8
CSLAYER1
  6
CONTINUOUS
 62
     3
100
AcDbLine
 10
185.5881179999999
 20
218.02
 30
0.0
 11
185.5881179999999
 21
162.02
 31
0.0
  0
CIRCLE
  5
1ED
330
1E
100
AcDbEntity
  8
CSLAYER1
  6
CONTINUOUS
 62
     3
100
AcDbCircle
 10
180.5881179999999
 20
167.02
 30
0.0
 40
2.1
  0
LINE
  5
1EE
330
1E
100
AcDbEntity
  8
CSLAYER1
  6
CONTINUOUS
 62
     3
100
AcDbLine
 10
145.5881179999998
 20
162.02
 30
0.0
 11
145.5881179999998
 21
218.02
 31
0.0
  0
ARC
  5
1EF
330
1E
100
AcDbEntity
  8
CSLAYER1
  6
CONTINUOUS
 62
     3
100
AcDbCircle
 10
125.588118
 20
190.02
 30
0.0
 40
6.5
100
AcDbArc
 50
298.649435
 51
67.825022
  0
ARC
  5
1F0
330
1E
100
AcDbEntity
  8
CSLAYER1
  6
CONTINUOUS
 62
     3
100
AcDbCircle
 10
125.588118
 20
190.02
 30
0.0
 40
6.2
100
AcDbArc
 50
298.0923629999998
 51
67.45418
  0
ARC
  5
1F1
330
1E
100
AcDbEntity
  8
CSLAYER1
  6
CONTINUOUS
 62
     3
100
AcDbCircle
 10
125.588118
 20
196.52
 30
0.0
 40
2.5
100
AcDbArc
 50
335.5954679999998
 51
244.623066
  0
ARC
  5
1F2
330
1E
100
AcDbEntity
  8
CSLAYER1
  6
CONTINUOUS
 62
     3
100
AcDbCircle
 10
124.0881179999999
 20
193.357722
 30
0.0
 40
1.0
100
AcDbArc
 50
0.0
 51
64.62306600000001
  0
LINE
  5
1F3
330
1E
100
AcDbEntity
  8
CSLAYER1
  6
CONTINUOUS
 62
     3
100
AcDbLine
 10
125.0881179999999
 20
193.357722
 30
0.0
 11
125.0881179999999
 21
192.4694899999999
 31
0.0
  0
LINE
  5
1F4
330
1E
100
AcDbEntity
  8
CSLAYER1
  6
CONTINUOUS
 62
     3
100
AcDbLine
 10
126.0881179999999
 20
192.4694899999999
 30
0.0
 11
126.0881179999999
 21
193.357722
 31
0.0
  0
ARC
  5
1F5
330
1E
100
AcDbEntity
  8
CSLAYER1
  6
CONTINUOUS
 62
     3
100
AcDbCircle
 10
124.0881179999999
 20
193.357722
 30
0.0
 40
2.0
100
AcDbArc
 50
0.0
 51
64.62306600000001
  0
ARC
  5
1F6
330
1E
100
AcDbEntity
  8
CSLAYER1
  6
CONTINUOUS
 62
     3
100
AcDbCircle
 10
125.588118
 20
196.52
 30
0.0
 40
1.5
100
AcDbArc
 50
335.5954679999998
 51
244.623066
  0
ARC
  5
1F7
330
1E
100
AcDbEntity
  8
CSLAYER1
  6
CONTINUOUS
 62
     3
100
AcDbCircle
 10
130.684151
 20
194.207851
 30
0.0
 40
4.096032
100
AcDbArc
 50
155.5954679999999
 51
219.4129069999999
  0
ARC
  5
1F8
330
1E
100
AcDbEntity
  8
CSLAYER1
  6
CONTINUOUS
 62
     3
100
AcDbCircle
 10
125.588118
 20
190.02
 30
0.0
 40
3.5
100
AcDbArc
 50
319.24837
 51
39.412907
  0
ARC
  5
1F9
330
1E
100
AcDbEntity
  8
CSLAYER1
  6
CONTINUOUS
 62
     3
100
AcDbCircle
 10
129.419275
 20
186.3127809999999
 30
0.0
 40
1.831156999999999
100
AcDbArc
 50
135.941912
 51
220.0
  0
LINE
  5
1FA
330
1E
100
AcDbEntity
  8
CSLAYER1
  6
CONTINUOUS
 62
     3
100
AcDbLine
 10
128.016528
 20
185.135736
 30
0.0
 11
129.5881179999998
 21
183.262788
 31
0.0
  0
LINE
  5
1FB
330
1E
100
AcDbEntity
  8
CSLAYER1
  6
CONTINUOUS
 62
     3
100
AcDbLine
 10
129.5881179999998
 20
183.262788
 30
0.0
 11
128.8220739999998
 21
182.62
 31
0.0
  0
LINE
  5
1FC
330
1E
100
AcDbEntity
  8
CSLAYER1
  6
CONTINUOUS
 62
     3
100
AcDbLine
 10
128.8220739999998
 20
182.62
 30
0.0
 11
127.250483
 21
184.492949
 31
0.0
  0
ARC
  5
1FD
330
1E
100
AcDbEntity
  8
CSLAYER1
  6
CONTINUOUS
 62
     3
100
AcDbCircle
 10
129.419275
 20
186.3127809999999
 30
0.0
 40
2.831157
100
AcDbArc
 50
135.941912
 51
220.0
  0
LINE
  5
1FE
330
1E
100
AcDbEntity
  8
CSLAYER1
  6
CONTINUOUS
 62
     3
100
AcDbLine
 10
126.0881179999999
 20
187.57051
 30
0.0
 11
126.0881179999999
 21
181.12
 31
0.0
  0
LINE
  5
1FF
330
1E
100
AcDbEntity
  8
CSLAYER1
  6
CONTINUOUS
 62
     3
100
AcDbLine
 10
126.0881179999999
 20
181.12
 30
0.0
 11
125.0881179999999
 21
181.12
 31
0.0
  0
LINE
  5
200
330
1E
100
AcDbEntity
  8
CSLAYER1
  6
CONTINUOUS
 62
     3
100
AcDbLine
 10
125.0881179999999
 20
181.12
 30
0.0
 11
125.0881179999999
 21
187.57051
 31
0.0
  0
CIRCLE
  5
201
330
1E
100
AcDbEntity
  8
CSLAYER1
  6
CONTINUOUS
 62
     3
100
AcDbCircle
 10
125.588118
 20
190.02
 30
0.0
 40
2.5
  0
CIRCLE
  5
202
330
1E
100
AcDbEntity
  8
CSLAYER1
  6
CONTINUOUS
 62
     3
100
AcDbCircle
 10
125.588118
 20
190.02
 30
0.0
 40
2.0
  0
ARC
  5
203
330
1E
100
AcDbEntity
  8
CSLAYER1
  6
CONTINUOUS
 62
     3
100
AcDbCircle
 10
130.684151
 20
194.207851
 30
0.0
 40
3.096032
100
AcDbArc
 50
155.5954679999999
 51
219.4129069999999
  0
ARC
  5
204
330
1E
100
AcDbEntity
  8
CSLAYER1
  6
CONTINUOUS
 62
     3
100
AcDbCircle
 10
125.588118
 20
190.02
 30
0.0
 40
6.2
100
AcDbArc
 50
76.70551
 51
103.2944899999999
  0
ARC
  5
205
330
1E
100
AcDbEntity
  8
CSLAYER1
  6
CONTINUOUS
 62
     3
100
AcDbCircle
 10
125.588118
 20
190.02
 30
0.0
 40
6.5
100
AcDbArc
 50
76.74838100000002
 51
103.2516189999999
  0
ARC
  5
206
330
1E
100
AcDbEntity
  8
CSLAYER1
  6
CONTINUOUS
 62
     3
100
AcDbCircle
 10
125.588118
 20
190.02
 30
0.0
 40
6.2
100
AcDbArc
 50
112.5458199999999
 51
265.374349
  0
ARC
  5
207
330
1E
100
AcDbEntity
  8
CSLAYER1
  6
CONTINUOUS
 62
     3
100
AcDbCircle
 10
125.588118
 20
190.02
 30
0.0
 40
6.5
100
AcDbArc
 50
112.1749779999999
 51
265.588274
  0
ARC
  5
208
330
1E
100
AcDbEntity
  8
CSLAYER1
  6
CONTINUOUS
 62
     3
100
AcDbCircle
 10
125.588118
 20
190.02
 30
0.0
 40
6.2
100
AcDbArc
 50
274.625651
 51
288.4307839999999
  0
ARC
  5
209
330
1E
100
AcDbEntity
  8
CSLAYER1
  6
CONTINUOUS
 62
     3
100
AcDbCircle
 10
125.588118
 20
190.02
 30
0.0
 40
6.5
100
AcDbArc
 50
274.4117259999999
 51
289.472456
  0
CIRCLE
  5
20A
330
1E
100
AcDbEntity
  8
CSLAYER1
  6
CONTINUOUS
 62
     3
100
AcDbCircle
 10
180.5881179999999
 20
213.02
 30
0.0
 40
2.1
  0
LINE
  5
20B
330
1E
100
AcDbEntity
  8
CSLAYER1
  6
CONTINUOUS
 62
     3
100
AcDbLine
 10
88.334857
 20
218.02
 30
0.0
 11
32.334857
 21
218.02
 31
0.0
  0
LINE
  5
20C
330
1E
100
AcDbEntity
  8
CSLAYER1
  6
CONTINUOUS
 62
     3
100
AcDbLine
 10
32.334857
 20
218.02
 30
0.0
 11
32.334857
 21
162.02
 31
0.0
  0
LINE
  5
20D
330
1E
100
AcDbEntity
  8
CSLAYER1
  6
CONTINUOUS
 62
     3
100
AcDbLine
 10
32.334857
 20
162.02
 30
0.0
 11
88.334857
 21
162.02
 31
0.0
  0
LINE
  5
20E
330
1E
100
AcDbEntity
  8
CSLAYER1
  6
CONTINUOUS
 62
     3
100
AcDbLine
 10
88.334857
 20
162.02
 30
0.0
 11
88.334857
 21
218.02
 31
0.0
  0
ARC
  5
20F
330
1E
100
AcDbEntity
  8
CSLAYER1
  6
CONTINUOUS
 62
     3
100
AcDbCircle
 10
92.33485700000001
 20
204.603592
 30
0.0
 40
14.0
100
AcDbArc
 50
106.60155
 51
180.0
  0
LINE
  5
210
330
1E
100
AcDbEntity
  8
CSLAYER1
  6
CONTINUOUS
 62
     3
100
AcDbLine
 10
78.334857
 20
204.603592
 30
0.0
 11
78.334857
 21
175.436408
 31
0.0
  0
ARC
  5
211
330
1E
100
AcDbEntity
  8
CSLAYER1
  6
CONTINUOUS
 62
     3
100
AcDbCircle
 10
92.33485700000001
 20
175.436408
 30
0.0
 40
14.0
100
AcDbArc
 50
180.0
 51
253.3984499999999
  0
LINE
  5
212
330
1E
100
AcDbEntity
  8
CSLAYER1
  6
CONTINUOUS
 62
     3
100
AcDbLine
 10
78.334857
 20
176.02
 30
0.0
 11
68.834857
 21
176.02
 31
0.0
  0
ARC
  5
213
330
1E
100
AcDbEntity
  8
CSLAYER1
  6
CONTINUOUS
 62
     3
100
AcDbCircle
 10
60.33485699999999
 20
190.02
 30
0.0
 40
24.19999999999999
100
AcDbArc
 50
249.4368419999999
 51
290.563158
  0
LINE
  5
214
330
1E
100
AcDbEntity
  8
CSLAYER1
  6
CONTINUOUS
 62
     3
100
AcDbLine
 10
51.834857
 20
162.02
 30
0.0
 11
51.834857
 21
218.02
 31
0.0
  0
ARC
  5
215
330
1E
100
AcDbEntity
  8
CSLAYER1
  6
CONTINUOUS
 62
     3
100
AcDbCircle
 10
60.33485699999999
 20
190.02
 30
0.0
 40
24.19999999999999
100
AcDbArc
 50
69.43684199999998
 51
110.563158
  0
LINE
  5
216
330
1E
100
AcDbEntity
  8
CSLAYER1
  6
CONTINUOUS
 62
     3
100
AcDbLine
 10
68.834857
 20
218.02
 30
0.0
 11
68.834857
 21
162.02
 31
0.0
  0
LINE
  5
217
330
1E
100
AcDbEntity
  8
CSLAYER1
  6
CONTINUOUS
 62
     3
100
AcDbLine
 10
51.834857
 20
176.02
 30
0.0
 11
42.334857
 21
176.02
 31
0.0
  0
LINE
  5
218
330
1E
100
AcDbEntity
  8
CSLAYER1
  6
CONTINUOUS
 62
     3
100
AcDbLine
 10
42.334857
 20
175.436408
 30
0.0
 11
42.334857
 21
204.603592
 31
0.0
  0
ARC
  5
219
330
1E
100
AcDbEntity
  8
CSLAYER1
  6
CONTINUOUS
 62
     3
100
AcDbCircle
 10
28.334857
 20
204.603592
 30
0.0
 40
14.0
100
AcDbArc
 50
0.0
 51
73.39845
  0
LINE
  5
21A
330
1E
100
AcDbEntity
  8
CSLAYER1
  6
CONTINUOUS
 62
     3
100
AcDbLine
 10
42.334857
 20
204.02
 30
0.0
 11
51.834857
 21
204.02
 31
0.0
  0
LINE
  5
21B
330
1E
100
AcDbEntity
  8
CSLAYER1
  6
CONTINUOUS
 62
     3
100
AcDbLine
 10
51.834857
 20
192.52
 30
0.0
 11
68.834857
 21
192.52
 31
0.0
  0
LINE
  5
21C
330
1E
100
AcDbEntity
  8
CSLAYER1
  6
CONTINUOUS
 62
     3
100
AcDbLine
 10
68.834857
 20
187.52
 30
0.0
 11
51.834857
 21
187.52
 31
0.0
  0
LINE
  5
21D
330
1E
100
AcDbEntity
  8
CSLAYER1
  6
CONTINUOUS
 62
     3
100
AcDbLine
 10
42.334857
 20
183.52
 30
0.0
 11
41.634857
 21
183.52
 31
0.0
  0
LINE
  5
21E
330
1E
100
AcDbEntity
  8
CSLAYER1
  6
CONTINUOUS
 62
     3
100
AcDbLine
 10
41.634857
 20
183.52
 30
0.0
 11
41.634857
 21
196.52
 31
0.0
  0
LINE
  5
21F
330
1E
100
AcDbEntity
  8
CSLAYER1
  6
CONTINUOUS
 62
     3
100
AcDbLine
 10
41.634857
 20
196.52
 30
0.0
 11
42.334857
 21
196.52
 31
0.0
  0
LINE
  5
220
330
1E
100
AcDbEntity
  8
CSLAYER1
  6
CONTINUOUS
 62
     3
100
AcDbLine
 10
41.634857
 20
196.52
 30
0.0
 11
41.334857
 21
196.2199999999999
 31
0.0
  0
LINE
  5
221
330
1E
100
AcDbEntity
  8
CSLAYER1
  6
CONTINUOUS
 62
     3
100
AcDbLine
 10
41.334857
 20
196.2199999999999
 30
0.0
 11
41.334857
 21
183.82
 31
0.0
  0
LINE
  5
222
330
1E
100
AcDbEntity
  8
CSLAYER1
  6
CONTINUOUS
 62
     3
100
AcDbLine
 10
41.334857
 20
183.82
 30
0.0
 11
41.634857
 21
183.52
 31
0.0
  0
ARC
  5
223
330
1E
100
AcDbEntity
  8
CSLAYER1
  6
CONTINUOUS
 62
     3
100
AcDbCircle
 10
40.33485699999999
 20
181.52
 30
0.0
 40
0.5
100
AcDbArc
 50
180.0
 51
0.0
  0
LINE
  5
224
330
1E
100
AcDbEntity
  8
CSLAYER1
  6
CONTINUOUS
 62
     3
100
AcDbLine
 10
39.834857
 20
181.52
 30
0.0
 11
39.834857
 21
187.52
 31
0.0
  0
LINE
  5
225
330
1E
100
AcDbEntity
  8
CSLAYER1
  6
CONTINUOUS
 62
     3
100
AcDbLine
 10
40.83485699999999
 20
187.52
 30
0.0
 11
40.83485699999999
 21
181.52
 31
0.0
  0
LINE
  5
226
330
1E
100
AcDbEntity
  8
CSLAYER1
  6
CONTINUOUS
 62
     3
100
AcDbLine
 10
41.334857
 20
187.52
 30
0.0
 11
38.83485699999999
 21
187.52
 31
0.0
  0
LINE
  5
227
330
1E
100
AcDbEntity
  8
CSLAYER1
  6
CONTINUOUS
 62
     3
100
AcDbLine
 10
38.83485699999999
 20
187.52
 30
0.0
 11
38.334857
 21
188.02
 31
0.0
  0
LINE
  5
228
330
1E
100
AcDbEntity
  8
CSLAYER1
  6
CONTINUOUS
 62
     3
100
AcDbLine
 10
38.334857
 20
188.02
 30
0.0
 11
38.334857
 21
192.02
 31
0.0
  0
LINE
  5
229
330
1E
100
AcDbEntity
  8
CSLAYER1
  6
CONTINUOUS
 62
     3
100
AcDbLine
 10
38.334857
 20
192.02
 30
0.0
 11
38.83485699999999
 21
192.52
 31
0.0
  0
LINE
  5
22A
330
1E
100
AcDbEntity
  8
CSLAYER1
  6
CONTINUOUS
 62
     3
100
AcDbLine
 10
38.83485699999999
 20
192.52
 30
0.0
 11
38.83485699999999
 21
187.52
 31
0.0
  0
LINE
  5
22B
330
1E
100
AcDbEntity
  8
CSLAYER1
  6
CONTINUOUS
 62
     3
100
AcDbLine
 10
38.83485699999999
 20
192.52
 30
0.0
 11
41.334857
 21
192.52
 31
0.0
  0
LINE
  5
22C
330
1E
100
AcDbEntity
  8
CSLAYER1
  6
CONTINUOUS
 62
     3
100
AcDbLine
 10
40.83485699999999
 20
192.52
 30
0.0
 11
40.83485699999999
 21
198.9199999999999
 31
0.0
  0
LINE
  5
22D
330
1E
100
AcDbEntity
  8
CSLAYER1
  6
CONTINUOUS
 62
     3
100
AcDbLine
 10
40.83485699999999
 20
198.9199999999999
 30
0.0
 11
39.834857
 21
198.9199999999999
 31
0.0
  0
LINE
  5
22E
330
1E
100
AcDbEntity
  8
CSLAYER1
  6
CONTINUOUS
 62
     3
100
AcDbLine
 10
39.834857
 20
198.9199999999999
 30
0.0
 11
39.834857
 21
192.52
 31
0.0
  0
ARC
  5
22F
330
1E
100
AcDbEntity
  8
CSLAYER1
  6
CONTINUOUS
 62
     3
100
AcDbCircle
 10
28.334857
 20
175.436408
 30
0.0
 40
14.0
100
AcDbArc
 50
286.6015499999998
 51
0.0
  0
LINE
  5
230
330
1E
100
AcDbEntity
  8
CSLAYER1
  6
CONTINUOUS
 62
     3
100
AcDbLine
 10
78.334857
 20
183.52
 30
0.0
 11
79.03485699999997
 21
183.52
 31
0.0
  0
LINE
  5
231
330
1E
100
AcDbEntity
  8
CSLAYER1
  6
CONTINUOUS
 62
     3
100
AcDbLine
 10
79.03485699999997
 20
183.52
 30
0.0
 11
79.334857
 21
183.82
 31
0.0
  0
LINE
  5
232
330
1E
100
AcDbEntity
  8
CSLAYER1
  6
CONTINUOUS
 62
     3
100
AcDbLine
 10
79.334857
 20
183.82
 30
0.0
 11
79.334857
 21
196.2199999999999
 31
0.0
  0
LINE
  5
233
330
1E
100
AcDbEntity
  8
CSLAYER1
  6
CONTINUOUS
 62
     3
100
AcDbLine
 10
79.334857
 20
196.2199999999999
 30
0.0
 11
79.03485699999997
 21
196.52
 31
0.0
  0
LINE
  5
234
330
1E
100
AcDbEntity
  8
CSLAYER1
  6
CONTINUOUS
 62
     3
100
AcDbLine
 10
79.03485699999997
 20
196.52
 30
0.0
 11
79.03485699999997
 21
183.52
 31
0.0
  0
LINE
  5
235
330
1E
100
AcDbEntity
  8
CSLAYER1
  6
CONTINUOUS
 62
     3
100
AcDbLine
 10
79.834857
 20
181.12
 30
0.0
 11
80.834857
 21
181.12
 31
0.0
  0
LINE
  5
236
330
1E
100
AcDbEntity
  8
CSLAYER1
  6
CONTINUOUS
 62
     3
100
AcDbLine
 10
80.834857
 20
181.12
 30
0.0
 11
80.834857
 21
187.52
 31
0.0
  0
LINE
  5
237
330
1E
100
AcDbEntity
  8
CSLAYER1
  6
CONTINUOUS
 62
     3
100
AcDbLine
 10
79.834857
 20
187.52
 30
0.0
 11
79.834857
 21
181.12
 31
0.0
  0
LINE
  5
238
330
1E
100
AcDbEntity
  8
CSLAYER1
  6
CONTINUOUS
 62
     3
100
AcDbLine
 10
79.334857
 20
187.52
 30
0.0
 11
81.834857
 21
187.52
 31
0.0
  0
LINE
  5
239
330
1E
100
AcDbEntity
  8
CSLAYER1
  6
CONTINUOUS
 62
     3
100
AcDbLine
 10
81.834857
 20
187.52
 30
0.0
 11
81.834857
 21
192.52
 31
0.0
  0
LINE
  5
23A
330
1E
100
AcDbEntity
  8
CSLAYER1
  6
CONTINUOUS
 62
     3
100
AcDbLine
 10
81.834857
 20
192.52
 30
0.0
 11
82.33485700000001
 21
192.02
 31
0.0
  0
LINE
  5
23B
330
1E
100
AcDbEntity
  8
CSLAYER1
  6
CONTINUOUS
 62
     3
100
AcDbLine
 10
82.33485700000001
 20
192.02
 30
0.0
 11
82.33485700000001
 21
188.02
 31
0.0
  0
LINE
  5
23C
330
1E
100
AcDbEntity
  8
CSLAYER1
  6
CONTINUOUS
 62
     3
100
AcDbLine
 10
82.33485700000001
 20
188.02
 30
0.0
 11
81.834857
 21
187.52
 31
0.0
  0
LINE
  5
23D
330
1E
100
AcDbEntity
  8
CSLAYER1
  6
CONTINUOUS
 62
     3
100
AcDbLine
 10
81.834857
 20
192.52
 30
0.0
 11
79.334857
 21
192.52
 31
0.0
  0
LINE
  5
23E
330
1E
100
AcDbEntity
  8
CSLAYER1
  6
CONTINUOUS
 62
     3
100
AcDbLine
 10
79.834857
 20
192.52
 30
0.0
 11
79.834857
 21
198.52
 31
0.0
  0
ARC
  5
23F
330
1E
100
AcDbEntity
  8
CSLAYER1
  6
CONTINUOUS
 62
     3
100
AcDbCircle
 10
80.33485699999998
 20
198.52
 30
0.0
 40
0.5
100
AcDbArc
 50
0.0
 51
180.0
  0
LINE
  5
240
330
1E
100
AcDbEntity
  8
CSLAYER1
  6
CONTINUOUS
 62
     3
100
AcDbLine
 10
80.834857
 20
198.52
 30
0.0
 11
80.834857
 21
192.52
 31
0.0
  0
LINE
  5
241
330
1E
100
AcDbEntity
  8
CSLAYER1
  6
CONTINUOUS
 62
     3
100
AcDbLine
 10
79.03485699999997
 20
196.52
 30
0.0
 11
78.334857
 21
196.52
 31
0.0
  0
LINE
  5
242
330
1E
100
AcDbEntity
  8
CSLAYER1
  6
CONTINUOUS
 62
     3
100
AcDbLine
 10
78.334857
 20
204.02
 30
0.0
 11
68.834857
 21
204.02
 31
0.0
  0
POINT
  5
243
330
1E
100
AcDbEntity
  8
CSLAYER1
 62
     3
100
AcDbPoint
 10
10.0
 20
3.0
 30
0.0
  0
POINT
  5
244
330
1E
100
AcDbEntity
  8
CSLAYER1
 62
     3
100
AcDbPoint
 10
365.5
 20
20.5
 30
0.0
  0
TEXT
  5
245
330
1E
100
AcDbEntity
  8
CSLAYER1
 62
     3
100
AcDbText
 10
354.3
 20
18.89999999999998
 30
0.0
 40
3.2
  1
GT-NS30
 41
1.049999999999993
  7
FX_FONT
 72
     5
 11
376.6999999999999
 21
18.89999999999998
 31
0.0
100
AcDbText
  0
POLYLINE
  5
246
330
1E
100
AcDbEntity
  8
CSLAYER1
  6
CONTINUOUS
 62
     3
100
AcDb2dPolyline
 66
     1
 10
0.0
 20
0.0
 30
0.0
  0
VERTEX
  5
247
330
246
100
AcDbEntity
  8
CSLAYER1
  6
CONTINUOUS
 62
     3
100
AcDbVertex
100
AcDb2dVertex
 10
270.5881179999999
 20
201.5169329999999
 30
0.0
  0
VERTEX
  5
248
330
246
100
AcDbEntity
  8
CSLAYER1
  6
CONTINUOUS
 62
     3
100
AcDbVertex
100
AcDb2dVertex
 10
270.230344
 20
201.500761
 30
0.0
  0
VERTEX
  5
249
330
246
100
AcDbEntity
  8
CSLAYER1
  6
CONTINUOUS
 62
     3
100
AcDbVertex
100
AcDb2dVertex
 10
269.8752929999999
 20
201.452366
 30
0.0
  0
VERTEX
  5
24A
330
246
100
AcDbEntity
  8
CSLAYER1
  6
CONTINUOUS
 62
     3
100
AcDbVertex
100
AcDb2dVertex
 10
269.525666
 20
201.372118
 30
0.0
  0
VERTEX
  5
24B
330
246
100
AcDbEntity
  8
CSLAYER1
  6
CONTINUOUS
 62
     3
100
AcDbVertex
100
AcDb2dVertex
 10
269.1841259999999
 20
201.260627
 30
0.0
  0
VERTEX
  5
24C
330
246
100
AcDbEntity
  8
CSLAYER1
  6
CONTINUOUS
 62
     3
100
AcDbVertex
100
AcDb2dVertex
 10
268.85327
 20
201.118741
 30
0.0
  0
VERTEX
  5
24D
330
246
100
AcDbEntity
  8
CSLAYER1
  6
CONTINUOUS
 62
     3
100
AcDbVertex
100
AcDb2dVertex
 10
268.5356179999999
 20
200.9475409999999
 30
0.0
  0
VERTEX
  5
24E
330
246
100
AcDbEntity
  8
CSLAYER1
  6
CONTINUOUS
 62
     3
100
AcDbVertex
100
AcDb2dVertex
 10
268.233587
 20
200.748329
 30
0.0
  0
VERTEX
  5
24F
330
246
100
AcDbEntity
  8
CSLAYER1
  6
CONTINUOUS
 62
     3
100
AcDbVertex
100
AcDb2dVertex
 10
267.9494749999999
 20
200.5226219999999
 30
0.0
  0
VERTEX
  5
250
330
246
100
AcDbEntity
  8
CSLAYER1
  6
CONTINUOUS
 62
     3
100
AcDbVertex
100
AcDb2dVertex
 10
267.6854449999999
 20
200.272137
 30
0.0
  0
VERTEX
  5
251
330
246
100
AcDbEntity
  8
CSLAYER1
  6
CONTINUOUS
 62
     3
100
AcDbVertex
100
AcDb2dVertex
 10
267.4435059999999
 20
199.998781
 30
0.0
  0
VERTEX
  5
252
330
246
100
AcDbEntity
  8
CSLAYER1
  6
CONTINUOUS
 62
     3
100
AcDbVertex
100
AcDb2dVertex
 10
267.225499
 20
199.704633
 30
0.0
  0
VERTEX
  5
253
330
246
100
AcDbEntity
  8
CSLAYER1
  6
CONTINUOUS
 62
     3
100
AcDbVertex
100
AcDb2dVertex
 10
267.0330839999999
 20
199.3919329999999
 30
0.0
  0
VERTEX
  5
254
330
246
100
AcDbEntity
  8
CSLAYER1
  6
CONTINUOUS
 62
     3
100
AcDbVertex
100
AcDb2dVertex
 10
266.867725
 20
199.063061
 30
0.0
  0
VERTEX
  5
255
330
246
100
AcDbEntity
  8
CSLAYER1
  6
CONTINUOUS
 62
     3
100
AcDbVertex
100
AcDb2dVertex
 10
266.7306799999999
 20
198.720519
 30
0.0
  0
VERTEX
  5
256
330
246
100
AcDbEntity
  8
CSLAYER1
  6
CONTINUOUS
 62
     3
100
AcDbVertex
100
AcDb2dVertex
 10
266.622993
 20
198.3669139999999
 30
0.0
  0
VERTEX
  5
257
330
246
100
AcDbEntity
  8
CSLAYER1
  6
CONTINUOUS
 62
     3
100
AcDbVertex
100
AcDb2dVertex
 10
266.5454819999999
 20
198.0049379999999
 30
0.0
  0
VERTEX
  5
258
330
246
100
AcDbEntity
  8
CSLAYER1
  6
CONTINUOUS
 62
     3
100
AcDbVertex
100
AcDb2dVertex
 10
266.4987389999999
 20
197.6373449999999
 30
0.0
  0
VERTEX
  5
259
330
246
100
AcDbEntity
  8
CSLAYER1
  6
CONTINUOUS
 62
     3
100
AcDbVertex
100
AcDb2dVertex
 10
266.4831179999999
 20
197.266933
 30
0.0
  0
VERTEX
  5
25A
330
246
100
AcDbEntity
  8
CSLAYER1
  6
CONTINUOUS
 62
     3
100
AcDbVertex
100
AcDb2dVertex
 10
266.4987389999999
 20
196.896521
 30
0.0
  0
VERTEX
  5
25B
330
246
100
AcDbEntity
  8
CSLAYER1
  6
CONTINUOUS
 62
     3
100
AcDbVertex
100
AcDb2dVertex
 10
266.5454819999999
 20
196.528929
 30
0.0
  0
VERTEX
  5
25C
330
246
100
AcDbEntity
  8
CSLAYER1
  6
CONTINUOUS
 62
     3
100
AcDbVertex
100
AcDb2dVertex
 10
266.622993
 20
196.166952
 30
0.0
  0
VERTEX
  5
25D
330
246
100
AcDbEntity
  8
CSLAYER1
  6
CONTINUOUS
 62
     3
100
AcDbVertex
100
AcDb2dVertex
 10
266.7306799999999
 20
195.8133479999999
 30
0.0
  0
VERTEX
  5
25E
330
246
100
AcDbEntity
  8
CSLAYER1
  6
CONTINUOUS
 62
     3
100
AcDbVertex
100
AcDb2dVertex
 10
266.867725
 20
195.470806
 30
0.0
  0
VERTEX
  5
25F
330
246
100
AcDbEntity
  8
CSLAYER1
  6
CONTINUOUS
 62
     3
100
AcDbVertex
100
AcDb2dVertex
 10
267.0330839999999
 20
195.141933
 30
0.0
  0
VERTEX
  5
260
330
246
100
AcDbEntity
  8
CSLAYER1
  6
CONTINUOUS
 62
     3
100
AcDbVertex
100
AcDb2dVertex
 10
267.225499
 20
194.829233
 30
0.0
  0
VERTEX
  5
261
330
246
100
AcDbEntity
  8
CSLAYER1
  6
CONTINUOUS
 62
     3
100
AcDbVertex
100
AcDb2dVertex
 10
267.4435059999999
 20
194.5350859999999
 30
0.0
  0
VERTEX
  5
262
330
246
100
AcDbEntity
  8
CSLAYER1
  6
CONTINUOUS
 62
     3
100
AcDbVertex
100
AcDb2dVertex
 10
267.6854449999999
 20
194.261729
 30
0.0
  0
VERTEX
  5
263
330
246
100
AcDbEntity
  8
CSLAYER1
  6
CONTINUOUS
 62
     3
100
AcDbVertex
100
AcDb2dVertex
 10
267.9494749999999
 20
194.011244
 30
0.0
  0
VERTEX
  5
264
330
246
100
AcDbEntity
  8
CSLAYER1
  6
CONTINUOUS
 62
     3
100
AcDbVertex
100
AcDb2dVertex
 10
268.233587
 20
193.785537
 30
0.0
  0
VERTEX
  5
265
330
246
100
AcDbEntity
  8
CSLAYER1
  6
CONTINUOUS
 62
     3
100
AcDbVertex
100
AcDb2dVertex
 10
268.5356179999999
 20
193.5863249999999
 30
0.0
  0
VERTEX
  5
266
330
246
100
AcDbEntity
  8
CSLAYER1
  6
CONTINUOUS
 62
     3
100
AcDbVertex
100
AcDb2dVertex
 10
268.85327
 20
193.415125
 30
0.0
  0
VERTEX
  5
267
330
246
100
AcDbEntity
  8
CSLAYER1
  6
CONTINUOUS
 62
     3
100
AcDbVertex
100
AcDb2dVertex
 10
269.1841259999999
 20
193.2732399999999
 30
0.0
  0
VERTEX
  5
268
330
246
100
AcDbEntity
  8
CSLAYER1
  6
CONTINUOUS
 62
     3
100
AcDbVertex
100
AcDb2dVertex
 10
269.525666
 20
193.1617489999999
 30
0.0
  0
VERTEX
  5
269
330
246
100
AcDbEntity
  8
CSLAYER1
  6
CONTINUOUS
 62
     3
100
AcDbVertex
100
AcDb2dVertex
 10
269.8752929999999
 20
193.0815
 30
0.0
  0
VERTEX
  5
26A
330
246
100
AcDbEntity
  8
CSLAYER1
  6
CONTINUOUS
 62
     3
100
AcDbVertex
100
AcDb2dVertex
 10
270.230344
 20
193.033106
 30
0.0
  0
VERTEX
  5
26B
330
246
100
AcDbEntity
  8
CSLAYER1
  6
CONTINUOUS
 62
     3
100
AcDbVertex
100
AcDb2dVertex
 10
270.5881179999999
 20
193.016933
 30
0.0
  0
VERTEX
  5
26C
330
246
100
AcDbEntity
  8
CSLAYER1
  6
CONTINUOUS
 62
     3
100
AcDbVertex
100
AcDb2dVertex
 10
270.945893
 20
193.033106
 30
0.0
  0
VERTEX
  5
26D
330
246
100
AcDbEntity
  8
CSLAYER1
  6
CONTINUOUS
 62
     3
100
AcDbVertex
100
AcDb2dVertex
 10
271.3009439999999
 20
193.0815
 30
0.0
  0
VERTEX
  5
26E
330
246
100
AcDbEntity
  8
CSLAYER1
  6
CONTINUOUS
 62
     3
100
AcDbVertex
100
AcDb2dVertex
 10
271.65057
 20
193.1617489999999
 30
0.0
  0
VERTEX
  5
26F
330
246
100
AcDbEntity
  8
CSLAYER1
  6
CONTINUOUS
 62
     3
100
AcDbVertex
100
AcDb2dVertex
 10
271.9921109999999
 20
193.2732399999999
 30
0.0
  0
VERTEX
  5
270
330
246
100
AcDbEntity
  8
CSLAYER1
  6
CONTINUOUS
 62
     3
100
AcDbVertex
100
AcDb2dVertex
 10
272.322966
 20
193.415125
 30
0.0
  0
VERTEX
  5
271
330
246
100
AcDbEntity
  8
CSLAYER1
  6
CONTINUOUS
 62
     3
100
AcDbVertex
100
AcDb2dVertex
 10
272.640618
 20
193.5863249999999
 30
0.0
  0
VERTEX
  5
272
330
246
100
AcDbEntity
  8
CSLAYER1
  6
CONTINUOUS
 62
     3
100
AcDbVertex
100
AcDb2dVertex
 10
272.94265
 20
193.785537
 30
0.0
  0
VERTEX
  5
273
330
246
100
AcDbEntity
  8
CSLAYER1
  6
CONTINUOUS
 62
     3
100
AcDbVertex
100
AcDb2dVertex
 10
273.226761
 20
194.011244
 30
0.0
  0
VERTEX
  5
274
330
246
100
AcDbEntity
  8
CSLAYER1
  6
CONTINUOUS
 62
     3
100
AcDbVertex
100
AcDb2dVertex
 10
273.4907919999999
 20
194.261729
 30
0.0
  0
VERTEX
  5
275
330
246
100
AcDbEntity
  8
CSLAYER1
  6
CONTINUOUS
 62
     3
100
AcDbVertex
100
AcDb2dVertex
 10
273.7327309999999
 20
194.5350859999999
 30
0.0
  0
VERTEX
  5
276
330
246
100
AcDbEntity
  8
CSLAYER1
  6
CONTINUOUS
 62
     3
100
AcDbVertex
100
AcDb2dVertex
 10
273.950737
 20
194.829233
 30
0.0
  0
VERTEX
  5
277
330
246
100
AcDbEntity
  8
CSLAYER1
  6
CONTINUOUS
 62
     3
100
AcDbVertex
100
AcDb2dVertex
 10
274.1431529999999
 20
195.141933
 30
0.0
  0
VERTEX
  5
278
330
246
100
AcDbEntity
  8
CSLAYER1
  6
CONTINUOUS
 62
     3
100
AcDbVertex
100
AcDb2dVertex
 10
274.3085119999999
 20
195.470806
 30
0.0
  0
VERTEX
  5
279
330
246
100
AcDbEntity
  8
CSLAYER1
  6
CONTINUOUS
 62
     3
100
AcDbVertex
100
AcDb2dVertex
 10
274.445556
 20
195.8133479999999
 30
0.0
  0
VERTEX
  5
27A
330
246
100
AcDbEntity
  8
CSLAYER1
  6
CONTINUOUS
 62
     3
100
AcDbVertex
100
AcDb2dVertex
 10
274.553244
 20
196.166952
 30
0.0
  0
VERTEX
  5
27B
330
246
100
AcDbEntity
  8
CSLAYER1
  6
CONTINUOUS
 62
     3
100
AcDbVertex
100
AcDb2dVertex
 10
274.630754
 20
196.528929
 30
0.0
  0
VERTEX
  5
27C
330
246
100
AcDbEntity
  8
CSLAYER1
  6
CONTINUOUS
 62
     3
100
AcDbVertex
100
AcDb2dVertex
 10
274.677498
 20
196.896521
 30
0.0
  0
VERTEX
  5
27D
330
246
100
AcDbEntity
  8
CSLAYER1
  6
CONTINUOUS
 62
     3
100
AcDbVertex
100
AcDb2dVertex
 10
274.693118
 20
197.266933
 30
0.0
  0
VERTEX
  5
27E
330
246
100
AcDbEntity
  8
CSLAYER1
  6
CONTINUOUS
 62
     3
100
AcDbVertex
100
AcDb2dVertex
 10
274.677498
 20
197.6373449999999
 30
0.0
  0
VERTEX
  5
27F
330
246
100
AcDbEntity
  8
CSLAYER1
  6
CONTINUOUS
 62
     3
100
AcDbVertex
100
AcDb2dVertex
 10
274.630754
 20
198.0049379999999
 30
0.0
  0
VERTEX
  5
280
330
246
100
AcDbEntity
  8
CSLAYER1
  6
CONTINUOUS
 62
     3
100
AcDbVertex
100
AcDb2dVertex
 10
274.553244
 20
198.3669139999999
 30
0.0
  0
VERTEX
  5
281
330
246
100
AcDbEntity
  8
CSLAYER1
  6
CONTINUOUS
 62
     3
100
AcDbVertex
100
AcDb2dVertex
 10
274.445556
 20
198.720519
 30
0.0
  0
VERTEX
  5
282
330
246
100
AcDbEntity
  8
CSLAYER1
  6
CONTINUOUS
 62
     3
100
AcDbVertex
100
AcDb2dVertex
 10
274.3085119999999
 20
199.063061
 30
0.0
  0
VERTEX
  5
283
330
246
100
AcDbEntity
  8
CSLAYER1
  6
CONTINUOUS
 62
     3
100
AcDbVertex
100
AcDb2dVertex
 10
274.1431529999999
 20
199.3919329999999
 30
0.0
  0
VERTEX
  5
284
330
246
100
AcDbEntity
  8
CSLAYER1
  6
CONTINUOUS
 62
     3
100
AcDbVertex
100
AcDb2dVertex
 10
273.950737
 20
199.704633
 30
0.0
  0
VERTEX
  5
285
330
246
100
AcDbEntity
  8
CSLAYER1
  6
CONTINUOUS
 62
     3
100
AcDbVertex
100
AcDb2dVertex
 10
273.7327309999999
 20
199.998781
 30
0.0
  0
VERTEX
  5
286
330
246
100
AcDbEntity
  8
CSLAYER1
  6
CONTINUOUS
 62
     3
100
AcDbVertex
100
AcDb2dVertex
 10
273.4907919999999
 20
200.272137
 30
0.0
  0
VERTEX
  5
287
330
246
100
AcDbEntity
  8
CSLAYER1
  6
CONTINUOUS
 62
     3
100
AcDbVertex
100
AcDb2dVertex
 10
273.226761
 20
200.5226219999999
 30
0.0
  0
VERTEX
  5
288
330
246
100
AcDbEntity
  8
CSLAYER1
  6
CONTINUOUS
 62
     3
100
AcDbVertex
100
AcDb2dVertex
 10
272.94265
 20
200.748329
 30
0.0
  0
VERTEX
  5
289
330
246
100
AcDbEntity
  8
CSLAYER1
  6
CONTINUOUS
 62
     3
100
AcDbVertex
100
AcDb2dVertex
 10
272.640618
 20
200.9475409999999
 30
0.0
  0
VERTEX
  5
28A
330
246
100
AcDbEntity
  8
CSLAYER1
  6
CONTINUOUS
 62
     3
100
AcDbVertex
100
AcDb2dVertex
 10
272.322966
 20
201.118741
 30
0.0
  0
VERTEX
  5
28B
330
246
100
AcDbEntity
  8
CSLAYER1
  6
CONTINUOUS
 62
     3
100
AcDbVertex
100
AcDb2dVertex
 10
271.9921109999999
 20
201.260627
 30
0.0
  0
VERTEX
  5
28C
330
246
100
AcDbEntity
  8
CSLAYER1
  6
CONTINUOUS
 62
     3
100
AcDbVertex
100
AcDb2dVertex
 10
271.65057
 20
201.372118
 30
0.0
  0
VERTEX
  5
28D
330
246
100
AcDbEntity
  8
CSLAYER1
  6
CONTINUOUS
 62
     3
100
AcDbVertex
100
AcDb2dVertex
 10
271.3009439999999
 20
201.452366
 30
0.0
  0
VERTEX
  5
28E
330
246
100
AcDbEntity
  8
CSLAYER1
  6
CONTINUOUS
 62
     3
100
AcDbVertex
100
AcDb2dVertex
 10
270.945893
 20
201.500761
 30
0.0
  0
VERTEX
  5
28F
330
246
100
AcDbEntity
  8
CSLAYER1
  6
CONTINUOUS
 62
     3
100
AcDbVertex
100
AcDb2dVertex
 10
270.5881179999999
 20
201.5169329999999
 30
0.0
  0
SEQEND
  5
290
330
246
100
AcDbEntity
  8
CSLAYER1
 62
     3
  0
LINE
  5
291
330
1E
100
AcDbEntity
  8
CSLAYER1
  6
CENTER
 62
     4
100
AcDbLine
 10
230.588118
 20
63.064436
 30
0.0
 11
230.588118
 21
76.31325799999998
 31
0.0
  0
LINE
  5
292
330
1E
100
AcDbEntity
  8
CSLAYER1
  6
CENTER
 62
     4
100
AcDbLine
 10
230.588118
 20
111.9553129999999
 30
0.0
 11
230.588118
 21
124.491028
 31
0.0
  0
CIRCLE
  5
293
330
1E
100
AcDbEntity
  8
CSLAYER1
  6
CONTINUOUS
 62
     4
100
AcDbCircle
 10
230.588118
 20
117.134286
 30
0.0
 40
2.5
  0
LINE
  5
294
330
1E
100
AcDbEntity
  8
CSLAYER1
  6
CENTER
 62
     4
100
AcDbLine
 10
237.179466
 20
117.134286
 30
0.0
 11
165.51428
 21
117.134286
 31
0.0
  0
CIRCLE
  5
295
330
1E
100
AcDbEntity
  8
CSLAYER1
  6
CONTINUOUS
 62
     4
100
AcDbCircle
 10
170.5881179999998
 20
117.134286
 30
0.0
 40
2.5
  0
LINE
  5
296
330
1E
100
AcDbEntity
  8
CSLAYER1
  6
CENTER
 62
     4
100
AcDbLine
 10
170.5881179999998
 20
112.180676
 30
0.0
 11
170.5881179999998
 21
124.810958
 31
0.0
  0
LINE
  5
297
330
1E
100
AcDbEntity
  8
CSLAYER1
  6
CENTER
 62
     4
100
AcDbLine
 10
125.588118
 20
119.2783129999998
 30
0.0
 11
125.588118
 21
69.280368
 31
0.0
  0
LINE
  5
298
330
1E
100
AcDbEntity
  8
CSLAYER1
  6
CENTER
 62
     4
100
AcDbLine
 10
170.5881179999998
 20
76.087896
 30
0.0
 11
170.5881179999998
 21
63.54433100000001
 31
0.0
  0
CIRCLE
  5
299
330
1E
100
AcDbEntity
  8
CSLAYER1
  6
CONTINUOUS
 62
     4
100
AcDbCircle
 10
170.5881179999998
 20
71.134286
 30
0.0
 40
2.5
  0
LINE
  5
29A
330
1E
100
AcDbEntity
  8
CSLAYER1
  6
CENTER
 62
     4
100
AcDbLine
 10
165.51428
 20
71.134286
 30
0.0
 11
237.179466
 21
71.134286
 31
0.0
  0
CIRCLE
  5
29B
330
1E
100
AcDbEntity
  8
CSLAYER1
  6
CONTINUOUS
 62
     4
100
AcDbCircle
 10
230.588118
 20
71.134286
 30
0.0
 40
2.5
  0
LINE
  5
29C
330
1E
100
AcDbEntity
  8
CSLAYER1
  6
CENTER
 62
     4
100
AcDbLine
 10
290.19669
 20
94.13428600000001
 30
0.0
 11
104.5537989999999
 21
94.13428600000001
 31
0.0
  0
LINE
  5
29D
330
1E
100
AcDbEntity
  8
CSLAYER1
  6
CENTER
 62
     4
100
AcDbLine
 10
180.5881179999999
 20
157.326857
 30
0.0
 11
180.5881179999999
 21
171.346286
 31
0.0
  0
CIRCLE
  5
29E
330
1E
100
AcDbEntity
  8
CSLAYER1
  6
CONTINUOUS
 62
     4
100
AcDbCircle
 10
180.5881179999999
 20
167.02
 30
0.0
 40
2.5
  0
LINE
  5
29F
330
1E
100
AcDbEntity
  8
CSLAYER1
  6
CENTER
 62
     4
100
AcDbLine
 10
173.982404
 20
167.02
 30
0.0
 11
246.980118
 21
167.02
 31
0.0
  0
CIRCLE
  5
2A0
330
1E
100
AcDbEntity
  8
CSLAYER1
  6
CONTINUOUS
 62
     4
100
AcDbCircle
 10
240.588118
 20
167.02
 30
0.0
 40
2.5
  0
LINE
  5
2A1
330
1E
100
AcDbEntity
  8
CSLAYER1
  6
CENTER
 62
     4
100
AcDbLine
 10
240.588118
 20
171.346286
 30
0.0
 11
240.588118
 21
157.0851429999999
 31
0.0
  0
LINE
  5
2A2
330
1E
100
AcDbEntity
  8
CSLAYER1
  6
CENTER
 62
     4
100
AcDbLine
 10
270.5881179999999
 20
190.158298
 30
0.0
 11
270.5881179999999
 21
204.2426779999999
 31
0.0
  0
LINE
  5
2A3
330
1E
100
AcDbEntity
  8
CSLAYER1
  6
CENTER
 62
     4
100
AcDbLine
 10
277.8563299999999
 20
197.266933
 30
0.0
 11
263.264912
 21
197.266933
 31
0.0
  0
LINE
  5
2A4
330
1E
100
AcDbEntity
  8
CSLAYER1
  6
CENTER
 62
     4
100
AcDbLine
 10
284.186142
 20
190.02
 30
0.0
 11
106.0377609999999
 21
190.02
 31
0.0
  0
LINE
  5
2A5
330
1E
100
AcDbEntity
  8
CSLAYER1
  6
CENTER
 62
     4
100
AcDbLine
 10
125.588118
 20
200.994842
 30
0.0
 11
125.588118
 21
178.9093389999999
 31
0.0
  0
LINE
  5
2A6
330
1E
100
AcDbEntity
  8
CSLAYER1
  6
CENTER
 62
     4
100
AcDbLine
 10
173.982404
 20
213.02
 30
0.0
 11
246.980118
 21
213.02
 31
0.0
  0
CIRCLE
  5
2A7
330
1E
100
AcDbEntity
  8
CSLAYER1
  6
CONTINUOUS
 62
     4
100
AcDbCircle
 10
240.588118
 20
213.02
 30
0.0
 40
2.5
  0
LINE
  5
2A8
330
1E
100
AcDbEntity
  8
CSLAYER1
  6
CENTER
 62
     4
100
AcDbLine
 10
240.588118
 20
208.6937139999998
 30
0.0
 11
240.588118
 21
222.9548569999999
 31
0.0
  0
LINE
  5
2A9
330
1E
100
AcDbEntity
  8
CSLAYER1
  6
CENTER
 62
     4
100
AcDbLine
 10
180.5881179999999
 20
222.713143
 30
0.0
 11
180.5881179999999
 21
208.6937139999998
 31
0.0
  0
CIRCLE
  5
2AA
330
1E
100
AcDbEntity
  8
CSLAYER1
  6
CONTINUOUS
 62
     4
100
AcDbCircle
 10
180.5881179999999
 20
213.02
 30
0.0
 40
2.5
  0
LINE
  5
2AB
330
1E
100
AcDbEntity
  8
CSLAYER1
  6
CENTER
 62
     4
100
AcDbLine
 10
91.864162
 20
190.02
 30
0.0
 11
27.91061
 21
190.02
 31
0.0
  0
LINE
  5
2AC
330
1E
100
AcDbEntity
  8
CSLAYER1
  6
CENTER
 62
     4
100
AcDbLine
 10
60.33485699999999
 20
155.758286
 30
0.0
 11
60.33485699999999
 21
224.8885709999999
 31
0.0
  0
LINE
  5
2AD
330
1E
100
AcDbEntity
  8
CSLAYER1
  6
CENTER
 62
     4
100
AcDbLine
 10
304.584827
 20
198.878047
 30
0.0
 11
337.643508
 21
190.02
 31
0.0
  0
CIRCLE
  5
2AE
330
1E
100
AcDbEntity
  8
CSLAYER1
  6
CONTINUOUS
 62
     4
100
AcDbCircle
 10
337.643508
 20
190.02
 30
0.0
 40
4.75
  0
LINE
  5
2AF
330
1E
100
AcDbEntity
  8
CSLAYER1
  6
CENTER
 62
     4
100
AcDbLine
 10
348.093684
 20
200.470176
 30
0.0
 11
355.536149
 21
207.9126409999999
 31
0.0
  0
CIRCLE
  5
2B0
330
1E
100
AcDbEntity
  8
CSLAYER1
  6
CONTINUOUS
 62
     4
100
AcDbCircle
 10
351.785644
 20
204.162136
 30
0.0
 40
3.0
  0
LINE
  5
2B1
330
1E
100
AcDbEntity
  8
CSLAYER1
  6
CENTER
 62
     4
100
AcDbLine
 10
348.432024
 20
207.515755
 30
0.0
 11
355.36066
 21
200.58712
 31
0.0
  0
LINE
  5
2B2
330
1E
100
AcDbEntity
  8
CSLAYER1
  6
CENTER
 62
     4
100
AcDbLine
 10
369.0304529999998
 20
190.02
 30
0.0
 11
303.952956
 21
190.02
 31
0.0
  0
LINE
  5
2B3
330
1E
100
AcDbEntity
  8
CSLAYER1
  6
CENTER
 62
     4
100
AcDbLine
 10
319.823506
 20
179.555731
 30
0.0
 11
326.6838789999998
 21
172.6953579999999
 31
0.0
  0
CIRCLE
  5
2B4
330
1E
100
AcDbEntity
  8
CSLAYER1
  6
CONTINUOUS
 62
     4
100
AcDbCircle
 10
323.5013729999999
 20
175.8778639999999
 30
0.0
 40
3.0
  0
LINE
  5
2B5
330
1E
100
AcDbEntity
  8
CSLAYER1
  6
CENTER
 62
     4
100
AcDbLine
 10
326.9433819999998
 20
179.319874
 30
0.0
 11
319.7950089999999
 21
172.171501
 31
0.0
  0
LINE
  5
2B6
330
1E
100
AcDbEntity
  8
CSLAYER1
  6
CENTER
 62
     4
100
AcDbLine
 10
337.643508
 20
156.027429
 30
0.0
 11
337.643508
 21
226.000114
 31
0.0
  0
POLYLINE
  5
2B7
330
1E
100
AcDbEntity
  8
CSLAYER1
  6
CONTINUOUS
 62
     4
100
AcDb2dPolyline
 66
     1
 10
0.0
 20
0.0
 30
0.0
  0
VERTEX
  5
2B8
330
2B7
100
AcDbEntity
  8
CSLAYER1
  6
CONTINUOUS
 62
     4
100
AcDbVertex
100
AcDb2dVertex
 10
270.5881179999999
 20
202.0169329999999
 30
0.0
  0
VERTEX
  5
2B9
330
2B7
100
AcDbEntity
  8
CSLAYER1
  6
CONTINUOUS
 62
     4
100
AcDbVertex
100
AcDb2dVertex
 10
270.188509
 20
201.998858
 30
0.0
  0
VERTEX
  5
2BA
330
2B7
100
AcDbEntity
  8
CSLAYER1
  6
CONTINUOUS
 62
     4
100
AcDbVertex
100
AcDb2dVertex
 10
269.791941
 20
201.94477
 30
0.0
  0
VERTEX
  5
2BB
330
2B7
100
AcDbEntity
  8
CSLAYER1
  6
CONTINUOUS
 62
     4
100
AcDbVertex
100
AcDb2dVertex
 10
269.4014329999999
 20
201.855081
 30
0.0
  0
VERTEX
  5
2BC
330
2B7
100
AcDbEntity
  8
CSLAYER1
  6
CONTINUOUS
 62
     4
100
AcDbVertex
100
AcDb2dVertex
 10
269.0199559999999
 20
201.7304729999999
 30
0.0
  0
VERTEX
  5
2BD
330
2B7
100
AcDbEntity
  8
CSLAYER1
  6
CONTINUOUS
 62
     4
100
AcDbVertex
100
AcDb2dVertex
 10
268.650414
 20
201.5718949999999
 30
0.0
  0
VERTEX
  5
2BE
330
2B7
100
AcDbEntity
  8
CSLAYER1
  6
CONTINUOUS
 62
     4
100
AcDbVertex
100
AcDb2dVertex
 10
268.295618
 20
201.380554
 30
0.0
  0
VERTEX
  5
2BF
330
2B7
100
AcDbEntity
  8
CSLAYER1
  6
CONTINUOUS
 62
     4
100
AcDbVertex
100
AcDb2dVertex
 10
267.95827
 20
201.1579049999999
 30
0.0
  0
VERTEX
  5
2C0
330
2B7
100
AcDbEntity
  8
CSLAYER1
  6
CONTINUOUS
 62
     4
100
AcDbVertex
100
AcDb2dVertex
 10
267.640937
 20
200.905644
 30
0.0
  0
VERTEX
  5
2C1
330
2B7
100
AcDbEntity
  8
CSLAYER1
  6
CONTINUOUS
 62
     4
100
AcDbVertex
100
AcDb2dVertex
 10
267.3460339999999
 20
200.6256899999999
 30
0.0
  0
VERTEX
  5
2C2
330
2B7
100
AcDbEntity
  8
CSLAYER1
  6
CONTINUOUS
 62
     4
100
AcDbVertex
100
AcDb2dVertex
 10
267.0758049999999
 20
200.320174
 30
0.0
  0
VERTEX
  5
2C3
330
2B7
100
AcDbEntity
  8
CSLAYER1
  6
CONTINUOUS
 62
     4
100
AcDbVertex
100
AcDb2dVertex
 10
266.832306
 20
199.991421
 30
0.0
  0
VERTEX
  5
2C4
330
2B7
100
AcDbEntity
  8
CSLAYER1
  6
CONTINUOUS
 62
     4
100
AcDbVertex
100
AcDb2dVertex
 10
266.6173919999999
 20
199.6419329999999
 30
0.0
  0
VERTEX
  5
2C5
330
2B7
100
AcDbEntity
  8
CSLAYER1
  6
CONTINUOUS
 62
     4
100
AcDbVertex
100
AcDb2dVertex
 10
266.432697
 20
199.27437
 30
0.0
  0
VERTEX
  5
2C6
330
2B7
100
AcDbEntity
  8
CSLAYER1
  6
CONTINUOUS
 62
     4
100
AcDbVertex
100
AcDb2dVertex
 10
266.279628
 20
198.8915289999999
 30
0.0
  0
VERTEX
  5
2C7
330
2B7
100
AcDbEntity
  8
CSLAYER1
  6
CONTINUOUS
 62
     4
100
AcDbVertex
100
AcDb2dVertex
 10
266.159348
 20
198.4963239999999
 30
0.0
  0
VERTEX
  5
2C8
330
2B7
100
AcDbEntity
  8
CSLAYER1
  6
CONTINUOUS
 62
     4
100
AcDbVertex
100
AcDb2dVertex
 10
266.0727749999999
 20
198.091762
 30
0.0
  0
VERTEX
  5
2C9
330
2B7
100
AcDbEntity
  8
CSLAYER1
  6
CONTINUOUS
 62
     4
100
AcDbVertex
100
AcDb2dVertex
 10
266.020566
 20
197.680923
 30
0.0
  0
VERTEX
  5
2CA
330
2B7
100
AcDbEntity
  8
CSLAYER1
  6
CONTINUOUS
 62
     4
100
AcDbVertex
100
AcDb2dVertex
 10
266.003118
 20
197.266933
 30
0.0
  0
VERTEX
  5
2CB
330
2B7
100
AcDbEntity
  8
CSLAYER1
  6
CONTINUOUS
 62
     4
100
AcDbVertex
100
AcDb2dVertex
 10
266.020566
 20
196.8529429999999
 30
0.0
  0
VERTEX
  5
2CC
330
2B7
100
AcDbEntity
  8
CSLAYER1
  6
CONTINUOUS
 62
     4
100
AcDbVertex
100
AcDb2dVertex
 10
266.0727749999999
 20
196.4421039999999
 30
0.0
  0
VERTEX
  5
2CD
330
2B7
100
AcDbEntity
  8
CSLAYER1
  6
CONTINUOUS
 62
     4
100
AcDbVertex
100
AcDb2dVertex
 10
266.159348
 20
196.037543
 30
0.0
  0
VERTEX
  5
2CE
330
2B7
100
AcDbEntity
  8
CSLAYER1
  6
CONTINUOUS
 62
     4
100
AcDbVertex
100
AcDb2dVertex
 10
266.279628
 20
195.642338
 30
0.0
  0
VERTEX
  5
2CF
330
2B7
100
AcDbEntity
  8
CSLAYER1
  6
CONTINUOUS
 62
     4
100
AcDbVertex
100
AcDb2dVertex
 10
266.432697
 20
195.2594969999999
 30
0.0
  0
VERTEX
  5
2D0
330
2B7
100
AcDbEntity
  8
CSLAYER1
  6
CONTINUOUS
 62
     4
100
AcDbVertex
100
AcDb2dVertex
 10
266.6173919999999
 20
194.891933
 30
0.0
  0
VERTEX
  5
2D1
330
2B7
100
AcDbEntity
  8
CSLAYER1
  6
CONTINUOUS
 62
     4
100
AcDbVertex
100
AcDb2dVertex
 10
266.832306
 20
194.5424449999999
 30
0.0
  0
VERTEX
  5
2D2
330
2B7
100
AcDbEntity
  8
CSLAYER1
  6
CONTINUOUS
 62
     4
100
AcDbVertex
100
AcDb2dVertex
 10
267.0758049999999
 20
194.2136919999999
 30
0.0
  0
VERTEX
  5
2D3
330
2B7
100
AcDbEntity
  8
CSLAYER1
  6
CONTINUOUS
 62
     4
100
AcDbVertex
100
AcDb2dVertex
 10
267.3460339999999
 20
193.908176
 30
0.0
  0
VERTEX
  5
2D4
330
2B7
100
AcDbEntity
  8
CSLAYER1
  6
CONTINUOUS
 62
     4
100
AcDbVertex
100
AcDb2dVertex
 10
267.640937
 20
193.628222
 30
0.0
  0
VERTEX
  5
2D5
330
2B7
100
AcDbEntity
  8
CSLAYER1
  6
CONTINUOUS
 62
     4
100
AcDbVertex
100
AcDb2dVertex
 10
267.95827
 20
193.375961
 30
0.0
  0
VERTEX
  5
2D6
330
2B7
100
AcDbEntity
  8
CSLAYER1
  6
CONTINUOUS
 62
     4
100
AcDbVertex
100
AcDb2dVertex
 10
268.295618
 20
193.153313
 30
0.0
  0
VERTEX
  5
2D7
330
2B7
100
AcDbEntity
  8
CSLAYER1
  6
CONTINUOUS
 62
     4
100
AcDbVertex
100
AcDb2dVertex
 10
268.650414
 20
192.961971
 30
0.0
  0
VERTEX
  5
2D8
330
2B7
100
AcDbEntity
  8
CSLAYER1
  6
CONTINUOUS
 62
     4
100
AcDbVertex
100
AcDb2dVertex
 10
269.0199559999999
 20
192.8033929999999
 30
0.0
  0
VERTEX
  5
2D9
330
2B7
100
AcDbEntity
  8
CSLAYER1
  6
CONTINUOUS
 62
     4
100
AcDbVertex
100
AcDb2dVertex
 10
269.4014329999999
 20
192.678786
 30
0.0
  0
VERTEX
  5
2DA
330
2B7
100
AcDbEntity
  8
CSLAYER1
  6
CONTINUOUS
 62
     4
100
AcDbVertex
100
AcDb2dVertex
 10
269.791941
 20
192.5890959999999
 30
0.0
  0
VERTEX
  5
2DB
330
2B7
100
AcDbEntity
  8
CSLAYER1
  6
CONTINUOUS
 62
     4
100
AcDbVertex
100
AcDb2dVertex
 10
270.188509
 20
192.535008
 30
0.0
  0
VERTEX
  5
2DC
330
2B7
100
AcDbEntity
  8
CSLAYER1
  6
CONTINUOUS
 62
     4
100
AcDbVertex
100
AcDb2dVertex
 10
270.5881179999999
 20
192.5169329999999
 30
0.0
  0
VERTEX
  5
2DD
330
2B7
100
AcDbEntity
  8
CSLAYER1
  6
CONTINUOUS
 62
     4
100
AcDbVertex
100
AcDb2dVertex
 10
270.987727
 20
192.535008
 30
0.0
  0
VERTEX
  5
2DE
330
2B7
100
AcDbEntity
  8
CSLAYER1
  6
CONTINUOUS
 62
     4
100
AcDbVertex
100
AcDb2dVertex
 10
271.384295
 20
192.5890959999999
 30
0.0
  0
VERTEX
  5
2DF
330
2B7
100
AcDbEntity
  8
CSLAYER1
  6
CONTINUOUS
 62
     4
100
AcDbVertex
100
AcDb2dVertex
 10
271.774804
 20
192.678786
 30
0.0
  0
VERTEX
  5
2E0
330
2B7
100
AcDbEntity
  8
CSLAYER1
  6
CONTINUOUS
 62
     4
100
AcDbVertex
100
AcDb2dVertex
 10
272.1562809999999
 20
192.8033929999999
 30
0.0
  0
VERTEX
  5
2E1
330
2B7
100
AcDbEntity
  8
CSLAYER1
  6
CONTINUOUS
 62
     4
100
AcDbVertex
100
AcDb2dVertex
 10
272.525823
 20
192.961971
 30
0.0
  0
VERTEX
  5
2E2
330
2B7
100
AcDbEntity
  8
CSLAYER1
  6
CONTINUOUS
 62
     4
100
AcDbVertex
100
AcDb2dVertex
 10
272.880618
 20
193.153313
 30
0.0
  0
VERTEX
  5
2E3
330
2B7
100
AcDbEntity
  8
CSLAYER1
  6
CONTINUOUS
 62
     4
100
AcDbVertex
100
AcDb2dVertex
 10
273.2179659999999
 20
193.375961
 30
0.0
  0
VERTEX
  5
2E4
330
2B7
100
AcDbEntity
  8
CSLAYER1
  6
CONTINUOUS
 62
     4
100
AcDbVertex
100
AcDb2dVertex
 10
273.5352989999999
 20
193.628222
 30
0.0
  0
VERTEX
  5
2E5
330
2B7
100
AcDbEntity
  8
CSLAYER1
  6
CONTINUOUS
 62
     4
100
AcDbVertex
100
AcDb2dVertex
 10
273.8302029999999
 20
193.908176
 30
0.0
  0
VERTEX
  5
2E6
330
2B7
100
AcDbEntity
  8
CSLAYER1
  6
CONTINUOUS
 62
     4
100
AcDbVertex
100
AcDb2dVertex
 10
274.1004319999999
 20
194.2136919999999
 30
0.0
  0
VERTEX
  5
2E7
330
2B7
100
AcDbEntity
  8
CSLAYER1
  6
CONTINUOUS
 62
     4
100
AcDbVertex
100
AcDb2dVertex
 10
274.3439299999999
 20
194.5424449999999
 30
0.0
  0
VERTEX
  5
2E8
330
2B7
100
AcDbEntity
  8
CSLAYER1
  6
CONTINUOUS
 62
     4
100
AcDbVertex
100
AcDb2dVertex
 10
274.558845
 20
194.891933
 30
0.0
  0
VERTEX
  5
2E9
330
2B7
100
AcDbEntity
  8
CSLAYER1
  6
CONTINUOUS
 62
     4
100
AcDbVertex
100
AcDb2dVertex
 10
274.743539
 20
195.2594969999999
 30
0.0
  0
VERTEX
  5
2EA
330
2B7
100
AcDbEntity
  8
CSLAYER1
  6
CONTINUOUS
 62
     4
100
AcDbVertex
100
AcDb2dVertex
 10
274.896609
 20
195.642338
 30
0.0
  0
VERTEX
  5
2EB
330
2B7
100
AcDbEntity
  8
CSLAYER1
  6
CONTINUOUS
 62
     4
100
AcDbVertex
100
AcDb2dVertex
 10
275.0168879999999
 20
196.037543
 30
0.0
  0
VERTEX
  5
2EC
330
2B7
100
AcDbEntity
  8
CSLAYER1
  6
CONTINUOUS
 62
     4
100
AcDbVertex
100
AcDb2dVertex
 10
275.103462
 20
196.4421039999999
 30
0.0
  0
VERTEX
  5
2ED
330
2B7
100
AcDbEntity
  8
CSLAYER1
  6
CONTINUOUS
 62
     4
100
AcDbVertex
100
AcDb2dVertex
 10
275.155671
 20
196.8529429999999
 30
0.0
  0
VERTEX
  5
2EE
330
2B7
100
AcDbEntity
  8
CSLAYER1
  6
CONTINUOUS
 62
     4
100
AcDbVertex
100
AcDb2dVertex
 10
275.173118
 20
197.266933
 30
0.0
  0
VERTEX
  5
2EF
330
2B7
100
AcDbEntity
  8
CSLAYER1
  6
CONTINUOUS
 62
     4
100
AcDbVertex
100
AcDb2dVertex
 10
275.155671
 20
197.680923
 30
0.0
  0
VERTEX
  5
2F0
330
2B7
100
AcDbEntity
  8
CSLAYER1
  6
CONTINUOUS
 62
     4
100
AcDbVertex
100
AcDb2dVertex
 10
275.103462
 20
198.091762
 30
0.0
  0
VERTEX
  5
2F1
330
2B7
100
AcDbEntity
  8
CSLAYER1
  6
CONTINUOUS
 62
     4
100
AcDbVertex
100
AcDb2dVertex
 10
275.0168879999999
 20
198.4963239999999
 30
0.0
  0
VERTEX
  5
2F2
330
2B7
100
AcDbEntity
  8
CSLAYER1
  6
CONTINUOUS
 62
     4
100
AcDbVertex
100
AcDb2dVertex
 10
274.896609
 20
198.8915289999999
 30
0.0
  0
VERTEX
  5
2F3
330
2B7
100
AcDbEntity
  8
CSLAYER1
  6
CONTINUOUS
 62
     4
100
AcDbVertex
100
AcDb2dVertex
 10
274.743539
 20
199.27437
 30
0.0
  0
VERTEX
  5
2F4
330
2B7
100
AcDbEntity
  8
CSLAYER1
  6
CONTINUOUS
 62
     4
100
AcDbVertex
100
AcDb2dVertex
 10
274.558845
 20
199.6419329999999
 30
0.0
  0
VERTEX
  5
2F5
330
2B7
100
AcDbEntity
  8
CSLAYER1
  6
CONTINUOUS
 62
     4
100
AcDbVertex
100
AcDb2dVertex
 10
274.3439299999999
 20
199.991421
 30
0.0
  0
VERTEX
  5
2F6
330
2B7
100
AcDbEntity
  8
CSLAYER1
  6
CONTINUOUS
 62
     4
100
AcDbVertex
100
AcDb2dVertex
 10
274.1004319999999
 20
200.320174
 30
0.0
  0
VERTEX
  5
2F7
330
2B7
100
AcDbEntity
  8
CSLAYER1
  6
CONTINUOUS
 62
     4
100
AcDbVertex
100
AcDb2dVertex
 10
273.8302029999999
 20
200.6256899999999
 30
0.0
  0
VERTEX
  5
2F8
330
2B7
100
AcDbEntity
  8
CSLAYER1
  6
CONTINUOUS
 62
     4
100
AcDbVertex
100
AcDb2dVertex
 10
273.5352989999999
 20
200.905644
 30
0.0
  0
VERTEX
  5
2F9
330
2B7
100
AcDbEntity
  8
CSLAYER1
  6
CONTINUOUS
 62
     4
100
AcDbVertex
100
AcDb2dVertex
 10
273.2179659999999
 20
201.1579049999999
 30
0.0
  0
VERTEX
  5
2FA
330
2B7
100
AcDbEntity
  8
CSLAYER1
  6
CONTINUOUS
 62
     4
100
AcDbVertex
100
AcDb2dVertex
 10
272.880618
 20
201.380554
 30
0.0
  0
VERTEX
  5
2FB
330
2B7
100
AcDbEntity
  8
CSLAYER1
  6
CONTINUOUS
 62
     4
100
AcDbVertex
100
AcDb2dVertex
 10
272.525823
 20
201.5718949999999
 30
0.0
  0
VERTEX
  5
2FC
330
2B7
100
AcDbEntity
  8
CSLAYER1
  6
CONTINUOUS
 62
     4
100
AcDbVertex
100
AcDb2dVertex
 10
272.1562809999999
 20
201.7304729999999
 30
0.0
  0
VERTEX
  5
2FD
330
2B7
100
AcDbEntity
  8
CSLAYER1
  6
CONTINUOUS
 62
     4
100
AcDbVertex
100
AcDb2dVertex
 10
271.774804
 20
201.855081
 30
0.0
  0
VERTEX
  5
2FE
330
2B7
100
AcDbEntity
  8
CSLAYER1
  6
CONTINUOUS
 62
     4
100
AcDbVertex
100
AcDb2dVertex
 10
271.384295
 20
201.94477
 30
0.0
  0
VERTEX
  5
2FF
330
2B7
100
AcDbEntity
  8
CSLAYER1
  6
CONTINUOUS
 62
     4
100
AcDbVertex
100
AcDb2dVertex
 10
270.987727
 20
201.998858
 30
0.0
  0
VERTEX
  5
300
330
2B7
100
AcDbEntity
  8
CSLAYER1
  6
CONTINUOUS
 62
     4
100
AcDbVertex
100
AcDb2dVertex
 10
270.5881179999999
 20
202.0169329999999
 30
0.0
  0
SEQEND
  5
301
330
2B7
100
AcDbEntity
  8
CSLAYER1
 62
     4
  0
DIMENSION
  5
302
330
1E
100
AcDbEntity
  8
CSLAYER1
 62
     4
100
AcDbDimension
  2
*D0
 10
21.588286
 20
218.02
 30
0.0
 11
21.08828499999999
 21
190.020004
 31
0.0
 70
     1
100
AcDbAlignedDimension
 13
32.334857
 23
162.02
 33
0.0
 14
32.334857
 24
218.02
 34
0.0
  0
DIMENSION
  5
303
330
1E
100
AcDbEntity
  8
CSLAYER1
 62
     4
100
AcDbDimension
  2
*D1
 10
88.334857
 20
240.535714
 30
0.0
 11
60.334858
 21
241.0357209999999
 31
0.0
 70
     1
100
AcDbAlignedDimension
 13
32.334857
 23
218.02
 33
0.0
 14
88.334857
 24
218.02
 34
0.0
  0
DIMENSION
  5
304
330
1E
100
AcDbEntity
  8
CSLAYER1
 62
     4
100
AcDbDimension
  2
*D2
 10
78.334857
 20
234.535714
 30
0.0
 11
60.334858
 21
235.0357209999998
 31
0.0
 70
     1
100
AcDbAlignedDimension
 13
42.334857
 23
204.02
 33
0.0
 14
78.334857
 24
204.02
 34
0.0
  0
DIMENSION
  5
305
330
1E
100
AcDbEntity
  8
CSLAYER1
 62
     4
100
AcDbDimension
  2
*D3
 10
68.834857
 20
228.535714
 30
0.0
 11
58.12712099999998
 21
229.087845
 31
0.0
 70
     1
100
AcDbAlignedDimension
 13
51.834857
 23
218.02
 33
0.0
 14
68.834857
 24
218.02
 34
0.0
  0
DIMENSION
  5
306
330
1E
100
AcDbEntity
  8
CSLAYER1
 62
     4
100
AcDbDimension
  2
*D4
 10
99.741583
 20
204.02
 30
0.0
 11
99.241585
 21
190.020004
 31
0.0
 70
     1
100
AcDbAlignedDimension
 13
110.5881179999999
 23
176.02
 33
0.0
 14
110.5881179999999
 24
204.02
 34
0.0
  0
DIMENSION
  5
307
330
1E
100
AcDbEntity
  8
CSLAYER1
 62
     4
100
AcDbDimension
  2
*D5
 10
260.588118
 20
240.5215459999999
 30
0.0
 11
185.5881199999999
 21
241.021545
 31
0.0
100
AcDbAlignedDimension
 13
110.5881179999999
 23
204.02
 33
0.0
 14
260.588118
 24
218.02
 34
0.0
100
AcDbRotatedDimension
  0
DIMENSION
  5
308
330
1E
100
AcDbEntity
  8
CSLAYER1
 62
     4
100
AcDbDimension
  2
*D6
 10
260.588118
 20
234.5215459999999
 30
0.0
 11
203.08812
 21
235.021545
 31
0.0
 70
     1
100
AcDbAlignedDimension
 13
145.5881179999998
 23
218.02
 33
0.0
 14
260.588118
 24
218.02
 34
0.0
  0
DIMENSION
  5
309
330
1E
100
AcDbEntity
  8
CSLAYER1
 62
     4
100
AcDbDimension
  2
*D7
 10
240.588118
 20
228.5215459999999
 30
0.0
 11
210.58812
 21
229.021545
 31
0.0
100
AcDbAlignedDimension
 13
180.5881179999999
 23
222.713143
 33
0.0
 14
240.588118
 24
222.9548569999999
 34
0.0
100
AcDbRotatedDimension
  0
DIMENSION
  5
30A
330
1E
100
AcDbEntity
  8
CSLAYER1
 62
     4
100
AcDbDimension
  2
*D8
 10
240.588118
 20
228.5215459999999
 30
0.0
 11
250.588104
 21
229.021545
 31
0.0
 70
     1
100
AcDbAlignedDimension
 13
260.588118
 23
228.5215459999999
 33
0.0
 14
240.588118
 24
228.5215459999999
 34
0.0
  0
DIMENSION
  5
30B
330
1E
100
AcDbEntity
  8
CSLAYER1
 62
     4
100
AcDbDimension
  2
*D9
 10
280.588118
 20
240.5215459999999
 30
0.0
 11
271.2864379999999
 21
241.1109619999999
 31
0.0
 70
     1
100
AcDbAlignedDimension
 13
260.588118
 23
211.52
 33
0.0
 14
280.588118
 24
211.52
 34
0.0
  0
DIMENSION
  5
30C
330
1E
100
AcDbEntity
  8
CSLAYER1
 62
     4
100
AcDbDimension
  2
*D10
 10
280.588118
 20
234.5215459999999
 30
0.0
 11
273.0881039999999
 21
235.021545
 31
0.0
 70
     1
100
AcDbAlignedDimension
 13
265.588118
 23
218.02
 33
0.0
 14
280.588118
 24
218.02
 34
0.0
  0
DIMENSION
  5
30D
330
1E
100
AcDbEntity
  8
CSLAYER1
 62
     4
100
AcDbDimension
  2
*D11
 10
125.588118
 20
228.837266
 30
0.0
 11
118.0881199999999
 21
229.337265
 31
0.0
100
AcDbAlignedDimension
 13
110.5881179999999
 23
195.813243
 33
0.0
 14
125.588118
 24
200.994842
 34
0.0
100
AcDbRotatedDimension
  0
DIMENSION
  5
30E
330
1E
100
AcDbEntity
  8
CSLAYER1
 62
     4
100
AcDbDimension
  2
*D12
 10
170.979039
 20
213.02
 30
0.0
 11
170.479034
 21
190.020004
 31
0.0
100
AcDbAlignedDimension
 13
176.218555
 23
167.02
 33
0.0
 14
175.134517
 24
213.02
 34
0.0
 50
90.0
100
AcDbRotatedDimension
  0
DIMENSION
  5
30F
330
1E
100
AcDbEntity
  8
CSLAYER1
 62
     4
100
AcDbDimension
  2
*D13
 10
289.893271
 20
218.02
 30
0.0
 11
289.3932799999999
 21
190.020004
 31
0.0
 70
     1
100
AcDbAlignedDimension
 13
265.588118
 23
162.02
 33
0.0
 14
265.588118
 24
218.02
 34
0.0
  0
DIMENSION
  5
310
330
1E
100
AcDbEntity
  8
CSLAYER1
 62
     4
100
AcDbDimension
  2
*D14
 10
260.588118
 20
131.837143
 30
0.0
 11
208.68811
 21
132.3371429999999
 31
0.0
100
AcDbAlignedDimension
 13
156.788118
 23
102.6342859999999
 33
0.0
 14
260.588118
 24
122.134286
 34
0.0
100
AcDbRotatedDimension
  0
DIMENSION
  5
311
330
1E
100
AcDbEntity
  8
CSLAYER1
 62
     4
100
AcDbDimension
  2
*D15
 10
230.588118
 20
53.99485699999999
 30
0.0
 11
200.58812
 21
54.49485799999999
 31
0.0
 52
270.0
100
AcDbAlignedDimension
 13
170.5881179999998
 23
63.54433100000001
 33
0.0
 14
230.588118
 24
63.064436
 34
0.0
100
AcDbRotatedDimension
  0
DIMENSION
  5
312
330
1E
100
AcDbEntity
  8
CSLAYER1
 62
     4
100
AcDbDimension
  2
*D16
 10
201.950975
 20
117.094286
 30
0.0
 11
201.450974
 21
94.095428
 31
0.0
100
AcDbAlignedDimension
 13
207.258404
 23
71.09657099999998
 33
0.0
 14
204.0149749999999
 24
117.094286
 34
0.0
 50
90.0
100
AcDbRotatedDimension
  0
DIMENSION
  5
313
330
1E
100
AcDbEntity
  8
CSLAYER1
 62
     4
100
AcDbDimension
  2
*D17
 10
132.17171
 20
62.134286
 30
0.0
 11
135.375168
 21
68.37831099999999
 31
0.0
 70
     4
100
AcDbRadialDimension
 15
139.433592
 25
74.10362499999997
 35
0.0
 40
0.0
  0
DIMENSION
  5
314
330
1E
100
AcDbEntity
  8
CSLAYER1
 62
     4
100
AcDbDimension
  2
*D18
 10
280.588118
 20
246.661122
 30
0.0
 11
195.58812
 21
247.161118
 31
0.0
100
AcDbAlignedDimension
 13
110.5881179999999
 23
204.02
 33
0.0
 14
280.588118
 24
211.52
 34
0.0
100
AcDbRotatedDimension
  0
DIMENSION
  5
315
330
1E
100
AcDbEntity
  8
CSLAYER1
 62
     4
100
AcDbDimension
  2
*D19
 10
374.6311509999998
 20
213.02
 30
0.0
 11
374.1311339999998
 21
190.020004
 31
0.0
 70
     1
100
AcDbAlignedDimension
 13
353.6122279999998
 23
167.02
 33
0.0
 14
353.6122279999998
 24
213.02
 34
0.0
  0
INSERT
  5
316
330
1E
100
AcDbEntity
  8
CSLAYER1
100
AcDbBlockReference
  2
FXDIM0000
 10
0.0
 20
0.0
 30
0.0
  0
INSERT
  5
317
330
1E
100
AcDbEntity
  8
CSLAYER1
100
AcDbBlockReference
  2
FXDIM0001
 10
0.0
 20
0.0
 30
0.0
  0
DIMENSION
  5
318
330
1E
100
AcDbEntity
  8
CSLAYER1
 62
     4
100
AcDbDimension
  2
*D22
 10
321.5435799999998
 20
234.404199
 30
0.0
 11
307.0479129999998
 21
220.615616
 31
0.0
 70
     1
100
AcDbAlignedDimension
 13
323.5013729999999
 23
175.8778639999999
 33
0.0
 14
351.785644
 24
204.162136
 34
0.0
  0
INSERT
  5
31A
330
1E
100
AcDbEntity
  8
CSLAYER1
100
AcDbBlockReference
  2
FXDIM0002
 10
0.0
 20
0.0
 30
0.0
  0
INSERT
  5
31B
330
1E
100
AcDbEntity
  8
CSLAYER1
100
AcDbBlockReference
  2
FXDIM0003
 10
0.0
 20
0.0
 30
0.0
  0
DIMENSION
  5
31C
330
1E
100
AcDbEntity
  8
CSLAYER1
 62
     4
100
AcDbDimension
  2
*D26
 10
225.588118
 20
147.0534879999999
 30
0.0
 11
205.5881199999999
 21
147.553482
 31
0.0
 70
     1
 52
270.0
100
AcDbAlignedDimension
 13
185.5881179999999
 23
162.02
 33
0.0
 14
225.588118
 24
162.02
 34
0.0
  0
DIMENSION
  5
31D
330
1E
100
AcDbEntity
  8
CSLAYER1
 62
     4
100
AcDbDimension
  2
*D27
 10
260.588118
 20
147.0534879999999
 30
0.0
 11
243.08812
 21
147.553482
 31
0.0
 70
     1
 52
270.0
100
AcDbAlignedDimension
 13
225.588118
 23
162.02
 33
0.0
 14
260.588118
 24
162.02
 34
0.0
  0
DIMENSION
  5
31E
330
1E
100
AcDbEntity
  8
CSLAYER1
 62
     4
100
AcDbDimension
  2
*D28
 10
260.588118
 20
153.0534879999999
 30
0.0
 11
253.08812
 21
153.553482
 31
0.0
 70
     1
 52
270.0
100
AcDbAlignedDimension
 13
245.5881179999999
 23
162.02
 33
0.0
 14
260.588118
 24
162.02
 34
0.0
  0
DIMENSION
  5
31F
330
1E
100
AcDbEntity
  8
CSLAYER1
 62
     4
100
AcDbDimension
  2
*D29
 10
260.588118
 20
53.99485699999999
 30
0.0
 11
245.58812
 21
54.49485799999999
 31
0.0
100
AcDbAlignedDimension
 13
230.588118
 23
53.99485699999999
 33
0.0
 14
260.588118
 24
66.134286
 34
0.0
100
AcDbRotatedDimension
  0
LINE
  5
320
330
1E
100
AcDbEntity
  8
CSLAYER1
  6
DOT
 62
     3
100
AcDbLine
 10
10.0
 20
3.0
 30
0.0
 11
395.0
 21
3.0
 31
0.0
  0
LINE
  5
321
330
1E
100
AcDbEntity
  8
CSLAYER1
  6
DOT
 62
     3
100
AcDbLine
 10
395.0
 20
3.0
 30
0.0
 11
395.0
 21
275.0
 31
0.0
  0
LINE
  5
322
330
1E
100
AcDbEntity
  8
CSLAYER1
  6
DOT
 62
     3
100
AcDbLine
 10
395.0
 20
275.0
 30
0.0
 11
10.0
 21
275.0
 31
0.0
  0
LINE
  5
323
330
1E
100
AcDbEntity
  8
CSLAYER1
  6
DOT
 62
     3
100
AcDbLine
 10
10.0
 20
275.0
 30
0.0
 11
10.0
 21
3.0
 31
0.0
  0
ENDSEC
  0
SECTION
  2
OBJECTS
  0
DICTIONARY
  5
C
330
0
100
AcDbDictionary
  3
ACAD_GROUP
350
D
  3
ACAD_LAYOUT
350
19
  3
ACAD_MLINESTYLE
350
16
  3
ACAD_PLOTSETTINGS
350
18
1001
ACAD
1000
TREAT_AS_HARD
1070
     0
1000
TREAT_AS_HARD
1070
     0
  0
DICTIONARY
  5
32D
330
1E
100
AcDbDictionary
  3
ACAD_LAYOUTSELFREF
350
34C
1001
ACAD
1000
TREAT_AS_HARD
1070
     0
  0
DICTIONARY
  5
32B
330
1A
100
AcDbDictionary
  3
ACAD_LAYOUTSELFREF
350
34B
1001
ACAD
1000
TREAT_AS_HARD
1070
     0
  0
DICTIONARY
  5
D
102
{ACAD_REACTORS
330
C
102
}
330
C
100
AcDbDictionary
1001
ACAD
1000
TREAT_AS_HARD
1070
     0
1000
TREAT_AS_HARD
1070
     0
  0
DICTIONARY
  5
19
102
{ACAD_REACTORS
330
C
102
}
330
C
100
AcDbDictionary
1001
ACAD
1000
TREAT_AS_HARD
1070
     0
1000
TREAT_AS_HARD
1070
     0
  0
DICTIONARY
  5
16
102
{ACAD_REACTORS
330
C
102
}
330
C
100
AcDbDictionary
  3
STANDARD
350
17
1001
ACAD
1000
TREAT_AS_HARD
1070
     0
1000
TREAT_AS_HARD
1070
     0
  0
DICTIONARY
  5
18
102
{ACAD_REACTORS
330
C
102
}
330
C
100
AcDbDictionary
1001
ACAD
1000
TREAT_AS_HARD
1070
     0
1000
TREAT_AS_HARD
1070
     0
  0
XRECORD
  5
34C
102
{ACAD_REACTORS
330
32D
102
}
330
32D
100
AcDbXrecord
340
1E
  0
XRECORD
  5
34B
102
{ACAD_REACTORS
330
32B
102
}
330
32B
100
AcDbXrecord
340
1A
  0
MLINESTYLE
  5
17
102
{ACAD_REACTORS
330
16
102
}
330
16
100
AcDbMlineStyle
  2
STANDARD
 70
     0
  3

 62
   256
 51
90.0
 52
90.0
 71
     2
 49
0.5
 62
   256
  6
BYLAYER
 49
-0.5
 62
   256
  6
BYLAYER
  0
ENDSEC
  0
EOF
