  0
SECTION
  2
HEADER
  9
$ACADVER
  1
AC1012
  9
$DWGCODEPAGE
  3
dos932
  9
$INSBASE
 10
0.0
 20
0.0
 30
0.0
  9
$EXTMIN
 10
-0.0090630292066862
 20
0.9869389666558276
 30
-0.0015258207003583
  9
$EXTMAX
 10
283.0056159095904
 20
199.0155034058442
 30
0.0000000349246037
  9
$LIMMIN
 10
0.0
 20
0.0
  9
$LIMMAX
 10
297.0
 20
210.0
  9
$ORTHOMODE
 70
     0
  9
$REGENMODE
 70
     1
  9
$FILLMODE
 70
     1
  9
$QTEXTMODE
 70
     0
  9
$MIRRTEXT
 70
     1
  9
$DRAGMODE
 70
     2
  9
$LTSCALE
 40
15.0
  9
$OSMODE
 70
    37
  9
$ATTMODE
 70
     1
  9
$TEXTSIZE
 40
0.2
  9
$TRACEWID
 40
0.05
  9
$TEXTSTYLE
  7
GOTHIC
  9
$CLAYER
  8
CSLAYER1
  9
$CELTYPE
  6
BYLAYER
  9
$CECOLOR
 62
   256
  9
$CELTSCALE
 40
1.0
  9
$DELOBJ
 70
     1
  9
$DISPSILH
 70
     0
  9
$DIMSCALE
 40
1.0
  9
$DIMASZ
 40
0.18
  9
$DIMEXO
 40
0.0625
  9
$DIMDLI
 40
0.38
  9
$DIMRND
 40
0.0
  9
$DIMDLE
 40
0.0
  9
$DIMEXE
 40
0.18
  9
$DIMTP
 40
0.0
  9
$DIMTM
 40
0.0
  9
$DIMTXT
 40
0.18
  9
$DIMCEN
 40
0.09
  9
$DIMTSZ
 40
0.0
  9
$DIMTOL
 70
     0
  9
$DIMLIM
 70
     0
  9
$DIMTIH
 70
     1
  9
$DIMTOH
 70
     1
  9
$DIMSE1
 70
     0
  9
$DIMSE2
 70
     0
  9
$DIMTAD
 70
     0
  9
$DIMZIN
 70
     0
  9
$DIMBLK
  1

  9
$DIMASO
 70
     1
  9
$DIMSHO
 70
     1
  9
$DIMPOST
  1

  9
$DIMAPOST
  1

  9
$DIMALT
 70
     0
  9
$DIMALTD
 70
     2
  9
$DIMALTF
 40
25.4
  9
$DIMLFAC
 40
1.0
  9
$DIMTOFL
 70
     0
  9
$DIMTVP
 40
0.0
  9
$DIMTIX
 70
     0
  9
$DIMSOXD
 70
     0
  9
$DIMSAH
 70
     0
  9
$DIMBLK1
  1

  9
$DIMBLK2
  1

  9
$DIMSTYLE
  2
STANDARD
  9
$DIMCLRD
 70
     0
  9
$DIMCLRE
 70
     0
  9
$DIMCLRT
 70
     0
  9
$DIMTFAC
 40
1.0
  9
$DIMGAP
 40
0.09
  9
$DIMJUST
 70
     0
  9
$DIMSD1
 70
     0
  9
$DIMSD2
 70
     0
  9
$DIMTOLJ
 70
     1
  9
$DIMTZIN
 70
     0
  9
$DIMALTZ
 70
     0
  9
$DIMALTTZ
 70
     0
  9
$DIMFIT
 70
     3
  9
$DIMUPT
 70
     0
  9
$DIMUNIT
 70
     2
  9
$DIMDEC
 70
     4
  9
$DIMTDEC
 70
     4
  9
$DIMALTU
 70
     2
  9
$DIMALTTD
 70
     2
  9
$DIMTXSTY
  7
STANDARD
  9
$DIMAUNIT
 70
     0
  9
$LUNITS
 70
     2
  9
$LUPREC
 70
     4
  9
$SKETCHINC
 40
0.1
  9
$FILLETRAD
 40
0.0
  9
$AUNITS
 70
     0
  9
$AUPREC
 70
     0
  9
$MENU
  1
ACAD
  9
$ELEVATION
 40
0.0
  9
$PELEVATION
 40
0.0
  9
$THICKNESS
 40
0.0
  9
$LIMCHECK
 70
     0
  9
$BLIPMODE
 70
     1
  9
$CHAMFERA
 40
0.0
  9
$CHAMFERB
 40
0.0
  9
$CHAMFERC
 40
0.0
  9
$CHAMFERD
 40
0.0
  9
$SKPOLY
 70
     0
  9
$TDCREATE
 40
2453449.000000000
  9
$TDUPDATE
 40
2453516.456302395
  9
$TDINDWG
 40
0.0002046991
  9
$TDUSRTIMER
 40
0.0002045833
  9
$USRTIMER
 70
     1
  9
$ANGBASE
 50
0.0
  9
$ANGDIR
 70
     0
  9
$PDMODE
 70
     0
  9
$PDSIZE
 40
0.0
  9
$PLINEWID
 40
0.0
  9
$COORDS
 70
     0
  9
$SPLFRAME
 70
     0
  9
$SPLINETYPE
 70
     6
  9
$SPLINESEGS
 70
     8
  9
$ATTDIA
 70
     0
  9
$ATTREQ
 70
     1
  9
$HANDLING
 70
-16383
  9
$HANDSEED
  5
2FF
  9
$SURFTAB1
 70
     6
  9
$SURFTAB2
 70
     6
  9
$SURFTYPE
 70
     6
  9
$SURFU
 70
     6
  9
$SURFV
 70
     6
  9
$UCSNAME
  2

  9
$UCSORG
 10
0.0
 20
0.0
 30
0.0
  9
$UCSXDIR
 10
1.0
 20
0.0
 30
0.0
  9
$UCSYDIR
 10
0.0
 20
1.0
 30
0.0
  9
$PUCSNAME
  2

  9
$PUCSORG
 10
0.0
 20
0.0
 30
0.0
  9
$PUCSXDIR
 10
1.0
 20
0.0
 30
0.0
  9
$PUCSYDIR
 10
0.0
 20
1.0
 30
0.0
  9
$USERI1
 70
     0
  9
$USERI2
 70
     0
  9
$USERI3
 70
     0
  9
$USERI4
 70
     0
  9
$USERI5
 70
     0
  9
$USERR1
 40
0.0
  9
$USERR2
 40
0.0
  9
$USERR3
 40
0.0
  9
$USERR4
 40
0.0
  9
$USERR5
 40
0.0
  9
$WORLDVIEW
 70
     1
  9
$SHADEDGE
 70
     3
  9
$SHADEDIF
 70
    70
  9
$TILEMODE
 70
     1
  9
$MAXACTVP
 70
    64
  9
$PINSBASE
 10
0.0
 20
0.0
 30
0.0
  9
$PLIMCHECK
 70
     0
  9
$PEXTMIN
 10
1.000000000000000E+20
 20
1.000000000000000E+20
 30
1.000000000000000E+20
  9
$PEXTMAX
 10
-1.000000000000000E+20
 20
-1.000000000000000E+20
 30
-1.000000000000000E+20
  9
$PLIMMIN
 10
0.0
 20
0.0
  9
$PLIMMAX
 10
12.0
 20
9.0
  9
$UNITMODE
 70
     0
  9
$VISRETAIN
 70
     1
  9
$PLINEGEN
 70
     0
  9
$PSLTSCALE
 70
     1
  9
$TREEDEPTH
 70
  3020
  9
$PICKSTYLE
 70
     3
  9
$CMLSTYLE
  2
STANDARD
  9
$CMLJUST
 70
     0
  9
$CMLSCALE
 40
1.0
  9
$SAVEIMAGES
 70
     1
  0
ENDSEC
  0
SECTION
  2
CLASSES
  0
CLASS
  1
ACDBDICTIONARYWDFLT
  2
AcDbDictionaryWithDefault
  3
AutoCAD 2000
 90
    32768
280
     0
281
     0
  0
CLASS
  1
ACDBPLACEHOLDER
  2
AcDbPlaceHolder
  3
AutoCAD 2000
 90
    32768
280
     0
281
     0
  0
CLASS
  1
LAYOUT
  2
AcDbLayout
  3
AutoCAD 2000
 90
    32768
280
     0
281
     0
  0
CLASS
  1
DICTIONARYVAR
  2
AcDbDictionaryVar
  3
AutoCAD 2000
 90
    32768
280
     0
281
     0
  0
CLASS
  1
LONG_TRANSACTION
  2
AcDbLongTransaction
  3
AutoCAD 2000
 90
    32768
280
     0
281
     0
  0
CLASS
  1
LWPOLYLINE
  2
AcDbPolyline
  3
AutoCAD 2000
 90
    32768
280
     0
281
     1
  0
CLASS
  1
HATCH
  2
AcDbHatch
  3
AutoCAD 2000
 90
    32768
280
     0
281
     1
  0
CLASS
  1
XRECORD
  2
AcDbXrecord
  3
AutoCAD 2000
 90
    32768
280
     0
281
     0
  0
CLASS
  1
LONG_TRANSACTION
  2
AcDbLongTransaction
  3
AutoCAD 2000
 90
    32768
280
     0
281
     0
  0
CLASS
  1
LWPOLYLINE
  2
AcDbPolyline
  3
AutoCAD 2000
 90
    32768
280
     0
281
     1
  0
CLASS
  1
HATCH
  2
AcDbHatch
  3
AutoCAD 2000
 90
    32768
280
     0
281
     1
  0
CLASS
  1
XRECORD
  2
AcDbXrecord
  3
AutoCAD 2000
 90
    32768
280
     0
281
     0
  0
ENDSEC
  0
SECTION
  2
TABLES
  0
TABLE
  2
VPORT
  5
8
330
0
100
AcDbSymbolTable
 70
     2
  0
VPORT
  5
2FC
330
8
100
AcDbSymbolTableRecord
100
AcDbViewportTableRecord
  2
*ACTIVE
 70
     0
 10
0.0
 20
0.0
 11
1.0
 21
1.0
 12
141.4982764401918
 22
100.00122118625
 13
0.0
 23
0.0
 14
1.0
 24
1.0
 15
0.0
 25
0.0
 16
0.0
 26
0.0
 36
1.0
 17
0.0
 27
0.0
 37
0.0
 40
199.5156375138256
 41
1.510025062656641
 42
50.0
 43
0.0
 44
0.0
 50
0.0
 51
0.0
 71
     0
 72
   100
 73
     1
 74
     1
 75
     0
 76
     0
 77
     0
 78
     0
  0
ENDTAB
  0
TABLE
  2
LTYPE
  5
5
330
0
100
AcDbSymbolTable
 70
     3
  0
LTYPE
  5
13
330
5
100
AcDbSymbolTableRecord
100
AcDbLinetypeTableRecord
  2
BYBLOCK
 70
     0
  3

 72
    65
 73
     0
 40
0.0
  0
LTYPE
  5
14
330
5
100
AcDbSymbolTableRecord
100
AcDbLinetypeTableRecord
  2
BYLAYER
 70
     0
  3

 72
    65
 73
     0
 40
0.0
  0
LTYPE
  5
15
330
5
100
AcDbSymbolTableRecord
100
AcDbLinetypeTableRecord
  2
CONTINUOUS
 70
     0
  3
Solid line
 72
    65
 73
     0
 40
0.0
  0
LTYPE
  5
25
330
5
100
AcDbSymbolTableRecord
100
AcDbLinetypeTableRecord
  2
DOT
 70
     0
  3
...............................................
 72
    65
 73
     2
 40
0.25
 49
0.0
 74
     0
 49
-0.25
 74
     0
  0
LTYPE
  5
28
330
5
100
AcDbSymbolTableRecord
100
AcDbLinetypeTableRecord
  2
CENTER
 70
     0
  3
____ _ ____ _ ____ _ ____ _ ____ _ ____ _ ____ 
 72
    65
 73
     4
 40
2.0
 49
1.25
 74
     0
 49
-0.25
 74
     0
 49
0.25
 74
     0
 49
-0.25
 74
     0
  0
ENDTAB
  0
TABLE
  2
LAYER
  5
2
330
0
100
AcDbSymbolTable
 70
     3
  0
LAYER
  5
10
330
2
100
AcDbSymbolTableRecord
100
AcDbLayerTableRecord
  2
0
 70
     0
 62
     7
  6
CONTINUOUS
  0
LAYER
  5
22
330
2
100
AcDbSymbolTableRecord
100
AcDbLayerTableRecord
  2
CSLAYER1
 70
     0
 62
     7
  6
CONTINUOUS
  0
LAYER
  5
2E1
330
2
100
AcDbSymbolTableRecord
100
AcDbLayerTableRecord
  2
DEFPOINTS
 70
     0
 62
     7
  6
CONTINUOUS
  0
ENDTAB
  0
TABLE
  2
STYLE
  5
3
330
0
100
AcDbSymbolTable
 70
     3
  0
STYLE
  5
11
330
3
100
AcDbSymbolTableRecord
100
AcDbTextStyleTableRecord
  2
STANDARD
 70
     0
 40
0.0
 41
1.0
 50
0.0
 71
     0
 42
0.2
  3
txt
  4
extfont.shx
  0
STYLE
  5
3A
330
3
100
AcDbSymbolTableRecord
100
AcDbTextStyleTableRecord
  2
FX_FONT
 70
     0
 40
1.0
 41
1.0
 50
0.0
 71
     0
 42
1.0
  3
monotxt
  4
bigfont
  0
STYLE
  5
2D9
330
3
100
AcDbSymbolTableRecord
100
AcDbTextStyleTableRecord
  2
GOTHIC
 70
     0
 40
0.0
 41
1.0
 50
0.0
 71
     0
 42
0.2
  3
txt.shx
  4
extfont.shx
  0
ENDTAB
  0
TABLE
  2
VIEW
  5
6
330
0
100
AcDbSymbolTable
 70
     0
  0
ENDTAB
  0
TABLE
  2
UCS
  5
7
330
0
100
AcDbSymbolTable
 70
     0
  0
ENDTAB
  0
TABLE
  2
APPID
  5
9
330
0
100
AcDbSymbolTable
 70
     1
  0
APPID
  5
12
330
9
100
AcDbSymbolTableRecord
100
AcDbRegAppTableRecord
  2
ACAD
 70
     0
  0
ENDTAB
  0
TABLE
  2
DIMSTYLE
  5
A
330
0
100
AcDbSymbolTable
 70
     1
  0
DIMSTYLE
105
2D6
330
A
100
AcDbSymbolTableRecord
100
AcDbDimStyleTableRecord
  2
STANDARD
 70
     0
  3

  4

  5

  6

  7

 40
1.0
 41
0.18
 42
0.0625
 43
0.38
 44
0.18
 45
0.0
 46
0.0
 47
0.0
 48
0.0
140
0.18
141
0.09
142
0.0
143
25.4
144
1.0
145
0.0
146
1.0
147
0.09
 71
     0
 72
     0
 73
     1
 74
     1
 75
     0
 76
     0
 77
     0
 78
     0
170
     0
171
     2
172
     0
173
     0
174
     0
175
     0
176
     0
177
     0
178
     0
270
     2
271
     4
272
     4
273
     2
274
     2
340
11
275
     0
280
     0
281
     0
282
     0
283
     1
284
     0
285
     0
286
     0
287
     3
288
     0
  0
ENDTAB
  0
TABLE
  2
BLOCK_RECORD
  5
1
330
0
100
AcDbSymbolTable
 70
    30
  0
BLOCK_RECORD
  5
1E
102
{ACAD_XDICTIONARY
360
2DF
102
}
330
1
100
AcDbSymbolTableRecord
100
AcDbBlockTableRecord
  2
*MODEL_SPACE
  0
BLOCK_RECORD
  5
1A
102
{ACAD_XDICTIONARY
360
2DD
102
}
330
1
100
AcDbSymbolTableRecord
100
AcDbBlockTableRecord
  2
*PAPER_SPACE
  0
BLOCK_RECORD
  5
3F
330
1
100
AcDbSymbolTableRecord
100
AcDbBlockTableRecord
  2
*D0
  0
BLOCK_RECORD
  5
4A
330
1
100
AcDbSymbolTableRecord
100
AcDbBlockTableRecord
  2
*D1
  0
BLOCK_RECORD
  5
55
330
1
100
AcDbSymbolTableRecord
100
AcDbBlockTableRecord
  2
*D2
  0
BLOCK_RECORD
  5
60
330
1
100
AcDbSymbolTableRecord
100
AcDbBlockTableRecord
  2
*D3
  0
BLOCK_RECORD
  5
6B
330
1
100
AcDbSymbolTableRecord
100
AcDbBlockTableRecord
  2
*D4
  0
BLOCK_RECORD
  5
74
330
1
100
AcDbSymbolTableRecord
100
AcDbBlockTableRecord
  2
*D5
  0
BLOCK_RECORD
  5
7F
330
1
100
AcDbSymbolTableRecord
100
AcDbBlockTableRecord
  2
*D6
  0
BLOCK_RECORD
  5
8A
330
1
100
AcDbSymbolTableRecord
100
AcDbBlockTableRecord
  2
*D7
  0
BLOCK_RECORD
  5
93
330
1
100
AcDbSymbolTableRecord
100
AcDbBlockTableRecord
  2
*D8
  0
BLOCK_RECORD
  5
9E
330
1
100
AcDbSymbolTableRecord
100
AcDbBlockTableRecord
  2
*D9
  0
BLOCK_RECORD
  5
A9
330
1
100
AcDbSymbolTableRecord
100
AcDbBlockTableRecord
  2
*D10
  0
BLOCK_RECORD
  5
B4
330
1
100
AcDbSymbolTableRecord
100
AcDbBlockTableRecord
  2
*D11
  0
BLOCK_RECORD
  5
BF
330
1
100
AcDbSymbolTableRecord
100
AcDbBlockTableRecord
  2
FXDIM0000
  0
BLOCK_RECORD
  5
C7
330
1
100
AcDbSymbolTableRecord
100
AcDbBlockTableRecord
  2
FXDIM0001
  0
BLOCK_RECORD
  5
CF
330
1
100
AcDbSymbolTableRecord
100
AcDbBlockTableRecord
  2
*D14
  0
BLOCK_RECORD
  5
DA
330
1
100
AcDbSymbolTableRecord
100
AcDbBlockTableRecord
  2
*D15
  0
BLOCK_RECORD
  5
E4
330
1
100
AcDbSymbolTableRecord
100
AcDbBlockTableRecord
  2
*D16
  0
BLOCK_RECORD
  5
ED
330
1
100
AcDbSymbolTableRecord
100
AcDbBlockTableRecord
  2
*D17
  0
BLOCK_RECORD
  5
F7
330
1
100
AcDbSymbolTableRecord
100
AcDbBlockTableRecord
  2
*D18
  0
BLOCK_RECORD
  5
102
330
1
100
AcDbSymbolTableRecord
100
AcDbBlockTableRecord
  2
*D19
  0
BLOCK_RECORD
  5
10B
330
1
100
AcDbSymbolTableRecord
100
AcDbBlockTableRecord
  2
*D20
  0
BLOCK_RECORD
  5
115
330
1
100
AcDbSymbolTableRecord
100
AcDbBlockTableRecord
  2
*D21
  0
BLOCK_RECORD
  5
11F
330
1
100
AcDbSymbolTableRecord
100
AcDbBlockTableRecord
  2
*D22
  0
BLOCK_RECORD
  5
12A
330
1
100
AcDbSymbolTableRecord
100
AcDbBlockTableRecord
  2
*D23
  0
BLOCK_RECORD
  5
134
330
1
100
AcDbSymbolTableRecord
100
AcDbBlockTableRecord
  2
*D24
  0
BLOCK_RECORD
  5
13E
330
1
100
AcDbSymbolTableRecord
100
AcDbBlockTableRecord
  2
*D25
  0
BLOCK_RECORD
  5
149
330
1
100
AcDbSymbolTableRecord
100
AcDbBlockTableRecord
  2
FXDIM0002
  0
BLOCK_RECORD
  5
151
330
1
100
AcDbSymbolTableRecord
100
AcDbBlockTableRecord
  2
FXDIM0003
  0
BLOCK_RECORD
  5
159
330
1
100
AcDbSymbolTableRecord
100
AcDbBlockTableRecord
  2
*D28
  0
BLOCK_RECORD
  5
2E2
330
1
100
AcDbSymbolTableRecord
100
AcDbBlockTableRecord
  2
*D29
  0
ENDTAB
  0
ENDSEC
  0
SECTION
  2
BLOCKS
  0
BLOCK
  5
1F
330
1E
100
AcDbEntity
  8
0
100
AcDbBlockBegin
  2
*MODEL_SPACE
 70
     0
 10
0.0
 20
0.0
 30
0.0
  3
*MODEL_SPACE
  1

  0
ENDBLK
  5
20
330
1E
100
AcDbEntity
  8
0
100
AcDbBlockEnd
  0
BLOCK
  5
1B
330
1A
100
AcDbEntity
 67
     1
  8
0
100
AcDbBlockBegin
  2
*PAPER_SPACE
 70
     0
 10
0.0
 20
0.0
 30
0.0
  3
*PAPER_SPACE
  1

  0
ENDBLK
  5
1C
330
1A
100
AcDbEntity
 67
     1
  8
0
100
AcDbBlockEnd
  0
BLOCK
  5
40
330
3F
100
AcDbEntity
  8
0
100
AcDbBlockBegin
  2
*D0
 70
     1
 10
0.0
 20
0.0
 30
0.0
  3
*D0
  1

  0
TEXT
  5
41
330
3F
100
AcDbEntity
  8
CSLAYER1
 62
     4
100
AcDbText
 10
44.199998
 20
161.3565829999999
 30
0.0
 40
3.2
  1
23
 41
1.199999999999998
 51
15.0
  7
FX_FONT
 72
     5
 11
50.59999799999999
 21
161.3565829999999
 31
0.0
100
AcDbText
  0
LINE
  5
42
330
3F
100
AcDbEntity
  8
CSLAYER1
  6
CONTINUOUS
 62
     4
100
AcDbLine
 10
35.89999999999999
 20
148.6999999999999
 30
0.0
 11
35.89999999999999
 21
161.856571
 31
0.0
  0
LINE
  5
43
330
3F
100
AcDbEntity
  8
CSLAYER1
  6
CONTINUOUS
 62
     4
100
AcDbLine
 10
58.9
 20
148.6999999999999
 30
0.0
 11
58.9
 21
161.856571
 31
0.0
  0
LINE
  5
44
330
3F
100
AcDbEntity
  8
CSLAYER1
  6
CONTINUOUS
 62
     4
100
AcDbLine
 10
35.89999999999999
 20
160.856571
 30
0.0
 11
58.9
 21
160.856571
 31
0.0
  0
LINE
  5
45
330
3F
100
AcDbEntity
  8
CSLAYER1
  6
CONTINUOUS
 62
     4
100
AcDbLine
 10
35.89999999999999
 20
160.856571
 30
0.0
 11
38.797777
 21
161.633029
 31
0.0
  0
LINE
  5
46
330
3F
100
AcDbEntity
  8
CSLAYER1
  6
CONTINUOUS
 62
     4
100
AcDbLine
 10
35.89999999999999
 20
160.856571
 30
0.0
 11
38.797777
 21
160.0801139999999
 31
0.0
  0
LINE
  5
47
330
3F
100
AcDbEntity
  8
CSLAYER1
  6
CONTINUOUS
 62
     4
100
AcDbLine
 10
58.9
 20
160.856571
 30
0.0
 11
56.002223
 21
161.633029
 31
0.0
  0
LINE
  5
48
330
3F
100
AcDbEntity
  8
CSLAYER1
  6
CONTINUOUS
 62
     4
100
AcDbLine
 10
58.9
 20
160.856571
 30
0.0
 11
56.002223
 21
160.0801139999999
 31
0.0
  0
ENDBLK
  5
49
330
3F
100
AcDbEntity
  8
0
100
AcDbBlockEnd
  0
BLOCK
  5
4B
330
4A
100
AcDbEntity
  8
0
100
AcDbBlockBegin
  2
*D1
 70
     1
 10
0.0
 20
0.0
 30
0.0
  3
*D1
  1

  0
TEXT
  5
4C
330
4A
100
AcDbEntity
  8
CSLAYER1
 62
     4
100
AcDbText
 10
45.79999799999998
 20
155.356583
 30
0.0
 40
3.2
  1
7
 41
1.500000000000001
 51
15.0
  7
FX_FONT
 72
     5
 11
48.99999799999999
 21
155.356583
 31
0.0
100
AcDbText
  0
LINE
  5
4D
330
4A
100
AcDbEntity
  8
CSLAYER1
  6
CONTINUOUS
 62
     4
100
AcDbLine
 10
43.89999999999999
 20
148.6999999999999
 30
0.0
 11
43.89999999999999
 21
155.856571
 31
0.0
  0
LINE
  5
4E
330
4A
100
AcDbEntity
  8
CSLAYER1
  6
CONTINUOUS
 62
     4
100
AcDbLine
 10
50.89999999999999
 20
148.6999999999999
 30
0.0
 11
50.89999999999999
 21
155.856571
 31
0.0
  0
LINE
  5
4F
330
4A
100
AcDbEntity
  8
CSLAYER1
  6
CONTINUOUS
 62
     4
100
AcDbLine
 10
43.89999999999999
 20
154.856571
 30
0.0
 11
50.89999999999999
 21
154.856571
 31
0.0
  0
LINE
  5
50
330
4A
100
AcDbEntity
  8
CSLAYER1
  6
CONTINUOUS
 62
     4
100
AcDbLine
 10
43.89999999999999
 20
154.856571
 30
0.0
 11
46.797777
 21
155.633029
 31
0.0
  0
LINE
  5
51
330
4A
100
AcDbEntity
  8
CSLAYER1
  6
CONTINUOUS
 62
     4
100
AcDbLine
 10
43.89999999999999
 20
154.856571
 30
0.0
 11
46.797777
 21
154.0801139999999
 31
0.0
  0
LINE
  5
52
330
4A
100
AcDbEntity
  8
CSLAYER1
  6
CONTINUOUS
 62
     4
100
AcDbLine
 10
50.89999999999999
 20
154.856571
 30
0.0
 11
48.002223
 21
155.633029
 31
0.0
  0
LINE
  5
53
330
4A
100
AcDbEntity
  8
CSLAYER1
  6
CONTINUOUS
 62
     4
100
AcDbLine
 10
50.89999999999999
 20
154.856571
 30
0.0
 11
48.002223
 21
154.0801139999999
 31
0.0
  0
ENDBLK
  5
54
330
4A
100
AcDbEntity
  8
0
100
AcDbBlockEnd
  0
BLOCK
  5
56
330
55
100
AcDbEntity
  8
0
100
AcDbBlockBegin
  2
*D2
 70
     1
 10
0.0
 20
0.0
 30
0.0
  3
*D2
  1

  0
TEXT
  5
57
330
55
100
AcDbEntity
  8
CSLAYER1
 62
     4
100
AcDbText
 10
22.061329
 20
133.000012
 30
0.0
 40
3.2
  1
23
 50
90.0
 41
1.200000000000001
 51
15.0
  7
FX_FONT
 72
     5
 11
22.061329
 21
139.400012
 31
0.0
100
AcDbText
  0
LINE
  5
58
330
55
100
AcDbEntity
  8
CSLAYER1
  6
CONTINUOUS
 62
     4
100
AcDbLine
 10
34.9
 20
124.7
 30
0.0
 11
21.56133
 21
124.7
 31
0.0
  0
LINE
  5
59
330
55
100
AcDbEntity
  8
CSLAYER1
  6
CONTINUOUS
 62
     4
100
AcDbLine
 10
34.9
 20
147.6999999999998
 30
0.0
 11
21.56133
 21
147.6999999999998
 31
0.0
  0
LINE
  5
5A
330
55
100
AcDbEntity
  8
CSLAYER1
  6
CONTINUOUS
 62
     4
100
AcDbLine
 10
22.56132999999999
 20
124.7
 30
0.0
 11
22.56132999999999
 21
147.6999999999998
 31
0.0
  0
LINE
  5
5B
330
55
100
AcDbEntity
  8
CSLAYER1
  6
CONTINUOUS
 62
     4
100
AcDbLine
 10
22.56132999999999
 20
124.7
 30
0.0
 11
21.784873
 21
127.597777
 31
0.0
  0
LINE
  5
5C
330
55
100
AcDbEntity
  8
CSLAYER1
  6
CONTINUOUS
 62
     4
100
AcDbLine
 10
22.56132999999999
 20
124.7
 30
0.0
 11
23.337788
 21
127.597777
 31
0.0
  0
LINE
  5
5D
330
55
100
AcDbEntity
  8
CSLAYER1
  6
CONTINUOUS
 62
     4
100
AcDbLine
 10
22.56132999999999
 20
147.6999999999998
 30
0.0
 11
21.784873
 21
144.802223
 31
0.0
  0
LINE
  5
5E
330
55
100
AcDbEntity
  8
CSLAYER1
  6
CONTINUOUS
 62
     4
100
AcDbLine
 10
22.56132999999999
 20
147.6999999999998
 30
0.0
 11
23.337788
 21
144.802223
 31
0.0
  0
ENDBLK
  5
5F
330
55
100
AcDbEntity
  8
0
100
AcDbBlockEnd
  0
BLOCK
  5
61
330
60
100
AcDbEntity
  8
0
100
AcDbBlockBegin
  2
*D3
 70
     1
 10
0.0
 20
0.0
 30
0.0
  3
*D3
  1

  0
TEXT
  5
62
330
60
100
AcDbEntity
  8
CSLAYER1
 62
     4
100
AcDbText
 10
69.44542699999999
 20
133.000012
 30
0.0
 40
3.2
  1
14
 50
90.0
 41
1.200000000000001
 51
15.0
  7
FX_FONT
 72
     5
 11
69.44542699999999
 21
139.400012
 31
0.0
100
AcDbText
  0
LINE
  5
63
330
60
100
AcDbEntity
  8
CSLAYER1
  6
CONTINUOUS
 62
     4
100
AcDbLine
 10
76.79999999999998
 20
129.1999999999999
 30
0.0
 11
68.94542900000001
 21
129.1999999999999
 31
0.0
  0
LINE
  5
64
330
60
100
AcDbEntity
  8
CSLAYER1
  6
CONTINUOUS
 62
     4
100
AcDbLine
 10
76.79999999999998
 20
143.1999999999999
 30
0.0
 11
68.94542900000001
 21
143.1999999999999
 31
0.0
  0
LINE
  5
65
330
60
100
AcDbEntity
  8
CSLAYER1
  6
CONTINUOUS
 62
     4
100
AcDbLine
 10
69.945429
 20
129.1999999999999
 30
0.0
 11
69.945429
 21
143.1999999999999
 31
0.0
  0
LINE
  5
66
330
60
100
AcDbEntity
  8
CSLAYER1
  6
CONTINUOUS
 62
     4
100
AcDbLine
 10
69.945429
 20
129.1999999999999
 30
0.0
 11
69.16897099999999
 21
132.097777
 31
0.0
  0
LINE
  5
67
330
60
100
AcDbEntity
  8
CSLAYER1
  6
CONTINUOUS
 62
     4
100
AcDbLine
 10
69.945429
 20
129.1999999999999
 30
0.0
 11
70.721886
 21
132.097777
 31
0.0
  0
LINE
  5
68
330
60
100
AcDbEntity
  8
CSLAYER1
  6
CONTINUOUS
 62
     4
100
AcDbLine
 10
69.945429
 20
143.1999999999999
 30
0.0
 11
69.16897099999999
 21
140.3022229999999
 31
0.0
  0
LINE
  5
69
330
60
100
AcDbEntity
  8
CSLAYER1
  6
CONTINUOUS
 62
     4
100
AcDbLine
 10
69.945429
 20
143.1999999999999
 30
0.0
 11
70.721886
 21
140.3022229999999
 31
0.0
  0
ENDBLK
  5
6A
330
60
100
AcDbEntity
  8
0
100
AcDbBlockEnd
  0
BLOCK
  5
6C
330
6B
100
AcDbEntity
  8
0
100
AcDbBlockBegin
  2
*D4
 70
     1
 10
0.0
 20
0.0
 30
0.0
  3
*D4
  1

  0
TEXT
  5
6D
330
6B
100
AcDbEntity
  8
CSLAYER1
 62
     4
100
AcDbText
 10
123.552734
 20
133.000012
 30
0.0
 40
3.2
  1
19
 50
90.0
 41
1.200000000000001
 51
15.0
  7
FX_FONT
 72
     5
 11
123.552734
 21
139.400012
 31
0.0
100
AcDbText
  0
LINE
  5
6E
330
6B
100
AcDbEntity
  8
CSLAYER1
  6
CONTINUOUS
 62
     4
100
AcDbLine
 10
124.052727
 20
126.7
 30
0.0
 11
124.052727
 21
145.6999999999998
 31
0.0
  0
LINE
  5
6F
330
6B
100
AcDbEntity
  8
CSLAYER1
  6
CONTINUOUS
 62
     4
100
AcDbLine
 10
124.052727
 20
126.7
 30
0.0
 11
123.27627
 21
129.597777
 31
0.0
  0
LINE
  5
70
330
6B
100
AcDbEntity
  8
CSLAYER1
  6
CONTINUOUS
 62
     4
100
AcDbLine
 10
124.052727
 20
126.7
 30
0.0
 11
124.829184
 21
129.597777
 31
0.0
  0
LINE
  5
71
330
6B
100
AcDbEntity
  8
CSLAYER1
  6
CONTINUOUS
 62
     4
100
AcDbLine
 10
124.052727
 20
145.6999999999998
 30
0.0
 11
123.27627
 21
142.802223
 31
0.0
  0
LINE
  5
72
330
6B
100
AcDbEntity
  8
CSLAYER1
  6
CONTINUOUS
 62
     4
100
AcDbLine
 10
124.052727
 20
145.6999999999998
 30
0.0
 11
124.829184
 21
142.802223
 31
0.0
  0
ENDBLK
  5
73
330
6B
100
AcDbEntity
  8
0
100
AcDbBlockEnd
  0
BLOCK
  5
75
330
74
100
AcDbEntity
  8
0
100
AcDbBlockBegin
  2
*D5
 70
     1
 10
0.0
 20
0.0
 30
0.0
  3
*D5
  1

  0
TEXT
  5
76
330
74
100
AcDbEntity
  8
CSLAYER1
 62
     4
100
AcDbText
 10
120.4515149999999
 20
74.200001
 30
0.0
 40
3.2
  1
19
 50
90.0
 41
1.200000187500003
 51
15.0
  7
FX_FONT
 72
     5
 11
120.4515149999999
 21
80.60000200000002
 31
0.0
100
AcDbText
  0
LINE
  5
77
330
74
100
AcDbEntity
  8
CSLAYER1
  6
CONTINUOUS
 62
     4
100
AcDbLine
 10
120.672727
 20
67.9
 30
0.0
 11
119.9515149999998
 21
67.9
 31
0.0
  0
LINE
  5
78
330
74
100
AcDbEntity
  8
CSLAYER1
  6
CONTINUOUS
 62
     4
100
AcDbLine
 10
120.81697
 20
86.90000000000003
 30
0.0
 11
119.9515149999998
 21
86.90000000000003
 31
0.0
  0
LINE
  5
79
330
74
100
AcDbEntity
  8
CSLAYER1
  6
CONTINUOUS
 62
     4
100
AcDbLine
 10
120.9515149999998
 20
67.9
 30
0.0
 11
120.9515149999998
 21
86.90000000000003
 31
0.0
  0
LINE
  5
7A
330
74
100
AcDbEntity
  8
CSLAYER1
  6
CONTINUOUS
 62
     4
100
AcDbLine
 10
120.9515149999998
 20
67.9
 30
0.0
 11
120.175058
 21
70.797777
 31
0.0
  0
LINE
  5
7B
330
74
100
AcDbEntity
  8
CSLAYER1
  6
CONTINUOUS
 62
     4
100
AcDbLine
 10
120.9515149999998
 20
67.9
 30
0.0
 11
121.727972
 21
70.797777
 31
0.0
  0
LINE
  5
7C
330
74
100
AcDbEntity
  8
CSLAYER1
  6
CONTINUOUS
 62
     4
100
AcDbLine
 10
120.9515149999998
 20
86.90000000000003
 30
0.0
 11
120.175058
 21
84.00222300000001
 31
0.0
  0
LINE
  5
7D
330
74
100
AcDbEntity
  8
CSLAYER1
  6
CONTINUOUS
 62
     4
100
AcDbLine
 10
120.9515149999998
 20
86.90000000000003
 30
0.0
 11
121.727972
 21
84.00222300000001
 31
0.0
  0
ENDBLK
  5
7E
330
74
100
AcDbEntity
  8
0
100
AcDbBlockEnd
  0
BLOCK
  5
80
330
7F
100
AcDbEntity
  8
0
100
AcDbBlockBegin
  2
*D6
 70
     1
 10
0.0
 20
0.0
 30
0.0
  3
*D6
  1

  0
TEXT
  5
81
330
7F
100
AcDbEntity
  8
CSLAYER1
 62
     4
100
AcDbText
 10
119.6000029999999
 20
59.464848
 30
0.0
 40
3.2
  1
40
 41
1.200000000000019
 51
15.0
  7
FX_FONT
 72
     5
 11
126.000003
 21
59.464848
 31
0.0
100
AcDbText
  0
LINE
  5
82
330
7F
100
AcDbEntity
  8
CSLAYER1
  6
CONTINUOUS
 62
     4
100
AcDbLine
 10
102.8
 20
58.96484799999999
 30
0.0
 11
142.8
 21
58.96484799999999
 31
0.0
  0
LINE
  5
83
330
7F
100
AcDbEntity
  8
CSLAYER1
  6
CONTINUOUS
 62
     4
100
AcDbLine
 10
102.8
 20
58.96484799999999
 30
0.0
 11
105.697777
 21
59.74130600000001
 31
0.0
  0
LINE
  5
84
330
7F
100
AcDbEntity
  8
CSLAYER1
  6
CONTINUOUS
 62
     4
100
AcDbLine
 10
102.8
 20
58.96484799999999
 30
0.0
 11
105.697777
 21
58.188391
 31
0.0
  0
LINE
  5
85
330
7F
100
AcDbEntity
  8
CSLAYER1
  6
CONTINUOUS
 62
     4
100
AcDbLine
 10
142.8
 20
58.96484799999999
 30
0.0
 11
139.9022229999999
 21
59.74130600000001
 31
0.0
  0
LINE
  5
86
330
7F
100
AcDbEntity
  8
CSLAYER1
  6
CONTINUOUS
 62
     4
100
AcDbLine
 10
142.8
 20
58.96484799999999
 30
0.0
 11
139.9022229999999
 21
58.188391
 31
0.0
  0
LINE
  5
87
330
7F
100
AcDbEntity
  8
CSLAYER1
  6
CONTINUOUS
 62
     4
100
AcDbLine
 10
102.8
 20
61.28980300000001
 30
0.0
 11
102.8
 21
57.96484799999999
 31
0.0
  0
LINE
  5
88
330
7F
100
AcDbEntity
  8
CSLAYER1
  6
CONTINUOUS
 62
     4
100
AcDbLine
 10
142.8
 20
60.69485799999998
 30
0.0
 11
142.8
 21
57.96484799999999
 31
0.0
  0
ENDBLK
  5
89
330
7F
100
AcDbEntity
  8
0
100
AcDbBlockEnd
  0
BLOCK
  5
8B
330
8A
100
AcDbEntity
  8
0
100
AcDbBlockBegin
  2
*D7
 70
     1
 10
0.0
 20
0.0
 30
0.0
  3
*D7
  1

  0
TEXT
  5
8C
330
8A
100
AcDbEntity
  8
CSLAYER1
 62
     4
100
AcDbText
 10
151.600003
 20
59.464848
 30
0.0
 40
3.2
  1
24
 41
1.199999999999979
 51
15.0
  7
FX_FONT
 72
     5
 11
158.0000029999999
 21
59.464848
 31
0.0
100
AcDbText
  0
LINE
  5
8D
330
8A
100
AcDbEntity
  8
CSLAYER1
  6
CONTINUOUS
 62
     4
100
AcDbLine
 10
142.8
 20
58.96484799999999
 30
0.0
 11
166.8
 21
58.96484799999999
 31
0.0
  0
LINE
  5
8E
330
8A
100
AcDbEntity
  8
CSLAYER1
  6
CONTINUOUS
 62
     4
100
AcDbLine
 10
142.8
 20
58.96484799999999
 30
0.0
 11
145.6977769999999
 21
59.74130600000001
 31
0.0
  0
LINE
  5
8F
330
8A
100
AcDbEntity
  8
CSLAYER1
  6
CONTINUOUS
 62
     4
100
AcDbLine
 10
142.8
 20
58.96484799999999
 30
0.0
 11
145.6977769999999
 21
58.188391
 31
0.0
  0
LINE
  5
90
330
8A
100
AcDbEntity
  8
CSLAYER1
  6
CONTINUOUS
 62
     4
100
AcDbLine
 10
166.8
 20
58.96484799999999
 30
0.0
 11
163.9022229999999
 21
59.74130600000001
 31
0.0
  0
LINE
  5
91
330
8A
100
AcDbEntity
  8
CSLAYER1
  6
CONTINUOUS
 62
     4
100
AcDbLine
 10
166.8
 20
58.96484799999999
 30
0.0
 11
163.9022229999999
 21
58.188391
 31
0.0
  0
ENDBLK
  5
92
330
8A
100
AcDbEntity
  8
0
100
AcDbBlockEnd
  0
BLOCK
  5
94
330
93
100
AcDbEntity
  8
0
100
AcDbBlockBegin
  2
*D8
 70
     1
 10
0.0
 20
0.0
 30
0.0
  3
*D8
  1

  0
TEXT
  5
95
330
93
100
AcDbEntity
  8
CSLAYER1
 62
     4
100
AcDbText
 10
256.7456359999999
 20
133.000012
 30
0.0
 40
3.2
  1
19
 50
90.0
 41
1.200000000000001
 51
15.0
  7
FX_FONT
 72
     5
 11
256.7456359999999
 21
139.400012
 31
0.0
100
AcDbText
  0
LINE
  5
96
330
93
100
AcDbEntity
  8
CSLAYER1
  6
CONTINUOUS
 62
     4
100
AcDbLine
 10
242.574863
 20
126.7
 30
0.0
 11
258.245637
 21
126.7
 31
0.0
  0
LINE
  5
97
330
93
100
AcDbEntity
  8
CSLAYER1
  6
CONTINUOUS
 62
     4
100
AcDbLine
 10
242.574863
 20
145.6999999999998
 30
0.0
 11
258.245637
 21
145.6999999999998
 31
0.0
  0
LINE
  5
98
330
93
100
AcDbEntity
  8
CSLAYER1
  6
CONTINUOUS
 62
     4
100
AcDbLine
 10
257.2456369999999
 20
126.7
 30
0.0
 11
257.2456369999999
 21
145.6999999999998
 31
0.0
  0
LINE
  5
99
330
93
100
AcDbEntity
  8
CSLAYER1
  6
CONTINUOUS
 62
     4
100
AcDbLine
 10
257.2456369999999
 20
126.7
 30
0.0
 11
256.4691799999999
 21
129.597777
 31
0.0
  0
LINE
  5
9A
330
93
100
AcDbEntity
  8
CSLAYER1
  6
CONTINUOUS
 62
     4
100
AcDbLine
 10
257.2456369999999
 20
126.7
 30
0.0
 11
258.0220939999999
 21
129.597777
 31
0.0
  0
LINE
  5
9B
330
93
100
AcDbEntity
  8
CSLAYER1
  6
CONTINUOUS
 62
     4
100
AcDbLine
 10
257.2456369999999
 20
145.6999999999998
 30
0.0
 11
256.4691799999999
 21
142.802223
 31
0.0
  0
LINE
  5
9C
330
93
100
AcDbEntity
  8
CSLAYER1
  6
CONTINUOUS
 62
     4
100
AcDbLine
 10
257.2456369999999
 20
145.6999999999998
 30
0.0
 11
258.0220939999999
 21
142.802223
 31
0.0
  0
ENDBLK
  5
9D
330
93
100
AcDbEntity
  8
0
100
AcDbBlockEnd
  0
BLOCK
  5
9F
330
9E
100
AcDbEntity
  8
0
100
AcDbBlockBegin
  2
*D9
 70
     1
 10
0.0
 20
0.0
 30
0.0
  3
*D9
  1

  0
TEXT
  5
A0
330
9E
100
AcDbEntity
  8
CSLAYER1
 62
     4
100
AcDbText
 10
199.8569789999999
 20
131.4000119999999
 30
0.0
 40
3.2
  1
%%c23
 50
90.0
 41
1.125000000000009
 51
15.0
  7
FX_FONT
 72
     5
 11
199.8569789999999
 21
141.000012
 31
0.0
100
AcDbText
  0
LINE
  5
A1
330
9E
100
AcDbEntity
  8
CSLAYER1
  6
CONTINUOUS
 62
     4
100
AcDbLine
 10
173.8
 20
124.7
 30
0.0
 11
201.35697
 21
124.7
 31
0.0
  0
LINE
  5
A2
330
9E
100
AcDbEntity
  8
CSLAYER1
  6
CONTINUOUS
 62
     4
100
AcDbLine
 10
173.8
 20
147.6999999999998
 30
0.0
 11
201.35697
 21
147.6999999999998
 31
0.0
  0
LINE
  5
A3
330
9E
100
AcDbEntity
  8
CSLAYER1
  6
CONTINUOUS
 62
     4
100
AcDbLine
 10
200.3569699999999
 20
124.7
 30
0.0
 11
200.3569699999999
 21
147.6999999999998
 31
0.0
  0
LINE
  5
A4
330
9E
100
AcDbEntity
  8
CSLAYER1
  6
CONTINUOUS
 62
     4
100
AcDbLine
 10
200.3569699999999
 20
124.7
 30
0.0
 11
199.5805129999999
 21
127.597777
 31
0.0
  0
LINE
  5
A5
330
9E
100
AcDbEntity
  8
CSLAYER1
  6
CONTINUOUS
 62
     4
100
AcDbLine
 10
200.3569699999999
 20
124.7
 30
0.0
 11
201.133427
 21
127.597777
 31
0.0
  0
LINE
  5
A6
330
9E
100
AcDbEntity
  8
CSLAYER1
  6
CONTINUOUS
 62
     4
100
AcDbLine
 10
200.3569699999999
 20
147.6999999999998
 30
0.0
 11
199.5805129999999
 21
144.802223
 31
0.0
  0
LINE
  5
A7
330
9E
100
AcDbEntity
  8
CSLAYER1
  6
CONTINUOUS
 62
     4
100
AcDbLine
 10
200.3569699999999
 20
147.6999999999998
 30
0.0
 11
201.133427
 21
144.802223
 31
0.0
  0
ENDBLK
  5
A8
330
9E
100
AcDbEntity
  8
0
100
AcDbBlockEnd
  0
BLOCK
  5
AA
330
A9
100
AcDbEntity
  8
0
100
AcDbBlockBegin
  2
*D10
 70
     1
 10
0.0
 20
0.0
 30
0.0
  3
*D10
  1

  0
TEXT
  5
AB
330
A9
100
AcDbEntity
  8
CSLAYER1
 62
     4
100
AcDbText
 10
217.60147
 20
149.1671749999999
 30
0.0
 40
3.2
  1
17
 50
44.9999936696516
 41
1.200000026624207
 51
15.0
  7
FX_FONT
 72
     5
 11
222.126954
 21
153.692658
 31
0.0
100
AcDbText
  0
LINE
  5
AC
330
A9
100
AcDbEntity
  8
CSLAYER1
  6
CONTINUOUS
 62
     4
100
AcDbLine
 10
227.315947
 20
131.957359
 30
0.0
 11
213.500244
 21
145.7730629999999
 31
0.0
  0
LINE
  5
AD
330
A9
100
AcDbEntity
  8
CSLAYER1
  6
CONTINUOUS
 62
     4
100
AcDbLine
 10
239.3367629999999
 20
143.9781749999999
 30
0.0
 11
225.5210589999999
 21
157.793878
 31
0.0
  0
LINE
  5
AE
330
A9
100
AcDbEntity
  8
CSLAYER1
  6
CONTINUOUS
 62
     4
100
AcDbLine
 10
214.2073509999999
 20
145.065956
 30
0.0
 11
226.228166
 21
157.0867709999999
 31
0.0
  0
LINE
  5
AF
330
A9
100
AcDbEntity
  8
CSLAYER1
  6
CONTINUOUS
 62
     4
100
AcDbLine
 10
214.2073509999999
 20
145.065956
 30
0.0
 11
215.707351
 21
147.664032
 31
0.0
  0
LINE
  5
B0
330
A9
100
AcDbEntity
  8
CSLAYER1
  6
CONTINUOUS
 62
     4
100
AcDbLine
 10
214.2073509999999
 20
145.065956
 30
0.0
 11
216.805427
 21
146.5659559999999
 31
0.0
  0
LINE
  5
B1
330
A9
100
AcDbEntity
  8
CSLAYER1
  6
CONTINUOUS
 62
     4
100
AcDbLine
 10
226.228166
 20
157.0867709999999
 30
0.0
 11
224.728166
 21
154.488695
 31
0.0
  0
LINE
  5
B2
330
A9
100
AcDbEntity
  8
CSLAYER1
  6
CONTINUOUS
 62
     4
100
AcDbLine
 10
226.228166
 20
157.0867709999999
 30
0.0
 11
223.6300899999999
 21
155.586771
 31
0.0
  0
ENDBLK
  5
B3
330
A9
100
AcDbEntity
  8
0
100
AcDbBlockEnd
  0
BLOCK
  5
B5
330
B4
100
AcDbEntity
  8
0
100
AcDbBlockBegin
  2
*D11
 70
     1
 10
0.0
 20
0.0
 30
0.0
  3
*D11
  1

  0
TEXT
  5
B6
330
B4
100
AcDbEntity
  8
CSLAYER1
 62
     4
100
AcDbText
 10
127.000009
 20
103.247627
 30
0.0
 40
3.2
  1
66.8
 41
1.090909090909091
 51
15.0
  7
FX_FONT
 72
     5
 11
139.800009
 21
103.247627
 31
0.0
100
AcDbText
  0
LINE
  5
B7
330
B4
100
AcDbEntity
  8
CSLAYER1
  6
CONTINUOUS
 62
     4
100
AcDbLine
 10
100.0
 20
81.90000000000003
 30
0.0
 11
100.0
 21
103.747626
 31
0.0
  0
LINE
  5
B8
330
B4
100
AcDbEntity
  8
CSLAYER1
  6
CONTINUOUS
 62
     4
100
AcDbLine
 10
166.8
 20
89.9
 30
0.0
 11
166.8
 21
103.747626
 31
0.0
  0
LINE
  5
B9
330
B4
100
AcDbEntity
  8
CSLAYER1
  6
CONTINUOUS
 62
     4
100
AcDbLine
 10
100.0
 20
102.747626
 30
0.0
 11
166.8
 21
102.747626
 31
0.0
  0
LINE
  5
BA
330
B4
100
AcDbEntity
  8
CSLAYER1
  6
CONTINUOUS
 62
     4
100
AcDbLine
 10
100.0
 20
102.747626
 30
0.0
 11
102.897777
 21
103.524083
 31
0.0
  0
LINE
  5
BB
330
B4
100
AcDbEntity
  8
CSLAYER1
  6
CONTINUOUS
 62
     4
100
AcDbLine
 10
100.0
 20
102.747626
 30
0.0
 11
102.897777
 21
101.9711689999998
 31
0.0
  0
LINE
  5
BC
330
B4
100
AcDbEntity
  8
CSLAYER1
  6
CONTINUOUS
 62
     4
100
AcDbLine
 10
166.8
 20
102.747626
 30
0.0
 11
163.9022229999999
 21
103.524083
 31
0.0
  0
LINE
  5
BD
330
B4
100
AcDbEntity
  8
CSLAYER1
  6
CONTINUOUS
 62
     4
100
AcDbLine
 10
166.8
 20
102.747626
 30
0.0
 11
163.9022229999999
 21
101.9711689999998
 31
0.0
  0
ENDBLK
  5
BE
330
B4
100
AcDbEntity
  8
0
100
AcDbBlockEnd
  0
BLOCK
  5
C0
330
BF
100
AcDbEntity
  8
0
100
AcDbBlockBegin
  2
FXDIM0000
 70
     0
 10
0.0
 20
0.0
 30
0.0
  3
FXDIM0000
  1

  0
LINE
  5
C1
330
BF
100
AcDbEntity
  8
CSLAYER1
  6
CONTINUOUS
 62
     4
100
AcDbLine
 10
106.9830409999999
 20
125.441994
 30
0.0
 11
97.508431
 21
110.852374
 31
0.0
  0
LINE
  5
C2
330
BF
100
AcDbEntity
  8
CSLAYER1
  6
CONTINUOUS
 62
     4
100
AcDbLine
 10
106.9830409999999
 20
125.441994
 30
0.0
 11
106.0559899999999
 21
122.588825
 31
0.0
  0
LINE
  5
C3
330
BF
100
AcDbEntity
  8
CSLAYER1
  6
CONTINUOUS
 62
     4
100
AcDbLine
 10
106.9830409999999
 20
125.441994
 30
0.0
 11
104.7536069999999
 21
123.434602
 31
0.0
  0
LINE
  5
C4
330
BF
100
AcDbEntity
  8
CSLAYER1
  6
CONTINUOUS
 62
     4
100
AcDbLine
 10
97.508431
 20
110.852374
 30
0.0
 11
47.50843099999999
 21
110.852374
 31
0.0
  0
TEXT
  5
C5
330
BF
100
AcDbEntity
  8
CSLAYER1
 62
     4
100
AcDbText
 10
48.508437
 20
111.3523709999999
 30
0.0
 40
3.2
  1
16-M3x0.5ネジ深3.5
 41
0.9825327715611354
 51
15.0
  7
FX_FONT
 72
     5
 11
96.508438
 21
111.3523709999999
 31
0.0
100
AcDbText
  0
ENDBLK
  5
C6
330
BF
100
AcDbEntity
  8
0
100
AcDbBlockEnd
  0
BLOCK
  5
C8
330
C7
100
AcDbEntity
  8
0
100
AcDbBlockBegin
  2
FXDIM0001
 70
     0
 10
0.0
 20
0.0
 30
0.0
  3
FXDIM0001
  1

  0
LINE
  5
C9
330
C7
100
AcDbEntity
  8
CSLAYER1
  6
CONTINUOUS
 62
     4
100
AcDbLine
 10
237.256768
 20
140.429121
 30
0.0
 11
244.131695
 21
157.7578649999999
 31
0.0
  0
LINE
  5
CA
330
C7
100
AcDbEntity
  8
CSLAYER1
  6
CONTINUOUS
 62
     4
100
AcDbLine
 10
237.256768
 20
140.429121
 30
0.0
 11
237.603659
 21
143.4089979999999
 31
0.0
  0
LINE
  5
CB
330
C7
100
AcDbEntity
  8
CSLAYER1
  6
CONTINUOUS
 62
     4
100
AcDbLine
 10
237.256768
 20
140.429121
 30
0.0
 11
239.047123
 21
142.8363239999999
 31
0.0
  0
LINE
  5
CC
330
C7
100
AcDbEntity
  8
CSLAYER1
  6
CONTINUOUS
 62
     4
100
AcDbLine
 10
244.131695
 20
157.7578649999999
 30
0.0
 11
268.531695
 21
157.7578649999999
 31
0.0
  0
TEXT
  5
CD
330
C7
100
AcDbEntity
  8
CSLAYER1
 62
     4
100
AcDbText
 10
245.131695
 20
158.2578739999999
 30
0.0
 40
3.2
  1
Rc1/8ネジ
 41
0.9813084550233588
 51
15.0
  7
FX_FONT
 72
     5
 11
267.5316959999999
 21
158.2578739999999
 31
0.0
100
AcDbText
  0
ENDBLK
  5
CE
330
C7
100
AcDbEntity
  8
0
100
AcDbBlockEnd
  0
BLOCK
  5
D0
330
CF
100
AcDbEntity
  8
0
100
AcDbBlockBegin
  2
*D14
 70
     1
 10
0.0
 20
0.0
 30
0.0
  3
*D14
  1

  0
TEXT
  5
D1
330
CF
100
AcDbEntity
  8
CSLAYER1
 62
     4
100
AcDbText
 10
128.0000029999999
 20
180.477448
 30
0.0
 40
3.2
  1
110
 41
1.125000000000012
 51
15.0
  7
FX_FONT
 72
     5
 11
137.600003
 21
180.477448
 31
0.0
100
AcDbText
  0
LINE
  5
D2
330
CF
100
AcDbEntity
  8
CSLAYER1
  6
CONTINUOUS
 62
     4
100
AcDbLine
 10
77.8
 20
179.977454
 30
0.0
 11
187.8
 21
179.977454
 31
0.0
  0
LINE
  5
D3
330
CF
100
AcDbEntity
  8
CSLAYER1
  6
CONTINUOUS
 62
     4
100
AcDbLine
 10
77.8
 20
179.977454
 30
0.0
 11
80.69777700000001
 21
180.753911
 31
0.0
  0
LINE
  5
D4
330
CF
100
AcDbEntity
  8
CSLAYER1
  6
CONTINUOUS
 62
     4
100
AcDbLine
 10
77.8
 20
179.977454
 30
0.0
 11
80.69777700000001
 21
179.200996
 31
0.0
  0
LINE
  5
D5
330
CF
100
AcDbEntity
  8
CSLAYER1
  6
CONTINUOUS
 62
     4
100
AcDbLine
 10
187.8
 20
179.977454
 30
0.0
 11
184.9022229999999
 21
180.753911
 31
0.0
  0
LINE
  5
D6
330
CF
100
AcDbEntity
  8
CSLAYER1
  6
CONTINUOUS
 62
     4
100
AcDbLine
 10
187.8
 20
179.977454
 30
0.0
 11
184.9022229999999
 21
179.200996
 31
0.0
  0
LINE
  5
D7
330
CF
100
AcDbEntity
  8
CSLAYER1
  6
CONTINUOUS
 62
     4
100
AcDbLine
 10
77.8
 20
144.1999999999999
 30
0.0
 11
77.8
 21
180.977454
 31
0.0
  0
LINE
  5
D8
330
CF
100
AcDbEntity
  8
CSLAYER1
  6
CONTINUOUS
 62
     4
100
AcDbLine
 10
187.8
 20
145.6999999999998
 30
0.0
 11
187.8
 21
180.977454
 31
0.0
  0
ENDBLK
  5
D9
330
CF
100
AcDbEntity
  8
0
100
AcDbBlockEnd
  0
BLOCK
  5
DB
330
DA
100
AcDbEntity
  8
0
100
AcDbBlockBegin
  2
*D15
 70
     1
 10
0.0
 20
0.0
 30
0.0
  3
*D15
  1

  0
TEXT
  5
DC
330
DA
100
AcDbEntity
  8
CSLAYER1
 62
     4
100
AcDbText
 10
119.100003
 20
174.477448
 30
0.0
 40
3.2
  1
89
 41
1.200000000000001
 51
15.0
  7
FX_FONT
 72
     5
 11
125.500003
 21
174.477448
 31
0.0
100
AcDbText
  0
LINE
  5
DD
330
DA
100
AcDbEntity
  8
CSLAYER1
  6
CONTINUOUS
 62
     4
100
AcDbLine
 10
77.8
 20
173.9774539999999
 30
0.0
 11
166.8
 21
173.9774539999999
 31
0.0
  0
LINE
  5
DE
330
DA
100
AcDbEntity
  8
CSLAYER1
  6
CONTINUOUS
 62
     4
100
AcDbLine
 10
77.8
 20
173.9774539999999
 30
0.0
 11
80.69777700000001
 21
174.753911
 31
0.0
  0
LINE
  5
DF
330
DA
100
AcDbEntity
  8
CSLAYER1
  6
CONTINUOUS
 62
     4
100
AcDbLine
 10
77.8
 20
173.9774539999999
 30
0.0
 11
80.69777700000001
 21
173.200996
 31
0.0
  0
LINE
  5
E0
330
DA
100
AcDbEntity
  8
CSLAYER1
  6
CONTINUOUS
 62
     4
100
AcDbLine
 10
166.8
 20
173.9774539999999
 30
0.0
 11
163.9022229999999
 21
174.753911
 31
0.0
  0
LINE
  5
E1
330
DA
100
AcDbEntity
  8
CSLAYER1
  6
CONTINUOUS
 62
     4
100
AcDbLine
 10
166.8
 20
173.9774539999999
 30
0.0
 11
163.9022229999999
 21
173.200996
 31
0.0
  0
LINE
  5
E2
330
DA
100
AcDbEntity
  8
CSLAYER1
  6
CONTINUOUS
 62
     4
100
AcDbLine
 10
166.8
 20
148.6999999999999
 30
0.0
 11
166.8
 21
174.9774539999999
 31
0.0
  0
ENDBLK
  5
E3
330
DA
100
AcDbEntity
  8
0
100
AcDbBlockEnd
  0
BLOCK
  5
E5
330
E4
100
AcDbEntity
  8
0
100
AcDbBlockBegin
  2
*D16
 70
     1
 10
0.0
 20
0.0
 30
0.0
  3
*D16
  1

  0
TEXT
  5
E6
330
E4
100
AcDbEntity
  8
CSLAYER1
 62
     4
100
AcDbText
 10
174.100003
 20
174.477448
 30
0.0
 40
3.2
  1
21
 41
1.333333333333328
 51
15.0
  7
FX_FONT
 72
     5
 11
180.500003
 21
174.477448
 31
0.0
100
AcDbText
  0
LINE
  5
E7
330
E4
100
AcDbEntity
  8
CSLAYER1
  6
CONTINUOUS
 62
     4
100
AcDbLine
 10
166.8
 20
173.9774539999999
 30
0.0
 11
187.8
 21
173.9774539999999
 31
0.0
  0
LINE
  5
E8
330
E4
100
AcDbEntity
  8
CSLAYER1
  6
CONTINUOUS
 62
     4
100
AcDbLine
 10
166.8
 20
173.9774539999999
 30
0.0
 11
169.697777
 21
174.753911
 31
0.0
  0
LINE
  5
E9
330
E4
100
AcDbEntity
  8
CSLAYER1
  6
CONTINUOUS
 62
     4
100
AcDbLine
 10
166.8
 20
173.9774539999999
 30
0.0
 11
169.697777
 21
173.200996
 31
0.0
  0
LINE
  5
EA
330
E4
100
AcDbEntity
  8
CSLAYER1
  6
CONTINUOUS
 62
     4
100
AcDbLine
 10
187.8
 20
173.9774539999999
 30
0.0
 11
184.9022229999999
 21
174.753911
 31
0.0
  0
LINE
  5
EB
330
E4
100
AcDbEntity
  8
CSLAYER1
  6
CONTINUOUS
 62
     4
100
AcDbLine
 10
187.8
 20
173.9774539999999
 30
0.0
 11
184.9022229999999
 21
173.200996
 31
0.0
  0
ENDBLK
  5
EC
330
E4
100
AcDbEntity
  8
0
100
AcDbBlockEnd
  0
BLOCK
  5
EE
330
ED
100
AcDbEntity
  8
0
100
AcDbBlockBegin
  2
*D17
 70
     1
 10
0.0
 20
0.0
 30
0.0
  3
*D17
  1

  0
TEXT
  5
EF
330
ED
100
AcDbEntity
  8
CSLAYER1
 62
     4
100
AcDbText
 10
126.1000029999999
 20
168.477448
 30
0.0
 40
3.2
  1
75
 41
1.200000000000001
 51
15.0
  7
FX_FONT
 72
     5
 11
132.5000029999999
 21
168.477448
 31
0.0
100
AcDbText
  0
LINE
  5
F0
330
ED
100
AcDbEntity
  8
CSLAYER1
  6
CONTINUOUS
 62
     4
100
AcDbLine
 10
91.79999999999999
 20
167.9774539999999
 30
0.0
 11
166.8
 21
167.9774539999999
 31
0.0
  0
LINE
  5
F1
330
ED
100
AcDbEntity
  8
CSLAYER1
  6
CONTINUOUS
 62
     4
100
AcDbLine
 10
91.79999999999999
 20
167.9774539999999
 30
0.0
 11
94.69777699999999
 21
168.753911
 31
0.0
  0
LINE
  5
F2
330
ED
100
AcDbEntity
  8
CSLAYER1
  6
CONTINUOUS
 62
     4
100
AcDbLine
 10
91.79999999999999
 20
167.9774539999999
 30
0.0
 11
94.69777699999999
 21
167.200996
 31
0.0
  0
LINE
  5
F3
330
ED
100
AcDbEntity
  8
CSLAYER1
  6
CONTINUOUS
 62
     4
100
AcDbLine
 10
166.8
 20
167.9774539999999
 30
0.0
 11
163.9022229999999
 21
168.753911
 31
0.0
  0
LINE
  5
F4
330
ED
100
AcDbEntity
  8
CSLAYER1
  6
CONTINUOUS
 62
     4
100
AcDbLine
 10
166.8
 20
167.9774539999999
 30
0.0
 11
163.9022229999999
 21
167.200996
 31
0.0
  0
LINE
  5
F5
330
ED
100
AcDbEntity
  8
CSLAYER1
  6
CONTINUOUS
 62
     4
100
AcDbLine
 10
91.79999999999999
 20
148.6999999999999
 30
0.0
 11
91.79999999999999
 21
168.9774539999999
 31
0.0
  0
ENDBLK
  5
F6
330
ED
100
AcDbEntity
  8
0
100
AcDbBlockEnd
  0
BLOCK
  5
F8
330
F7
100
AcDbEntity
  8
0
100
AcDbBlockBegin
  2
*D18
 70
     1
 10
0.0
 20
0.0
 30
0.0
  3
*D18
  1

  0
TEXT
  5
F9
330
F7
100
AcDbEntity
  8
CSLAYER1
 62
     4
100
AcDbText
 10
124.600003
 20
162.477448
 30
0.0
 40
3.2
  1
40
 41
1.199999999999982
 51
15.0
  7
FX_FONT
 72
     5
 11
131.0000029999999
 21
162.477448
 31
0.0
100
AcDbText
  0
LINE
  5
FA
330
F7
100
AcDbEntity
  8
CSLAYER1
  6
CONTINUOUS
 62
     4
100
AcDbLine
 10
107.8
 20
161.9774539999999
 30
0.0
 11
147.8
 21
161.9774539999999
 31
0.0
  0
LINE
  5
FB
330
F7
100
AcDbEntity
  8
CSLAYER1
  6
CONTINUOUS
 62
     4
100
AcDbLine
 10
107.8
 20
161.9774539999999
 30
0.0
 11
110.697777
 21
162.753911
 31
0.0
  0
LINE
  5
FC
330
F7
100
AcDbEntity
  8
CSLAYER1
  6
CONTINUOUS
 62
     4
100
AcDbLine
 10
107.8
 20
161.9774539999999
 30
0.0
 11
110.697777
 21
161.2009959999999
 31
0.0
  0
LINE
  5
FD
330
F7
100
AcDbEntity
  8
CSLAYER1
  6
CONTINUOUS
 62
     4
100
AcDbLine
 10
147.8
 20
161.9774539999999
 30
0.0
 11
144.9022229999999
 21
162.753911
 31
0.0
  0
LINE
  5
FE
330
F7
100
AcDbEntity
  8
CSLAYER1
  6
CONTINUOUS
 62
     4
100
AcDbLine
 10
147.8
 20
161.9774539999999
 30
0.0
 11
144.9022229999999
 21
161.2009959999999
 31
0.0
  0
LINE
  5
FF
330
F7
100
AcDbEntity
  8
CSLAYER1
  6
CONTINUOUS
 62
     4
100
AcDbLine
 10
107.8
 20
150.6541679999999
 30
0.0
 11
107.8
 21
162.9774539999999
 31
0.0
  0
LINE
  5
100
330
F7
100
AcDbEntity
  8
CSLAYER1
  6
CONTINUOUS
 62
     4
100
AcDbLine
 10
147.8
 20
150.1061629999998
 30
0.0
 11
147.8
 21
162.9774539999999
 31
0.0
  0
ENDBLK
  5
101
330
F7
100
AcDbEntity
  8
0
100
AcDbBlockEnd
  0
BLOCK
  5
103
330
102
100
AcDbEntity
  8
0
100
AcDbBlockBegin
  2
*D19
 70
     1
 10
0.0
 20
0.0
 30
0.0
  3
*D19
  1

  0
TEXT
  5
104
330
102
100
AcDbEntity
  8
CSLAYER1
 62
     4
100
AcDbText
 10
154.100003
 20
162.477448
 30
0.0
 40
3.2
  1
19
 41
1.199999999999995
 51
15.0
  7
FX_FONT
 72
     5
 11
160.500003
 21
162.477448
 31
0.0
100
AcDbText
  0
LINE
  5
105
330
102
100
AcDbEntity
  8
CSLAYER1
  6
CONTINUOUS
 62
     4
100
AcDbLine
 10
147.8
 20
161.9774539999999
 30
0.0
 11
166.8
 21
161.9774539999999
 31
0.0
  0
LINE
  5
106
330
102
100
AcDbEntity
  8
CSLAYER1
  6
CONTINUOUS
 62
     4
100
AcDbLine
 10
147.8
 20
161.9774539999999
 30
0.0
 11
150.6977769999999
 21
162.753911
 31
0.0
  0
LINE
  5
107
330
102
100
AcDbEntity
  8
CSLAYER1
  6
CONTINUOUS
 62
     4
100
AcDbLine
 10
147.8
 20
161.9774539999999
 30
0.0
 11
150.6977769999999
 21
161.2009959999999
 31
0.0
  0
LINE
  5
108
330
102
100
AcDbEntity
  8
CSLAYER1
  6
CONTINUOUS
 62
     4
100
AcDbLine
 10
166.8
 20
161.9774539999999
 30
0.0
 11
163.9022229999999
 21
162.753911
 31
0.0
  0
LINE
  5
109
330
102
100
AcDbEntity
  8
CSLAYER1
  6
CONTINUOUS
 62
     4
100
AcDbLine
 10
166.8
 20
161.9774539999999
 30
0.0
 11
163.9022229999999
 21
161.2009959999999
 31
0.0
  0
ENDBLK
  5
10A
330
102
100
AcDbEntity
  8
0
100
AcDbBlockEnd
  0
BLOCK
  5
10C
330
10B
100
AcDbEntity
  8
0
100
AcDbBlockBegin
  2
*D20
 70
     1
 10
0.0
 20
0.0
 30
0.0
  3
*D20
  1

  0
TEXT
  5
10D
330
10B
100
AcDbEntity
  8
CSLAYER1
 62
     4
100
AcDbText
 10
177.100003
 20
168.477448
 30
0.0
 40
3.2
  1
15
 41
1.199999999999985
 51
15.0
  7
FX_FONT
 72
     5
 11
183.5000029999999
 21
168.477448
 31
0.0
100
AcDbText
  0
LINE
  5
10E
330
10B
100
AcDbEntity
  8
CSLAYER1
  6
CONTINUOUS
 62
     4
100
AcDbLine
 10
172.8
 20
167.9774539999999
 30
0.0
 11
187.8
 21
167.9774539999999
 31
0.0
  0
LINE
  5
10F
330
10B
100
AcDbEntity
  8
CSLAYER1
  6
CONTINUOUS
 62
     4
100
AcDbLine
 10
172.8
 20
167.9774539999999
 30
0.0
 11
175.6977769999999
 21
168.753911
 31
0.0
  0
LINE
  5
110
330
10B
100
AcDbEntity
  8
CSLAYER1
  6
CONTINUOUS
 62
     4
100
AcDbLine
 10
172.8
 20
167.9774539999999
 30
0.0
 11
175.6977769999999
 21
167.200996
 31
0.0
  0
LINE
  5
111
330
10B
100
AcDbEntity
  8
CSLAYER1
  6
CONTINUOUS
 62
     4
100
AcDbLine
 10
187.8
 20
167.9774539999999
 30
0.0
 11
184.9022229999999
 21
168.753911
 31
0.0
  0
LINE
  5
112
330
10B
100
AcDbEntity
  8
CSLAYER1
  6
CONTINUOUS
 62
     4
100
AcDbLine
 10
187.8
 20
167.9774539999999
 30
0.0
 11
184.9022229999999
 21
167.200996
 31
0.0
  0
LINE
  5
113
330
10B
100
AcDbEntity
  8
CSLAYER1
  6
CONTINUOUS
 62
     4
100
AcDbLine
 10
172.8
 20
148.6999999999999
 30
0.0
 11
172.8
 21
168.9774539999999
 31
0.0
  0
ENDBLK
  5
114
330
10B
100
AcDbEntity
  8
0
100
AcDbBlockEnd
  0
BLOCK
  5
116
330
115
100
AcDbEntity
  8
0
100
AcDbBlockBegin
  2
*D21
 70
     1
 10
0.0
 20
0.0
 30
0.0
  3
*D21
  1

  0
TEXT
  5
117
330
115
100
AcDbEntity
  8
CSLAYER1
 62
     4
100
AcDbText
 10
79.70000300000002
 20
168.477448
 30
0.0
 40
3.2
  1
7
 41
1.499999999999988
 51
15.0
  7
FX_FONT
 72
     5
 11
82.900003
 21
168.477448
 31
0.0
100
AcDbText
  0
LINE
  5
118
330
115
100
AcDbEntity
  8
CSLAYER1
  6
CONTINUOUS
 62
     4
100
AcDbLine
 10
77.8
 20
167.9774539999999
 30
0.0
 11
84.8
 21
167.9774539999999
 31
0.0
  0
LINE
  5
119
330
115
100
AcDbEntity
  8
CSLAYER1
  6
CONTINUOUS
 62
     4
100
AcDbLine
 10
77.8
 20
167.9774539999999
 30
0.0
 11
80.69777700000001
 21
168.753911
 31
0.0
  0
LINE
  5
11A
330
115
100
AcDbEntity
  8
CSLAYER1
  6
CONTINUOUS
 62
     4
100
AcDbLine
 10
77.8
 20
167.9774539999999
 30
0.0
 11
80.69777700000001
 21
167.200996
 31
0.0
  0
LINE
  5
11B
330
115
100
AcDbEntity
  8
CSLAYER1
  6
CONTINUOUS
 62
     4
100
AcDbLine
 10
84.8
 20
167.9774539999999
 30
0.0
 11
81.902223
 21
168.753911
 31
0.0
  0
LINE
  5
11C
330
115
100
AcDbEntity
  8
CSLAYER1
  6
CONTINUOUS
 62
     4
100
AcDbLine
 10
84.8
 20
167.9774539999999
 30
0.0
 11
81.902223
 21
167.200996
 31
0.0
  0
LINE
  5
11D
330
115
100
AcDbEntity
  8
CSLAYER1
  6
CONTINUOUS
 62
     4
100
AcDbLine
 10
84.8
 20
141.700206
 30
0.0
 11
84.8
 21
168.9774539999999
 31
0.0
  0
ENDBLK
  5
11E
330
115
100
AcDbEntity
  8
0
100
AcDbBlockEnd
  0
BLOCK
  5
120
330
11F
100
AcDbEntity
  8
0
100
AcDbBlockBegin
  2
*D22
 70
     1
 10
0.0
 20
0.0
 30
0.0
  3
*D22
  1

  0
TEXT
  5
121
330
11F
100
AcDbEntity
  8
CSLAYER1
 62
     4
100
AcDbText
 10
122.100003
 20
112.304787
 30
0.0
 40
3.2
  1
27
 41
1.199999999999982
 51
15.0
  7
FX_FONT
 72
     5
 11
128.5000029999999
 21
112.304787
 31
0.0
100
AcDbText
  0
LINE
  5
122
330
11F
100
AcDbEntity
  8
CSLAYER1
  6
CONTINUOUS
 62
     4
100
AcDbLine
 10
111.8
 20
111.804783
 30
0.0
 11
138.8
 21
111.804783
 31
0.0
  0
LINE
  5
123
330
11F
100
AcDbEntity
  8
CSLAYER1
  6
CONTINUOUS
 62
     4
100
AcDbLine
 10
111.8
 20
111.804783
 30
0.0
 11
114.697777
 21
112.58124
 31
0.0
  0
LINE
  5
124
330
11F
100
AcDbEntity
  8
CSLAYER1
  6
CONTINUOUS
 62
     4
100
AcDbLine
 10
111.8
 20
111.804783
 30
0.0
 11
114.697777
 21
111.028326
 31
0.0
  0
LINE
  5
125
330
11F
100
AcDbEntity
  8
CSLAYER1
  6
CONTINUOUS
 62
     4
100
AcDbLine
 10
138.8
 20
111.804783
 30
0.0
 11
135.9022229999998
 21
112.58124
 31
0.0
  0
LINE
  5
126
330
11F
100
AcDbEntity
  8
CSLAYER1
  6
CONTINUOUS
 62
     4
100
AcDbLine
 10
138.8
 20
111.804783
 30
0.0
 11
135.9022229999998
 21
111.028326
 31
0.0
  0
LINE
  5
127
330
11F
100
AcDbEntity
  8
CSLAYER1
  6
CONTINUOUS
 62
     4
100
AcDbLine
 10
111.8
 20
123.7
 30
0.0
 11
111.8
 21
110.804783
 31
0.0
  0
LINE
  5
128
330
11F
100
AcDbEntity
  8
CSLAYER1
  6
CONTINUOUS
 62
     4
100
AcDbLine
 10
138.8
 20
123.7
 30
0.0
 11
138.8
 21
110.804783
 31
0.0
  0
ENDBLK
  5
129
330
11F
100
AcDbEntity
  8
0
100
AcDbBlockEnd
  0
BLOCK
  5
12B
330
12A
100
AcDbEntity
  8
0
100
AcDbBlockBegin
  2
*D23
 70
     1
 10
0.0
 20
0.0
 30
0.0
  3
*D23
  1

  0
TEXT
  5
12C
330
12A
100
AcDbEntity
  8
CSLAYER1
 62
     4
100
AcDbText
 10
149.600003
 20
112.304787
 30
0.0
 40
3.2
  1
28
 41
1.199999999999979
 51
15.0
  7
FX_FONT
 72
     5
 11
156.0000029999999
 21
112.304787
 31
0.0
100
AcDbText
  0
LINE
  5
12D
330
12A
100
AcDbEntity
  8
CSLAYER1
  6
CONTINUOUS
 62
     4
100
AcDbLine
 10
138.8
 20
111.804783
 30
0.0
 11
166.8
 21
111.804783
 31
0.0
  0
LINE
  5
12E
330
12A
100
AcDbEntity
  8
CSLAYER1
  6
CONTINUOUS
 62
     4
100
AcDbLine
 10
138.8
 20
111.804783
 30
0.0
 11
141.697777
 21
112.58124
 31
0.0
  0
LINE
  5
12F
330
12A
100
AcDbEntity
  8
CSLAYER1
  6
CONTINUOUS
 62
     4
100
AcDbLine
 10
138.8
 20
111.804783
 30
0.0
 11
141.697777
 21
111.028326
 31
0.0
  0
LINE
  5
130
330
12A
100
AcDbEntity
  8
CSLAYER1
  6
CONTINUOUS
 62
     4
100
AcDbLine
 10
166.8
 20
111.804783
 30
0.0
 11
163.9022229999999
 21
112.58124
 31
0.0
  0
LINE
  5
131
330
12A
100
AcDbEntity
  8
CSLAYER1
  6
CONTINUOUS
 62
     4
100
AcDbLine
 10
166.8
 20
111.804783
 30
0.0
 11
163.9022229999999
 21
111.028326
 31
0.0
  0
LINE
  5
132
330
12A
100
AcDbEntity
  8
CSLAYER1
  6
CONTINUOUS
 62
     4
100
AcDbLine
 10
166.8
 20
123.7
 30
0.0
 11
166.8
 21
110.804783
 31
0.0
  0
ENDBLK
  5
133
330
12A
100
AcDbEntity
  8
0
100
AcDbBlockEnd
  0
BLOCK
  5
135
330
134
100
AcDbEntity
  8
0
100
AcDbBlockBegin
  2
*D24
 70
     1
 10
0.0
 20
0.0
 30
0.0
  3
*D24
  1

  0
TEXT
  5
136
330
134
100
AcDbEntity
  8
CSLAYER1
 62
     4
100
AcDbText
 10
156.100003
 20
118.304787
 30
0.0
 40
3.2
  1
15
 41
1.199999999999979
 51
15.0
  7
FX_FONT
 72
     5
 11
162.5000029999999
 21
118.304787
 31
0.0
100
AcDbText
  0
LINE
  5
137
330
134
100
AcDbEntity
  8
CSLAYER1
  6
CONTINUOUS
 62
     4
100
AcDbLine
 10
151.8
 20
117.804783
 30
0.0
 11
166.8
 21
117.804783
 31
0.0
  0
LINE
  5
138
330
134
100
AcDbEntity
  8
CSLAYER1
  6
CONTINUOUS
 62
     4
100
AcDbLine
 10
151.8
 20
117.804783
 30
0.0
 11
154.6977769999999
 21
118.5812399999999
 31
0.0
  0
LINE
  5
139
330
134
100
AcDbEntity
  8
CSLAYER1
  6
CONTINUOUS
 62
     4
100
AcDbLine
 10
151.8
 20
117.804783
 30
0.0
 11
154.6977769999999
 21
117.028326
 31
0.0
  0
LINE
  5
13A
330
134
100
AcDbEntity
  8
CSLAYER1
  6
CONTINUOUS
 62
     4
100
AcDbLine
 10
166.8
 20
117.804783
 30
0.0
 11
163.9022229999999
 21
118.5812399999999
 31
0.0
  0
LINE
  5
13B
330
134
100
AcDbEntity
  8
CSLAYER1
  6
CONTINUOUS
 62
     4
100
AcDbLine
 10
166.8
 20
117.804783
 30
0.0
 11
163.9022229999999
 21
117.028326
 31
0.0
  0
LINE
  5
13C
330
134
100
AcDbEntity
  8
CSLAYER1
  6
CONTINUOUS
 62
     4
100
AcDbLine
 10
151.8
 20
123.7
 30
0.0
 11
151.8
 21
116.804783
 31
0.0
  0
ENDBLK
  5
13D
330
134
100
AcDbEntity
  8
0
100
AcDbBlockEnd
  0
BLOCK
  5
13F
330
13E
100
AcDbEntity
  8
0
100
AcDbBlockBegin
  2
*D25
 70
     1
 10
0.0
 20
0.0
 30
0.0
  3
*D25
  1

  0
TEXT
  5
140
330
13E
100
AcDbEntity
  8
CSLAYER1
 62
     4
100
AcDbText
 10
213.808743
 20
122.187822
 30
0.0
 40
3.2
  1
45%%d
 50
112.4999991574825
 41
1.285714348609485
 51
15.0
  7
FX_FONT
 72
     5
 11
210.1349819999999
 21
131.0570659999999
 31
0.0
100
AcDbText
  0
ARC
  5
141
330
13E
100
AcDbEntity
  8
CSLAYER1
  6
CONTINUOUS
 62
     4
100
AcDbCircle
 10
235.094122
 20
136.1999999999998
 30
0.0
 40
24.527353
100
AcDbArc
 50
180.0
 51
225.0
  0
LINE
  5
142
330
13E
100
AcDbEntity
  8
CSLAYER1
  6
CONTINUOUS
 62
     4
100
AcDbLine
 10
210.5667689999999
 20
136.1999999999998
 30
0.0
 11
209.790312
 21
133.302223
 31
0.0
  0
LINE
  5
143
330
13E
100
AcDbEntity
  8
CSLAYER1
  6
CONTINUOUS
 62
     4
100
AcDbLine
 10
210.5667689999999
 20
136.1999999999998
 30
0.0
 11
211.3432259999999
 21
133.302223
 31
0.0
  0
LINE
  5
144
330
13E
100
AcDbEntity
  8
CSLAYER1
  6
CONTINUOUS
 62
     4
100
AcDbLine
 10
217.750664
 20
118.8565429999999
 30
0.0
 11
215.1525879999999
 21
120.3565429999999
 31
0.0
  0
LINE
  5
145
330
13E
100
AcDbEntity
  8
CSLAYER1
  6
CONTINUOUS
 62
     4
100
AcDbLine
 10
217.750664
 20
118.8565429999999
 30
0.0
 11
216.250664
 21
121.4546189999999
 31
0.0
  0
LINE
  5
146
330
13E
100
AcDbEntity
  8
CSLAYER1
  6
CONTINUOUS
 62
     4
100
AcDbLine
 10
220.123213
 20
136.1999999999998
 30
0.0
 11
209.5667689999999
 21
136.1999999999998
 31
0.0
  0
LINE
  5
147
330
13E
100
AcDbEntity
  8
CSLAYER1
  6
CONTINUOUS
 62
     4
100
AcDbLine
 10
225.6596229999999
 20
126.765501
 30
0.0
 11
217.043558
 21
118.149436
 31
0.0
  0
ENDBLK
  5
148
330
13E
100
AcDbEntity
  8
0
100
AcDbBlockEnd
  0
BLOCK
  5
14A
330
149
100
AcDbEntity
  8
0
100
AcDbBlockBegin
  2
FXDIM0002
 70
     0
 10
0.0
 20
0.0
 30
0.0
  3
FXDIM0002
  1

  0
LINE
  5
14B
330
149
100
AcDbEntity
  8
CSLAYER1
  6
CONTINUOUS
 62
     4
100
AcDbLine
 10
228.2228369999999
 20
128.9642749999998
 30
0.0
 11
220.740454
 21
109.4165489999999
 31
0.0
  0
LINE
  5
14C
330
149
100
AcDbEntity
  8
CSLAYER1
  6
CONTINUOUS
 62
     4
100
AcDbLine
 10
228.2228369999999
 20
128.9642749999998
 30
0.0
 11
227.912085
 21
125.9804129999998
 31
0.0
  0
LINE
  5
14D
330
149
100
AcDbEntity
  8
CSLAYER1
  6
CONTINUOUS
 62
     4
100
AcDbLine
 10
228.2228369999999
 20
128.9642749999998
 30
0.0
 11
226.461787
 21
126.535551
 31
0.0
  0
LINE
  5
14E
330
149
100
AcDbEntity
  8
CSLAYER1
  6
CONTINUOUS
 62
     4
100
AcDbLine
 10
220.740454
 20
109.4165489999999
 30
0.0
 11
241.9404549999999
 21
109.4165489999999
 31
0.0
  0
TEXT
  5
14F
330
149
100
AcDbEntity
  8
CSLAYER1
 62
     4
100
AcDbText
 10
221.7404539999999
 20
109.91655
 30
0.0
 40
3.2
  1
M3ネジ深8
 41
0.9574468085106433
 51
15.0
  7
FX_FONT
 72
     5
 11
240.940454
 21
109.91655
 31
0.0
100
AcDbText
  0
ENDBLK
  5
150
330
149
100
AcDbEntity
  8
0
100
AcDbBlockEnd
  0
BLOCK
  5
152
330
151
100
AcDbEntity
  8
0
100
AcDbBlockBegin
  2
FXDIM0003
 70
     0
 10
0.0
 20
0.0
 30
0.0
  3
FXDIM0003
  1

  0
LINE
  5
153
330
151
100
AcDbEntity
  8
CSLAYER1
  6
CONTINUOUS
 62
     4
100
AcDbLine
 10
176.962646
 20
143.510536
 30
0.0
 11
195.3279229999999
 21
168.900179
 31
0.0
  0
LINE
  5
154
330
151
100
AcDbEntity
  8
CSLAYER1
  6
CONTINUOUS
 62
     4
100
AcDbLine
 10
176.962646
 20
143.510536
 30
0.0
 11
178.031863
 21
146.31353
 31
0.0
  0
LINE
  5
155
330
151
100
AcDbEntity
  8
CSLAYER1
  6
CONTINUOUS
 62
     4
100
AcDbLine
 10
176.962646
 20
143.510536
 30
0.0
 11
179.290112
 21
145.403392
 31
0.0
  0
LINE
  5
156
330
151
100
AcDbEntity
  8
CSLAYER1
  6
CONTINUOUS
 62
     4
100
AcDbLine
 10
195.3279229999999
 20
168.900179
 30
0.0
 11
219.7279229999999
 21
168.900179
 31
0.0
  0
TEXT
  5
157
330
151
100
AcDbEntity
  8
CSLAYER1
 62
     4
100
AcDbText
 10
196.327954
 20
169.400177
 30
0.0
 40
3.2
  1
Rc1/8ネジ
 41
0.9813084112149535
 51
15.0
  7
FX_FONT
 72
     5
 11
218.727954
 21
169.400177
 31
0.0
100
AcDbText
  0
ENDBLK
  5
158
330
151
100
AcDbEntity
  8
0
100
AcDbBlockEnd
  0
BLOCK
  5
15A
330
159
100
AcDbEntity
  8
0
100
AcDbBlockBegin
  2
*D28
 70
     1
 10
0.0
 20
0.0
 30
0.0
  3
*D28
  1

  0
TEXT
  5
15B
330
159
100
AcDbEntity
  8
CSLAYER1
 62
     4
100
AcDbText
 10
174.100003
 20
59.464848
 30
0.0
 40
3.2
  1
21
 41
1.333333333333328
 51
15.0
  7
FX_FONT
 72
     5
 11
180.500003
 21
59.464848
 31
0.0
100
AcDbText
  0
LINE
  5
15C
330
159
100
AcDbEntity
  8
CSLAYER1
  6
CONTINUOUS
 62
     4
100
AcDbLine
 10
166.8
 20
58.96484799999999
 30
0.0
 11
187.8
 21
58.96484799999999
 31
0.0
  0
LINE
  5
15D
330
159
100
AcDbEntity
  8
CSLAYER1
  6
CONTINUOUS
 62
     4
100
AcDbLine
 10
166.8
 20
58.96484799999999
 30
0.0
 11
169.697777
 21
59.74130600000001
 31
0.0
  0
LINE
  5
15E
330
159
100
AcDbEntity
  8
CSLAYER1
  6
CONTINUOUS
 62
     4
100
AcDbLine
 10
166.8
 20
58.96484799999999
 30
0.0
 11
169.697777
 21
58.188391
 31
0.0
  0
LINE
  5
15F
330
159
100
AcDbEntity
  8
CSLAYER1
  6
CONTINUOUS
 62
     4
100
AcDbLine
 10
187.8
 20
58.96484799999999
 30
0.0
 11
184.9022229999999
 21
59.74130600000001
 31
0.0
  0
LINE
  5
160
330
159
100
AcDbEntity
  8
CSLAYER1
  6
CONTINUOUS
 62
     4
100
AcDbLine
 10
187.8
 20
58.96484799999999
 30
0.0
 11
184.9022229999999
 21
58.188391
 31
0.0
  0
LINE
  5
161
330
159
100
AcDbEntity
  8
CSLAYER1
  6
CONTINUOUS
 62
     4
100
AcDbLine
 10
166.8
 20
64.90000000000001
 30
0.0
 11
166.8
 21
57.96484799999999
 31
0.0
  0
LINE
  5
162
330
159
100
AcDbEntity
  8
CSLAYER1
  6
CONTINUOUS
 62
     4
100
AcDbLine
 10
187.8
 20
65.9
 30
0.0
 11
187.8
 21
57.96484799999999
 31
0.0
  0
ENDBLK
  5
163
330
159
100
AcDbEntity
  8
0
100
AcDbBlockEnd
  0
BLOCK
  5
2EF
330
2E2
100
AcDbEntity
  8
0
100
AcDbBlockBegin
  2
*D29
 70
     1
 10
0.0
 20
0.0
 30
0.0
  3
*D29
  1

  0
LINE
  5
2E3
330
2E2
100
AcDbEntity
  8
CSLAYER1
 62
     0
100
AcDbLine
 10
221.060713
 20
136.1999999999998
 30
0.0
 11
210.386769250657
 21
136.1999999999998
 31
0.0
  0
LINE
  5
2E4
330
2E2
100
AcDbEntity
  8
CSLAYER1
 62
     0
100
AcDbLine
 10
226.3225358261757
 20
127.4284138261758
 30
0.0
 11
217.6233853257714
 21
118.7292633257714
 31
0.0
  0
ARC
  5
2E5
330
2E2
100
AcDbEntity
  8
CSLAYER1
 62
     0
100
AcDbCircle
 10
235.094122
 20
136.1999999999999
 30
0.0
 40
24.52735274934301
100
AcDbArc
 50
180.420480088549
 51
202.0456181865781
  0
ARC
  5
2E6
330
2E2
100
AcDbEntity
  8
CSLAYER1
 62
     0
100
AcDbCircle
 10
235.094122
 20
136.1999999999999
 30
0.0
 40
24.52735274934301
100
AcDbArc
 50
202.9558793806983
 51
224.5795199114509
  0
SOLID
  5
2E7
330
2E2
100
AcDbEntity
  8
CSLAYER1
 62
     0
100
AcDbTrace
 10
210.5374299397185
 20
136.019891130608
 30
0.0
 11
210.5974295357881
 21
136.0201112929734
 31
0.0
 12
210.5667692506568
 22
136.1999999999998
 32
0.0
 13
210.5667692506568
 23
136.1999999999998
 33
0.0
  0
SOLID
  5
2E8
330
2E2
100
AcDbEntity
  8
CSLAYER1
 62
     0
100
AcDbTrace
 10
217.645144117317
 20
119.0054231665118
 30
0.0
 11
217.6025623177661
 21
118.9631527235639
 31
0.0
 12
217.7506645463848
 22
118.856542546385
 32
0.0
 13
217.7506645463848
 23
118.856542546385
 33
0.0
  0
MTEXT
  5
2E9
330
2E2
100
AcDbEntity
  8
CSLAYER1
 62
     0
100
AcDbMText
 10
212.4338028081974
 20
126.8137884630521
 30
0.0
 40
0.18
 41
0.0
 71
     5
 72
     1
  1
\A1;45°
1001
ACAD
1000
MTEXTBEGIN
1070
    73
1070
     1
1070
    44
1040
1.0
1070
    74
1070
     0
1000
MTEXTEND
  0
POINT
  5
2EA
330
2E2
100
AcDbEntity
  8
DEFPOINTS
 62
     0
100
AcDbPoint
 10
211.4025185289073
 20
129.8518539825223
 30
0.0
  0
POINT
  5
2EB
330
2E2
100
AcDbEntity
  8
DEFPOINTS
 62
     0
100
AcDbPoint
 10
235.094122
 20
136.1999999999998
 30
0.0
  0
POINT
  5
2EC
330
2E2
100
AcDbEntity
  8
DEFPOINTS
 62
     0
100
AcDbPoint
 10
226.3667299999999
 20
127.472608
 30
0.0
  0
POINT
  5
2ED
330
2E2
100
AcDbEntity
  8
DEFPOINTS
 62
     0
100
AcDbPoint
 10
231.0691509999999
 20
132.1750289999999
 30
0.0
  0
POINT
  5
2EE
330
2E2
100
AcDbEntity
  8
DEFPOINTS
 62
     0
100
AcDbPoint
 10
221.1232129999999
 20
136.1999999999998
 30
0.0
  0
ENDBLK
  5
2F0
330
2E2
100
AcDbEntity
  8
0
100
AcDbBlockEnd
  0
ENDSEC
  0
SECTION
  2
ENTITIES
  0
DIMENSION
  5
164
330
1E
100
AcDbEntity
  8
CSLAYER1
 62
     4
100
AcDbDimension
  2
*D0
 10
58.9
 20
160.856571
 30
0.0
 11
47.39999799999998
 21
161.3565829999999
 31
0.0
 70
     1
100
AcDbAlignedDimension
 13
35.89999999999999
 23
147.6999999999998
 33
0.0
 14
58.9
 24
147.6999999999998
 34
0.0
  0
DIMENSION
  5
165
330
1E
100
AcDbEntity
  8
CSLAYER1
 62
     4
100
AcDbDimension
  2
*D1
 10
50.89999999999999
 20
154.856571
 30
0.0
 11
47.39999799999998
 21
155.356583
 31
0.0
 70
     1
100
AcDbAlignedDimension
 13
43.89999999999999
 23
147.6999999999998
 33
0.0
 14
50.89999999999999
 24
147.6999999999998
 34
0.0
  0
DIMENSION
  5
166
330
1E
100
AcDbEntity
  8
CSLAYER1
 62
     4
100
AcDbDimension
  2
*D2
 10
22.56132999999999
 20
147.6999999999998
 30
0.0
 11
22.061329
 21
136.200012
 31
0.0
 70
     1
100
AcDbAlignedDimension
 13
35.89999999999999
 23
124.7
 33
0.0
 14
35.89999999999999
 24
147.6999999999998
 34
0.0
  0
DIMENSION
  5
167
330
1E
100
AcDbEntity
  8
CSLAYER1
 62
     4
100
AcDbDimension
  2
*D3
 10
69.945429
 20
143.1999999999999
 30
0.0
 11
69.44542699999999
 21
136.200012
 31
0.0
 70
     1
100
AcDbAlignedDimension
 13
77.8
 23
129.1999999999999
 33
0.0
 14
77.8
 24
143.1999999999999
 34
0.0
  0
DIMENSION
  5
168
330
1E
100
AcDbEntity
  8
CSLAYER1
 62
     4
100
AcDbDimension
  2
*D4
 10
124.052727
 20
145.6999999999998
 30
0.0
 11
123.552734
 21
136.200012
 31
0.0
100
AcDbAlignedDimension
 13
126.7933329999999
 23
126.7
 33
0.0
 14
126.2163639999998
 24
145.6999999999998
 34
0.0
 50
90.0
100
AcDbRotatedDimension
  0
DIMENSION
  5
169
330
1E
100
AcDbEntity
  8
CSLAYER1
 62
     4
100
AcDbDimension
  2
*D5
 10
120.9515149999998
 20
67.9
 30
0.0
 11
120.4515149999999
 21
77.400002
 31
0.0
 70
     1
100
AcDbAlignedDimension
 13
120.9515149999998
 23
86.90000000000003
 33
0.0
 14
120.9515149999998
 24
67.9
 34
0.0
  0
DIMENSION
  5
16A
330
1E
100
AcDbEntity
  8
CSLAYER1
 62
     4
100
AcDbDimension
  2
*D6
 10
142.8
 20
58.96484799999999
 30
0.0
 11
122.800003
 21
59.464848
 31
0.0
 52
270.0
100
AcDbAlignedDimension
 13
102.8
 23
62.289803
 33
0.0
 14
142.8
 24
61.694858
 34
0.0
100
AcDbRotatedDimension
  0
DIMENSION
  5
16B
330
1E
100
AcDbEntity
  8
CSLAYER1
 62
     4
100
AcDbDimension
  2
*D7
 10
142.8
 20
58.96484799999999
 30
0.0
 11
154.800003
 21
59.464848
 31
0.0
 70
     1
100
AcDbAlignedDimension
 13
166.8
 23
58.96484799999999
 33
0.0
 14
142.8
 24
58.96484799999999
 34
0.0
  0
DIMENSION
  5
16C
330
1E
100
AcDbEntity
  8
CSLAYER1
 62
     4
100
AcDbDimension
  2
*D8
 10
257.2456369999999
 20
145.6999999999998
 30
0.0
 11
256.7456359999999
 21
136.200012
 31
0.0
 70
     1
100
AcDbAlignedDimension
 13
241.5748629999999
 23
126.7
 33
0.0
 14
241.5748629999999
 24
145.6999999999998
 34
0.0
  0
DIMENSION
  5
16D
330
1E
100
AcDbEntity
  8
CSLAYER1
 62
     4
100
AcDbDimension
  2
*D9
 10
200.3569699999999
 20
147.6999999999998
 30
0.0
 11
199.8569789999999
 21
136.200012
 31
0.0
 70
     1
100
AcDbAlignedDimension
 13
172.8
 23
124.7
 33
0.0
 14
172.8
 24
147.6999999999998
 34
0.0
  0
DIMENSION
  5
16E
330
1E
100
AcDbEntity
  8
CSLAYER1
 62
     4
100
AcDbDimension
  2
*D10
 10
226.228166
 20
157.0867709999999
 30
0.0
 11
219.864212
 21
151.429916
 31
0.0
 70
     1
100
AcDbAlignedDimension
 13
228.023054
 23
131.250253
 33
0.0
 14
240.043869
 24
143.2710679999999
 34
0.0
  0
DIMENSION
  5
16F
330
1E
100
AcDbEntity
  8
CSLAYER1
 62
     4
100
AcDbDimension
  2
*D11
 10
166.8
 20
102.747626
 30
0.0
 11
133.400009
 21
103.247627
 31
0.0
100
AcDbAlignedDimension
 13
100.0
 23
80.90000000000001
 33
0.0
 14
166.8
 24
88.9
 34
0.0
100
AcDbRotatedDimension
  0
INSERT
  5
170
330
1E
100
AcDbEntity
  8
CSLAYER1
100
AcDbBlockReference
  2
FXDIM0000
 10
0.0
 20
0.0
 30
0.0
  0
TEXT
  5
171
330
1E
100
AcDbEntity
  8
CSLAYER1
 62
     3
100
AcDbText
 10
242.3999999999999
 20
17.4
 30
0.0
 40
3.2
  1
GT-NS3
 41
1.05882352941177
  7
FX_FONT
 72
     5
 11
261.6
 21
17.4
 31
0.0
100
AcDbText
  0
LINE
  5
172
330
1E
100
AcDbEntity
  8
CSLAYER1
  6
CONTINUOUS
 62
     3
100
AcDbLine
 10
77.8
 20
65.9
 30
0.0
 11
77.8
 21
73.9
 31
0.0
  0
LINE
  5
173
330
1E
100
AcDbEntity
  8
CSLAYER1
  6
CONTINUOUS
 62
     3
100
AcDbLine
 10
77.8
 20
73.9
 30
0.0
 11
100.0
 21
73.9
 31
0.0
  0
LINE
  5
174
330
1E
100
AcDbEntity
  8
CSLAYER1
  6
CONTINUOUS
 62
     3
100
AcDbLine
 10
100.0
 20
73.9
 30
0.0
 11
100.0
 21
80.90000000000001
 31
0.0
  0
LINE
  5
175
330
1E
100
AcDbEntity
  8
CSLAYER1
  6
CONTINUOUS
 62
     3
100
AcDbLine
 10
100.0
 20
80.90000000000001
 30
0.0
 11
77.8
 21
80.90000000000001
 31
0.0
  0
LINE
  5
176
330
1E
100
AcDbEntity
  8
CSLAYER1
  6
CONTINUOUS
 62
     3
100
AcDbLine
 10
77.8
 20
80.90000000000001
 30
0.0
 11
77.8
 21
88.9
 31
0.0
  0
LINE
  5
177
330
1E
100
AcDbEntity
  8
CSLAYER1
  6
CONTINUOUS
 62
     3
100
AcDbLine
 10
77.8
 20
88.9
 30
0.0
 11
165.8
 21
88.9
 31
0.0
  0
LINE
  5
178
330
1E
100
AcDbEntity
  8
CSLAYER1
  6
CONTINUOUS
 62
     3
100
AcDbLine
 10
186.8
 20
88.9
 30
0.0
 11
187.8
 21
87.9
 31
0.0
  0
LINE
  5
179
330
1E
100
AcDbEntity
  8
CSLAYER1
  6
CONTINUOUS
 62
     3
100
AcDbLine
 10
187.8
 20
87.9
 30
0.0
 11
187.8
 21
66.90000000000001
 31
0.0
  0
LINE
  5
17A
330
1E
100
AcDbEntity
  8
CSLAYER1
  6
CONTINUOUS
 62
     3
100
AcDbLine
 10
187.8
 20
66.90000000000001
 30
0.0
 11
186.8
 21
65.9
 31
0.0
  0
LINE
  5
17B
330
1E
100
AcDbEntity
  8
CSLAYER1
  6
CONTINUOUS
 62
     3
100
AcDbLine
 10
186.8
 20
65.9
 30
0.0
 11
166.8
 21
65.9
 31
0.0
  0
LINE
  5
17C
330
1E
100
AcDbEntity
  8
CSLAYER1
  6
CONTINUOUS
 62
     3
100
AcDbLine
 10
81.62457399999999
 20
65.9
 30
0.0
 11
81.62457399999999
 21
63.80335500000001
 31
0.0
  0
LINE
  5
17D
330
1E
100
AcDbEntity
  8
CSLAYER1
  6
CONTINUOUS
 62
     3
100
AcDbLine
 10
81.62457399999999
 20
63.80335500000001
 30
0.0
 11
82.15000000000001
 21
63.5
 31
0.0
  0
LINE
  5
17E
330
1E
100
AcDbEntity
  8
CSLAYER1
  6
CONTINUOUS
 62
     3
100
AcDbLine
 10
82.15000000000001
 20
63.5
 30
0.0
 11
87.45
 21
63.5
 31
0.0
  0
LINE
  5
17F
330
1E
100
AcDbEntity
  8
CSLAYER1
  6
CONTINUOUS
 62
     3
100
AcDbLine
 10
87.45
 20
63.5
 30
0.0
 11
87.97542599999998
 21
63.80335500000001
 31
0.0
  0
LINE
  5
180
330
1E
100
AcDbEntity
  8
CSLAYER1
  6
CONTINUOUS
 62
     3
100
AcDbLine
 10
87.97542599999998
 20
63.80335500000001
 30
0.0
 11
87.97542599999998
 21
65.82651899999999
 31
0.0
  0
LINE
  5
181
330
1E
100
AcDbEntity
  8
CSLAYER1
  6
CONTINUOUS
 62
     3
100
AcDbLine
 10
86.387713
 20
65.9
 30
0.0
 11
86.387713
 21
63.80335500000001
 31
0.0
  0
ARC
  5
182
330
1E
100
AcDbEntity
  8
CSLAYER1
  6
CONTINUOUS
 62
     3
100
AcDbCircle
 10
87.18156999999997
 20
64.69040799999999
 30
0.0
 40
1.190407999999999
100
AcDbArc
 50
228.173452
 51
288.173452
  0
LINE
  5
183
330
1E
100
AcDbEntity
  8
CSLAYER1
  6
CONTINUOUS
 62
     3
100
AcDbLine
 10
86.3
 20
63.5
 30
0.0
 11
86.3
 21
61.79999999999999
 31
0.0
  0
LINE
  5
184
330
1E
100
AcDbEntity
  8
CSLAYER1
  6
CONTINUOUS
 62
     3
100
AcDbLine
 10
86.3
 20
61.79999999999999
 30
0.0
 11
85.90000000000001
 21
61.4
 31
0.0
  0
LINE
  5
185
330
1E
100
AcDbEntity
  8
CSLAYER1
  6
CONTINUOUS
 62
     3
100
AcDbLine
 10
85.90000000000001
 20
61.4
 30
0.0
 11
83.7
 21
61.4
 31
0.0
  0
LINE
  5
186
330
1E
100
AcDbEntity
  8
CSLAYER1
  6
CONTINUOUS
 62
     3
100
AcDbLine
 10
83.7
 20
61.4
 30
0.0
 11
83.3
 21
61.79999999999999
 31
0.0
  0
LINE
  5
187
330
1E
100
AcDbEntity
  8
CSLAYER1
  6
CONTINUOUS
 62
     3
100
AcDbLine
 10
83.3
 20
61.79999999999999
 30
0.0
 11
83.3
 21
63.5
 31
0.0
  0
LINE
  5
188
330
1E
100
AcDbEntity
  8
CSLAYER1
  6
CONTINUOUS
 62
     3
100
AcDbLine
 10
83.212287
 20
63.80335500000001
 30
0.0
 11
83.212287
 21
65.9
 31
0.0
  0
ARC
  5
189
330
1E
100
AcDbEntity
  8
CSLAYER1
  6
CONTINUOUS
 62
     3
100
AcDbCircle
 10
84.8
 20
67.806599
 30
0.0
 40
4.306598999999998
100
AcDbArc
 50
248.366392
 51
291.6336079999998
  0
ARC
  5
18A
330
1E
100
AcDbEntity
  8
CSLAYER1
  6
CONTINUOUS
 62
     3
100
AcDbCircle
 10
82.41843000000001
 20
64.69040799999999
 30
0.0
 40
1.190407999999999
100
AcDbArc
 50
251.826548
 51
311.826548
  0
LINE
  5
18B
330
1E
100
AcDbEntity
  8
CSLAYER1
  6
CONTINUOUS
 62
     3
100
AcDbLine
 10
91.79999999999999
 20
65.9
 30
0.0
 11
91.79999999999999
 21
73.9
 31
0.0
  0
LINE
  5
18C
330
1E
100
AcDbEntity
  8
CSLAYER1
  6
CONTINUOUS
 62
     3
100
AcDbLine
 10
86.79999999999997
 20
73.9
 30
0.0
 11
86.79999999999997
 21
80.90000000000001
 31
0.0
  0
LINE
  5
18D
330
1E
100
AcDbEntity
  8
CSLAYER1
  6
CONTINUOUS
 62
     3
100
AcDbLine
 10
82.79999999999999
 20
80.90000000000001
 30
0.0
 11
82.79999999999999
 21
73.9
 31
0.0
  0
CIRCLE
  5
18E
330
1E
100
AcDbEntity
  8
CSLAYER1
  6
CONTINUOUS
 62
     3
100
AcDbCircle
 10
102.8
 20
86.90000000000003
 30
0.0
 40
1.25
  0
LINE
  5
18F
330
1E
100
AcDbEntity
  8
CSLAYER1
  6
CONTINUOUS
 62
     3
100
AcDbLine
 10
111.8
 20
88.9
 30
0.0
 11
111.8
 21
65.9
 31
0.0
  0
CIRCLE
  5
190
330
1E
100
AcDbEntity
  8
CSLAYER1
  6
CONTINUOUS
 62
     3
100
AcDbCircle
 10
102.8
 20
67.9
 30
0.0
 40
1.25
  0
LINE
  5
191
330
1E
100
AcDbEntity
  8
CSLAYER1
  6
CONTINUOUS
 62
     3
100
AcDbLine
 10
138.8
 20
65.9
 30
0.0
 11
138.8
 21
88.9
 31
0.0
  0
CIRCLE
  5
192
330
1E
100
AcDbEntity
  8
CSLAYER1
  6
CONTINUOUS
 62
     3
100
AcDbCircle
 10
142.8
 20
86.90000000000003
 30
0.0
 40
1.25
  0
CIRCLE
  5
193
330
1E
100
AcDbEntity
  8
CSLAYER1
  6
CONTINUOUS
 62
     3
100
AcDbCircle
 10
142.8
 20
67.9
 30
0.0
 40
1.25
  0
LINE
  5
194
330
1E
100
AcDbEntity
  8
CSLAYER1
  6
CONTINUOUS
 62
     3
100
AcDbLine
 10
166.8
 20
65.9
 30
0.0
 11
166.8
 21
88.9
 31
0.0
  0
LINE
  5
195
330
1E
100
AcDbEntity
  8
CSLAYER1
  6
CONTINUOUS
 62
     3
100
AcDbLine
 10
172.8
 20
81.88074099999999
 30
0.0
 11
172.8
 21
72.91925899999998
 31
0.0
  0
ARC
  5
196
330
1E
100
AcDbEntity
  8
CSLAYER1
  6
CONTINUOUS
 62
     3
100
AcDbCircle
 10
174.8
 20
72.91925899999998
 30
0.0
 40
2.0
100
AcDbArc
 50
180.0
 51
270.0
  0
LINE
  5
197
330
1E
100
AcDbEntity
  8
CSLAYER1
  6
CONTINUOUS
 62
     3
100
AcDbLine
 10
174.8
 20
70.91925899999998
 30
0.0
 11
186.8
 21
70.91925899999998
 31
0.0
  0
LINE
  5
198
330
1E
100
AcDbEntity
  8
CSLAYER1
  6
CONTINUOUS
 62
     3
100
AcDbLine
 10
186.8
 20
70.91925899999998
 30
0.0
 11
187.8
 21
71.919259
 31
0.0
  0
LINE
  5
199
330
1E
100
AcDbEntity
  8
CSLAYER1
  6
CONTINUOUS
 62
     3
100
AcDbLine
 10
186.6179999999999
 20
70.91925899999998
 30
0.0
 11
186.6179999999999
 21
65.9
 31
0.0
  0
LINE
  5
19A
330
1E
100
AcDbEntity
  8
CSLAYER1
  6
CONTINUOUS
 62
     3
100
AcDbLine
 10
187.8
 20
82.88074100000001
 30
0.0
 11
186.8
 21
83.880741
 31
0.0
  0
LINE
  5
19B
330
1E
100
AcDbEntity
  8
CSLAYER1
  6
CONTINUOUS
 62
     3
100
AcDbLine
 10
186.8
 20
83.880741
 30
0.0
 11
174.8
 21
83.880741
 31
0.0
  0
ARC
  5
19C
330
1E
100
AcDbEntity
  8
CSLAYER1
  6
CONTINUOUS
 62
     3
100
AcDbCircle
 10
174.8
 20
81.88074099999999
 30
0.0
 40
2.0
100
AcDbArc
 50
90.0
 51
180.0
  0
LINE
  5
19D
330
1E
100
AcDbEntity
  8
CSLAYER1
  6
CONTINUOUS
 62
     3
100
AcDbLine
 10
186.8
 20
83.880741
 30
0.0
 11
186.8
 21
88.9
 31
0.0
  0
LINE
  5
19E
330
1E
100
AcDbEntity
  8
CSLAYER1
  6
CONTINUOUS
 62
     3
100
AcDbLine
 10
186.8
 20
126.7
 30
0.0
 11
173.8
 21
126.7
 31
0.0
  0
ARC
  5
19F
330
1E
100
AcDbEntity
  8
CSLAYER1
  6
CONTINUOUS
 62
     3
100
AcDbCircle
 10
173.8
 20
125.7
 30
0.0
 40
1.0
100
AcDbArc
 50
90.0
 51
180.0
  0
LINE
  5
1A0
330
1E
100
AcDbEntity
  8
CSLAYER1
  6
CONTINUOUS
 62
     3
100
AcDbLine
 10
172.8
 20
125.7
 30
0.0
 11
172.8
 21
124.7
 31
0.0
  0
LINE
  5
1A1
330
1E
100
AcDbEntity
  8
CSLAYER1
  6
CONTINUOUS
 62
     3
100
AcDbLine
 10
165.8
 20
124.7
 30
0.0
 11
91.79999999999999
 21
124.7
 31
0.0
  0
LINE
  5
1A2
330
1E
100
AcDbEntity
  8
CSLAYER1
  6
CONTINUOUS
 62
     3
100
AcDbLine
 10
91.79999999999999
 20
124.7
 30
0.0
 11
77.8
 21
129.1999999999999
 31
0.0
  0
LINE
  5
1A3
330
1E
100
AcDbEntity
  8
CSLAYER1
  6
CONTINUOUS
 62
     3
100
AcDbLine
 10
77.8
 20
129.1999999999999
 30
0.0
 11
77.8
 21
143.1999999999999
 31
0.0
  0
LINE
  5
1A4
330
1E
100
AcDbEntity
  8
CSLAYER1
  6
CONTINUOUS
 62
     3
100
AcDbLine
 10
77.8
 20
143.1999999999999
 30
0.0
 11
91.79999999999999
 21
147.6999999999998
 31
0.0
  0
LINE
  5
1A5
330
1E
100
AcDbEntity
  8
CSLAYER1
  6
CONTINUOUS
 62
     3
100
AcDbLine
 10
91.79999999999999
 20
147.6999999999998
 30
0.0
 11
165.8
 21
147.6999999999998
 31
0.0
  0
LINE
  5
1A6
330
1E
100
AcDbEntity
  8
CSLAYER1
  6
CONTINUOUS
 62
     3
100
AcDbLine
 10
172.8
 20
147.6999999999998
 30
0.0
 11
172.8
 21
146.6999999999998
 31
0.0
  0
ARC
  5
1A7
330
1E
100
AcDbEntity
  8
CSLAYER1
  6
CONTINUOUS
 62
     3
100
AcDbCircle
 10
173.8
 20
146.6999999999998
 30
0.0
 40
1.0
100
AcDbArc
 50
180.0
 51
270.0
  0
LINE
  5
1A8
330
1E
100
AcDbEntity
  8
CSLAYER1
  6
CONTINUOUS
 62
     3
100
AcDbLine
 10
173.8
 20
145.6999999999998
 30
0.0
 11
186.8
 21
145.6999999999998
 31
0.0
  0
LINE
  5
1A9
330
1E
100
AcDbEntity
  8
CSLAYER1
  6
CONTINUOUS
 62
     3
100
AcDbLine
 10
186.8
 20
145.6999999999998
 30
0.0
 11
187.8
 21
144.6999999999998
 31
0.0
  0
LINE
  5
1AA
330
1E
100
AcDbEntity
  8
CSLAYER1
  6
CONTINUOUS
 62
     3
100
AcDbLine
 10
187.8
 20
144.6999999999998
 30
0.0
 11
187.8
 21
127.7
 31
0.0
  0
LINE
  5
1AB
330
1E
100
AcDbEntity
  8
CSLAYER1
  6
CONTINUOUS
 62
     3
100
AcDbLine
 10
187.8
 20
127.7
 30
0.0
 11
186.8
 21
126.7
 31
0.0
  0
LINE
  5
1AC
330
1E
100
AcDbEntity
  8
CSLAYER1
  6
CONTINUOUS
 62
     3
100
AcDbLine
 10
186.8
 20
126.7
 30
0.0
 11
186.8
 21
145.6999999999998
 31
0.0
  0
LINE
  5
1AD
330
1E
100
AcDbEntity
  8
CSLAYER1
  6
CONTINUOUS
 62
     3
100
AcDbLine
 10
166.8
 20
147.6999999999998
 30
0.0
 11
166.8
 21
124.7
 31
0.0
  0
CIRCLE
  5
1AE
330
1E
100
AcDbEntity
  8
CSLAYER1
  6
CONTINUOUS
 62
     3
100
AcDbCircle
 10
147.8
 20
126.7
 30
0.0
 40
1.25
  0
LINE
  5
1AF
330
1E
100
AcDbEntity
  8
CSLAYER1
  6
CONTINUOUS
 62
     3
100
AcDbLine
 10
138.8
 20
124.7
 30
0.0
 11
138.8
 21
147.6999999999998
 31
0.0
  0
CIRCLE
  5
1B0
330
1E
100
AcDbEntity
  8
CSLAYER1
  6
CONTINUOUS
 62
     3
100
AcDbCircle
 10
147.8
 20
145.6999999999998
 30
0.0
 40
1.25
  0
LINE
  5
1B1
330
1E
100
AcDbEntity
  8
CSLAYER1
  6
CONTINUOUS
 62
     3
100
AcDbLine
 10
111.8
 20
147.6999999999998
 30
0.0
 11
111.8
 21
124.7
 31
0.0
  0
CIRCLE
  5
1B2
330
1E
100
AcDbEntity
  8
CSLAYER1
  6
CONTINUOUS
 62
     3
100
AcDbCircle
 10
107.8
 20
126.7
 30
0.0
 40
1.25
  0
CIRCLE
  5
1B3
330
1E
100
AcDbEntity
  8
CSLAYER1
  6
CONTINUOUS
 62
     3
100
AcDbCircle
 10
107.8
 20
145.6999999999998
 30
0.0
 40
1.25
  0
LINE
  5
1B4
330
1E
100
AcDbEntity
  8
CSLAYER1
  6
CONTINUOUS
 62
     3
100
AcDbLine
 10
86.73649199999998
 20
136.6999999999999
 30
0.0
 11
82.86350799999999
 21
136.6999999999999
 31
0.0
  0
LINE
  5
1B5
330
1E
100
AcDbEntity
  8
CSLAYER1
  6
CONTINUOUS
 62
     3
100
AcDbLine
 10
82.86350799999999
 20
135.6999999999999
 30
0.0
 11
86.73649199999998
 21
135.6999999999999
 31
0.0
  0
CIRCLE
  5
1B6
330
1E
100
AcDbEntity
  8
CSLAYER1
  6
CONTINUOUS
 62
     3
100
AcDbCircle
 10
84.8
 20
136.1999999999998
 30
0.0
 40
2.0
  0
ARC
  5
1B7
330
1E
100
AcDbEntity
  8
CSLAYER1
  6
CONTINUOUS
 62
     3
100
AcDbCircle
 10
84.8
 20
136.1999999999998
 30
0.0
 40
1.5
100
AcDbArc
 50
19.47122099999998
 51
160.528779
  0
ARC
  5
1B8
330
1E
100
AcDbEntity
  8
CSLAYER1
  6
CONTINUOUS
 62
     3
100
AcDbCircle
 10
84.8
 20
136.1999999999998
 30
0.0
 40
1.5
100
AcDbArc
 50
199.4712209999999
 51
340.528779
  0
LINE
  5
1B9
330
1E
100
AcDbEntity
  8
CSLAYER1
  6
CONTINUOUS
 62
     3
100
AcDbLine
 10
58.9
 20
129.1999999999999
 30
0.0
 11
50.89999999999999
 21
129.1999999999999
 31
0.0
  0
LINE
  5
1BA
330
1E
100
AcDbEntity
  8
CSLAYER1
  6
CONTINUOUS
 62
     3
100
AcDbLine
 10
50.89999999999999
 20
124.7
 30
0.0
 11
50.89999999999999
 21
147.6999999999998
 31
0.0
  0
ARC
  5
1BB
330
1E
100
AcDbEntity
  8
CSLAYER1
  6
CONTINUOUS
 62
     3
100
AcDbCircle
 10
47.4
 20
136.1999999999998
 30
0.0
 40
9.65
100
AcDbArc
 50
68.734245
 51
111.2657549999999
  0
LINE
  5
1BC
330
1E
100
AcDbEntity
  8
CSLAYER1
  6
CONTINUOUS
 62
     3
100
AcDbLine
 10
43.89999999999999
 20
143.1999999999999
 30
0.0
 11
35.89999999999999
 21
143.1999999999999
 31
0.0
  0
LINE
  5
1BD
330
1E
100
AcDbEntity
  8
CSLAYER1
  6
CONTINUOUS
 62
     3
100
AcDbLine
 10
33.5
 20
138.9499999999999
 30
0.0
 11
33.5
 21
133.45
 31
0.0
  0
LINE
  5
1BE
330
1E
100
AcDbEntity
  8
CSLAYER1
  6
CONTINUOUS
 62
     3
100
AcDbLine
 10
33.5
 20
134.6999999999999
 30
0.0
 11
31.8
 21
134.6999999999999
 31
0.0
  0
LINE
  5
1BF
330
1E
100
AcDbEntity
  8
CSLAYER1
  6
CONTINUOUS
 62
     3
100
AcDbLine
 10
31.8
 20
134.6999999999999
 30
0.0
 11
31.4
 21
135.0999999999999
 31
0.0
  0
LINE
  5
1C0
330
1E
100
AcDbEntity
  8
CSLAYER1
  6
CONTINUOUS
 62
     3
100
AcDbLine
 10
31.4
 20
135.0999999999999
 30
0.0
 11
31.4
 21
137.3
 31
0.0
  0
LINE
  5
1C1
330
1E
100
AcDbEntity
  8
CSLAYER1
  6
CONTINUOUS
 62
     3
100
AcDbLine
 10
31.4
 20
137.3
 30
0.0
 11
31.8
 21
137.7
 31
0.0
  0
LINE
  5
1C2
330
1E
100
AcDbEntity
  8
CSLAYER1
  6
CONTINUOUS
 62
     3
100
AcDbLine
 10
31.8
 20
137.7
 30
0.0
 11
33.5
 21
137.7
 31
0.0
  0
LINE
  5
1C3
330
1E
100
AcDbEntity
  8
CSLAYER1
  6
CONTINUOUS
 62
     3
100
AcDbLine
 10
35.89999999999999
 20
129.1999999999999
 30
0.0
 11
43.89999999999999
 21
129.1999999999999
 31
0.0
  0
ARC
  5
1C4
330
1E
100
AcDbEntity
  8
CSLAYER1
  6
CONTINUOUS
 62
     3
100
AcDbCircle
 10
47.4
 20
136.1999999999998
 30
0.0
 40
9.65
100
AcDbArc
 50
248.734245
 51
291.2657549999999
  0
LINE
  5
1C5
330
1E
100
AcDbEntity
  8
CSLAYER1
  6
CONTINUOUS
 62
     3
100
AcDbLine
 10
50.89999999999999
 20
134.1999999999998
 30
0.0
 11
43.89999999999999
 21
134.1999999999998
 31
0.0
  0
LINE
  5
1C6
330
1E
100
AcDbEntity
  8
CSLAYER1
  6
CONTINUOUS
 62
     3
100
AcDbLine
 10
43.89999999999999
 20
138.1999999999998
 30
0.0
 11
50.89999999999999
 21
138.1999999999998
 31
0.0
  0
LINE
  5
1C7
330
1E
100
AcDbEntity
  8
CSLAYER1
  6
CONTINUOUS
 62
     3
100
AcDbLine
 10
50.89999999999999
 20
143.1999999999999
 30
0.0
 11
58.9
 21
143.1999999999999
 31
0.0
  0
LINE
  5
1C8
330
1E
100
AcDbEntity
  8
CSLAYER1
  6
CONTINUOUS
 62
     3
100
AcDbLine
 10
58.9
 20
147.6999999999998
 30
0.0
 11
58.9
 21
124.7
 31
0.0
  0
LINE
  5
1C9
330
1E
100
AcDbEntity
  8
CSLAYER1
  6
CONTINUOUS
 62
     3
100
AcDbLine
 10
58.9
 20
124.7
 30
0.0
 11
35.89999999999999
 21
124.7
 31
0.0
  0
LINE
  5
1CA
330
1E
100
AcDbEntity
  8
CSLAYER1
  6
CONTINUOUS
 62
     3
100
AcDbLine
 10
35.89999999999999
 20
124.7
 30
0.0
 11
35.89999999999999
 21
147.6999999999998
 31
0.0
  0
LINE
  5
1CB
330
1E
100
AcDbEntity
  8
CSLAYER1
  6
CONTINUOUS
 62
     3
100
AcDbLine
 10
35.89999999999999
 20
147.6999999999998
 30
0.0
 11
58.9
 21
147.6999999999998
 31
0.0
  0
LINE
  5
1CC
330
1E
100
AcDbEntity
  8
CSLAYER1
  6
CONTINUOUS
 62
     3
100
AcDbLine
 10
43.89999999999999
 20
147.6999999999998
 30
0.0
 11
43.89999999999999
 21
124.7
 31
0.0
  0
LINE
  5
1CD
330
1E
100
AcDbEntity
  8
CSLAYER1
  6
CONTINUOUS
 62
     3
100
AcDbLine
 10
228.6133809999999
 20
145.6999999999998
 30
0.0
 11
241.5748629999999
 21
145.6999999999998
 31
0.0
  0
CIRCLE
  5
1CE
330
1E
100
AcDbEntity
  8
CSLAYER1
  6
CONTINUOUS
 62
     3
100
AcDbCircle
 10
241.10453
 20
142.2104079999999
 30
0.0
 40
1.25
  0
CIRCLE
  5
1CF
330
1E
100
AcDbEntity
  8
CSLAYER1
  6
CONTINUOUS
 62
     3
100
AcDbCircle
 10
235.094122
 20
136.1999999999998
 30
0.0
 40
4.25
  0
CIRCLE
  5
1D0
330
1E
100
AcDbEntity
  8
CSLAYER1
  6
CONTINUOUS
 62
     3
100
AcDbCircle
 10
235.094122
 20
136.1999999999998
 30
0.0
 40
11.5
  0
LINE
  5
1D1
330
1E
100
AcDbEntity
  8
CSLAYER1
  6
CONTINUOUS
 62
     3
100
AcDbLine
 10
241.5748629999999
 20
126.7
 30
0.0
 11
228.6133809999999
 21
126.7
 31
0.0
  0
CIRCLE
  5
1D2
330
1E
100
AcDbEntity
  8
CSLAYER1
  6
CONTINUOUS
 62
     3
100
AcDbCircle
 10
229.083714
 20
130.1895919999998
 30
0.0
 40
1.25
  0
ARC
  5
1D3
330
1E
100
AcDbEntity
  8
CSLAYER1
  6
CONTINUOUS
 62
     3
100
AcDbCircle
 10
235.094122
 20
136.1999999999998
 30
0.0
 40
10.5
100
AcDbArc
 50
295.2087649999998
 51
64.791235
  0
ARC
  5
1D4
330
1E
100
AcDbEntity
  8
CSLAYER1
  6
CONTINUOUS
 62
     3
100
AcDbCircle
 10
235.094122
 20
136.1999999999998
 30
0.0
 40
10.5
100
AcDbArc
 50
115.2087649999999
 51
244.791235
  0
LINE
  5
1D5
330
1E
100
AcDbEntity
  8
CSLAYER1
  6
CONTINUOUS
 62
     4
100
AcDbLine
 10
83.3
 20
61.79999999999999
 30
0.0
 11
86.3
 21
61.79999999999999
 31
0.0
  0
LINE
  5
1D6
330
1E
100
AcDbEntity
  8
CSLAYER1
  6
CONTINUOUS
 62
     4
100
AcDbLine
 10
86.05
 20
61.55
 30
0.0
 11
86.05
 21
63.5
 31
0.0
  0
LINE
  5
1D7
330
1E
100
AcDbEntity
  8
CSLAYER1
  6
CONTINUOUS
 62
     4
100
AcDbLine
 10
83.55
 20
63.5
 30
0.0
 11
83.55
 21
61.55
 31
0.0
  0
LINE
  5
1D8
330
1E
100
AcDbEntity
  8
CSLAYER1
  6
CENTER
 62
     4
100
AcDbLine
 10
84.8
 20
60.507926
 30
0.0
 11
84.8
 21
91.932
 31
0.0
  0
LINE
  5
1D9
330
1E
100
AcDbEntity
  8
CSLAYER1
  6
CENTER
 62
     4
100
AcDbLine
 10
98.646028
 20
86.90000000000003
 30
0.0
 11
148.026458
 21
86.90000000000003
 31
0.0
  0
CIRCLE
  5
1DA
330
1E
100
AcDbEntity
  8
CSLAYER1
  6
CONTINUOUS
 62
     4
100
AcDbCircle
 10
142.8
 20
86.90000000000003
 30
0.0
 40
1.5
  0
LINE
  5
1DB
330
1E
100
AcDbEntity
  8
CSLAYER1
  6
CENTER
 62
     4
100
AcDbLine
 10
142.8
 20
82.99107799999999
 30
0.0
 11
142.8
 21
93.105142
 31
0.0
  0
LINE
  5
1DC
330
1E
100
AcDbEntity
  8
CSLAYER1
  6
CENTER
 62
     4
100
AcDbLine
 10
142.8
 20
71.80892199999998
 30
0.0
 11
142.8
 21
61.694858
 31
0.0
  0
CIRCLE
  5
1DD
330
1E
100
AcDbEntity
  8
CSLAYER1
  6
CONTINUOUS
 62
     4
100
AcDbCircle
 10
142.8
 20
67.9
 30
0.0
 40
1.5
  0
LINE
  5
1DE
330
1E
100
AcDbEntity
  8
CSLAYER1
  6
CENTER
 62
     4
100
AcDbLine
 10
148.026458
 20
67.9
 30
0.0
 11
98.646028
 21
67.9
 31
0.0
  0
LINE
  5
1DF
330
1E
100
AcDbEntity
  8
CSLAYER1
  6
CENTER
 62
     4
100
AcDbLine
 10
102.8
 20
83.78433800000001
 30
0.0
 11
102.8
 21
92.51019699999998
 31
0.0
  0
CIRCLE
  5
1E0
330
1E
100
AcDbEntity
  8
CSLAYER1
  6
CONTINUOUS
 62
     4
100
AcDbCircle
 10
102.8
 20
86.90000000000003
 30
0.0
 40
1.5
  0
LINE
  5
1E1
330
1E
100
AcDbEntity
  8
CSLAYER1
  6
CENTER
 62
     4
100
AcDbLine
 10
102.8
 20
71.015662
 30
0.0
 11
102.8
 21
62.289803
 31
0.0
  0
CIRCLE
  5
1E2
330
1E
100
AcDbEntity
  8
CSLAYER1
  6
CONTINUOUS
 62
     4
100
AcDbCircle
 10
102.8
 20
67.9
 30
0.0
 40
1.5
  0
LINE
  5
1E3
330
1E
100
AcDbEntity
  8
CSLAYER1
  6
CENTER
 62
     4
100
AcDbLine
 10
75.35331500000002
 20
77.40000000000001
 30
0.0
 11
190.184582
 21
77.40000000000001
 31
0.0
  0
LINE
  5
1E4
330
1E
100
AcDbEntity
  8
CSLAYER1
  6
CENTER
 62
     4
100
AcDbLine
 10
235.094122
 20
121.678182
 30
0.0
 11
235.094122
 21
150.485455
 31
0.0
  0
LINE
  5
1E5
330
1E
100
AcDbEntity
  8
CSLAYER1
  6
CENTER
 62
     4
100
AcDbLine
 10
239.2039839999999
 20
144.110953
 30
0.0
 11
243.061439
 21
140.253499
 31
0.0
  0
CIRCLE
  5
1E6
330
1E
100
AcDbEntity
  8
CSLAYER1
  6
CONTINUOUS
 62
     4
100
AcDbCircle
 10
241.10453
 20
142.2104079999999
 30
0.0
 40
1.5
  0
LINE
  5
1E7
330
1E
100
AcDbEntity
  8
CSLAYER1
  6
CENTER
 62
     4
100
AcDbLine
 10
244.2579709999999
 20
145.3638489999999
 30
0.0
 11
239.0412229999999
 21
140.1471009999999
 31
0.0
  0
CIRCLE
  5
1E8
330
1E
100
AcDbEntity
  8
CSLAYER1
  6
CONTINUOUS
 62
     4
100
AcDbCircle
 10
235.094122
 20
136.1999999999998
 30
0.0
 40
4.75
  0
LINE
  5
1E9
330
1E
100
AcDbEntity
  8
CSLAYER1
  6
CENTER
 62
     4
100
AcDbLine
 10
231.0691509999999
 20
132.1750289999999
 30
0.0
 11
226.3667299999999
 21
127.472608
 31
0.0
  0
LINE
  5
1EA
330
1E
100
AcDbEntity
  8
CSLAYER1
  6
CENTER
 62
     4
100
AcDbLine
 10
231.1508359999999
 20
128.1224699999999
 30
0.0
 11
226.7790549999999
 21
132.494252
 31
0.0
  0
CIRCLE
  5
1EB
330
1E
100
AcDbEntity
  8
CSLAYER1
  6
CONTINUOUS
 62
     4
100
AcDbCircle
 10
229.083714
 20
130.1895919999998
 30
0.0
 40
1.5
  0
LINE
  5
1EC
330
1E
100
AcDbEntity
  8
CSLAYER1
  6
CENTER
 62
     4
100
AcDbLine
 10
221.1232129999999
 20
136.1999999999998
 30
0.0
 11
249.868667
 21
136.1999999999998
 31
0.0
  0
LINE
  5
1ED
330
1E
100
AcDbEntity
  8
CSLAYER1
  6
CENTER
 62
     4
100
AcDbLine
 10
190.184582
 20
136.1999999999998
 30
0.0
 11
71.210982
 21
136.1999999999998
 31
0.0
  0
LINE
  5
1EE
330
1E
100
AcDbEntity
  8
CSLAYER1
  6
CENTER
 62
     4
100
AcDbLine
 10
61.85818199999999
 20
136.1999999999998
 30
0.0
 11
35.89999999999999
 21
136.1999999999998
 31
0.0
  0
LINE
  5
1EF
330
1E
100
AcDbEntity
  8
CSLAYER1
  6
CONTINUOUS
 62
     4
100
AcDbLine
 10
33.5
 20
134.9499999999999
 30
0.0
 11
31.55
 21
134.9499999999999
 31
0.0
  0
LINE
  5
1F0
330
1E
100
AcDbEntity
  8
CSLAYER1
  6
CONTINUOUS
 62
     4
100
AcDbLine
 10
31.8
 20
134.6999999999999
 30
0.0
 11
31.8
 21
137.7
 31
0.0
  0
LINE
  5
1F1
330
1E
100
AcDbEntity
  8
CSLAYER1
  6
CONTINUOUS
 62
     4
100
AcDbLine
 10
31.55
 20
137.4499999999999
 30
0.0
 11
33.5
 21
137.4499999999999
 31
0.0
  0
LINE
  5
1F2
330
1E
100
AcDbEntity
  8
CSLAYER1
  6
CENTER
 62
     4
100
AcDbLine
 10
47.4
 20
152.216364
 30
0.0
 11
47.4
 21
121.801818
 31
0.0
  0
LINE
  5
1F3
330
1E
100
AcDbEntity
  8
CSLAYER1
  6
CENTER
 62
     4
100
AcDbLine
 10
84.8
 20
131.606811
 30
0.0
 11
84.8
 21
140.700206
 31
0.0
  0
LINE
  5
1F4
330
1E
100
AcDbEntity
  8
CSLAYER1
  6
CENTER
 62
     4
100
AcDbLine
 10
104.0005319999999
 20
145.6999999999998
 30
0.0
 11
151.794442
 21
145.6999999999998
 31
0.0
  0
CIRCLE
  5
1F5
330
1E
100
AcDbEntity
  8
CSLAYER1
  6
CONTINUOUS
 62
     4
100
AcDbCircle
 10
147.8
 20
145.6999999999998
 30
0.0
 40
1.5
  0
LINE
  5
1F6
330
1E
100
AcDbEntity
  8
CSLAYER1
  6
CENTER
 62
     4
100
AcDbLine
 10
147.8
 20
142.2107399999999
 30
0.0
 11
147.8
 21
149.1061629999999
 31
0.0
  0
LINE
  5
1F7
330
1E
100
AcDbEntity
  8
CSLAYER1
  6
CENTER
 62
     4
100
AcDbLine
 10
147.8
 20
130.18926
 30
0.0
 11
147.8
 21
122.645359
 31
0.0
  0
CIRCLE
  5
1F8
330
1E
100
AcDbEntity
  8
CSLAYER1
  6
CONTINUOUS
 62
     4
100
AcDbCircle
 10
147.8
 20
126.7
 30
0.0
 40
1.5
  0
LINE
  5
1F9
330
1E
100
AcDbEntity
  8
CSLAYER1
  6
CENTER
 62
     4
100
AcDbLine
 10
151.794442
 20
126.7
 30
0.0
 11
104.0005319999999
 21
126.7
 31
0.0
  0
CIRCLE
  5
1FA
330
1E
100
AcDbEntity
  8
CSLAYER1
  6
CONTINUOUS
 62
     4
100
AcDbCircle
 10
107.8
 20
126.7
 30
0.0
 40
1.5
  0
LINE
  5
1FB
330
1E
100
AcDbEntity
  8
CSLAYER1
  6
CENTER
 62
     4
100
AcDbLine
 10
107.8
 20
130.0825679999998
 30
0.0
 11
107.8
 21
122.567073
 31
0.0
  0
LINE
  5
1FC
330
1E
100
AcDbEntity
  8
CSLAYER1
  6
CENTER
 62
     4
100
AcDbLine
 10
107.8
 20
142.764964
 30
0.0
 11
107.8
 21
149.6541679999999
 31
0.0
  0
CIRCLE
  5
1FD
330
1E
100
AcDbEntity
  8
CSLAYER1
  6
CONTINUOUS
 62
     4
100
AcDbCircle
 10
107.8
 20
145.6999999999998
 30
0.0
 40
1.5
  0
LINE
  5
1FE
330
1E
100
AcDbEntity
  8
CSLAYER1
  6
CONTINUOUS
 62
     3
100
AcDbLine
 10
223.594122
 20
124.7
 30
0.0
 11
223.594122
 21
147.6999999999998
 31
0.0
  0
LINE
  5
1FF
330
1E
100
AcDbEntity
  8
CSLAYER1
  6
CONTINUOUS
 62
     3
100
AcDbLine
 10
246.594122
 20
124.7
 30
0.0
 11
246.594122
 21
147.6999999999998
 31
0.0
  0
LINE
  5
200
330
1E
100
AcDbEntity
  8
CSLAYER1
  6
CONTINUOUS
 62
     3
100
AcDbLine
 10
223.594122
 20
147.6999999999998
 30
0.0
 11
246.594122
 21
147.6999999999998
 31
0.0
  0
LINE
  5
201
330
1E
100
AcDbEntity
  8
CSLAYER1
  6
CONTINUOUS
 62
     3
100
AcDbLine
 10
246.594122
 20
124.7
 30
0.0
 11
223.594122
 21
124.7
 31
0.0
  0
LINE
  5
202
330
1E
100
AcDbEntity
  8
CSLAYER1
  6
CONTINUOUS
 62
     3
100
AcDbLine
 10
35.89999999999999
 20
138.9499999999999
 30
0.0
 11
33.5
 21
138.9499999999999
 31
0.0
  0
LINE
  5
203
330
1E
100
AcDbEntity
  8
CSLAYER1
  6
CONTINUOUS
 62
     3
100
AcDbLine
 10
35.89999999999999
 20
136.1999999999998
 30
0.0
 11
33.80335499999999
 21
136.1999999999998
 31
0.0
  0
ARC
  5
204
330
1E
100
AcDbEntity
  8
CSLAYER1
  6
CONTINUOUS
 62
     3
100
AcDbCircle
 10
36.76786899999999
 20
137.5749999999999
 30
0.0
 40
3.267868999999998
100
AcDbArc
 50
155.117197
 51
204.882803
  0
LINE
  5
205
330
1E
100
AcDbEntity
  8
CSLAYER1
  6
CONTINUOUS
 62
     3
100
AcDbLine
 10
35.89999999999999
 20
133.45
 30
0.0
 11
33.5
 21
133.45
 31
0.0
  0
ARC
  5
206
330
1E
100
AcDbEntity
  8
CSLAYER1
  6
CONTINUOUS
 62
     3
100
AcDbCircle
 10
36.76786899999999
 20
134.8249999999999
 30
0.0
 40
3.267868999999998
100
AcDbArc
 50
155.117197
 51
204.882803
  0
LINE
  5
207
330
1E
100
AcDbEntity
  8
CSLAYER1
  6
CENTER
 62
     4
100
AcDbLine
 10
33.80335499999999
 20
136.1999999999998
 30
0.0
 11
29.624175
 21
136.1999999999998
 31
0.0
  0
INSERT
  5
208
330
1E
100
AcDbEntity
  8
CSLAYER1
100
AcDbBlockReference
  2
FXDIM0001
 10
0.0
 20
0.0
 30
0.0
  0
LINE
  5
209
330
1E
100
AcDbEntity
  8
CSLAYER1
  6
CONTINUOUS
 62
     3
100
AcDbLine
 10
165.8
 20
124.7
 30
0.0
 11
166.8
 21
125.7
 31
0.0
  0
LINE
  5
20A
330
1E
100
AcDbEntity
  8
CSLAYER1
  6
CONTINUOUS
 62
     3
100
AcDbLine
 10
166.8
 20
131.1378219999999
 30
0.0
 11
165.8
 21
130.1378219999999
 31
0.0
  0
LINE
  5
20B
330
1E
100
AcDbEntity
  8
CSLAYER1
  6
CONTINUOUS
 62
     3
100
AcDbLine
 10
165.8
 20
130.1378219999999
 30
0.0
 11
153.3
 21
130.1378219999999
 31
0.0
  0
ARC
  5
20C
330
1E
100
AcDbEntity
  8
CSLAYER1
  6
CONTINUOUS
 62
     3
100
AcDbCircle
 10
153.3
 20
128.637822
 30
0.0
 40
1.5
100
AcDbArc
 50
90.0
 51
180.0
  0
LINE
  5
20D
330
1E
100
AcDbEntity
  8
CSLAYER1
  6
CONTINUOUS
 62
     3
100
AcDbLine
 10
151.8
 20
128.637822
 30
0.0
 11
151.8
 21
124.7
 31
0.0
  0
LINE
  5
20E
330
1E
100
AcDbEntity
  8
CSLAYER1
  6
CONTINUOUS
 62
     3
100
AcDbLine
 10
165.8
 20
124.7
 30
0.0
 11
165.8
 21
130.1378219999999
 31
0.0
  0
LINE
  5
20F
330
1E
100
AcDbEntity
  8
CSLAYER1
  6
CONTINUOUS
 62
     3
100
AcDbLine
 10
166.8
 20
124.7
 30
0.0
 11
172.8
 21
124.7
 31
0.0
  0
LINE
  5
210
330
1E
100
AcDbEntity
  8
CSLAYER1
  6
CONTINUOUS
 62
     3
100
AcDbLine
 10
165.8
 20
147.6999999999998
 30
0.0
 11
166.8
 21
146.6999999999998
 31
0.0
  0
LINE
  5
211
330
1E
100
AcDbEntity
  8
CSLAYER1
  6
CONTINUOUS
 62
     3
100
AcDbLine
 10
166.8
 20
141.262178
 30
0.0
 11
165.8
 21
142.262178
 31
0.0
  0
LINE
  5
212
330
1E
100
AcDbEntity
  8
CSLAYER1
  6
CONTINUOUS
 62
     3
100
AcDbLine
 10
165.8
 20
142.262178
 30
0.0
 11
153.3
 21
142.262178
 31
0.0
  0
ARC
  5
213
330
1E
100
AcDbEntity
  8
CSLAYER1
  6
CONTINUOUS
 62
     3
100
AcDbCircle
 10
153.3
 20
143.762178
 30
0.0
 40
1.5
100
AcDbArc
 50
180.0
 51
270.0
  0
LINE
  5
214
330
1E
100
AcDbEntity
  8
CSLAYER1
  6
CONTINUOUS
 62
     3
100
AcDbLine
 10
151.8
 20
143.762178
 30
0.0
 11
151.8
 21
147.6999999999998
 31
0.0
  0
LINE
  5
215
330
1E
100
AcDbEntity
  8
CSLAYER1
  6
CONTINUOUS
 62
     3
100
AcDbLine
 10
165.8
 20
147.6999999999998
 30
0.0
 11
165.8
 21
142.262178
 31
0.0
  0
LINE
  5
216
330
1E
100
AcDbEntity
  8
CSLAYER1
  6
CONTINUOUS
 62
     3
100
AcDbLine
 10
166.8
 20
147.6999999999998
 30
0.0
 11
172.8
 21
147.6999999999998
 31
0.0
  0
LINE
  5
217
330
1E
100
AcDbEntity
  8
CSLAYER1
  6
CONTINUOUS
 62
     3
100
AcDbLine
 10
165.8
 20
65.9
 30
0.0
 11
166.8
 21
66.90000000000001
 31
0.0
  0
LINE
  5
218
330
1E
100
AcDbEntity
  8
CSLAYER1
  6
CONTINUOUS
 62
     3
100
AcDbLine
 10
166.8
 20
72.337822
 30
0.0
 11
165.8
 21
71.337822
 31
0.0
  0
LINE
  5
219
330
1E
100
AcDbEntity
  8
CSLAYER1
  6
CONTINUOUS
 62
     3
100
AcDbLine
 10
165.8
 20
71.337822
 30
0.0
 11
153.3
 21
71.337822
 31
0.0
  0
ARC
  5
21A
330
1E
100
AcDbEntity
  8
CSLAYER1
  6
CONTINUOUS
 62
     3
100
AcDbCircle
 10
153.3
 20
69.837822
 30
0.0
 40
1.5
100
AcDbArc
 50
90.0
 51
180.0
  0
LINE
  5
21B
330
1E
100
AcDbEntity
  8
CSLAYER1
  6
CONTINUOUS
 62
     3
100
AcDbLine
 10
151.8
 20
69.837822
 30
0.0
 11
151.8
 21
65.9
 31
0.0
  0
LINE
  5
21C
330
1E
100
AcDbEntity
  8
CSLAYER1
  6
CONTINUOUS
 62
     3
100
AcDbLine
 10
165.8
 20
65.9
 30
0.0
 11
165.8
 21
71.337822
 31
0.0
  0
LINE
  5
21D
330
1E
100
AcDbEntity
  8
CSLAYER1
  6
CONTINUOUS
 62
     3
100
AcDbLine
 10
165.8
 20
88.9
 30
0.0
 11
166.8
 21
87.9
 31
0.0
  0
LINE
  5
21E
330
1E
100
AcDbEntity
  8
CSLAYER1
  6
CONTINUOUS
 62
     3
100
AcDbLine
 10
166.8
 20
82.46217800000001
 30
0.0
 11
165.8
 21
83.46217800000003
 31
0.0
  0
LINE
  5
21F
330
1E
100
AcDbEntity
  8
CSLAYER1
  6
CONTINUOUS
 62
     3
100
AcDbLine
 10
165.8
 20
83.46217800000003
 30
0.0
 11
153.3
 21
83.46217800000003
 31
0.0
  0
ARC
  5
220
330
1E
100
AcDbEntity
  8
CSLAYER1
  6
CONTINUOUS
 62
     3
100
AcDbCircle
 10
153.3
 20
84.96217800000001
 30
0.0
 40
1.5
100
AcDbArc
 50
180.0
 51
270.0
  0
LINE
  5
221
330
1E
100
AcDbEntity
  8
CSLAYER1
  6
CONTINUOUS
 62
     3
100
AcDbLine
 10
151.8
 20
84.96217800000001
 30
0.0
 11
151.8
 21
88.9
 31
0.0
  0
LINE
  5
222
330
1E
100
AcDbEntity
  8
CSLAYER1
  6
CONTINUOUS
 62
     3
100
AcDbLine
 10
165.8
 20
88.9
 30
0.0
 11
165.8
 21
83.46217800000003
 31
0.0
  0
LINE
  5
223
330
1E
100
AcDbEntity
  8
CSLAYER1
  6
CONTINUOUS
 62
     3
100
AcDbLine
 10
166.8
 20
88.9
 30
0.0
 11
186.8
 21
88.9
 31
0.0
  0
LINE
  5
224
330
1E
100
AcDbEntity
  8
CSLAYER1
  6
CONTINUOUS
 62
     3
100
AcDbLine
 10
165.8
 20
65.9
 30
0.0
 11
77.8
 21
65.9
 31
0.0
  0
DIMENSION
  5
225
330
1E
100
AcDbEntity
  8
CSLAYER1
 62
     4
100
AcDbDimension
  2
*D14
 10
187.8
 20
179.977454
 30
0.0
 11
132.800003
 21
180.477448
 31
0.0
100
AcDbAlignedDimension
 13
77.8
 23
143.1999999999999
 33
0.0
 14
187.8
 24
144.6999999999998
 34
0.0
100
AcDbRotatedDimension
  0
DIMENSION
  5
226
330
1E
100
AcDbEntity
  8
CSLAYER1
 62
     4
100
AcDbDimension
  2
*D15
 10
166.8
 20
173.9774539999999
 30
0.0
 11
122.300003
 21
174.477448
 31
0.0
100
AcDbAlignedDimension
 13
77.8
 23
143.1999999999999
 33
0.0
 14
166.8
 24
147.6999999999998
 34
0.0
100
AcDbRotatedDimension
  0
DIMENSION
  5
227
330
1E
100
AcDbEntity
  8
CSLAYER1
 62
     4
100
AcDbDimension
  2
*D16
 10
187.8
 20
173.9774539999999
 30
0.0
 11
177.300003
 21
174.477448
 31
0.0
100
AcDbAlignedDimension
 13
166.8
 23
147.6999999999998
 33
0.0
 14
187.8
 24
144.6999999999998
 34
0.0
100
AcDbRotatedDimension
  0
DIMENSION
  5
228
330
1E
100
AcDbEntity
  8
CSLAYER1
 62
     4
100
AcDbDimension
  2
*D17
 10
166.8
 20
167.9774539999999
 30
0.0
 11
129.3000029999999
 21
168.477448
 31
0.0
 70
     1
100
AcDbAlignedDimension
 13
91.79999999999999
 23
147.6999999999998
 33
0.0
 14
166.8
 24
147.6999999999998
 34
0.0
  0
DIMENSION
  5
229
330
1E
100
AcDbEntity
  8
CSLAYER1
 62
     4
100
AcDbDimension
  2
*D18
 10
147.8
 20
161.9774539999999
 30
0.0
 11
127.800003
 21
162.477448
 31
0.0
100
AcDbAlignedDimension
 13
107.8
 23
149.6541679999999
 33
0.0
 14
147.8
 24
149.1061629999999
 34
0.0
100
AcDbRotatedDimension
  0
DIMENSION
  5
22A
330
1E
100
AcDbEntity
  8
CSLAYER1
 62
     4
100
AcDbDimension
  2
*D19
 10
166.8
 20
161.9774539999999
 30
0.0
 11
157.300003
 21
162.477448
 31
0.0
100
AcDbAlignedDimension
 13
147.8
 23
149.1061629999999
 33
0.0
 14
166.8
 24
147.6999999999998
 34
0.0
100
AcDbRotatedDimension
  0
DIMENSION
  5
22B
330
1E
100
AcDbEntity
  8
CSLAYER1
 62
     4
100
AcDbDimension
  2
*D20
 10
187.8
 20
167.9774539999999
 30
0.0
 11
180.3000029999999
 21
168.477448
 31
0.0
100
AcDbAlignedDimension
 13
172.8
 23
147.6999999999998
 33
0.0
 14
187.8
 24
145.6999999999998
 34
0.0
100
AcDbRotatedDimension
  0
DIMENSION
  5
22C
330
1E
100
AcDbEntity
  8
CSLAYER1
 62
     4
100
AcDbDimension
  2
*D21
 10
84.8
 20
167.9774539999999
 30
0.0
 11
81.300003
 21
168.477448
 31
0.0
100
AcDbAlignedDimension
 13
77.8
 23
144.1999999999999
 33
0.0
 14
84.8
 24
140.700206
 34
0.0
100
AcDbRotatedDimension
  0
DIMENSION
  5
22D
330
1E
100
AcDbEntity
  8
CSLAYER1
 62
     4
100
AcDbDimension
  2
*D22
 10
138.8
 20
111.804783
 30
0.0
 11
125.300003
 21
112.304787
 31
0.0
 70
     1
 52
270.0
100
AcDbAlignedDimension
 13
111.8
 23
124.7
 33
0.0
 14
138.8
 24
124.7
 34
0.0
  0
DIMENSION
  5
22E
330
1E
100
AcDbEntity
  8
CSLAYER1
 62
     4
100
AcDbDimension
  2
*D23
 10
166.8
 20
111.804783
 30
0.0
 11
152.800003
 21
112.304787
 31
0.0
 70
     1
 52
270.0
100
AcDbAlignedDimension
 13
138.8
 23
124.7
 33
0.0
 14
166.8
 24
124.7
 34
0.0
  0
DIMENSION
  5
22F
330
1E
100
AcDbEntity
  8
CSLAYER1
 62
     4
100
AcDbDimension
  2
*D24
 10
166.8
 20
117.804783
 30
0.0
 11
159.3000029999999
 21
118.304787
 31
0.0
 70
     1
 52
270.0
100
AcDbAlignedDimension
 13
151.8
 23
124.7
 33
0.0
 14
166.8
 24
124.7
 34
0.0
  0
INSERT
  5
231
330
1E
100
AcDbEntity
  8
CSLAYER1
100
AcDbBlockReference
  2
FXDIM0002
 10
0.0
 20
0.0
 30
0.0
  0
CIRCLE
  5
232
330
1E
100
AcDbEntity
  8
CSLAYER1
  6
CONTINUOUS
 62
     3
100
AcDbCircle
 10
235.094122
 20
136.1999999999998
 30
0.0
 40
3.0
  0
LINE
  5
233
330
1E
100
AcDbEntity
  8
CSLAYER1
  6
CENTER
 62
     4
100
AcDbLine
 10
182.068211
 20
139.2814159999999
 30
0.0
 11
167.4767939999999
 21
139.2814159999999
 31
0.0
  0
LINE
  5
234
330
1E
100
AcDbEntity
  8
CSLAYER1
  6
CENTER
 62
     4
100
AcDbLine
 10
174.8
 20
132.17278
 30
0.0
 11
174.8
 21
146.2571599999999
 31
0.0
  0
POLYLINE
  5
235
330
1E
100
AcDbEntity
  8
CSLAYER1
  6
CONTINUOUS
 62
     4
100
AcDb2dPolyline
 66
     1
 10
0.0
 20
0.0
 30
0.0
  0
VERTEX
  5
236
330
235
100
AcDbEntity
  8
CSLAYER1
  6
CONTINUOUS
 62
     4
100
AcDbVertex
100
AcDb2dVertex
 10
174.8
 20
144.0314159999998
 30
0.0
  0
VERTEX
  5
237
330
235
100
AcDbEntity
  8
CSLAYER1
  6
CONTINUOUS
 62
     4
100
AcDbVertex
100
AcDb2dVertex
 10
174.4003909999999
 20
144.013341
 30
0.0
  0
VERTEX
  5
238
330
235
100
AcDbEntity
  8
CSLAYER1
  6
CONTINUOUS
 62
     4
100
AcDbVertex
100
AcDb2dVertex
 10
174.003823
 20
143.9592529999998
 30
0.0
  0
VERTEX
  5
239
330
235
100
AcDbEntity
  8
CSLAYER1
  6
CONTINUOUS
 62
     4
100
AcDbVertex
100
AcDb2dVertex
 10
173.613315
 20
143.8695629999999
 30
0.0
  0
VERTEX
  5
23A
330
235
100
AcDbEntity
  8
CSLAYER1
  6
CONTINUOUS
 62
     4
100
AcDbVertex
100
AcDb2dVertex
 10
173.2318379999999
 20
143.744956
 30
0.0
  0
VERTEX
  5
23B
330
235
100
AcDbEntity
  8
CSLAYER1
  6
CONTINUOUS
 62
     4
100
AcDbVertex
100
AcDb2dVertex
 10
172.8622949999999
 20
143.586378
 30
0.0
  0
VERTEX
  5
23C
330
235
100
AcDbEntity
  8
CSLAYER1
  6
CONTINUOUS
 62
     4
100
AcDbVertex
100
AcDb2dVertex
 10
172.5074999999999
 20
143.395036
 30
0.0
  0
VERTEX
  5
23D
330
235
100
AcDbEntity
  8
CSLAYER1
  6
CONTINUOUS
 62
     4
100
AcDbVertex
100
AcDb2dVertex
 10
172.170152
 20
143.1723879999998
 30
0.0
  0
VERTEX
  5
23E
330
235
100
AcDbEntity
  8
CSLAYER1
  6
CONTINUOUS
 62
     4
100
AcDbVertex
100
AcDb2dVertex
 10
171.8528189999999
 20
142.920127
 30
0.0
  0
VERTEX
  5
23F
330
235
100
AcDbEntity
  8
CSLAYER1
  6
CONTINUOUS
 62
     4
100
AcDbVertex
100
AcDb2dVertex
 10
171.5579149999999
 20
142.640173
 30
0.0
  0
VERTEX
  5
240
330
235
100
AcDbEntity
  8
CSLAYER1
  6
CONTINUOUS
 62
     4
100
AcDbVertex
100
AcDb2dVertex
 10
171.287686
 20
142.3346569999999
 30
0.0
  0
VERTEX
  5
241
330
235
100
AcDbEntity
  8
CSLAYER1
  6
CONTINUOUS
 62
     4
100
AcDbVertex
100
AcDb2dVertex
 10
171.0441879999999
 20
142.005904
 30
0.0
  0
VERTEX
  5
242
330
235
100
AcDbEntity
  8
CSLAYER1
  6
CONTINUOUS
 62
     4
100
AcDbVertex
100
AcDb2dVertex
 10
170.829274
 20
141.6564159999999
 30
0.0
  0
VERTEX
  5
243
330
235
100
AcDbEntity
  8
CSLAYER1
  6
CONTINUOUS
 62
     4
100
AcDbVertex
100
AcDb2dVertex
 10
170.644579
 20
141.2888519999999
 30
0.0
  0
VERTEX
  5
244
330
235
100
AcDbEntity
  8
CSLAYER1
  6
CONTINUOUS
 62
     4
100
AcDbVertex
100
AcDb2dVertex
 10
170.491509
 20
140.906011
 30
0.0
  0
VERTEX
  5
245
330
235
100
AcDbEntity
  8
CSLAYER1
  6
CONTINUOUS
 62
     4
100
AcDbVertex
100
AcDb2dVertex
 10
170.37123
 20
140.510806
 30
0.0
  0
VERTEX
  5
246
330
235
100
AcDbEntity
  8
CSLAYER1
  6
CONTINUOUS
 62
     4
100
AcDbVertex
100
AcDb2dVertex
 10
170.284656
 20
140.1062449999999
 30
0.0
  0
VERTEX
  5
247
330
235
100
AcDbEntity
  8
CSLAYER1
  6
CONTINUOUS
 62
     4
100
AcDbVertex
100
AcDb2dVertex
 10
170.232447
 20
139.6954049999999
 30
0.0
  0
VERTEX
  5
248
330
235
100
AcDbEntity
  8
CSLAYER1
  6
CONTINUOUS
 62
     4
100
AcDbVertex
100
AcDb2dVertex
 10
170.215
 20
139.2814159999999
 30
0.0
  0
VERTEX
  5
249
330
235
100
AcDbEntity
  8
CSLAYER1
  6
CONTINUOUS
 62
     4
100
AcDbVertex
100
AcDb2dVertex
 10
170.232447
 20
138.8674259999999
 30
0.0
  0
VERTEX
  5
24A
330
235
100
AcDbEntity
  8
CSLAYER1
  6
CONTINUOUS
 62
     4
100
AcDbVertex
100
AcDb2dVertex
 10
170.284656
 20
138.456587
 30
0.0
  0
VERTEX
  5
24B
330
235
100
AcDbEntity
  8
CSLAYER1
  6
CONTINUOUS
 62
     4
100
AcDbVertex
100
AcDb2dVertex
 10
170.37123
 20
138.0520249999999
 30
0.0
  0
VERTEX
  5
24C
330
235
100
AcDbEntity
  8
CSLAYER1
  6
CONTINUOUS
 62
     4
100
AcDbVertex
100
AcDb2dVertex
 10
170.491509
 20
137.6568199999999
 30
0.0
  0
VERTEX
  5
24D
330
235
100
AcDbEntity
  8
CSLAYER1
  6
CONTINUOUS
 62
     4
100
AcDbVertex
100
AcDb2dVertex
 10
170.644579
 20
137.273979
 30
0.0
  0
VERTEX
  5
24E
330
235
100
AcDbEntity
  8
CSLAYER1
  6
CONTINUOUS
 62
     4
100
AcDbVertex
100
AcDb2dVertex
 10
170.829274
 20
136.9064159999998
 30
0.0
  0
VERTEX
  5
24F
330
235
100
AcDbEntity
  8
CSLAYER1
  6
CONTINUOUS
 62
     4
100
AcDbVertex
100
AcDb2dVertex
 10
171.0441879999999
 20
136.556928
 30
0.0
  0
VERTEX
  5
250
330
235
100
AcDbEntity
  8
CSLAYER1
  6
CONTINUOUS
 62
     4
100
AcDbVertex
100
AcDb2dVertex
 10
171.287686
 20
136.2281749999999
 30
0.0
  0
VERTEX
  5
251
330
235
100
AcDbEntity
  8
CSLAYER1
  6
CONTINUOUS
 62
     4
100
AcDbVertex
100
AcDb2dVertex
 10
171.5579149999999
 20
135.922659
 30
0.0
  0
VERTEX
  5
252
330
235
100
AcDbEntity
  8
CSLAYER1
  6
CONTINUOUS
 62
     4
100
AcDbVertex
100
AcDb2dVertex
 10
171.8528189999999
 20
135.642705
 30
0.0
  0
VERTEX
  5
253
330
235
100
AcDbEntity
  8
CSLAYER1
  6
CONTINUOUS
 62
     4
100
AcDbVertex
100
AcDb2dVertex
 10
172.170152
 20
135.3904439999999
 30
0.0
  0
VERTEX
  5
254
330
235
100
AcDbEntity
  8
CSLAYER1
  6
CONTINUOUS
 62
     4
100
AcDbVertex
100
AcDb2dVertex
 10
172.5074999999999
 20
135.1677949999998
 30
0.0
  0
VERTEX
  5
255
330
235
100
AcDbEntity
  8
CSLAYER1
  6
CONTINUOUS
 62
     4
100
AcDbVertex
100
AcDb2dVertex
 10
172.8622949999999
 20
134.976454
 30
0.0
  0
VERTEX
  5
256
330
235
100
AcDbEntity
  8
CSLAYER1
  6
CONTINUOUS
 62
     4
100
AcDbVertex
100
AcDb2dVertex
 10
173.2318379999999
 20
134.817876
 30
0.0
  0
VERTEX
  5
257
330
235
100
AcDbEntity
  8
CSLAYER1
  6
CONTINUOUS
 62
     4
100
AcDbVertex
100
AcDb2dVertex
 10
173.613315
 20
134.6932679999998
 30
0.0
  0
VERTEX
  5
258
330
235
100
AcDbEntity
  8
CSLAYER1
  6
CONTINUOUS
 62
     4
100
AcDbVertex
100
AcDb2dVertex
 10
174.003823
 20
134.6035789999999
 30
0.0
  0
VERTEX
  5
259
330
235
100
AcDbEntity
  8
CSLAYER1
  6
CONTINUOUS
 62
     4
100
AcDbVertex
100
AcDb2dVertex
 10
174.4003909999999
 20
134.5494909999999
 30
0.0
  0
VERTEX
  5
25A
330
235
100
AcDbEntity
  8
CSLAYER1
  6
CONTINUOUS
 62
     4
100
AcDbVertex
100
AcDb2dVertex
 10
174.8
 20
134.5314159999998
 30
0.0
  0
VERTEX
  5
25B
330
235
100
AcDbEntity
  8
CSLAYER1
  6
CONTINUOUS
 62
     4
100
AcDbVertex
100
AcDb2dVertex
 10
175.199609
 20
134.5494909999999
 30
0.0
  0
VERTEX
  5
25C
330
235
100
AcDbEntity
  8
CSLAYER1
  6
CONTINUOUS
 62
     4
100
AcDbVertex
100
AcDb2dVertex
 10
175.596177
 20
134.6035789999999
 30
0.0
  0
VERTEX
  5
25D
330
235
100
AcDbEntity
  8
CSLAYER1
  6
CONTINUOUS
 62
     4
100
AcDbVertex
100
AcDb2dVertex
 10
175.986685
 20
134.6932679999998
 30
0.0
  0
VERTEX
  5
25E
330
235
100
AcDbEntity
  8
CSLAYER1
  6
CONTINUOUS
 62
     4
100
AcDbVertex
100
AcDb2dVertex
 10
176.368162
 20
134.817876
 30
0.0
  0
VERTEX
  5
25F
330
235
100
AcDbEntity
  8
CSLAYER1
  6
CONTINUOUS
 62
     4
100
AcDbVertex
100
AcDb2dVertex
 10
176.737705
 20
134.976454
 30
0.0
  0
VERTEX
  5
260
330
235
100
AcDbEntity
  8
CSLAYER1
  6
CONTINUOUS
 62
     4
100
AcDbVertex
100
AcDb2dVertex
 10
177.0925
 20
135.1677949999998
 30
0.0
  0
VERTEX
  5
261
330
235
100
AcDbEntity
  8
CSLAYER1
  6
CONTINUOUS
 62
     4
100
AcDbVertex
100
AcDb2dVertex
 10
177.4298479999999
 20
135.3904439999999
 30
0.0
  0
VERTEX
  5
262
330
235
100
AcDbEntity
  8
CSLAYER1
  6
CONTINUOUS
 62
     4
100
AcDbVertex
100
AcDb2dVertex
 10
177.747181
 20
135.642705
 30
0.0
  0
VERTEX
  5
263
330
235
100
AcDbEntity
  8
CSLAYER1
  6
CONTINUOUS
 62
     4
100
AcDbVertex
100
AcDb2dVertex
 10
178.042085
 20
135.922659
 30
0.0
  0
VERTEX
  5
264
330
235
100
AcDbEntity
  8
CSLAYER1
  6
CONTINUOUS
 62
     4
100
AcDbVertex
100
AcDb2dVertex
 10
178.3123139999999
 20
136.2281749999999
 30
0.0
  0
VERTEX
  5
265
330
235
100
AcDbEntity
  8
CSLAYER1
  6
CONTINUOUS
 62
     4
100
AcDbVertex
100
AcDb2dVertex
 10
178.555812
 20
136.556928
 30
0.0
  0
VERTEX
  5
266
330
235
100
AcDbEntity
  8
CSLAYER1
  6
CONTINUOUS
 62
     4
100
AcDbVertex
100
AcDb2dVertex
 10
178.7707259999999
 20
136.9064159999998
 30
0.0
  0
VERTEX
  5
267
330
235
100
AcDbEntity
  8
CSLAYER1
  6
CONTINUOUS
 62
     4
100
AcDbVertex
100
AcDb2dVertex
 10
178.955421
 20
137.273979
 30
0.0
  0
VERTEX
  5
268
330
235
100
AcDbEntity
  8
CSLAYER1
  6
CONTINUOUS
 62
     4
100
AcDbVertex
100
AcDb2dVertex
 10
179.1084909999999
 20
137.6568199999999
 30
0.0
  0
VERTEX
  5
269
330
235
100
AcDbEntity
  8
CSLAYER1
  6
CONTINUOUS
 62
     4
100
AcDbVertex
100
AcDb2dVertex
 10
179.2287699999999
 20
138.0520249999999
 30
0.0
  0
VERTEX
  5
26A
330
235
100
AcDbEntity
  8
CSLAYER1
  6
CONTINUOUS
 62
     4
100
AcDbVertex
100
AcDb2dVertex
 10
179.3153439999999
 20
138.456587
 30
0.0
  0
VERTEX
  5
26B
330
235
100
AcDbEntity
  8
CSLAYER1
  6
CONTINUOUS
 62
     4
100
AcDbVertex
100
AcDb2dVertex
 10
179.367553
 20
138.8674259999999
 30
0.0
  0
VERTEX
  5
26C
330
235
100
AcDbEntity
  8
CSLAYER1
  6
CONTINUOUS
 62
     4
100
AcDbVertex
100
AcDb2dVertex
 10
179.3849999999999
 20
139.2814159999999
 30
0.0
  0
VERTEX
  5
26D
330
235
100
AcDbEntity
  8
CSLAYER1
  6
CONTINUOUS
 62
     4
100
AcDbVertex
100
AcDb2dVertex
 10
179.367553
 20
139.6954049999999
 30
0.0
  0
VERTEX
  5
26E
330
235
100
AcDbEntity
  8
CSLAYER1
  6
CONTINUOUS
 62
     4
100
AcDbVertex
100
AcDb2dVertex
 10
179.3153439999999
 20
140.1062449999999
 30
0.0
  0
VERTEX
  5
26F
330
235
100
AcDbEntity
  8
CSLAYER1
  6
CONTINUOUS
 62
     4
100
AcDbVertex
100
AcDb2dVertex
 10
179.2287699999999
 20
140.510806
 30
0.0
  0
VERTEX
  5
270
330
235
100
AcDbEntity
  8
CSLAYER1
  6
CONTINUOUS
 62
     4
100
AcDbVertex
100
AcDb2dVertex
 10
179.1084909999999
 20
140.906011
 30
0.0
  0
VERTEX
  5
271
330
235
100
AcDbEntity
  8
CSLAYER1
  6
CONTINUOUS
 62
     4
100
AcDbVertex
100
AcDb2dVertex
 10
178.955421
 20
141.2888519999999
 30
0.0
  0
VERTEX
  5
272
330
235
100
AcDbEntity
  8
CSLAYER1
  6
CONTINUOUS
 62
     4
100
AcDbVertex
100
AcDb2dVertex
 10
178.7707259999999
 20
141.6564159999999
 30
0.0
  0
VERTEX
  5
273
330
235
100
AcDbEntity
  8
CSLAYER1
  6
CONTINUOUS
 62
     4
100
AcDbVertex
100
AcDb2dVertex
 10
178.555812
 20
142.005904
 30
0.0
  0
VERTEX
  5
274
330
235
100
AcDbEntity
  8
CSLAYER1
  6
CONTINUOUS
 62
     4
100
AcDbVertex
100
AcDb2dVertex
 10
178.3123139999999
 20
142.3346569999999
 30
0.0
  0
VERTEX
  5
275
330
235
100
AcDbEntity
  8
CSLAYER1
  6
CONTINUOUS
 62
     4
100
AcDbVertex
100
AcDb2dVertex
 10
178.042085
 20
142.640173
 30
0.0
  0
VERTEX
  5
276
330
235
100
AcDbEntity
  8
CSLAYER1
  6
CONTINUOUS
 62
     4
100
AcDbVertex
100
AcDb2dVertex
 10
177.747181
 20
142.920127
 30
0.0
  0
VERTEX
  5
277
330
235
100
AcDbEntity
  8
CSLAYER1
  6
CONTINUOUS
 62
     4
100
AcDbVertex
100
AcDb2dVertex
 10
177.4298479999999
 20
143.1723879999998
 30
0.0
  0
VERTEX
  5
278
330
235
100
AcDbEntity
  8
CSLAYER1
  6
CONTINUOUS
 62
     4
100
AcDbVertex
100
AcDb2dVertex
 10
177.0925
 20
143.395036
 30
0.0
  0
VERTEX
  5
279
330
235
100
AcDbEntity
  8
CSLAYER1
  6
CONTINUOUS
 62
     4
100
AcDbVertex
100
AcDb2dVertex
 10
176.737705
 20
143.586378
 30
0.0
  0
VERTEX
  5
27A
330
235
100
AcDbEntity
  8
CSLAYER1
  6
CONTINUOUS
 62
     4
100
AcDbVertex
100
AcDb2dVertex
 10
176.368162
 20
143.744956
 30
0.0
  0
VERTEX
  5
27B
330
235
100
AcDbEntity
  8
CSLAYER1
  6
CONTINUOUS
 62
     4
100
AcDbVertex
100
AcDb2dVertex
 10
175.986685
 20
143.8695629999999
 30
0.0
  0
VERTEX
  5
27C
330
235
100
AcDbEntity
  8
CSLAYER1
  6
CONTINUOUS
 62
     4
100
AcDbVertex
100
AcDb2dVertex
 10
175.596177
 20
143.9592529999998
 30
0.0
  0
VERTEX
  5
27D
330
235
100
AcDbEntity
  8
CSLAYER1
  6
CONTINUOUS
 62
     4
100
AcDbVertex
100
AcDb2dVertex
 10
175.199609
 20
144.013341
 30
0.0
  0
VERTEX
  5
27E
330
235
100
AcDbEntity
  8
CSLAYER1
  6
CONTINUOUS
 62
     4
100
AcDbVertex
100
AcDb2dVertex
 10
174.8
 20
144.0314159999998
 30
0.0
  0
SEQEND
  5
27F
330
235
100
AcDbEntity
  8
CSLAYER1
 62
     4
  0
POLYLINE
  5
280
330
1E
100
AcDbEntity
  8
CSLAYER1
  6
CONTINUOUS
 62
     3
100
AcDb2dPolyline
 66
     1
 10
0.0
 20
0.0
 30
0.0
  0
VERTEX
  5
281
330
280
100
AcDbEntity
  8
CSLAYER1
  6
CONTINUOUS
 62
     3
100
AcDbVertex
100
AcDb2dVertex
 10
174.8
 20
143.5314159999999
 30
0.0
  0
VERTEX
  5
282
330
280
100
AcDbEntity
  8
CSLAYER1
  6
CONTINUOUS
 62
     3
100
AcDbVertex
100
AcDb2dVertex
 10
174.442226
 20
143.515243
 30
0.0
  0
VERTEX
  5
283
330
280
100
AcDbEntity
  8
CSLAYER1
  6
CONTINUOUS
 62
     3
100
AcDbVertex
100
AcDb2dVertex
 10
174.087174
 20
143.4668489999999
 30
0.0
  0
VERTEX
  5
284
330
280
100
AcDbEntity
  8
CSLAYER1
  6
CONTINUOUS
 62
     3
100
AcDbVertex
100
AcDb2dVertex
 10
173.737548
 20
143.3865999999999
 30
0.0
  0
VERTEX
  5
285
330
280
100
AcDbEntity
  8
CSLAYER1
  6
CONTINUOUS
 62
     3
100
AcDbVertex
100
AcDb2dVertex
 10
173.396007
 20
143.275109
 30
0.0
  0
VERTEX
  5
286
330
280
100
AcDbEntity
  8
CSLAYER1
  6
CONTINUOUS
 62
     3
100
AcDbVertex
100
AcDb2dVertex
 10
173.065152
 20
143.133224
 30
0.0
  0
VERTEX
  5
287
330
280
100
AcDbEntity
  8
CSLAYER1
  6
CONTINUOUS
 62
     3
100
AcDbVertex
100
AcDb2dVertex
 10
172.7475
 20
142.962024
 30
0.0
  0
VERTEX
  5
288
330
280
100
AcDbEntity
  8
CSLAYER1
  6
CONTINUOUS
 62
     3
100
AcDbVertex
100
AcDb2dVertex
 10
172.4454689999999
 20
142.762812
 30
0.0
  0
VERTEX
  5
289
330
280
100
AcDbEntity
  8
CSLAYER1
  6
CONTINUOUS
 62
     3
100
AcDbVertex
100
AcDb2dVertex
 10
172.161357
 20
142.537105
 30
0.0
  0
VERTEX
  5
28A
330
280
100
AcDbEntity
  8
CSLAYER1
  6
CONTINUOUS
 62
     3
100
AcDbVertex
100
AcDb2dVertex
 10
171.897327
 20
142.28662
 30
0.0
  0
VERTEX
  5
28B
330
280
100
AcDbEntity
  8
CSLAYER1
  6
CONTINUOUS
 62
     3
100
AcDbVertex
100
AcDb2dVertex
 10
171.655388
 20
142.0132629999999
 30
0.0
  0
VERTEX
  5
28C
330
280
100
AcDbEntity
  8
CSLAYER1
  6
CONTINUOUS
 62
     3
100
AcDbVertex
100
AcDb2dVertex
 10
171.437381
 20
141.7191159999999
 30
0.0
  0
VERTEX
  5
28D
330
280
100
AcDbEntity
  8
CSLAYER1
  6
CONTINUOUS
 62
     3
100
AcDbVertex
100
AcDb2dVertex
 10
171.244966
 20
141.4064159999998
 30
0.0
  0
VERTEX
  5
28E
330
280
100
AcDbEntity
  8
CSLAYER1
  6
CONTINUOUS
 62
     3
100
AcDbVertex
100
AcDb2dVertex
 10
171.079607
 20
141.0775429999999
 30
0.0
  0
VERTEX
  5
28F
330
280
100
AcDbEntity
  8
CSLAYER1
  6
CONTINUOUS
 62
     3
100
AcDbVertex
100
AcDb2dVertex
 10
170.942562
 20
140.735001
 30
0.0
  0
VERTEX
  5
290
330
280
100
AcDbEntity
  8
CSLAYER1
  6
CONTINUOUS
 62
     3
100
AcDbVertex
100
AcDb2dVertex
 10
170.8348739999999
 20
140.3813969999999
 30
0.0
  0
VERTEX
  5
291
330
280
100
AcDbEntity
  8
CSLAYER1
  6
CONTINUOUS
 62
     3
100
AcDbVertex
100
AcDb2dVertex
 10
170.7573639999999
 20
140.01942
 30
0.0
  0
VERTEX
  5
292
330
280
100
AcDbEntity
  8
CSLAYER1
  6
CONTINUOUS
 62
     3
100
AcDbVertex
100
AcDb2dVertex
 10
170.710621
 20
139.651828
 30
0.0
  0
VERTEX
  5
293
330
280
100
AcDbEntity
  8
CSLAYER1
  6
CONTINUOUS
 62
     3
100
AcDbVertex
100
AcDb2dVertex
 10
170.6949999999999
 20
139.2814159999999
 30
0.0
  0
VERTEX
  5
294
330
280
100
AcDbEntity
  8
CSLAYER1
  6
CONTINUOUS
 62
     3
100
AcDbVertex
100
AcDb2dVertex
 10
170.710621
 20
138.911004
 30
0.0
  0
VERTEX
  5
295
330
280
100
AcDbEntity
  8
CSLAYER1
  6
CONTINUOUS
 62
     3
100
AcDbVertex
100
AcDb2dVertex
 10
170.7573639999999
 20
138.543411
 30
0.0
  0
VERTEX
  5
296
330
280
100
AcDbEntity
  8
CSLAYER1
  6
CONTINUOUS
 62
     3
100
AcDbVertex
100
AcDb2dVertex
 10
170.8348739999999
 20
138.181435
 30
0.0
  0
VERTEX
  5
297
330
280
100
AcDbEntity
  8
CSLAYER1
  6
CONTINUOUS
 62
     3
100
AcDbVertex
100
AcDb2dVertex
 10
170.942562
 20
137.82783
 30
0.0
  0
VERTEX
  5
298
330
280
100
AcDbEntity
  8
CSLAYER1
  6
CONTINUOUS
 62
     3
100
AcDbVertex
100
AcDb2dVertex
 10
171.079607
 20
137.4852879999999
 30
0.0
  0
VERTEX
  5
299
330
280
100
AcDbEntity
  8
CSLAYER1
  6
CONTINUOUS
 62
     3
100
AcDbVertex
100
AcDb2dVertex
 10
171.244966
 20
137.1564159999999
 30
0.0
  0
VERTEX
  5
29A
330
280
100
AcDbEntity
  8
CSLAYER1
  6
CONTINUOUS
 62
     3
100
AcDbVertex
100
AcDb2dVertex
 10
171.437381
 20
136.843716
 30
0.0
  0
VERTEX
  5
29B
330
280
100
AcDbEntity
  8
CSLAYER1
  6
CONTINUOUS
 62
     3
100
AcDbVertex
100
AcDb2dVertex
 10
171.655388
 20
136.5495679999999
 30
0.0
  0
VERTEX
  5
29C
330
280
100
AcDbEntity
  8
CSLAYER1
  6
CONTINUOUS
 62
     3
100
AcDbVertex
100
AcDb2dVertex
 10
171.897327
 20
136.276212
 30
0.0
  0
VERTEX
  5
29D
330
280
100
AcDbEntity
  8
CSLAYER1
  6
CONTINUOUS
 62
     3
100
AcDbVertex
100
AcDb2dVertex
 10
172.161357
 20
136.0257269999999
 30
0.0
  0
VERTEX
  5
29E
330
280
100
AcDbEntity
  8
CSLAYER1
  6
CONTINUOUS
 62
     3
100
AcDbVertex
100
AcDb2dVertex
 10
172.4454689999999
 20
135.8000199999999
 30
0.0
  0
VERTEX
  5
29F
330
280
100
AcDbEntity
  8
CSLAYER1
  6
CONTINUOUS
 62
     3
100
AcDbVertex
100
AcDb2dVertex
 10
172.7475
 20
135.600808
 30
0.0
  0
VERTEX
  5
2A0
330
280
100
AcDbEntity
  8
CSLAYER1
  6
CONTINUOUS
 62
     3
100
AcDbVertex
100
AcDb2dVertex
 10
173.065152
 20
135.429608
 30
0.0
  0
VERTEX
  5
2A1
330
280
100
AcDbEntity
  8
CSLAYER1
  6
CONTINUOUS
 62
     3
100
AcDbVertex
100
AcDb2dVertex
 10
173.396007
 20
135.287722
 30
0.0
  0
VERTEX
  5
2A2
330
280
100
AcDbEntity
  8
CSLAYER1
  6
CONTINUOUS
 62
     3
100
AcDbVertex
100
AcDb2dVertex
 10
173.737548
 20
135.176231
 30
0.0
  0
VERTEX
  5
2A3
330
280
100
AcDbEntity
  8
CSLAYER1
  6
CONTINUOUS
 62
     3
100
AcDbVertex
100
AcDb2dVertex
 10
174.087174
 20
135.095983
 30
0.0
  0
VERTEX
  5
2A4
330
280
100
AcDbEntity
  8
CSLAYER1
  6
CONTINUOUS
 62
     3
100
AcDbVertex
100
AcDb2dVertex
 10
174.442226
 20
135.0475879999999
 30
0.0
  0
VERTEX
  5
2A5
330
280
100
AcDbEntity
  8
CSLAYER1
  6
CONTINUOUS
 62
     3
100
AcDbVertex
100
AcDb2dVertex
 10
174.8
 20
135.0314159999999
 30
0.0
  0
VERTEX
  5
2A6
330
280
100
AcDbEntity
  8
CSLAYER1
  6
CONTINUOUS
 62
     3
100
AcDbVertex
100
AcDb2dVertex
 10
175.1577739999999
 20
135.0475879999999
 30
0.0
  0
VERTEX
  5
2A7
330
280
100
AcDbEntity
  8
CSLAYER1
  6
CONTINUOUS
 62
     3
100
AcDbVertex
100
AcDb2dVertex
 10
175.512826
 20
135.095983
 30
0.0
  0
VERTEX
  5
2A8
330
280
100
AcDbEntity
  8
CSLAYER1
  6
CONTINUOUS
 62
     3
100
AcDbVertex
100
AcDb2dVertex
 10
175.8624519999999
 20
135.176231
 30
0.0
  0
VERTEX
  5
2A9
330
280
100
AcDbEntity
  8
CSLAYER1
  6
CONTINUOUS
 62
     3
100
AcDbVertex
100
AcDb2dVertex
 10
176.203993
 20
135.287722
 30
0.0
  0
VERTEX
  5
2AA
330
280
100
AcDbEntity
  8
CSLAYER1
  6
CONTINUOUS
 62
     3
100
AcDbVertex
100
AcDb2dVertex
 10
176.534848
 20
135.429608
 30
0.0
  0
VERTEX
  5
2AB
330
280
100
AcDbEntity
  8
CSLAYER1
  6
CONTINUOUS
 62
     3
100
AcDbVertex
100
AcDb2dVertex
 10
176.8524999999999
 20
135.600808
 30
0.0
  0
VERTEX
  5
2AC
330
280
100
AcDbEntity
  8
CSLAYER1
  6
CONTINUOUS
 62
     3
100
AcDbVertex
100
AcDb2dVertex
 10
177.154531
 20
135.8000199999999
 30
0.0
  0
VERTEX
  5
2AD
330
280
100
AcDbEntity
  8
CSLAYER1
  6
CONTINUOUS
 62
     3
100
AcDbVertex
100
AcDb2dVertex
 10
177.4386429999999
 20
136.0257269999999
 30
0.0
  0
VERTEX
  5
2AE
330
280
100
AcDbEntity
  8
CSLAYER1
  6
CONTINUOUS
 62
     3
100
AcDbVertex
100
AcDb2dVertex
 10
177.702673
 20
136.276212
 30
0.0
  0
VERTEX
  5
2AF
330
280
100
AcDbEntity
  8
CSLAYER1
  6
CONTINUOUS
 62
     3
100
AcDbVertex
100
AcDb2dVertex
 10
177.944612
 20
136.5495679999999
 30
0.0
  0
VERTEX
  5
2B0
330
280
100
AcDbEntity
  8
CSLAYER1
  6
CONTINUOUS
 62
     3
100
AcDbVertex
100
AcDb2dVertex
 10
178.162619
 20
136.843716
 30
0.0
  0
VERTEX
  5
2B1
330
280
100
AcDbEntity
  8
CSLAYER1
  6
CONTINUOUS
 62
     3
100
AcDbVertex
100
AcDb2dVertex
 10
178.355034
 20
137.1564159999999
 30
0.0
  0
VERTEX
  5
2B2
330
280
100
AcDbEntity
  8
CSLAYER1
  6
CONTINUOUS
 62
     3
100
AcDbVertex
100
AcDb2dVertex
 10
178.5203929999999
 20
137.4852879999999
 30
0.0
  0
VERTEX
  5
2B3
330
280
100
AcDbEntity
  8
CSLAYER1
  6
CONTINUOUS
 62
     3
100
AcDbVertex
100
AcDb2dVertex
 10
178.6574379999999
 20
137.82783
 30
0.0
  0
VERTEX
  5
2B4
330
280
100
AcDbEntity
  8
CSLAYER1
  6
CONTINUOUS
 62
     3
100
AcDbVertex
100
AcDb2dVertex
 10
178.765126
 20
138.181435
 30
0.0
  0
VERTEX
  5
2B5
330
280
100
AcDbEntity
  8
CSLAYER1
  6
CONTINUOUS
 62
     3
100
AcDbVertex
100
AcDb2dVertex
 10
178.842636
 20
138.543411
 30
0.0
  0
VERTEX
  5
2B6
330
280
100
AcDbEntity
  8
CSLAYER1
  6
CONTINUOUS
 62
     3
100
AcDbVertex
100
AcDb2dVertex
 10
178.8893789999999
 20
138.911004
 30
0.0
  0
VERTEX
  5
2B7
330
280
100
AcDbEntity
  8
CSLAYER1
  6
CONTINUOUS
 62
     3
100
AcDbVertex
100
AcDb2dVertex
 10
178.905
 20
139.2814159999999
 30
0.0
  0
VERTEX
  5
2B8
330
280
100
AcDbEntity
  8
CSLAYER1
  6
CONTINUOUS
 62
     3
100
AcDbVertex
100
AcDb2dVertex
 10
178.8893789999999
 20
139.651828
 30
0.0
  0
VERTEX
  5
2B9
330
280
100
AcDbEntity
  8
CSLAYER1
  6
CONTINUOUS
 62
     3
100
AcDbVertex
100
AcDb2dVertex
 10
178.842636
 20
140.01942
 30
0.0
  0
VERTEX
  5
2BA
330
280
100
AcDbEntity
  8
CSLAYER1
  6
CONTINUOUS
 62
     3
100
AcDbVertex
100
AcDb2dVertex
 10
178.765126
 20
140.3813969999999
 30
0.0
  0
VERTEX
  5
2BB
330
280
100
AcDbEntity
  8
CSLAYER1
  6
CONTINUOUS
 62
     3
100
AcDbVertex
100
AcDb2dVertex
 10
178.6574379999999
 20
140.735001
 30
0.0
  0
VERTEX
  5
2BC
330
280
100
AcDbEntity
  8
CSLAYER1
  6
CONTINUOUS
 62
     3
100
AcDbVertex
100
AcDb2dVertex
 10
178.5203929999999
 20
141.0775429999999
 30
0.0
  0
VERTEX
  5
2BD
330
280
100
AcDbEntity
  8
CSLAYER1
  6
CONTINUOUS
 62
     3
100
AcDbVertex
100
AcDb2dVertex
 10
178.355034
 20
141.4064159999998
 30
0.0
  0
VERTEX
  5
2BE
330
280
100
AcDbEntity
  8
CSLAYER1
  6
CONTINUOUS
 62
     3
100
AcDbVertex
100
AcDb2dVertex
 10
178.162619
 20
141.7191159999999
 30
0.0
  0
VERTEX
  5
2BF
330
280
100
AcDbEntity
  8
CSLAYER1
  6
CONTINUOUS
 62
     3
100
AcDbVertex
100
AcDb2dVertex
 10
177.944612
 20
142.0132629999999
 30
0.0
  0
VERTEX
  5
2C0
330
280
100
AcDbEntity
  8
CSLAYER1
  6
CONTINUOUS
 62
     3
100
AcDbVertex
100
AcDb2dVertex
 10
177.702673
 20
142.28662
 30
0.0
  0
VERTEX
  5
2C1
330
280
100
AcDbEntity
  8
CSLAYER1
  6
CONTINUOUS
 62
     3
100
AcDbVertex
100
AcDb2dVertex
 10
177.4386429999999
 20
142.537105
 30
0.0
  0
VERTEX
  5
2C2
330
280
100
AcDbEntity
  8
CSLAYER1
  6
CONTINUOUS
 62
     3
100
AcDbVertex
100
AcDb2dVertex
 10
177.154531
 20
142.762812
 30
0.0
  0
VERTEX
  5
2C3
330
280
100
AcDbEntity
  8
CSLAYER1
  6
CONTINUOUS
 62
     3
100
AcDbVertex
100
AcDb2dVertex
 10
176.8524999999999
 20
142.962024
 30
0.0
  0
VERTEX
  5
2C4
330
280
100
AcDbEntity
  8
CSLAYER1
  6
CONTINUOUS
 62
     3
100
AcDbVertex
100
AcDb2dVertex
 10
176.534848
 20
143.133224
 30
0.0
  0
VERTEX
  5
2C5
330
280
100
AcDbEntity
  8
CSLAYER1
  6
CONTINUOUS
 62
     3
100
AcDbVertex
100
AcDb2dVertex
 10
176.203993
 20
143.275109
 30
0.0
  0
VERTEX
  5
2C6
330
280
100
AcDbEntity
  8
CSLAYER1
  6
CONTINUOUS
 62
     3
100
AcDbVertex
100
AcDb2dVertex
 10
175.8624519999999
 20
143.3865999999999
 30
0.0
  0
VERTEX
  5
2C7
330
280
100
AcDbEntity
  8
CSLAYER1
  6
CONTINUOUS
 62
     3
100
AcDbVertex
100
AcDb2dVertex
 10
175.512826
 20
143.4668489999999
 30
0.0
  0
VERTEX
  5
2C8
330
280
100
AcDbEntity
  8
CSLAYER1
  6
CONTINUOUS
 62
     3
100
AcDbVertex
100
AcDb2dVertex
 10
175.1577739999999
 20
143.515243
 30
0.0
  0
VERTEX
  5
2C9
330
280
100
AcDbEntity
  8
CSLAYER1
  6
CONTINUOUS
 62
     3
100
AcDbVertex
100
AcDb2dVertex
 10
174.8
 20
143.5314159999999
 30
0.0
  0
SEQEND
  5
2CA
330
280
100
AcDbEntity
  8
CSLAYER1
 62
     3
  0
INSERT
  5
2CB
330
1E
100
AcDbEntity
  8
CSLAYER1
100
AcDbBlockReference
  2
FXDIM0003
 10
0.0
 20
0.0
 30
0.0
  0
LINE
  5
2CC
330
1E
100
AcDbEntity
  8
CSLAYER1
  6
CENTER
 62
     4
100
AcDbLine
 10
220.49943
 20
140.1106359999999
 30
0.0
 11
235.094122
 21
136.1999999999998
 31
0.0
  0
DIMENSION
  5
2CD
330
1E
100
AcDbEntity
  8
CSLAYER1
 62
     4
100
AcDbDimension
  2
*D28
 10
187.8
 20
58.96484799999999
 30
0.0
 11
177.300003
 21
59.464848
 31
0.0
 52
270.0
100
AcDbAlignedDimension
 13
166.8
 23
65.9
 33
0.0
 14
187.8
 24
66.90000000000001
 34
0.0
100
AcDbRotatedDimension
  0
LINE
  5
2CE
330
1E
100
AcDbEntity
  8
CSLAYER1
  6
DOT
 62
     3
100
AcDbLine
 10
4.0
 20
1.0
 30
0.0
 11
283.0
 21
1.0
 31
0.0
  0
LINE
  5
2CF
330
1E
100
AcDbEntity
  8
CSLAYER1
  6
DOT
 62
     3
100
AcDbLine
 10
283.0
 20
195.0
 30
0.0
 11
4.0
 21
195.0
 31
0.0
  0
LINE
  5
2D0
330
1E
100
AcDbEntity
  8
CSLAYER1
  6
DOT
 62
     3
100
AcDbLine
 10
4.0
 20
195.0
 30
0.0
 11
4.0
 21
1.0
 31
0.0
  0
LINE
  5
2D1
330
1E
100
AcDbEntity
  8
CSLAYER1
  6
DOT
 62
     3
100
AcDbLine
 10
4.0
 20
98.0
 30
0.0
 11
0.0
 21
98.0
 31
0.0
  0
LINE
  5
2D2
330
1E
100
AcDbEntity
  8
CSLAYER1
  6
DOT
 62
     3
100
AcDbLine
 10
4.0
 20
187.0
 30
0.0
 11
34.0
 21
187.0
 31
0.0
  0
LINE
  5
2D3
330
1E
100
AcDbEntity
  8
CSLAYER1
  6
DOT
 62
     3
100
AcDbLine
 10
34.0
 20
187.0
 30
0.0
 11
34.0
 21
195.0
 31
0.0
  0
LINE
  5
2D4
330
1E
100
AcDbEntity
  8
CSLAYER1
  6
DOT
 62
     3
100
AcDbLine
 10
143.5
 20
195.0
 30
0.0
 11
143.5
 21
199.0
 31
0.0
  0
LINE
  5
2D5
330
1E
100
AcDbEntity
  8
CSLAYER1
  6
DOT
 62
     3
100
AcDbLine
 10
283.0
 20
195.0
 30
0.0
 11
283.0
 21
1.0
 31
0.0
  0
ENDSEC
  0
SECTION
  2
OBJECTS
  0
DICTIONARY
  5
C
330
0
100
AcDbDictionary
  3
ACAD_GROUP
350
D
  3
ACAD_LAYOUT
350
19
  3
ACAD_MLINESTYLE
350
16
  3
ACAD_PLOTSETTINGS
350
18
1001
ACAD
1000
TREAT_AS_HARD
1070
     0
1000
TREAT_AS_HARD
1070
     0
  0
DICTIONARY
  5
2DF
330
1E
100
AcDbDictionary
  3
ACAD_LAYOUTSELFREF
350
2FE
1001
ACAD
1000
TREAT_AS_HARD
1070
     0
  0
DICTIONARY
  5
2DD
330
1A
100
AcDbDictionary
  3
ACAD_LAYOUTSELFREF
350
2FD
1001
ACAD
1000
TREAT_AS_HARD
1070
     0
  0
DICTIONARY
  5
D
102
{ACAD_REACTORS
330
C
102
}
330
C
100
AcDbDictionary
1001
ACAD
1000
TREAT_AS_HARD
1070
     0
1000
TREAT_AS_HARD
1070
     0
  0
DICTIONARY
  5
19
102
{ACAD_REACTORS
330
C
102
}
330
C
100
AcDbDictionary
1001
ACAD
1000
TREAT_AS_HARD
1070
     0
1000
TREAT_AS_HARD
1070
     0
  0
DICTIONARY
  5
16
102
{ACAD_REACTORS
330
C
102
}
330
C
100
AcDbDictionary
  3
STANDARD
350
17
1001
ACAD
1000
TREAT_AS_HARD
1070
     0
1000
TREAT_AS_HARD
1070
     0
  0
DICTIONARY
  5
18
102
{ACAD_REACTORS
330
C
102
}
330
C
100
AcDbDictionary
1001
ACAD
1000
TREAT_AS_HARD
1070
     0
1000
TREAT_AS_HARD
1070
     0
  0
XRECORD
  5
2FE
102
{ACAD_REACTORS
330
2DF
102
}
330
2DF
100
AcDbXrecord
340
1E
  0
XRECORD
  5
2FD
102
{ACAD_REACTORS
330
2DD
102
}
330
2DD
100
AcDbXrecord
340
1A
  0
MLINESTYLE
  5
17
102
{ACAD_REACTORS
330
16
102
}
330
16
100
AcDbMlineStyle
  2
STANDARD
 70
     0
  3

 62
   256
 51
90.0
 52
90.0
 71
     2
 49
0.5
 62
   256
  6
BYLAYER
 49
-0.5
 62
   256
  6
BYLAYER
  0
ENDSEC
  0
EOF
