  0
SECTION
  2
HEADER
  9
$ACADVER
  1
AC1012
  9
$DWGCODEPAGE
  3
dos932
  9
$INSBASE
 10
0.0
 20
0.0
 30
0.0
  9
$EXTMIN
 10
-0.0090630292066862
 20
0.9869389666558276
 30
-0.0015258207003583
  9
$EXTMAX
 10
287.0163123253922
 20
199.0155034058442
 30
0.0000000349246037
  9
$LIMMIN
 10
0.0
 20
0.0
  9
$LIMMAX
 10
297.0
 20
210.0
  9
$ORTHOMODE
 70
     0
  9
$REGENMODE
 70
     1
  9
$FILLMODE
 70
     1
  9
$QTEXTMODE
 70
     0
  9
$MIRRTEXT
 70
     1
  9
$DRAGMODE
 70
     2
  9
$LTSCALE
 40
15.0
  9
$OSMODE
 70
    37
  9
$ATTMODE
 70
     1
  9
$TEXTSIZE
 40
0.2
  9
$TRACEWID
 40
0.05
  9
$TEXTSTYLE
  7
GOTHIC
  9
$CLAYER
  8
CSLAYER1
  9
$CELTYPE
  6
BYLAYER
  9
$CECOLOR
 62
   256
  9
$CELTSCALE
 40
1.0
  9
$DELOBJ
 70
     1
  9
$DISPSILH
 70
     0
  9
$DIMSCALE
 40
1.0
  9
$DIMASZ
 40
0.18
  9
$DIMEXO
 40
0.0625
  9
$DIMDLI
 40
0.38
  9
$DIMRND
 40
0.0
  9
$DIMDLE
 40
0.0
  9
$DIMEXE
 40
0.18
  9
$DIMTP
 40
0.0
  9
$DIMTM
 40
0.0
  9
$DIMTXT
 40
0.18
  9
$DIMCEN
 40
0.09
  9
$DIMTSZ
 40
0.0
  9
$DIMTOL
 70
     0
  9
$DIMLIM
 70
     0
  9
$DIMTIH
 70
     1
  9
$DIMTOH
 70
     1
  9
$DIMSE1
 70
     0
  9
$DIMSE2
 70
     0
  9
$DIMTAD
 70
     0
  9
$DIMZIN
 70
     0
  9
$DIMBLK
  1

  9
$DIMASO
 70
     1
  9
$DIMSHO
 70
     1
  9
$DIMPOST
  1

  9
$DIMAPOST
  1

  9
$DIMALT
 70
     0
  9
$DIMALTD
 70
     2
  9
$DIMALTF
 40
25.4
  9
$DIMLFAC
 40
1.0
  9
$DIMTOFL
 70
     0
  9
$DIMTVP
 40
0.0
  9
$DIMTIX
 70
     0
  9
$DIMSOXD
 70
     0
  9
$DIMSAH
 70
     0
  9
$DIMBLK1
  1

  9
$DIMBLK2
  1

  9
$DIMSTYLE
  2
STANDARD
  9
$DIMCLRD
 70
     0
  9
$DIMCLRE
 70
     0
  9
$DIMCLRT
 70
     0
  9
$DIMTFAC
 40
1.0
  9
$DIMGAP
 40
0.09
  9
$DIMJUST
 70
     0
  9
$DIMSD1
 70
     0
  9
$DIMSD2
 70
     0
  9
$DIMTOLJ
 70
     1
  9
$DIMTZIN
 70
     0
  9
$DIMALTZ
 70
     0
  9
$DIMALTTZ
 70
     0
  9
$DIMFIT
 70
     3
  9
$DIMUPT
 70
     0
  9
$DIMUNIT
 70
     2
  9
$DIMDEC
 70
     4
  9
$DIMTDEC
 70
     4
  9
$DIMALTU
 70
     2
  9
$DIMALTTD
 70
     2
  9
$DIMTXSTY
  7
STANDARD
  9
$DIMAUNIT
 70
     0
  9
$LUNITS
 70
     2
  9
$LUPREC
 70
     4
  9
$SKETCHINC
 40
0.1
  9
$FILLETRAD
 40
0.0
  9
$AUNITS
 70
     0
  9
$AUPREC
 70
     0
  9
$MENU
  1
ACAD
  9
$ELEVATION
 40
0.0
  9
$PELEVATION
 40
0.0
  9
$THICKNESS
 40
0.0
  9
$LIMCHECK
 70
     0
  9
$BLIPMODE
 70
     1
  9
$CHAMFERA
 40
0.0
  9
$CHAMFERB
 40
0.0
  9
$CHAMFERC
 40
0.0
  9
$CHAMFERD
 40
0.0
  9
$SKPOLY
 70
     0
  9
$TDCREATE
 40
2453453.000000000
  9
$TDUPDATE
 40
2453516.458749779
  9
$TDINDWG
 40
0.0003610532
  9
$TDUSRTIMER
 40
0.0003608102
  9
$USRTIMER
 70
     1
  9
$ANGBASE
 50
0.0
  9
$ANGDIR
 70
     0
  9
$PDMODE
 70
     0
  9
$PDSIZE
 40
0.0
  9
$PLINEWID
 40
0.0
  9
$COORDS
 70
     0
  9
$SPLFRAME
 70
     0
  9
$SPLINETYPE
 70
     6
  9
$SPLINESEGS
 70
     8
  9
$ATTDIA
 70
     0
  9
$ATTREQ
 70
     1
  9
$HANDLING
 70
-16383
  9
$HANDSEED
  5
305
  9
$SURFTAB1
 70
     6
  9
$SURFTAB2
 70
     6
  9
$SURFTYPE
 70
     6
  9
$SURFU
 70
     6
  9
$SURFV
 70
     6
  9
$UCSNAME
  2

  9
$UCSORG
 10
0.0
 20
0.0
 30
0.0
  9
$UCSXDIR
 10
1.0
 20
0.0
 30
0.0
  9
$UCSYDIR
 10
0.0
 20
1.0
 30
0.0
  9
$PUCSNAME
  2

  9
$PUCSORG
 10
0.0
 20
0.0
 30
0.0
  9
$PUCSXDIR
 10
1.0
 20
0.0
 30
0.0
  9
$PUCSYDIR
 10
0.0
 20
1.0
 30
0.0
  9
$USERI1
 70
     0
  9
$USERI2
 70
     0
  9
$USERI3
 70
     0
  9
$USERI4
 70
     0
  9
$USERI5
 70
     0
  9
$USERR1
 40
0.0
  9
$USERR2
 40
0.0
  9
$USERR3
 40
0.0
  9
$USERR4
 40
0.0
  9
$USERR5
 40
0.0
  9
$WORLDVIEW
 70
     1
  9
$SHADEDGE
 70
     3
  9
$SHADEDIF
 70
    70
  9
$TILEMODE
 70
     1
  9
$MAXACTVP
 70
    64
  9
$PINSBASE
 10
0.0
 20
0.0
 30
0.0
  9
$PLIMCHECK
 70
     0
  9
$PEXTMIN
 10
1.000000000000000E+20
 20
1.000000000000000E+20
 30
1.000000000000000E+20
  9
$PEXTMAX
 10
-1.000000000000000E+20
 20
-1.000000000000000E+20
 30
-1.000000000000000E+20
  9
$PLIMMIN
 10
0.0
 20
0.0
  9
$PLIMMAX
 10
12.0
 20
9.0
  9
$UNITMODE
 70
     0
  9
$VISRETAIN
 70
     1
  9
$PLINEGEN
 70
     0
  9
$PSLTSCALE
 70
     1
  9
$TREEDEPTH
 70
  3020
  9
$PICKSTYLE
 70
     3
  9
$CMLSTYLE
  2
STANDARD
  9
$CMLJUST
 70
     0
  9
$CMLSCALE
 40
1.0
  9
$SAVEIMAGES
 70
     1
  0
ENDSEC
  0
SECTION
  2
CLASSES
  0
CLASS
  1
ACDBDICTIONARYWDFLT
  2
AcDbDictionaryWithDefault
  3
AutoCAD 2000
 90
    32768
280
     0
281
     0
  0
CLASS
  1
ACDBPLACEHOLDER
  2
AcDbPlaceHolder
  3
AutoCAD 2000
 90
    32768
280
     0
281
     0
  0
CLASS
  1
LAYOUT
  2
AcDbLayout
  3
AutoCAD 2000
 90
    32768
280
     0
281
     0
  0
CLASS
  1
DICTIONARYVAR
  2
AcDbDictionaryVar
  3
AutoCAD 2000
 90
    32768
280
     0
281
     0
  0
CLASS
  1
LONG_TRANSACTION
  2
AcDbLongTransaction
  3
AutoCAD 2000
 90
    32768
280
     0
281
     0
  0
CLASS
  1
LWPOLYLINE
  2
AcDbPolyline
  3
AutoCAD 2000
 90
    32768
280
     0
281
     1
  0
CLASS
  1
HATCH
  2
AcDbHatch
  3
AutoCAD 2000
 90
    32768
280
     0
281
     1
  0
CLASS
  1
XRECORD
  2
AcDbXrecord
  3
AutoCAD 2000
 90
    32768
280
     0
281
     0
  0
CLASS
  1
LONG_TRANSACTION
  2
AcDbLongTransaction
  3
AutoCAD 2000
 90
    32768
280
     0
281
     0
  0
CLASS
  1
LWPOLYLINE
  2
AcDbPolyline
  3
AutoCAD 2000
 90
    32768
280
     0
281
     1
  0
CLASS
  1
HATCH
  2
AcDbHatch
  3
AutoCAD 2000
 90
    32768
280
     0
281
     1
  0
CLASS
  1
XRECORD
  2
AcDbXrecord
  3
AutoCAD 2000
 90
    32768
280
     0
281
     0
  0
ENDSEC
  0
SECTION
  2
TABLES
  0
TABLE
  2
VPORT
  5
8
330
0
100
AcDbSymbolTable
 70
     2
  0
VPORT
  5
302
330
8
100
AcDbSymbolTableRecord
100
AcDbViewportTableRecord
  2
*ACTIVE
 70
     0
 10
0.0
 20
0.0
 11
1.0
 21
1.0
 12
143.5036246480927
 22
100.00122118625
 13
0.0
 23
0.0
 14
1.0
 24
1.0
 15
0.0
 25
0.0
 16
0.0
 26
0.0
 36
1.0
 17
0.0
 27
0.0
 37
0.0
 40
199.5156375138256
 41
1.510025062656641
 42
50.0
 43
0.0
 44
0.0
 50
0.0
 51
0.0
 71
     0
 72
   100
 73
     1
 74
     1
 75
     0
 76
     0
 77
     0
 78
     0
  0
ENDTAB
  0
TABLE
  2
LTYPE
  5
5
330
0
100
AcDbSymbolTable
 70
     3
  0
LTYPE
  5
13
330
5
100
AcDbSymbolTableRecord
100
AcDbLinetypeTableRecord
  2
BYBLOCK
 70
     0
  3

 72
    65
 73
     0
 40
0.0
  0
LTYPE
  5
14
330
5
100
AcDbSymbolTableRecord
100
AcDbLinetypeTableRecord
  2
BYLAYER
 70
     0
  3

 72
    65
 73
     0
 40
0.0
  0
LTYPE
  5
15
330
5
100
AcDbSymbolTableRecord
100
AcDbLinetypeTableRecord
  2
CONTINUOUS
 70
     0
  3
Solid line
 72
    65
 73
     0
 40
0.0
  0
LTYPE
  5
25
330
5
100
AcDbSymbolTableRecord
100
AcDbLinetypeTableRecord
  2
DOT
 70
     0
  3
...............................................
 72
    65
 73
     2
 40
0.25
 49
0.0
 74
     0
 49
-0.25
 74
     0
  0
LTYPE
  5
28
330
5
100
AcDbSymbolTableRecord
100
AcDbLinetypeTableRecord
  2
CENTER
 70
     0
  3
____ _ ____ _ ____ _ ____ _ ____ _ ____ _ ____ 
 72
    65
 73
     4
 40
2.0
 49
1.25
 74
     0
 49
-0.25
 74
     0
 49
0.25
 74
     0
 49
-0.25
 74
     0
  0
ENDTAB
  0
TABLE
  2
LAYER
  5
2
330
0
100
AcDbSymbolTable
 70
     3
  0
LAYER
  5
10
330
2
100
AcDbSymbolTableRecord
100
AcDbLayerTableRecord
  2
0
 70
     0
 62
     7
  6
CONTINUOUS
  0
LAYER
  5
22
330
2
100
AcDbSymbolTableRecord
100
AcDbLayerTableRecord
  2
CSLAYER1
 70
     0
 62
     7
  6
CONTINUOUS
  0
LAYER
  5
2E7
330
2
100
AcDbSymbolTableRecord
100
AcDbLayerTableRecord
  2
DEFPOINTS
 70
     0
 62
     7
  6
CONTINUOUS
  0
ENDTAB
  0
TABLE
  2
STYLE
  5
3
330
0
100
AcDbSymbolTable
 70
     3
  0
STYLE
  5
11
330
3
100
AcDbSymbolTableRecord
100
AcDbTextStyleTableRecord
  2
STANDARD
 70
     0
 40
0.0
 41
1.0
 50
0.0
 71
     0
 42
0.2
  3
txt
  4
extfont.shx
  0
STYLE
  5
3A
330
3
100
AcDbSymbolTableRecord
100
AcDbTextStyleTableRecord
  2
FX_FONT
 70
     0
 40
1.0
 41
1.0
 50
0.0
 71
     0
 42
1.0
  3
monotxt
  4
bigfont
  0
STYLE
  5
2DF
330
3
100
AcDbSymbolTableRecord
100
AcDbTextStyleTableRecord
  2
GOTHIC
 70
     0
 40
0.0
 41
1.0
 50
0.0
 71
     0
 42
0.2
  3
txt.shx
  4
extfont.shx
  0
ENDTAB
  0
TABLE
  2
VIEW
  5
6
330
0
100
AcDbSymbolTable
 70
     0
  0
ENDTAB
  0
TABLE
  2
UCS
  5
7
330
0
100
AcDbSymbolTable
 70
     0
  0
ENDTAB
  0
TABLE
  2
APPID
  5
9
330
0
100
AcDbSymbolTable
 70
     1
  0
APPID
  5
12
330
9
100
AcDbSymbolTableRecord
100
AcDbRegAppTableRecord
  2
ACAD
 70
     0
  0
ENDTAB
  0
TABLE
  2
DIMSTYLE
  5
A
330
0
100
AcDbSymbolTable
 70
     1
  0
DIMSTYLE
105
2DC
330
A
100
AcDbSymbolTableRecord
100
AcDbDimStyleTableRecord
  2
STANDARD
 70
     0
  3

  4

  5

  6

  7

 40
1.0
 41
0.18
 42
0.0625
 43
0.38
 44
0.18
 45
0.0
 46
0.0
 47
0.0
 48
0.0
140
0.18
141
0.09
142
0.0
143
25.4
144
1.0
145
0.0
146
1.0
147
0.09
 71
     0
 72
     0
 73
     1
 74
     1
 75
     0
 76
     0
 77
     0
 78
     0
170
     0
171
     2
172
     0
173
     0
174
     0
175
     0
176
     0
177
     0
178
     0
270
     2
271
     4
272
     4
273
     2
274
     2
340
11
275
     0
280
     0
281
     0
282
     0
283
     1
284
     0
285
     0
286
     0
287
     3
288
     0
  0
ENDTAB
  0
TABLE
  2
BLOCK_RECORD
  5
1
330
0
100
AcDbSymbolTable
 70
    31
  0
BLOCK_RECORD
  5
1E
102
{ACAD_XDICTIONARY
360
2E5
102
}
330
1
100
AcDbSymbolTableRecord
100
AcDbBlockTableRecord
  2
*MODEL_SPACE
  0
BLOCK_RECORD
  5
1A
102
{ACAD_XDICTIONARY
360
2E3
102
}
330
1
100
AcDbSymbolTableRecord
100
AcDbBlockTableRecord
  2
*PAPER_SPACE
  0
BLOCK_RECORD
  5
3F
330
1
100
AcDbSymbolTableRecord
100
AcDbBlockTableRecord
  2
*D0
  0
BLOCK_RECORD
  5
4A
330
1
100
AcDbSymbolTableRecord
100
AcDbBlockTableRecord
  2
*D1
  0
BLOCK_RECORD
  5
55
330
1
100
AcDbSymbolTableRecord
100
AcDbBlockTableRecord
  2
*D2
  0
BLOCK_RECORD
  5
60
330
1
100
AcDbSymbolTableRecord
100
AcDbBlockTableRecord
  2
*D3
  0
BLOCK_RECORD
  5
6B
330
1
100
AcDbSymbolTableRecord
100
AcDbBlockTableRecord
  2
*D4
  0
BLOCK_RECORD
  5
76
330
1
100
AcDbSymbolTableRecord
100
AcDbBlockTableRecord
  2
*D5
  0
BLOCK_RECORD
  5
80
330
1
100
AcDbSymbolTableRecord
100
AcDbBlockTableRecord
  2
*D6
  0
BLOCK_RECORD
  5
89
330
1
100
AcDbSymbolTableRecord
100
AcDbBlockTableRecord
  2
*D7
  0
BLOCK_RECORD
  5
93
330
1
100
AcDbSymbolTableRecord
100
AcDbBlockTableRecord
  2
FXDIM0000
  0
BLOCK_RECORD
  5
97
330
1
100
AcDbSymbolTableRecord
100
AcDbBlockTableRecord
  2
*D9
  0
BLOCK_RECORD
  5
A0
330
1
100
AcDbSymbolTableRecord
100
AcDbBlockTableRecord
  2
*D10
  0
BLOCK_RECORD
  5
AA
330
1
100
AcDbSymbolTableRecord
100
AcDbBlockTableRecord
  2
*D11
  0
BLOCK_RECORD
  5
B3
330
1
100
AcDbSymbolTableRecord
100
AcDbBlockTableRecord
  2
*D12
  0
BLOCK_RECORD
  5
BC
330
1
100
AcDbSymbolTableRecord
100
AcDbBlockTableRecord
  2
*D13
  0
BLOCK_RECORD
  5
C7
330
1
100
AcDbSymbolTableRecord
100
AcDbBlockTableRecord
  2
*D14
  0
BLOCK_RECORD
  5
D2
330
1
100
AcDbSymbolTableRecord
100
AcDbBlockTableRecord
  2
*D15
  0
BLOCK_RECORD
  5
DD
330
1
100
AcDbSymbolTableRecord
100
AcDbBlockTableRecord
  2
*D16
  0
BLOCK_RECORD
  5
E6
330
1
100
AcDbSymbolTableRecord
100
AcDbBlockTableRecord
  2
*D17
  0
BLOCK_RECORD
  5
F1
330
1
100
AcDbSymbolTableRecord
100
AcDbBlockTableRecord
  2
*D18
  0
BLOCK_RECORD
  5
FC
330
1
100
AcDbSymbolTableRecord
100
AcDbBlockTableRecord
  2
FXDIM0001
  0
BLOCK_RECORD
  5
104
330
1
100
AcDbSymbolTableRecord
100
AcDbBlockTableRecord
  2
FXDIM0002
  0
BLOCK_RECORD
  5
10C
330
1
100
AcDbSymbolTableRecord
100
AcDbBlockTableRecord
  2
*D21
  0
BLOCK_RECORD
  5
117
330
1
100
AcDbSymbolTableRecord
100
AcDbBlockTableRecord
  2
*D22
  0
BLOCK_RECORD
  5
122
330
1
100
AcDbSymbolTableRecord
100
AcDbBlockTableRecord
  2
*D23
  0
BLOCK_RECORD
  5
12C
330
1
100
AcDbSymbolTableRecord
100
AcDbBlockTableRecord
  2
*D24
  0
BLOCK_RECORD
  5
136
330
1
100
AcDbSymbolTableRecord
100
AcDbBlockTableRecord
  2
*D25
  0
BLOCK_RECORD
  5
141
330
1
100
AcDbSymbolTableRecord
100
AcDbBlockTableRecord
  2
*D26
  0
BLOCK_RECORD
  5
14C
330
1
100
AcDbSymbolTableRecord
100
AcDbBlockTableRecord
  2
FXDIM0003
  0
BLOCK_RECORD
  5
154
330
1
100
AcDbSymbolTableRecord
100
AcDbBlockTableRecord
  2
FXDIM0004
  0
BLOCK_RECORD
  5
15C
330
1
100
AcDbSymbolTableRecord
100
AcDbBlockTableRecord
  2
*D29
  0
BLOCK_RECORD
  5
2E8
330
1
100
AcDbSymbolTableRecord
100
AcDbBlockTableRecord
  2
*D30
  0
ENDTAB
  0
ENDSEC
  0
SECTION
  2
BLOCKS
  0
BLOCK
  5
1F
330
1E
100
AcDbEntity
  8
0
100
AcDbBlockBegin
  2
*MODEL_SPACE
 70
     0
 10
0.0
 20
0.0
 30
0.0
  3
*MODEL_SPACE
  1

  0
ENDBLK
  5
20
330
1E
100
AcDbEntity
  8
0
100
AcDbBlockEnd
  0
BLOCK
  5
1B
330
1A
100
AcDbEntity
 67
     1
  8
0
100
AcDbBlockBegin
  2
*PAPER_SPACE
 70
     0
 10
0.0
 20
0.0
 30
0.0
  3
*PAPER_SPACE
  1

  0
ENDBLK
  5
1C
330
1A
100
AcDbEntity
 67
     1
  8
0
100
AcDbBlockEnd
  0
BLOCK
  5
40
330
3F
100
AcDbEntity
  8
0
100
AcDbBlockBegin
  2
*D0
 70
     1
 10
0.0
 20
0.0
 30
0.0
  3
*D0
  1

  0
TEXT
  5
41
330
3F
100
AcDbEntity
  8
CSLAYER1
 62
     4
100
AcDbText
 10
27.431274
 20
135.999997
 30
0.0
 40
3.2
  1
30
 50
90.0
 41
1.199999999999979
 51
15.0
  7
FX_FONT
 72
     5
 11
27.431274
 21
142.3999969999998
 31
0.0
100
AcDbText
  0
LINE
  5
42
330
3F
100
AcDbEntity
  8
CSLAYER1
  6
CONTINUOUS
 62
     4
100
AcDbLine
 10
38.44744399999999
 20
124.1999999999999
 30
0.0
 11
26.931276
 21
124.1999999999999
 31
0.0
  0
LINE
  5
43
330
3F
100
AcDbEntity
  8
CSLAYER1
  6
CONTINUOUS
 62
     4
100
AcDbLine
 10
38.44744399999999
 20
154.1999999999999
 30
0.0
 11
26.931276
 21
154.1999999999999
 31
0.0
  0
LINE
  5
44
330
3F
100
AcDbEntity
  8
CSLAYER1
  6
CONTINUOUS
 62
     4
100
AcDbLine
 10
27.931276
 20
124.1999999999999
 30
0.0
 11
27.931276
 21
154.1999999999999
 31
0.0
  0
LINE
  5
45
330
3F
100
AcDbEntity
  8
CSLAYER1
  6
CONTINUOUS
 62
     4
100
AcDbLine
 10
27.931276
 20
124.1999999999999
 30
0.0
 11
27.154819
 21
127.097777
 31
0.0
  0
LINE
  5
46
330
3F
100
AcDbEntity
  8
CSLAYER1
  6
CONTINUOUS
 62
     4
100
AcDbLine
 10
27.931276
 20
124.1999999999999
 30
0.0
 11
28.707733
 21
127.097777
 31
0.0
  0
LINE
  5
47
330
3F
100
AcDbEntity
  8
CSLAYER1
  6
CONTINUOUS
 62
     4
100
AcDbLine
 10
27.931276
 20
154.1999999999999
 30
0.0
 11
27.154819
 21
151.3022229999999
 31
0.0
  0
LINE
  5
48
330
3F
100
AcDbEntity
  8
CSLAYER1
  6
CONTINUOUS
 62
     4
100
AcDbLine
 10
27.931276
 20
154.1999999999999
 30
0.0
 11
28.707733
 21
151.3022229999999
 31
0.0
  0
ENDBLK
  5
49
330
3F
100
AcDbEntity
  8
0
100
AcDbBlockEnd
  0
BLOCK
  5
4B
330
4A
100
AcDbEntity
  8
0
100
AcDbBlockBegin
  2
*D1
 70
     1
 10
0.0
 20
0.0
 30
0.0
  3
*D1
  1

  0
TEXT
  5
4C
330
4A
100
AcDbEntity
  8
CSLAYER1
 62
     4
100
AcDbText
 10
51.247445
 20
175.700607
 30
0.0
 40
3.2
  1
30
 41
1.199999999999998
 51
15.0
  7
FX_FONT
 72
     5
 11
57.64744499999999
 21
175.700607
 31
0.0
100
AcDbText
  0
LINE
  5
4D
330
4A
100
AcDbEntity
  8
CSLAYER1
  6
CONTINUOUS
 62
     4
100
AcDbLine
 10
39.44744399999999
 20
155.1999999999999
 30
0.0
 11
39.44744399999999
 21
176.200605
 31
0.0
  0
LINE
  5
4E
330
4A
100
AcDbEntity
  8
CSLAYER1
  6
CONTINUOUS
 62
     4
100
AcDbLine
 10
69.44744399999999
 20
155.1999999999999
 30
0.0
 11
69.44744399999999
 21
176.200605
 31
0.0
  0
LINE
  5
4F
330
4A
100
AcDbEntity
  8
CSLAYER1
  6
CONTINUOUS
 62
     4
100
AcDbLine
 10
39.44744399999999
 20
175.200605
 30
0.0
 11
69.44744399999999
 21
175.200605
 31
0.0
  0
LINE
  5
50
330
4A
100
AcDbEntity
  8
CSLAYER1
  6
CONTINUOUS
 62
     4
100
AcDbLine
 10
39.44744399999999
 20
175.200605
 30
0.0
 11
42.345221
 21
175.977062
 31
0.0
  0
LINE
  5
51
330
4A
100
AcDbEntity
  8
CSLAYER1
  6
CONTINUOUS
 62
     4
100
AcDbLine
 10
39.44744399999999
 20
175.200605
 30
0.0
 11
42.345221
 21
174.424148
 31
0.0
  0
LINE
  5
52
330
4A
100
AcDbEntity
  8
CSLAYER1
  6
CONTINUOUS
 62
     4
100
AcDbLine
 10
69.44744399999999
 20
175.200605
 30
0.0
 11
66.549666
 21
175.977062
 31
0.0
  0
LINE
  5
53
330
4A
100
AcDbEntity
  8
CSLAYER1
  6
CONTINUOUS
 62
     4
100
AcDbLine
 10
69.44744399999999
 20
175.200605
 30
0.0
 11
66.549666
 21
174.424148
 31
0.0
  0
ENDBLK
  5
54
330
4A
100
AcDbEntity
  8
0
100
AcDbBlockEnd
  0
BLOCK
  5
56
330
55
100
AcDbEntity
  8
0
100
AcDbBlockBegin
  2
*D2
 70
     1
 10
0.0
 20
0.0
 30
0.0
  3
*D2
  1

  0
TEXT
  5
57
330
55
100
AcDbEntity
  8
CSLAYER1
 62
     4
100
AcDbText
 10
51.247445
 20
169.700607
 30
0.0
 40
3.2
  1
23
 41
1.199999999999998
 51
15.0
  7
FX_FONT
 72
     5
 11
57.64744499999999
 21
169.700607
 31
0.0
100
AcDbText
  0
LINE
  5
58
330
55
100
AcDbEntity
  8
CSLAYER1
  6
CONTINUOUS
 62
     4
100
AcDbLine
 10
42.94744399999999
 20
145.9398699999999
 30
0.0
 11
42.94744399999999
 21
170.200605
 31
0.0
  0
LINE
  5
59
330
55
100
AcDbEntity
  8
CSLAYER1
  6
CONTINUOUS
 62
     4
100
AcDbLine
 10
65.94744399999999
 20
145.9398699999999
 30
0.0
 11
65.94744399999999
 21
170.200605
 31
0.0
  0
LINE
  5
5A
330
55
100
AcDbEntity
  8
CSLAYER1
  6
CONTINUOUS
 62
     4
100
AcDbLine
 10
42.94744399999999
 20
169.2006049999999
 30
0.0
 11
65.94744399999999
 21
169.2006049999999
 31
0.0
  0
LINE
  5
5B
330
55
100
AcDbEntity
  8
CSLAYER1
  6
CONTINUOUS
 62
     4
100
AcDbLine
 10
42.94744399999999
 20
169.2006049999999
 30
0.0
 11
45.845221
 21
169.977062
 31
0.0
  0
LINE
  5
5C
330
55
100
AcDbEntity
  8
CSLAYER1
  6
CONTINUOUS
 62
     4
100
AcDbLine
 10
42.94744399999999
 20
169.2006049999999
 30
0.0
 11
45.845221
 21
168.424148
 31
0.0
  0
LINE
  5
5D
330
55
100
AcDbEntity
  8
CSLAYER1
  6
CONTINUOUS
 62
     4
100
AcDbLine
 10
65.94744399999999
 20
169.2006049999999
 30
0.0
 11
63.049666
 21
169.977062
 31
0.0
  0
LINE
  5
5E
330
55
100
AcDbEntity
  8
CSLAYER1
  6
CONTINUOUS
 62
     4
100
AcDbLine
 10
65.94744399999999
 20
169.2006049999999
 30
0.0
 11
63.049666
 21
168.424148
 31
0.0
  0
ENDBLK
  5
5F
330
55
100
AcDbEntity
  8
0
100
AcDbBlockEnd
  0
BLOCK
  5
61
330
60
100
AcDbEntity
  8
0
100
AcDbBlockBegin
  2
*D3
 70
     1
 10
0.0
 20
0.0
 30
0.0
  3
*D3
  1

  0
TEXT
  5
62
330
60
100
AcDbEntity
  8
CSLAYER1
 62
     4
100
AcDbText
 10
52.84744499999999
 20
163.700607
 30
0.0
 40
3.2
  1
7
 41
1.499999999999998
 51
15.0
  7
FX_FONT
 72
     5
 11
56.04744499999998
 21
163.700607
 31
0.0
100
AcDbText
  0
LINE
  5
63
330
60
100
AcDbEntity
  8
CSLAYER1
  6
CONTINUOUS
 62
     4
100
AcDbLine
 10
50.94744399999999
 20
155.1999999999999
 30
0.0
 11
50.94744399999999
 21
164.2006049999999
 31
0.0
  0
LINE
  5
64
330
60
100
AcDbEntity
  8
CSLAYER1
  6
CONTINUOUS
 62
     4
100
AcDbLine
 10
57.94744399999999
 20
155.1999999999999
 30
0.0
 11
57.94744399999999
 21
164.2006049999999
 31
0.0
  0
LINE
  5
65
330
60
100
AcDbEntity
  8
CSLAYER1
  6
CONTINUOUS
 62
     4
100
AcDbLine
 10
50.94744399999999
 20
163.200605
 30
0.0
 11
57.94744399999999
 21
163.200605
 31
0.0
  0
LINE
  5
66
330
60
100
AcDbEntity
  8
CSLAYER1
  6
CONTINUOUS
 62
     4
100
AcDbLine
 10
50.94744399999999
 20
163.200605
 30
0.0
 11
53.84522099999998
 21
163.977062
 31
0.0
  0
LINE
  5
67
330
60
100
AcDbEntity
  8
CSLAYER1
  6
CONTINUOUS
 62
     4
100
AcDbLine
 10
50.94744399999999
 20
163.200605
 30
0.0
 11
53.84522099999998
 21
162.424148
 31
0.0
  0
LINE
  5
68
330
60
100
AcDbEntity
  8
CSLAYER1
  6
CONTINUOUS
 62
     4
100
AcDbLine
 10
57.94744399999999
 20
163.200605
 30
0.0
 11
55.049666
 21
163.977062
 31
0.0
  0
LINE
  5
69
330
60
100
AcDbEntity
  8
CSLAYER1
  6
CONTINUOUS
 62
     4
100
AcDbLine
 10
57.94744399999999
 20
163.200605
 30
0.0
 11
55.049666
 21
162.424148
 31
0.0
  0
ENDBLK
  5
6A
330
60
100
AcDbEntity
  8
0
100
AcDbBlockEnd
  0
BLOCK
  5
6C
330
6B
100
AcDbEntity
  8
0
100
AcDbBlockBegin
  2
*D4
 70
     1
 10
0.0
 20
0.0
 30
0.0
  3
*D4
  1

  0
TEXT
  5
6D
330
6B
100
AcDbEntity
  8
CSLAYER1
 62
     4
100
AcDbText
 10
86.385567
 20
135.999997
 30
0.0
 40
3.2
  1
14
 50
90.0
 41
1.199999999999979
 51
15.0
  7
FX_FONT
 72
     5
 11
86.385567
 21
142.3999969999998
 31
0.0
100
AcDbText
  0
LINE
  5
6E
330
6B
100
AcDbEntity
  8
CSLAYER1
  6
CONTINUOUS
 62
     4
100
AcDbLine
 10
96.447444
 20
132.1999999999998
 30
0.0
 11
85.88556399999999
 21
132.1999999999998
 31
0.0
  0
LINE
  5
6F
330
6B
100
AcDbEntity
  8
CSLAYER1
  6
CONTINUOUS
 62
     4
100
AcDbLine
 10
96.447444
 20
146.1999999999999
 30
0.0
 11
85.88556399999999
 21
146.1999999999999
 31
0.0
  0
LINE
  5
70
330
6B
100
AcDbEntity
  8
CSLAYER1
  6
CONTINUOUS
 62
     4
100
AcDbLine
 10
86.88556400000001
 20
132.1999999999998
 30
0.0
 11
86.88556400000001
 21
146.1999999999999
 31
0.0
  0
LINE
  5
71
330
6B
100
AcDbEntity
  8
CSLAYER1
  6
CONTINUOUS
 62
     4
100
AcDbLine
 10
86.88556400000001
 20
132.1999999999998
 30
0.0
 11
86.10910699999998
 21
135.097777
 31
0.0
  0
LINE
  5
72
330
6B
100
AcDbEntity
  8
CSLAYER1
  6
CONTINUOUS
 62
     4
100
AcDbLine
 10
86.88556400000001
 20
132.1999999999998
 30
0.0
 11
87.662022
 21
135.097777
 31
0.0
  0
LINE
  5
73
330
6B
100
AcDbEntity
  8
CSLAYER1
  6
CONTINUOUS
 62
     4
100
AcDbLine
 10
86.88556400000001
 20
146.1999999999999
 30
0.0
 11
86.10910699999998
 21
143.3022229999999
 31
0.0
  0
LINE
  5
74
330
6B
100
AcDbEntity
  8
CSLAYER1
  6
CONTINUOUS
 62
     4
100
AcDbLine
 10
86.88556400000001
 20
146.1999999999999
 30
0.0
 11
87.662022
 21
143.3022229999999
 31
0.0
  0
ENDBLK
  5
75
330
6B
100
AcDbEntity
  8
0
100
AcDbBlockEnd
  0
BLOCK
  5
77
330
76
100
AcDbEntity
  8
0
100
AcDbBlockBegin
  2
*D5
 70
     1
 10
0.0
 20
0.0
 30
0.0
  3
*D5
  1

  0
TEXT
  5
78
330
76
100
AcDbEntity
  8
CSLAYER1
 62
     4
100
AcDbText
 10
131.247433
 20
173.347549
 30
0.0
 40
3.2
  1
74
 41
1.2000001875
 51
15.0
  7
FX_FONT
 72
     5
 11
137.647434
 21
173.347549
 31
0.0
100
AcDbText
  0
LINE
  5
79
330
76
100
AcDbEntity
  8
CSLAYER1
  6
CONTINUOUS
 62
     4
100
AcDbLine
 10
171.447444
 20
155.1999999999999
 30
0.0
 11
171.447444
 21
173.847553
 31
0.0
  0
LINE
  5
7A
330
76
100
AcDbEntity
  8
CSLAYER1
  6
CONTINUOUS
 62
     4
100
AcDbLine
 10
97.447444
 20
172.847553
 30
0.0
 11
171.447444
 21
172.847553
 31
0.0
  0
LINE
  5
7B
330
76
100
AcDbEntity
  8
CSLAYER1
  6
CONTINUOUS
 62
     4
100
AcDbLine
 10
97.447444
 20
172.847553
 30
0.0
 11
100.345221
 21
173.62401
 31
0.0
  0
LINE
  5
7C
330
76
100
AcDbEntity
  8
CSLAYER1
  6
CONTINUOUS
 62
     4
100
AcDbLine
 10
97.447444
 20
172.847553
 30
0.0
 11
100.345221
 21
172.0710959999999
 31
0.0
  0
LINE
  5
7D
330
76
100
AcDbEntity
  8
CSLAYER1
  6
CONTINUOUS
 62
     4
100
AcDbLine
 10
171.447444
 20
172.847553
 30
0.0
 11
168.549666
 21
173.62401
 31
0.0
  0
LINE
  5
7E
330
76
100
AcDbEntity
  8
CSLAYER1
  6
CONTINUOUS
 62
     4
100
AcDbLine
 10
171.447444
 20
172.847553
 30
0.0
 11
168.549666
 21
172.0710959999999
 31
0.0
  0
ENDBLK
  5
7F
330
76
100
AcDbEntity
  8
0
100
AcDbBlockEnd
  0
BLOCK
  5
81
330
80
100
AcDbEntity
  8
0
100
AcDbBlockBegin
  2
*D6
 70
     1
 10
0.0
 20
0.0
 30
0.0
  3
*D6
  1

  0
TEXT
  5
82
330
80
100
AcDbEntity
  8
CSLAYER1
 62
     4
100
AcDbText
 10
178.247433
 20
173.347549
 30
0.0
 40
3.2
  1
20
 41
1.2000001875
 51
15.0
  7
FX_FONT
 72
     5
 11
184.647434
 21
173.347549
 31
0.0
100
AcDbText
  0
LINE
  5
83
330
80
100
AcDbEntity
  8
CSLAYER1
  6
CONTINUOUS
 62
     4
100
AcDbLine
 10
171.447444
 20
172.847553
 30
0.0
 11
191.447444
 21
172.847553
 31
0.0
  0
LINE
  5
84
330
80
100
AcDbEntity
  8
CSLAYER1
  6
CONTINUOUS
 62
     4
100
AcDbLine
 10
171.447444
 20
172.847553
 30
0.0
 11
174.345221
 21
173.62401
 31
0.0
  0
LINE
  5
85
330
80
100
AcDbEntity
  8
CSLAYER1
  6
CONTINUOUS
 62
     4
100
AcDbLine
 10
171.447444
 20
172.847553
 30
0.0
 11
174.345221
 21
172.0710959999999
 31
0.0
  0
LINE
  5
86
330
80
100
AcDbEntity
  8
CSLAYER1
  6
CONTINUOUS
 62
     4
100
AcDbLine
 10
191.447444
 20
172.847553
 30
0.0
 11
188.549666
 21
173.62401
 31
0.0
  0
LINE
  5
87
330
80
100
AcDbEntity
  8
CSLAYER1
  6
CONTINUOUS
 62
     4
100
AcDbLine
 10
191.447444
 20
172.847553
 30
0.0
 11
188.549666
 21
172.0710959999999
 31
0.0
  0
ENDBLK
  5
88
330
80
100
AcDbEntity
  8
0
100
AcDbBlockEnd
  0
BLOCK
  5
8A
330
89
100
AcDbEntity
  8
0
100
AcDbBlockBegin
  2
*D7
 70
     1
 10
0.0
 20
0.0
 30
0.0
  3
*D7
  1

  0
TEXT
  5
8B
330
89
100
AcDbEntity
  8
CSLAYER1
 62
     4
100
AcDbText
 10
138.747433
 20
167.3475489999999
 30
0.0
 40
3.2
  1
59
 41
1.2000001875
 51
15.0
  7
FX_FONT
 72
     5
 11
145.147434
 21
167.3475489999999
 31
0.0
100
AcDbText
  0
LINE
  5
8C
330
89
100
AcDbEntity
  8
CSLAYER1
  6
CONTINUOUS
 62
     4
100
AcDbLine
 10
112.4474439999999
 20
155.1999999999999
 30
0.0
 11
112.4474439999999
 21
167.847553
 31
0.0
  0
LINE
  5
8D
330
89
100
AcDbEntity
  8
CSLAYER1
  6
CONTINUOUS
 62
     4
100
AcDbLine
 10
112.4474439999999
 20
166.847553
 30
0.0
 11
171.447444
 21
166.847553
 31
0.0
  0
LINE
  5
8E
330
89
100
AcDbEntity
  8
CSLAYER1
  6
CONTINUOUS
 62
     4
100
AcDbLine
 10
112.4474439999999
 20
166.847553
 30
0.0
 11
115.3452209999999
 21
167.62401
 31
0.0
  0
LINE
  5
8F
330
89
100
AcDbEntity
  8
CSLAYER1
  6
CONTINUOUS
 62
     4
100
AcDbLine
 10
112.4474439999999
 20
166.847553
 30
0.0
 11
115.3452209999999
 21
166.0710959999998
 31
0.0
  0
LINE
  5
90
330
89
100
AcDbEntity
  8
CSLAYER1
  6
CONTINUOUS
 62
     4
100
AcDbLine
 10
171.447444
 20
166.847553
 30
0.0
 11
168.549666
 21
167.62401
 31
0.0
  0
LINE
  5
91
330
89
100
AcDbEntity
  8
CSLAYER1
  6
CONTINUOUS
 62
     4
100
AcDbLine
 10
171.447444
 20
166.847553
 30
0.0
 11
168.549666
 21
166.0710959999998
 31
0.0
  0
ENDBLK
  5
92
330
89
100
AcDbEntity
  8
0
100
AcDbBlockEnd
  0
BLOCK
  5
94
330
93
100
AcDbEntity
  8
0
100
AcDbBlockBegin
  2
FXDIM0000
 70
     0
 10
0.0
 20
0.0
 30
0.0
  3
FXDIM0000
  1

  0
LINE
  5
95
330
93
100
AcDbEntity
  8
CSLAYER1
  6
CONTINUOUS
 62
     4
100
AcDbLine
 10
176.4474439999999
 20
155.1999999999999
 30
0.0
 11
176.4474439999999
 21
167.847553
 31
0.0
  0
ENDBLK
  5
96
330
93
100
AcDbEntity
  8
0
100
AcDbBlockEnd
  0
BLOCK
  5
98
330
97
100
AcDbEntity
  8
0
100
AcDbBlockBegin
  2
*D9
 70
     1
 10
0.0
 20
0.0
 30
0.0
  3
*D9
  1

  0
TEXT
  5
99
330
97
100
AcDbEntity
  8
CSLAYER1
 62
     4
100
AcDbText
 10
180.7474329999999
 20
167.3475489999999
 30
0.0
 40
3.2
  1
15
 41
1.2000001875
 51
15.0
  7
FX_FONT
 72
     5
 11
187.1474339999999
 21
167.3475489999999
 31
0.0
100
AcDbText
  0
LINE
  5
9A
330
97
100
AcDbEntity
  8
CSLAYER1
  6
CONTINUOUS
 62
     4
100
AcDbLine
 10
176.4474439999999
 20
166.847553
 30
0.0
 11
191.447444
 21
166.847553
 31
0.0
  0
LINE
  5
9B
330
97
100
AcDbEntity
  8
CSLAYER1
  6
CONTINUOUS
 62
     4
100
AcDbLine
 10
176.4474439999999
 20
166.847553
 30
0.0
 11
179.345221
 21
167.62401
 31
0.0
  0
LINE
  5
9C
330
97
100
AcDbEntity
  8
CSLAYER1
  6
CONTINUOUS
 62
     4
100
AcDbLine
 10
176.4474439999999
 20
166.847553
 30
0.0
 11
179.345221
 21
166.0710959999998
 31
0.0
  0
LINE
  5
9D
330
97
100
AcDbEntity
  8
CSLAYER1
  6
CONTINUOUS
 62
     4
100
AcDbLine
 10
191.447444
 20
166.847553
 30
0.0
 11
188.549666
 21
167.62401
 31
0.0
  0
LINE
  5
9E
330
97
100
AcDbEntity
  8
CSLAYER1
  6
CONTINUOUS
 62
     4
100
AcDbLine
 10
191.447444
 20
166.847553
 30
0.0
 11
188.549666
 21
166.0710959999998
 31
0.0
  0
ENDBLK
  5
9F
330
97
100
AcDbEntity
  8
0
100
AcDbBlockEnd
  0
BLOCK
  5
A1
330
A0
100
AcDbEntity
  8
0
100
AcDbBlockBegin
  2
*D10
 70
     1
 10
0.0
 20
0.0
 30
0.0
  3
*D10
  1

  0
TEXT
  5
A2
330
A0
100
AcDbEntity
  8
CSLAYER1
 62
     4
100
AcDbText
 10
99.347449
 20
161.3475489999999
 30
0.0
 40
3.2
  1
7
 41
1.500000000000001
 51
15.0
  7
FX_FONT
 72
     5
 11
102.547449
 21
161.3475489999999
 31
0.0
100
AcDbText
  0
LINE
  5
A3
330
A0
100
AcDbEntity
  8
CSLAYER1
  6
CONTINUOUS
 62
     4
100
AcDbLine
 10
104.4474439999999
 20
143.809167
 30
0.0
 11
104.4474439999999
 21
161.8475529999998
 31
0.0
  0
LINE
  5
A4
330
A0
100
AcDbEntity
  8
CSLAYER1
  6
CONTINUOUS
 62
     4
100
AcDbLine
 10
97.447444
 20
160.8475529999998
 30
0.0
 11
104.4474439999999
 21
160.8475529999998
 31
0.0
  0
LINE
  5
A5
330
A0
100
AcDbEntity
  8
CSLAYER1
  6
CONTINUOUS
 62
     4
100
AcDbLine
 10
97.447444
 20
160.8475529999998
 30
0.0
 11
100.345221
 21
161.6240099999999
 31
0.0
  0
LINE
  5
A6
330
A0
100
AcDbEntity
  8
CSLAYER1
  6
CONTINUOUS
 62
     4
100
AcDbLine
 10
97.447444
 20
160.8475529999998
 30
0.0
 11
100.345221
 21
160.0710959999998
 31
0.0
  0
LINE
  5
A7
330
A0
100
AcDbEntity
  8
CSLAYER1
  6
CONTINUOUS
 62
     4
100
AcDbLine
 10
104.4474439999999
 20
160.8475529999998
 30
0.0
 11
101.5496659999999
 21
161.6240099999999
 31
0.0
  0
LINE
  5
A8
330
A0
100
AcDbEntity
  8
CSLAYER1
  6
CONTINUOUS
 62
     4
100
AcDbLine
 10
104.4474439999999
 20
160.8475529999998
 30
0.0
 11
101.5496659999999
 21
160.0710959999998
 31
0.0
  0
ENDBLK
  5
A9
330
A0
100
AcDbEntity
  8
0
100
AcDbBlockEnd
  0
BLOCK
  5
AB
330
AA
100
AcDbEntity
  8
0
100
AcDbBlockBegin
  2
*D11
 70
     1
 10
0.0
 20
0.0
 30
0.0
  3
*D11
  1

  0
TEXT
  5
AC
330
AA
100
AcDbEntity
  8
CSLAYER1
 62
     4
100
AcDbText
 10
161.2474329999999
 20
161.3475489999999
 30
0.0
 40
3.2
  1
14
 41
1.200000187500016
 51
15.0
  7
FX_FONT
 72
     5
 11
167.647434
 21
161.3475489999999
 31
0.0
100
AcDbText
  0
LINE
  5
AD
330
AA
100
AcDbEntity
  8
CSLAYER1
  6
CONTINUOUS
 62
     4
100
AcDbLine
 10
157.4474439999999
 20
160.8475529999998
 30
0.0
 11
171.447444
 21
160.8475529999998
 31
0.0
  0
LINE
  5
AE
330
AA
100
AcDbEntity
  8
CSLAYER1
  6
CONTINUOUS
 62
     4
100
AcDbLine
 10
157.4474439999999
 20
160.8475529999998
 30
0.0
 11
160.345221
 21
161.6240099999999
 31
0.0
  0
LINE
  5
AF
330
AA
100
AcDbEntity
  8
CSLAYER1
  6
CONTINUOUS
 62
     4
100
AcDbLine
 10
157.4474439999999
 20
160.8475529999998
 30
0.0
 11
160.345221
 21
160.0710959999998
 31
0.0
  0
LINE
  5
B0
330
AA
100
AcDbEntity
  8
CSLAYER1
  6
CONTINUOUS
 62
     4
100
AcDbLine
 10
171.447444
 20
160.8475529999998
 30
0.0
 11
168.549666
 21
161.6240099999999
 31
0.0
  0
LINE
  5
B1
330
AA
100
AcDbEntity
  8
CSLAYER1
  6
CONTINUOUS
 62
     4
100
AcDbLine
 10
171.447444
 20
160.8475529999998
 30
0.0
 11
168.549666
 21
160.0710959999998
 31
0.0
  0
ENDBLK
  5
B2
330
AA
100
AcDbEntity
  8
0
100
AcDbBlockEnd
  0
BLOCK
  5
B4
330
B3
100
AcDbEntity
  8
0
100
AcDbBlockBegin
  2
*D12
 70
     1
 10
0.0
 20
0.0
 30
0.0
  3
*D12
  1

  0
TEXT
  5
B5
330
B3
100
AcDbEntity
  8
CSLAYER1
 62
     4
100
AcDbText
 10
139.985489
 20
135.999997
 30
0.0
 40
3.2
  1
24
 50
90.0
 41
1.199999999999979
 51
15.0
  7
FX_FONT
 72
     5
 11
139.985489
 21
142.3999969999998
 31
0.0
100
AcDbText
  0
LINE
  5
B6
330
B3
100
AcDbEntity
  8
CSLAYER1
  6
CONTINUOUS
 62
     4
100
AcDbLine
 10
140.4854959999999
 20
127.2
 30
0.0
 11
140.4854959999999
 21
151.2
 31
0.0
  0
LINE
  5
B7
330
B3
100
AcDbEntity
  8
CSLAYER1
  6
CONTINUOUS
 62
     4
100
AcDbLine
 10
140.4854959999999
 20
127.2
 30
0.0
 11
139.709039
 21
130.097777
 31
0.0
  0
LINE
  5
B8
330
B3
100
AcDbEntity
  8
CSLAYER1
  6
CONTINUOUS
 62
     4
100
AcDbLine
 10
140.4854959999999
 20
127.2
 30
0.0
 11
141.261953
 21
130.097777
 31
0.0
  0
LINE
  5
B9
330
B3
100
AcDbEntity
  8
CSLAYER1
  6
CONTINUOUS
 62
     4
100
AcDbLine
 10
140.4854959999999
 20
151.2
 30
0.0
 11
139.709039
 21
148.3022229999999
 31
0.0
  0
LINE
  5
BA
330
B3
100
AcDbEntity
  8
CSLAYER1
  6
CONTINUOUS
 62
     4
100
AcDbLine
 10
140.4854959999999
 20
151.2
 30
0.0
 11
141.261953
 21
148.3022229999999
 31
0.0
  0
ENDBLK
  5
BB
330
B3
100
AcDbEntity
  8
0
100
AcDbBlockEnd
  0
BLOCK
  5
BD
330
BC
100
AcDbEntity
  8
0
100
AcDbBlockBegin
  2
*D13
 70
     1
 10
0.0
 20
0.0
 30
0.0
  3
*D13
  1

  0
TEXT
  5
BE
330
BC
100
AcDbEntity
  8
CSLAYER1
 62
     4
100
AcDbText
 10
140.7203669999999
 20
74.8
 30
0.0
 40
3.2
  1
24
 50
90.0
 41
1.200000000000001
 51
15.0
  7
FX_FONT
 72
     5
 11
140.7203669999999
 21
81.2
 31
0.0
100
AcDbText
  0
LINE
  5
BF
330
BC
100
AcDbEntity
  8
CSLAYER1
  6
CONTINUOUS
 62
     4
100
AcDbLine
 10
142.0575579999999
 20
66.0
 30
0.0
 11
140.22037
 21
66.0
 31
0.0
  0
LINE
  5
C0
330
BC
100
AcDbEntity
  8
CSLAYER1
  6
CONTINUOUS
 62
     4
100
AcDbLine
 10
142.0575579999999
 20
90.0
 30
0.0
 11
140.22037
 21
90.0
 31
0.0
  0
LINE
  5
C1
330
BC
100
AcDbEntity
  8
CSLAYER1
  6
CONTINUOUS
 62
     4
100
AcDbLine
 10
141.22037
 20
66.0
 30
0.0
 11
141.22037
 21
90.0
 31
0.0
  0
LINE
  5
C2
330
BC
100
AcDbEntity
  8
CSLAYER1
  6
CONTINUOUS
 62
     4
100
AcDbLine
 10
141.22037
 20
66.0
 30
0.0
 11
140.4439129999999
 21
68.897777
 31
0.0
  0
LINE
  5
C3
330
BC
100
AcDbEntity
  8
CSLAYER1
  6
CONTINUOUS
 62
     4
100
AcDbLine
 10
141.22037
 20
66.0
 30
0.0
 11
141.9968279999999
 21
68.897777
 31
0.0
  0
LINE
  5
C4
330
BC
100
AcDbEntity
  8
CSLAYER1
  6
CONTINUOUS
 62
     4
100
AcDbLine
 10
141.22037
 20
90.0
 30
0.0
 11
140.4439129999999
 21
87.10222299999998
 31
0.0
  0
LINE
  5
C5
330
BC
100
AcDbEntity
  8
CSLAYER1
  6
CONTINUOUS
 62
     4
100
AcDbLine
 10
141.22037
 20
90.0
 30
0.0
 11
141.9968279999999
 21
87.10222299999998
 31
0.0
  0
ENDBLK
  5
C6
330
BC
100
AcDbEntity
  8
0
100
AcDbBlockEnd
  0
BLOCK
  5
C8
330
C7
100
AcDbEntity
  8
0
100
AcDbBlockBegin
  2
*D14
 70
     1
 10
0.0
 20
0.0
 30
0.0
  3
*D14
  1

  0
TEXT
  5
C9
330
C7
100
AcDbEntity
  8
CSLAYER1
 62
     4
100
AcDbText
 10
140.1474389999999
 20
99.43434899999999
 30
0.0
 40
3.2
  1
49.8
 41
1.090909176136364
 51
15.0
  7
FX_FONT
 72
     5
 11
152.9474399999999
 21
99.43434899999999
 31
0.0
100
AcDbText
  0
LINE
  5
CA
330
C7
100
AcDbEntity
  8
CSLAYER1
  6
CONTINUOUS
 62
     4
100
AcDbLine
 10
121.647444
 20
82.5
 30
0.0
 11
121.647444
 21
99.93435100000001
 31
0.0
  0
LINE
  5
CB
330
C7
100
AcDbEntity
  8
CSLAYER1
  6
CONTINUOUS
 62
     4
100
AcDbLine
 10
171.447444
 20
94.0
 30
0.0
 11
171.447444
 21
99.93435100000001
 31
0.0
  0
LINE
  5
CC
330
C7
100
AcDbEntity
  8
CSLAYER1
  6
CONTINUOUS
 62
     4
100
AcDbLine
 10
121.647444
 20
98.93435100000001
 30
0.0
 11
171.447444
 21
98.93435100000001
 31
0.0
  0
LINE
  5
CD
330
C7
100
AcDbEntity
  8
CSLAYER1
  6
CONTINUOUS
 62
     4
100
AcDbLine
 10
121.647444
 20
98.93435100000001
 30
0.0
 11
124.545221
 21
99.71080800000001
 31
0.0
  0
LINE
  5
CE
330
C7
100
AcDbEntity
  8
CSLAYER1
  6
CONTINUOUS
 62
     4
100
AcDbLine
 10
121.647444
 20
98.93435100000001
 30
0.0
 11
124.545221
 21
98.15789399999999
 31
0.0
  0
LINE
  5
CF
330
C7
100
AcDbEntity
  8
CSLAYER1
  6
CONTINUOUS
 62
     4
100
AcDbLine
 10
171.447444
 20
98.93435100000001
 30
0.0
 11
168.549666
 21
99.71080800000001
 31
0.0
  0
LINE
  5
D0
330
C7
100
AcDbEntity
  8
CSLAYER1
  6
CONTINUOUS
 62
     4
100
AcDbLine
 10
171.447444
 20
98.93435100000001
 30
0.0
 11
168.549666
 21
98.15789399999999
 31
0.0
  0
ENDBLK
  5
D1
330
C7
100
AcDbEntity
  8
0
100
AcDbBlockEnd
  0
BLOCK
  5
D3
330
D2
100
AcDbEntity
  8
0
100
AcDbBlockBegin
  2
*D15
 70
     1
 10
0.0
 20
0.0
 30
0.0
  3
*D15
  1

  0
TEXT
  5
D4
330
D2
100
AcDbEntity
  8
CSLAYER1
 62
     4
100
AcDbText
 10
134.2474329999999
 20
56.843716
 30
0.0
 40
3.2
  1
30
 41
1.200000187500016
 51
15.0
  7
FX_FONT
 72
     5
 11
140.647434
 21
56.843716
 31
0.0
100
AcDbText
  0
LINE
  5
D5
330
D2
100
AcDbEntity
  8
CSLAYER1
  6
CONTINUOUS
 62
     4
100
AcDbLine
 10
122.4474439999999
 20
60.452101
 30
0.0
 11
122.4474439999999
 21
55.343716
 31
0.0
  0
LINE
  5
D6
330
D2
100
AcDbEntity
  8
CSLAYER1
  6
CONTINUOUS
 62
     4
100
AcDbLine
 10
152.4474439999998
 20
60.36545400000001
 30
0.0
 11
152.4474439999998
 21
55.343716
 31
0.0
  0
LINE
  5
D7
330
D2
100
AcDbEntity
  8
CSLAYER1
  6
CONTINUOUS
 62
     4
100
AcDbLine
 10
122.4474439999999
 20
56.343716
 30
0.0
 11
152.4474439999998
 21
56.343716
 31
0.0
  0
LINE
  5
D8
330
D2
100
AcDbEntity
  8
CSLAYER1
  6
CONTINUOUS
 62
     4
100
AcDbLine
 10
122.4474439999999
 20
56.343716
 30
0.0
 11
125.345221
 21
57.120173
 31
0.0
  0
LINE
  5
D9
330
D2
100
AcDbEntity
  8
CSLAYER1
  6
CONTINUOUS
 62
     4
100
AcDbLine
 10
122.4474439999999
 20
56.343716
 30
0.0
 11
125.345221
 21
55.56725899999999
 31
0.0
  0
LINE
  5
DA
330
D2
100
AcDbEntity
  8
CSLAYER1
  6
CONTINUOUS
 62
     4
100
AcDbLine
 10
152.4474439999998
 20
56.343716
 30
0.0
 11
149.549666
 21
57.120173
 31
0.0
  0
LINE
  5
DB
330
D2
100
AcDbEntity
  8
CSLAYER1
  6
CONTINUOUS
 62
     4
100
AcDbLine
 10
152.4474439999998
 20
56.343716
 30
0.0
 11
149.549666
 21
55.56725899999999
 31
0.0
  0
ENDBLK
  5
DC
330
D2
100
AcDbEntity
  8
0
100
AcDbBlockEnd
  0
BLOCK
  5
DE
330
DD
100
AcDbEntity
  8
0
100
AcDbBlockBegin
  2
*D16
 70
     1
 10
0.0
 20
0.0
 30
0.0
  3
*D16
  1

  0
TEXT
  5
DF
330
DD
100
AcDbEntity
  8
CSLAYER1
 62
     4
100
AcDbText
 10
158.747433
 20
56.843716
 30
0.0
 40
3.2
  1
19
 41
1.2000001875
 51
15.0
  7
FX_FONT
 72
     5
 11
165.147434
 21
56.843716
 31
0.0
100
AcDbText
  0
LINE
  5
E0
330
DD
100
AcDbEntity
  8
CSLAYER1
  6
CONTINUOUS
 62
     4
100
AcDbLine
 10
152.4474439999998
 20
56.343716
 30
0.0
 11
171.447444
 21
56.343716
 31
0.0
  0
LINE
  5
E1
330
DD
100
AcDbEntity
  8
CSLAYER1
  6
CONTINUOUS
 62
     4
100
AcDbLine
 10
152.4474439999998
 20
56.343716
 30
0.0
 11
155.345221
 21
57.120173
 31
0.0
  0
LINE
  5
E2
330
DD
100
AcDbEntity
  8
CSLAYER1
  6
CONTINUOUS
 62
     4
100
AcDbLine
 10
152.4474439999998
 20
56.343716
 30
0.0
 11
155.345221
 21
55.56725899999999
 31
0.0
  0
LINE
  5
E3
330
DD
100
AcDbEntity
  8
CSLAYER1
  6
CONTINUOUS
 62
     4
100
AcDbLine
 10
171.447444
 20
56.343716
 30
0.0
 11
168.549666
 21
57.120173
 31
0.0
  0
LINE
  5
E4
330
DD
100
AcDbEntity
  8
CSLAYER1
  6
CONTINUOUS
 62
     4
100
AcDbLine
 10
171.447444
 20
56.343716
 30
0.0
 11
168.549666
 21
55.56725899999999
 31
0.0
  0
ENDBLK
  5
E5
330
DD
100
AcDbEntity
  8
0
100
AcDbBlockEnd
  0
BLOCK
  5
E7
330
E6
100
AcDbEntity
  8
0
100
AcDbBlockBegin
  2
*D17
 70
     1
 10
0.0
 20
0.0
 30
0.0
  3
*D17
  1

  0
TEXT
  5
E8
330
E6
100
AcDbEntity
  8
CSLAYER1
 62
     4
100
AcDbText
 10
259.484283
 20
135.999997
 30
0.0
 40
3.2
  1
24
 50
90.0
 41
1.199999999999979
 51
15.0
  7
FX_FONT
 72
     5
 11
259.484283
 21
142.3999969999998
 31
0.0
100
AcDbText
  0
LINE
  5
E9
330
E6
100
AcDbEntity
  8
CSLAYER1
  6
CONTINUOUS
 62
     4
100
AcDbLine
 10
244.7541629999999
 20
127.2
 30
0.0
 11
260.984286
 21
127.2
 31
0.0
  0
LINE
  5
EA
330
E6
100
AcDbEntity
  8
CSLAYER1
  6
CONTINUOUS
 62
     4
100
AcDbLine
 10
244.7541629999999
 20
151.2
 30
0.0
 11
260.984286
 21
151.2
 31
0.0
  0
LINE
  5
EB
330
E6
100
AcDbEntity
  8
CSLAYER1
  6
CONTINUOUS
 62
     4
100
AcDbLine
 10
259.9842859999999
 20
127.2
 30
0.0
 11
259.9842859999999
 21
151.2
 31
0.0
  0
LINE
  5
EC
330
E6
100
AcDbEntity
  8
CSLAYER1
  6
CONTINUOUS
 62
     4
100
AcDbLine
 10
259.9842859999999
 20
127.2
 30
0.0
 11
259.2078289999999
 21
130.097777
 31
0.0
  0
LINE
  5
ED
330
E6
100
AcDbEntity
  8
CSLAYER1
  6
CONTINUOUS
 62
     4
100
AcDbLine
 10
259.9842859999999
 20
127.2
 30
0.0
 11
260.7607429999999
 21
130.097777
 31
0.0
  0
LINE
  5
EE
330
E6
100
AcDbEntity
  8
CSLAYER1
  6
CONTINUOUS
 62
     4
100
AcDbLine
 10
259.9842859999999
 20
151.2
 30
0.0
 11
259.2078289999999
 21
148.3022229999999
 31
0.0
  0
LINE
  5
EF
330
E6
100
AcDbEntity
  8
CSLAYER1
  6
CONTINUOUS
 62
     4
100
AcDbLine
 10
259.9842859999999
 20
151.2
 30
0.0
 11
260.7607429999999
 21
148.3022229999999
 31
0.0
  0
ENDBLK
  5
F0
330
E6
100
AcDbEntity
  8
0
100
AcDbBlockEnd
  0
BLOCK
  5
F2
330
F1
100
AcDbEntity
  8
0
100
AcDbBlockBegin
  2
*D18
 70
     1
 10
0.0
 20
0.0
 30
0.0
  3
*D18
  1

  0
TEXT
  5
F3
330
F1
100
AcDbEntity
  8
CSLAYER1
 62
     4
100
AcDbText
 10
216.8829339999999
 20
152.5457449999999
 30
0.0
 40
3.2
  1
20
 50
45.0000063303493
 41
1.200000026624218
 51
15.0
  7
FX_FONT
 72
     5
 11
221.408417
 21
157.071229
 31
0.0
100
AcDbText
  0
LINE
  5
F4
330
F1
100
AcDbEntity
  8
CSLAYER1
  6
CONTINUOUS
 62
     4
100
AcDbLine
 10
212.4281569999999
 20
147.383871
 30
0.0
 11
226.5702919999998
 21
161.5260069999999
 31
0.0
  0
LINE
  5
F5
330
F1
100
AcDbEntity
  8
CSLAYER1
  6
CONTINUOUS
 62
     4
100
AcDbLine
 10
212.4281569999999
 20
147.383871
 30
0.0
 11
213.9281569999999
 21
149.981947
 31
0.0
  0
LINE
  5
F6
330
F1
100
AcDbEntity
  8
CSLAYER1
  6
CONTINUOUS
 62
     4
100
AcDbLine
 10
212.4281569999999
 20
147.383871
 30
0.0
 11
215.026233
 21
148.883871
 31
0.0
  0
LINE
  5
F7
330
F1
100
AcDbEntity
  8
CSLAYER1
  6
CONTINUOUS
 62
     4
100
AcDbLine
 10
226.5702919999998
 20
161.5260069999999
 30
0.0
 11
225.070292
 21
158.92793
 31
0.0
  0
LINE
  5
F8
330
F1
100
AcDbEntity
  8
CSLAYER1
  6
CONTINUOUS
 62
     4
100
AcDbLine
 10
226.5702919999998
 20
161.5260069999999
 30
0.0
 11
223.9722159999999
 21
160.026007
 31
0.0
  0
LINE
  5
F9
330
F1
100
AcDbEntity
  8
CSLAYER1
  6
CONTINUOUS
 62
     4
100
AcDbLine
 10
223.990832
 20
135.8211959999999
 30
0.0
 11
211.72105
 21
148.090978
 31
0.0
  0
LINE
  5
FA
330
F1
100
AcDbEntity
  8
CSLAYER1
  6
CONTINUOUS
 62
     4
100
AcDbLine
 10
237.7855299999999
 20
150.310769
 30
0.0
 11
225.8631859999999
 21
162.233113
 31
0.0
  0
ENDBLK
  5
FB
330
F1
100
AcDbEntity
  8
0
100
AcDbBlockEnd
  0
BLOCK
  5
FD
330
FC
100
AcDbEntity
  8
0
100
AcDbBlockBegin
  2
FXDIM0001
 70
     0
 10
0.0
 20
0.0
 30
0.0
  3
FXDIM0001
  1

  0
LINE
  5
FE
330
FC
100
AcDbEntity
  8
CSLAYER1
  6
CONTINUOUS
 62
     4
100
AcDbLine
 10
226.882174
 20
130.2963039999999
 30
0.0
 11
215.731922
 21
111.376506
 31
0.0
  0
LINE
  5
FF
330
FC
100
AcDbEntity
  8
CSLAYER1
  6
CONTINUOUS
 62
     4
100
AcDbLine
 10
226.882174
 20
130.2963039999999
 30
0.0
 11
226.079819
 21
127.40559
 31
0.0
  0
LINE
  5
100
330
FC
100
AcDbEntity
  8
CSLAYER1
  6
CONTINUOUS
 62
     4
100
AcDbLine
 10
226.882174
 20
130.2963039999999
 30
0.0
 11
224.741958
 21
128.19405
 31
0.0
  0
LINE
  5
101
330
FC
100
AcDbEntity
  8
CSLAYER1
  6
CONTINUOUS
 62
     4
100
AcDbLine
 10
215.731922
 20
111.376506
 30
0.0
 11
240.1319229999999
 21
111.376506
 31
0.0
  0
TEXT
  5
102
330
FC
100
AcDbEntity
  8
CSLAYER1
 62
     4
100
AcDbText
 10
217.2181029999999
 20
111.876511
 30
0.0
 40
3.2
  1
M4ネジ深１０
 41
0.9292035398230112
 51
15.0
  7
FX_FONT
 72
     5
 11
239.618103
 21
111.876511
 31
0.0
100
AcDbText
  0
ENDBLK
  5
103
330
FC
100
AcDbEntity
  8
0
100
AcDbBlockEnd
  0
BLOCK
  5
105
330
104
100
AcDbEntity
  8
0
100
AcDbBlockBegin
  2
FXDIM0002
 70
     0
 10
0.0
 20
0.0
 30
0.0
  3
FXDIM0002
  1

  0
LINE
  5
106
330
104
100
AcDbEntity
  8
CSLAYER1
  6
CONTINUOUS
 62
     4
100
AcDbLine
 10
126.310887
 20
126.221103
 30
0.0
 11
119.814662
 21
112.868071
 31
0.0
  0
LINE
  5
107
330
104
100
AcDbEntity
  8
CSLAYER1
  6
CONTINUOUS
 62
     4
100
AcDbLine
 10
126.310887
 20
126.221103
 30
0.0
 11
125.741399
 21
123.275652
 31
0.0
  0
LINE
  5
108
330
104
100
AcDbEntity
  8
CSLAYER1
  6
CONTINUOUS
 62
     4
100
AcDbLine
 10
126.310887
 20
126.221103
 30
0.0
 11
124.3449699999999
 21
123.955012
 31
0.0
  0
LINE
  5
109
330
104
100
AcDbEntity
  8
CSLAYER1
  6
CONTINUOUS
 62
     4
100
AcDbLine
 10
119.814662
 20
112.868071
 30
0.0
 11
71.53938199999998
 21
112.868071
 31
0.0
  0
TEXT
  5
10A
330
104
100
AcDbEntity
  8
CSLAYER1
 62
     4
100
AcDbText
 10
71.53938499999998
 20
113.3680649999998
 30
0.0
 40
3.2
  1
16-M3x0.5 ネジ深５
 41
1.000000022321429
 51
15.0
  7
FX_FONT
 72
     5
 11
116.339386
 21
113.3680649999998
 31
0.0
100
AcDbText
  0
ENDBLK
  5
10B
330
104
100
AcDbEntity
  8
0
100
AcDbBlockEnd
  0
BLOCK
  5
10D
330
10C
100
AcDbEntity
  8
0
100
AcDbBlockBegin
  2
*D21
 70
     1
 10
0.0
 20
0.0
 30
0.0
  3
*D21
  1

  0
TEXT
  5
10E
330
10C
100
AcDbEntity
  8
CSLAYER1
 62
     4
100
AcDbText
 10
141.247433
 20
178.578659
 30
0.0
 40
3.2
  1
94
 41
1.2000001875
 51
15.0
  7
FX_FONT
 72
     5
 11
147.647434
 21
178.578659
 31
0.0
100
AcDbText
  0
LINE
  5
10F
330
10C
100
AcDbEntity
  8
CSLAYER1
  6
CONTINUOUS
 62
     4
100
AcDbLine
 10
97.447444
 20
178.078659
 30
0.0
 11
191.447444
 21
178.078659
 31
0.0
  0
LINE
  5
110
330
10C
100
AcDbEntity
  8
CSLAYER1
  6
CONTINUOUS
 62
     4
100
AcDbLine
 10
97.447444
 20
178.078659
 30
0.0
 11
100.345221
 21
178.8551169999999
 31
0.0
  0
LINE
  5
111
330
10C
100
AcDbEntity
  8
CSLAYER1
  6
CONTINUOUS
 62
     4
100
AcDbLine
 10
97.447444
 20
178.078659
 30
0.0
 11
100.345221
 21
177.3022019999999
 31
0.0
  0
LINE
  5
112
330
10C
100
AcDbEntity
  8
CSLAYER1
  6
CONTINUOUS
 62
     4
100
AcDbLine
 10
191.447444
 20
178.078659
 30
0.0
 11
188.549666
 21
178.8551169999999
 31
0.0
  0
LINE
  5
113
330
10C
100
AcDbEntity
  8
CSLAYER1
  6
CONTINUOUS
 62
     4
100
AcDbLine
 10
191.447444
 20
178.078659
 30
0.0
 11
188.549666
 21
177.3022019999999
 31
0.0
  0
LINE
  5
114
330
10C
100
AcDbEntity
  8
CSLAYER1
  6
CONTINUOUS
 62
     4
100
AcDbLine
 10
97.447444
 20
147.1999999999999
 30
0.0
 11
97.447444
 21
179.078659
 31
0.0
  0
LINE
  5
115
330
10C
100
AcDbEntity
  8
CSLAYER1
  6
CONTINUOUS
 62
     4
100
AcDbLine
 10
191.447444
 20
150.6999999999998
 30
0.0
 11
191.447444
 21
179.078659
 31
0.0
  0
ENDBLK
  5
116
330
10C
100
AcDbEntity
  8
0
100
AcDbBlockEnd
  0
BLOCK
  5
118
330
117
100
AcDbEntity
  8
0
100
AcDbBlockBegin
  2
*D22
 70
     1
 10
0.0
 20
0.0
 30
0.0
  3
*D22
  1

  0
TEXT
  5
119
330
117
100
AcDbEntity
  8
CSLAYER1
 62
     4
100
AcDbText
 10
136.747433
 20
111.495178
 30
0.0
 40
3.2
  1
17
 41
1.2000001875
 51
15.0
  7
FX_FONT
 72
     5
 11
143.147434
 21
111.495178
 31
0.0
100
AcDbText
  0
LINE
  5
11A
330
117
100
AcDbEntity
  8
CSLAYER1
  6
CONTINUOUS
 62
     4
100
AcDbLine
 10
131.4474439999999
 20
110.995181
 30
0.0
 11
148.4474439999999
 21
110.995181
 31
0.0
  0
LINE
  5
11B
330
117
100
AcDbEntity
  8
CSLAYER1
  6
CONTINUOUS
 62
     4
100
AcDbLine
 10
131.4474439999999
 20
110.995181
 30
0.0
 11
134.345221
 21
111.771638
 31
0.0
  0
LINE
  5
11C
330
117
100
AcDbEntity
  8
CSLAYER1
  6
CONTINUOUS
 62
     4
100
AcDbLine
 10
131.4474439999999
 20
110.995181
 30
0.0
 11
134.345221
 21
110.2187229999999
 31
0.0
  0
LINE
  5
11D
330
117
100
AcDbEntity
  8
CSLAYER1
  6
CONTINUOUS
 62
     4
100
AcDbLine
 10
148.4474439999999
 20
110.995181
 30
0.0
 11
145.549666
 21
111.771638
 31
0.0
  0
LINE
  5
11E
330
117
100
AcDbEntity
  8
CSLAYER1
  6
CONTINUOUS
 62
     4
100
AcDbLine
 10
148.4474439999999
 20
110.995181
 30
0.0
 11
145.549666
 21
110.2187229999999
 31
0.0
  0
LINE
  5
11F
330
117
100
AcDbEntity
  8
CSLAYER1
  6
CONTINUOUS
 62
     4
100
AcDbLine
 10
131.4474439999999
 20
123.1999999999999
 30
0.0
 11
131.4474439999999
 21
109.995181
 31
0.0
  0
LINE
  5
120
330
117
100
AcDbEntity
  8
CSLAYER1
  6
CONTINUOUS
 62
     4
100
AcDbLine
 10
148.4474439999999
 20
123.1999999999999
 30
0.0
 11
148.4474439999999
 21
109.995181
 31
0.0
  0
ENDBLK
  5
121
330
117
100
AcDbEntity
  8
0
100
AcDbBlockEnd
  0
BLOCK
  5
123
330
122
100
AcDbEntity
  8
0
100
AcDbBlockBegin
  2
*D23
 70
     1
 10
0.0
 20
0.0
 30
0.0
  3
*D23
  1

  0
TEXT
  5
124
330
122
100
AcDbEntity
  8
CSLAYER1
 62
     4
100
AcDbText
 10
156.747433
 20
111.495178
 30
0.0
 40
3.2
  1
23
 41
1.2000001875
 51
15.0
  7
FX_FONT
 72
     5
 11
163.147434
 21
111.495178
 31
0.0
100
AcDbText
  0
LINE
  5
125
330
122
100
AcDbEntity
  8
CSLAYER1
  6
CONTINUOUS
 62
     4
100
AcDbLine
 10
148.4474439999999
 20
110.995181
 30
0.0
 11
171.447444
 21
110.995181
 31
0.0
  0
LINE
  5
126
330
122
100
AcDbEntity
  8
CSLAYER1
  6
CONTINUOUS
 62
     4
100
AcDbLine
 10
148.4474439999999
 20
110.995181
 30
0.0
 11
151.345221
 21
111.771638
 31
0.0
  0
LINE
  5
127
330
122
100
AcDbEntity
  8
CSLAYER1
  6
CONTINUOUS
 62
     4
100
AcDbLine
 10
148.4474439999999
 20
110.995181
 30
0.0
 11
151.345221
 21
110.2187229999999
 31
0.0
  0
LINE
  5
128
330
122
100
AcDbEntity
  8
CSLAYER1
  6
CONTINUOUS
 62
     4
100
AcDbLine
 10
171.447444
 20
110.995181
 30
0.0
 11
168.549666
 21
111.771638
 31
0.0
  0
LINE
  5
129
330
122
100
AcDbEntity
  8
CSLAYER1
  6
CONTINUOUS
 62
     4
100
AcDbLine
 10
171.447444
 20
110.995181
 30
0.0
 11
168.549666
 21
110.2187229999999
 31
0.0
  0
LINE
  5
12A
330
122
100
AcDbEntity
  8
CSLAYER1
  6
CONTINUOUS
 62
     4
100
AcDbLine
 10
171.447444
 20
123.1999999999999
 30
0.0
 11
171.447444
 21
109.995181
 31
0.0
  0
ENDBLK
  5
12B
330
122
100
AcDbEntity
  8
0
100
AcDbBlockEnd
  0
BLOCK
  5
12D
330
12C
100
AcDbEntity
  8
0
100
AcDbBlockBegin
  2
*D24
 70
     1
 10
0.0
 20
0.0
 30
0.0
  3
*D24
  1

  0
TEXT
  5
12E
330
12C
100
AcDbEntity
  8
CSLAYER1
 62
     4
100
AcDbText
 10
163.2474329999999
 20
117.495178
 30
0.0
 40
3.2
  1
10
 41
1.2000001875
 51
15.0
  7
FX_FONT
 72
     5
 11
169.6474339999999
 21
117.495178
 31
0.0
100
AcDbText
  0
LINE
  5
12F
330
12C
100
AcDbEntity
  8
CSLAYER1
  6
CONTINUOUS
 62
     4
100
AcDbLine
 10
161.4474439999999
 20
116.995181
 30
0.0
 11
171.447444
 21
116.995181
 31
0.0
  0
LINE
  5
130
330
12C
100
AcDbEntity
  8
CSLAYER1
  6
CONTINUOUS
 62
     4
100
AcDbLine
 10
161.4474439999999
 20
116.995181
 30
0.0
 11
164.345221
 21
117.7716379999999
 31
0.0
  0
LINE
  5
131
330
12C
100
AcDbEntity
  8
CSLAYER1
  6
CONTINUOUS
 62
     4
100
AcDbLine
 10
161.4474439999999
 20
116.995181
 30
0.0
 11
164.345221
 21
116.218723
 31
0.0
  0
LINE
  5
132
330
12C
100
AcDbEntity
  8
CSLAYER1
  6
CONTINUOUS
 62
     4
100
AcDbLine
 10
171.447444
 20
116.995181
 30
0.0
 11
168.549666
 21
117.7716379999999
 31
0.0
  0
LINE
  5
133
330
12C
100
AcDbEntity
  8
CSLAYER1
  6
CONTINUOUS
 62
     4
100
AcDbLine
 10
171.447444
 20
116.995181
 30
0.0
 11
168.549666
 21
116.218723
 31
0.0
  0
LINE
  5
134
330
12C
100
AcDbEntity
  8
CSLAYER1
  6
CONTINUOUS
 62
     4
100
AcDbLine
 10
161.4474439999999
 20
123.1999999999999
 30
0.0
 11
161.4474439999999
 21
115.995181
 31
0.0
  0
ENDBLK
  5
135
330
12C
100
AcDbEntity
  8
0
100
AcDbBlockEnd
  0
BLOCK
  5
137
330
136
100
AcDbEntity
  8
0
100
AcDbBlockBegin
  2
*D25
 70
     1
 10
0.0
 20
0.0
 30
0.0
  3
*D25
  1

  0
TEXT
  5
138
330
136
100
AcDbEntity
  8
CSLAYER1
 62
     4
100
AcDbText
 10
139.2474329999999
 20
161.3475489999999
 30
0.0
 40
3.2
  1
30
 41
1.2000001875
 51
15.0
  7
FX_FONT
 72
     5
 11
145.6474339999999
 21
161.3475489999999
 31
0.0
100
AcDbText
  0
LINE
  5
139
330
136
100
AcDbEntity
  8
CSLAYER1
  6
CONTINUOUS
 62
     4
100
AcDbLine
 10
127.4474439999998
 20
160.8475529999998
 30
0.0
 11
157.4474439999999
 21
160.8475529999998
 31
0.0
  0
LINE
  5
13A
330
136
100
AcDbEntity
  8
CSLAYER1
  6
CONTINUOUS
 62
     4
100
AcDbLine
 10
127.4474439999998
 20
160.8475529999998
 30
0.0
 11
130.345221
 21
161.6240099999999
 31
0.0
  0
LINE
  5
13B
330
136
100
AcDbEntity
  8
CSLAYER1
  6
CONTINUOUS
 62
     4
100
AcDbLine
 10
127.4474439999998
 20
160.8475529999998
 30
0.0
 11
130.345221
 21
160.0710959999998
 31
0.0
  0
LINE
  5
13C
330
136
100
AcDbEntity
  8
CSLAYER1
  6
CONTINUOUS
 62
     4
100
AcDbLine
 10
157.4474439999999
 20
160.8475529999998
 30
0.0
 11
154.5496659999999
 21
161.6240099999999
 31
0.0
  0
LINE
  5
13D
330
136
100
AcDbEntity
  8
CSLAYER1
  6
CONTINUOUS
 62
     4
100
AcDbLine
 10
157.4474439999999
 20
160.8475529999998
 30
0.0
 11
154.5496659999999
 21
160.0710959999998
 31
0.0
  0
LINE
  5
13E
330
136
100
AcDbEntity
  8
CSLAYER1
  6
CONTINUOUS
 62
     4
100
AcDbLine
 10
127.4474439999998
 20
156.4506469999999
 30
0.0
 11
127.4474439999998
 21
161.8475529999998
 31
0.0
  0
LINE
  5
13F
330
136
100
AcDbEntity
  8
CSLAYER1
  6
CONTINUOUS
 62
     4
100
AcDbLine
 10
157.4474439999999
 20
156.4506469999999
 30
0.0
 11
157.4474439999999
 21
161.8475529999998
 31
0.0
  0
ENDBLK
  5
140
330
136
100
AcDbEntity
  8
0
100
AcDbBlockEnd
  0
BLOCK
  5
142
330
141
100
AcDbEntity
  8
0
100
AcDbBlockBegin
  2
*D26
 70
     1
 10
0.0
 20
0.0
 30
0.0
  3
*D26
  1

  0
TEXT
  5
143
330
141
100
AcDbEntity
  8
CSLAYER1
 62
     4
100
AcDbText
 10
211.721844
 20
124.464228
 30
0.0
 40
3.2
  1
45%%d
 50
112.5000014414552
 41
1.285714224875625
 51
15.0
  7
FX_FONT
 72
     5
 11
208.048083
 21
133.333471
 31
0.0
100
AcDbText
  0
ARC
  5
144
330
141
100
AcDbEntity
  8
CSLAYER1
  6
CONTINUOUS
 62
     4
100
AcDbCircle
 10
234.7541629999999
 20
139.1999999999999
 30
0.0
 40
26.41822299999999
100
AcDbArc
 50
180.0
 51
225.0
  0
LINE
  5
145
330
141
100
AcDbEntity
  8
CSLAYER1
  6
CONTINUOUS
 62
     4
100
AcDbLine
 10
208.3359409999999
 20
139.1999999999999
 30
0.0
 11
207.559483
 21
136.302223
 31
0.0
  0
LINE
  5
146
330
141
100
AcDbEntity
  8
CSLAYER1
  6
CONTINUOUS
 62
     4
100
AcDbLine
 10
208.3359409999999
 20
139.1999999999999
 30
0.0
 11
209.1123979999999
 21
136.302223
 31
0.0
  0
LINE
  5
147
330
141
100
AcDbEntity
  8
CSLAYER1
  6
CONTINUOUS
 62
     4
100
AcDbLine
 10
216.0736589999999
 20
120.5194959999999
 30
0.0
 11
213.475583
 21
122.0194959999999
 31
0.0
  0
LINE
  5
148
330
141
100
AcDbEntity
  8
CSLAYER1
  6
CONTINUOUS
 62
     4
100
AcDbLine
 10
216.0736589999999
 20
120.5194959999999
 30
0.0
 11
214.5736589999999
 21
123.1175719999999
 31
0.0
  0
LINE
  5
149
330
141
100
AcDbEntity
  8
CSLAYER1
  6
CONTINUOUS
 62
     4
100
AcDbLine
 10
215.093474
 20
139.1999999999999
 30
0.0
 11
207.335941
 21
139.1999999999999
 31
0.0
  0
LINE
  5
14A
330
141
100
AcDbEntity
  8
CSLAYER1
  6
CONTINUOUS
 62
     4
100
AcDbLine
 10
223.856377
 20
128.3022129999999
 30
0.0
 11
215.366552
 21
119.8123889999999
 31
0.0
  0
ENDBLK
  5
14B
330
141
100
AcDbEntity
  8
0
100
AcDbBlockEnd
  0
BLOCK
  5
14D
330
14C
100
AcDbEntity
  8
0
100
AcDbBlockBegin
  2
FXDIM0003
 70
     0
 10
0.0
 20
0.0
 30
0.0
  3
FXDIM0003
  1

  0
LINE
  5
14E
330
14C
100
AcDbEntity
  8
CSLAYER1
  6
CONTINUOUS
 62
     4
100
AcDbLine
 10
236.9168089999999
 20
143.429121
 30
0.0
 11
245.964108
 21
166.2334839999998
 31
0.0
  0
LINE
  5
14F
330
14C
100
AcDbEntity
  8
CSLAYER1
  6
CONTINUOUS
 62
     4
100
AcDbLine
 10
236.9168089999999
 20
143.429121
 30
0.0
 11
237.2637
 21
146.4089979999999
 31
0.0
  0
LINE
  5
150
330
14C
100
AcDbEntity
  8
CSLAYER1
  6
CONTINUOUS
 62
     4
100
AcDbLine
 10
236.9168089999999
 20
143.429121
 30
0.0
 11
238.707164
 21
145.8363239999999
 31
0.0
  0
LINE
  5
151
330
14C
100
AcDbEntity
  8
CSLAYER1
  6
CONTINUOUS
 62
     4
100
AcDbLine
 10
245.964108
 20
166.2334839999998
 30
0.0
 11
270.364109
 21
166.2334839999998
 31
0.0
  0
TEXT
  5
152
330
14C
100
AcDbEntity
  8
CSLAYER1
 62
     4
100
AcDbText
 10
246.964123
 20
166.7334899999999
 30
0.0
 40
3.2
  1
Rc1/8ネジ
 41
0.9813084550233638
 51
15.0
  7
FX_FONT
 72
     5
 11
269.364124
 21
166.7334899999999
 31
0.0
100
AcDbText
  0
ENDBLK
  5
153
330
14C
100
AcDbEntity
  8
0
100
AcDbBlockEnd
  0
BLOCK
  5
155
330
154
100
AcDbEntity
  8
0
100
AcDbBlockBegin
  2
FXDIM0004
 70
     0
 10
0.0
 20
0.0
 30
0.0
  3
FXDIM0004
  1

  0
LINE
  5
156
330
154
100
AcDbEntity
  8
CSLAYER1
  6
CONTINUOUS
 62
     4
100
AcDbLine
 10
183.6100899999999
 20
149.252549
 30
0.0
 11
201.9753659999999
 21
174.642191
 31
0.0
  0
LINE
  5
157
330
154
100
AcDbEntity
  8
CSLAYER1
  6
CONTINUOUS
 62
     4
100
AcDbLine
 10
183.6100899999999
 20
149.252549
 30
0.0
 11
184.679307
 21
152.0555429999999
 31
0.0
  0
LINE
  5
158
330
154
100
AcDbEntity
  8
CSLAYER1
  6
CONTINUOUS
 62
     4
100
AcDbLine
 10
183.6100899999999
 20
149.252549
 30
0.0
 11
185.937556
 21
151.145405
 31
0.0
  0
LINE
  5
159
330
154
100
AcDbEntity
  8
CSLAYER1
  6
CONTINUOUS
 62
     4
100
AcDbLine
 10
201.9753659999999
 20
174.642191
 30
0.0
 11
226.3753669999999
 21
174.642191
 31
0.0
  0
TEXT
  5
15A
330
154
100
AcDbEntity
  8
CSLAYER1
 62
     4
100
AcDbText
 10
202.9754
 20
175.142197
 30
0.0
 40
3.2
  1
Rc1/8ネジ
 41
0.9813084112149535
 51
15.0
  7
FX_FONT
 72
     5
 11
225.3754
 21
175.142197
 31
0.0
100
AcDbText
  0
ENDBLK
  5
15B
330
154
100
AcDbEntity
  8
0
100
AcDbBlockEnd
  0
BLOCK
  5
15D
330
15C
100
AcDbEntity
  8
0
100
AcDbBlockBegin
  2
*D29
 70
     1
 10
0.0
 20
0.0
 30
0.0
  3
*D29
  1

  0
TEXT
  5
15E
330
15C
100
AcDbEntity
  8
CSLAYER1
 62
     4
100
AcDbText
 10
178.247449
 20
56.843716
 30
0.0
 40
3.2
  1
20
 41
1.200000000000001
 51
15.0
  7
FX_FONT
 72
     5
 11
184.647449
 21
56.843716
 31
0.0
100
AcDbText
  0
LINE
  5
15F
330
15C
100
AcDbEntity
  8
CSLAYER1
  6
CONTINUOUS
 62
     4
100
AcDbLine
 10
171.447444
 20
56.343716
 30
0.0
 11
191.447444
 21
56.343716
 31
0.0
  0
LINE
  5
160
330
15C
100
AcDbEntity
  8
CSLAYER1
  6
CONTINUOUS
 62
     4
100
AcDbLine
 10
171.447444
 20
56.343716
 30
0.0
 11
174.345221
 21
57.120173
 31
0.0
  0
LINE
  5
161
330
15C
100
AcDbEntity
  8
CSLAYER1
  6
CONTINUOUS
 62
     4
100
AcDbLine
 10
171.447444
 20
56.343716
 30
0.0
 11
174.345221
 21
55.56725899999999
 31
0.0
  0
LINE
  5
162
330
15C
100
AcDbEntity
  8
CSLAYER1
  6
CONTINUOUS
 62
     4
100
AcDbLine
 10
191.447444
 20
56.343716
 30
0.0
 11
188.549666
 21
57.120173
 31
0.0
  0
LINE
  5
163
330
15C
100
AcDbEntity
  8
CSLAYER1
  6
CONTINUOUS
 62
     4
100
AcDbLine
 10
191.447444
 20
56.343716
 30
0.0
 11
188.549666
 21
55.56725899999999
 31
0.0
  0
LINE
  5
164
330
15C
100
AcDbEntity
  8
CSLAYER1
  6
CONTINUOUS
 62
     4
100
AcDbLine
 10
171.447444
 20
62.0
 30
0.0
 11
171.447444
 21
55.343716
 31
0.0
  0
LINE
  5
165
330
15C
100
AcDbEntity
  8
CSLAYER1
  6
CONTINUOUS
 62
     4
100
AcDbLine
 10
191.447444
 20
63.5
 30
0.0
 11
191.447444
 21
55.343716
 31
0.0
  0
ENDBLK
  5
166
330
15C
100
AcDbEntity
  8
0
100
AcDbBlockEnd
  0
BLOCK
  5
2F5
330
2E8
100
AcDbEntity
  8
0
100
AcDbBlockBegin
  2
*D30
 70
     1
 10
0.0
 20
0.0
 30
0.0
  3
*D30
  1

  0
LINE
  5
2E9
330
2E8
100
AcDbEntity
  8
CSLAYER1
 62
     0
100
AcDbLine
 10
216.030974
 20
139.1999999999999
 30
0.0
 11
208.1559405732567
 21
139.1999999999999
 31
0.0
  0
LINE
  5
2EA
330
2E8
100
AcDbEntity
  8
CSLAYER1
 62
     0
100
AcDbLine
 10
224.5192888261759
 20
128.9651258261758
 30
0.0
 11
215.9463795545416
 21
120.3922165545417
 31
0.0
  0
ARC
  5
2EB
330
2E8
100
AcDbEntity
  8
CSLAYER1
 62
     0
100
AcDbCircle
 10
234.7541629999999
 20
139.1999999999999
 30
0.0
 40
26.41822242674324
100
AcDbArc
 50
180.3903843375566
 51
202.0780914797633
  0
ARC
  5
2EC
330
2E8
100
AcDbEntity
  8
CSLAYER1
 62
     0
100
AcDbCircle
 10
234.7541629999999
 20
139.1999999999999
 30
0.0
 40
26.41822242674324
100
AcDbArc
 50
202.9231993734581
 51
224.6096156624435
  0
SOLID
  5
2ED
330
2E8
100
AcDbEntity
  8
CSLAYER1
 62
     0
100
AcDbTrace
 10
208.3065539604425
 20
139.0198988423487
 30
0.0
 11
208.3665536122654
 21
139.0201032467144
 31
0.0
 12
208.3359405732565
 22
139.1999999999999
 32
0.0
 13
208.3359405732565
 23
139.1999999999999
 33
0.0
  0
SOLID
  5
2EE
330
2E8
100
AcDbEntity
  8
CSLAYER1
 62
     0
100
AcDbTrace
 10
215.9680992484695
 20
120.6683486767926
 30
0.0
 11
215.9255285520835
 21
120.626067051833
 31
0.0
 12
216.0736587751553
 22
120.5194957751553
 32
0.0
 13
216.0736587751553
 23
120.5194957751553
 33
0.0
  0
MTEXT
  5
2EF
330
2E8
100
AcDbEntity
  8
CSLAYER1
 62
     0
100
AcDbMText
 10
210.3469080146012
 20
129.0901839647494
 30
0.0
 40
0.18
 41
0.0
 71
     5
 72
     1
  1
\A1;45°
1001
ACAD
1000
MTEXTBEGIN
1070
    73
1070
     1
1070
    44
1040
1.0
1070
    74
1070
     0
1000
MTEXTEND
  0
POINT
  5
2F0
330
2E8
100
AcDbEntity
  8
DEFPOINTS
 62
     0
100
AcDbPoint
 10
209.2361196733595
 20
132.3624608982042
 30
0.0
  0
POINT
  5
2F1
330
2E8
100
AcDbEntity
  8
DEFPOINTS
 62
     0
100
AcDbPoint
 10
234.7541629999999
 20
139.1999999999999
 30
0.0
  0
POINT
  5
2F2
330
2E8
100
AcDbEntity
  8
DEFPOINTS
 62
     0
100
AcDbPoint
 10
224.563483
 20
129.00932
 30
0.0
  0
POINT
  5
2F3
330
2E8
100
AcDbEntity
  8
DEFPOINTS
 62
     0
100
AcDbPoint
 10
230.19197
 20
134.637807
 30
0.0
  0
POINT
  5
2F4
330
2E8
100
AcDbEntity
  8
DEFPOINTS
 62
     0
100
AcDbPoint
 10
216.093474
 20
139.1999999999999
 30
0.0
  0
ENDBLK
  5
2F6
330
2E8
100
AcDbEntity
  8
0
100
AcDbBlockEnd
  0
ENDSEC
  0
SECTION
  2
ENTITIES
  0
DIMENSION
  5
167
330
1E
100
AcDbEntity
  8
CSLAYER1
 62
     4
100
AcDbDimension
  2
*D0
 10
27.931276
 20
154.1999999999999
 30
0.0
 11
27.431274
 21
139.199997
 31
0.0
 70
     1
100
AcDbAlignedDimension
 13
39.44744399999999
 23
124.1999999999999
 33
0.0
 14
39.44744399999999
 24
154.1999999999999
 34
0.0
  0
DIMENSION
  5
168
330
1E
100
AcDbEntity
  8
CSLAYER1
 62
     4
100
AcDbDimension
  2
*D1
 10
69.44744399999999
 20
175.200605
 30
0.0
 11
54.44744499999998
 21
175.700607
 31
0.0
 70
     1
100
AcDbAlignedDimension
 13
39.44744399999999
 23
154.1999999999999
 33
0.0
 14
69.44744399999999
 24
154.1999999999999
 34
0.0
  0
DIMENSION
  5
169
330
1E
100
AcDbEntity
  8
CSLAYER1
 62
     4
100
AcDbDimension
  2
*D2
 10
65.94744399999999
 20
169.2006049999999
 30
0.0
 11
54.44744499999998
 21
169.700607
 31
0.0
 70
     1
100
AcDbAlignedDimension
 13
42.94744399999999
 23
144.9398699999998
 33
0.0
 14
65.94744399999999
 24
144.9398699999998
 34
0.0
  0
DIMENSION
  5
16A
330
1E
100
AcDbEntity
  8
CSLAYER1
 62
     4
100
AcDbDimension
  2
*D3
 10
57.94744399999999
 20
163.200605
 30
0.0
 11
54.44744499999998
 21
163.700607
 31
0.0
 70
     1
100
AcDbAlignedDimension
 13
50.94744399999999
 23
154.1999999999999
 33
0.0
 14
57.94744399999999
 24
154.1999999999999
 34
0.0
  0
DIMENSION
  5
16B
330
1E
100
AcDbEntity
  8
CSLAYER1
 62
     4
100
AcDbDimension
  2
*D4
 10
86.88556400000001
 20
146.1999999999999
 30
0.0
 11
86.385567
 21
139.199997
 31
0.0
 70
     1
100
AcDbAlignedDimension
 13
97.447444
 23
132.1999999999998
 33
0.0
 14
97.447444
 24
146.1999999999999
 34
0.0
  0
DIMENSION
  5
16C
330
1E
100
AcDbEntity
  8
CSLAYER1
 62
     4
100
AcDbDimension
  2
*D5
 10
171.447444
 20
172.847553
 30
0.0
 11
134.447433
 21
173.347549
 31
0.0
100
AcDbAlignedDimension
 13
97.447444
 23
146.1999999999999
 33
0.0
 14
171.447444
 24
154.1999999999999
 34
0.0
100
AcDbRotatedDimension
  0
DIMENSION
  5
16D
330
1E
100
AcDbEntity
  8
CSLAYER1
 62
     4
100
AcDbDimension
  2
*D6
 10
191.447444
 20
172.847553
 30
0.0
 11
181.447433
 21
173.347549
 31
0.0
 70
     1
100
AcDbAlignedDimension
 13
171.447444
 23
149.6999999999998
 33
0.0
 14
191.447444
 24
149.6999999999998
 34
0.0
  0
DIMENSION
  5
16E
330
1E
100
AcDbEntity
  8
CSLAYER1
 62
     4
100
AcDbDimension
  2
*D7
 10
171.447444
 20
166.847553
 30
0.0
 11
141.947433
 21
167.3475489999999
 31
0.0
 70
     1
100
AcDbAlignedDimension
 13
112.4474439999999
 23
154.1999999999999
 33
0.0
 14
171.447444
 24
154.1999999999999
 34
0.0
  0
INSERT
  5
16F
330
1E
100
AcDbEntity
  8
CSLAYER1
100
AcDbBlockReference
  2
FXDIM0000
 10
0.0
 20
0.0
 30
0.0
  0
DIMENSION
  5
170
330
1E
100
AcDbEntity
  8
CSLAYER1
 62
     4
100
AcDbDimension
  2
*D9
 10
176.4474439999999
 20
166.847553
 30
0.0
 11
183.947433
 21
167.3475489999999
 31
0.0
 70
     1
100
AcDbAlignedDimension
 13
191.447444
 23
166.847553
 33
0.0
 14
176.4474439999999
 24
166.847553
 34
0.0
  0
DIMENSION
  5
171
330
1E
100
AcDbEntity
  8
CSLAYER1
 62
     4
100
AcDbDimension
  2
*D10
 10
97.447444
 20
160.8475529999998
 30
0.0
 11
100.947449
 21
161.3475489999999
 31
0.0
 70
     1
100
AcDbAlignedDimension
 13
104.4474439999999
 23
160.8475529999998
 33
0.0
 14
97.447444
 24
160.8475529999998
 34
0.0
  0
DIMENSION
  5
172
330
1E
100
AcDbEntity
  8
CSLAYER1
 62
     4
100
AcDbDimension
  2
*D11
 10
157.4474439999999
 20
160.8475529999998
 30
0.0
 11
164.447433
 21
161.3475489999999
 31
0.0
100
AcDbAlignedDimension
 13
171.447444
 23
160.8475529999998
 33
0.0
 14
157.4474439999999
 24
155.4506469999999
 34
0.0
100
AcDbRotatedDimension
  0
DIMENSION
  5
173
330
1E
100
AcDbEntity
  8
CSLAYER1
 62
     4
100
AcDbDimension
  2
*D12
 10
140.4854959999999
 20
151.2
 30
0.0
 11
139.985489
 21
139.199997
 31
0.0
100
AcDbAlignedDimension
 13
143.9761509999998
 23
127.2
 33
0.0
 14
143.792432
 24
151.2
 34
0.0
 50
90.0
100
AcDbRotatedDimension
  0
DIMENSION
  5
174
330
1E
100
AcDbEntity
  8
CSLAYER1
 62
     4
100
AcDbDimension
  2
*D13
 10
141.22037
 20
66.0
 30
0.0
 11
140.7203669999999
 21
78.0
 31
0.0
 70
     1
100
AcDbAlignedDimension
 13
141.22037
 23
90.0
 33
0.0
 14
141.22037
 24
66.0
 34
0.0
  0
DIMENSION
  5
175
330
1E
100
AcDbEntity
  8
CSLAYER1
 62
     4
100
AcDbDimension
  2
*D14
 10
171.447444
 20
98.93435100000001
 30
0.0
 11
146.5474399999999
 21
99.43434899999999
 31
0.0
100
AcDbAlignedDimension
 13
121.647444
 23
81.5
 33
0.0
 14
171.447444
 24
93.0
 34
0.0
100
AcDbRotatedDimension
  0
DIMENSION
  5
176
330
1E
100
AcDbEntity
  8
CSLAYER1
 62
     4
100
AcDbDimension
  2
*D15
 10
152.4474439999998
 20
56.343716
 30
0.0
 11
137.447433
 21
56.843716
 31
0.0
 52
270.0
100
AcDbAlignedDimension
 13
122.4474439999999
 23
61.45210099999999
 33
0.0
 14
152.4474439999998
 24
61.36545400000001
 34
0.0
100
AcDbRotatedDimension
  0
DIMENSION
  5
177
330
1E
100
AcDbEntity
  8
CSLAYER1
 62
     4
100
AcDbDimension
  2
*D16
 10
152.4474439999998
 20
56.343716
 30
0.0
 11
161.947433
 21
56.843716
 31
0.0
 70
     1
100
AcDbAlignedDimension
 13
171.447444
 23
56.343716
 33
0.0
 14
152.4474439999998
 24
56.343716
 34
0.0
  0
DIMENSION
  5
178
330
1E
100
AcDbEntity
  8
CSLAYER1
 62
     4
100
AcDbDimension
  2
*D17
 10
259.9842859999999
 20
151.2
 30
0.0
 11
259.484283
 21
139.199997
 31
0.0
 70
     1
100
AcDbAlignedDimension
 13
243.7541629999999
 23
127.2
 33
0.0
 14
243.7541629999999
 24
151.2
 34
0.0
  0
DIMENSION
  5
179
330
1E
100
AcDbEntity
  8
CSLAYER1
 62
     4
100
AcDbDimension
  2
*D18
 10
226.5702919999998
 20
161.5260069999999
 30
0.0
 11
219.1456759999999
 21
154.808487
 31
0.0
100
AcDbAlignedDimension
 13
224.6979379999999
 23
135.1140889999999
 33
0.0
 14
238.492637
 24
149.603662
 34
0.0
 50
45.0
100
AcDbRotatedDimension
  0
INSERT
  5
17A
330
1E
100
AcDbEntity
  8
CSLAYER1
100
AcDbBlockReference
  2
FXDIM0001
 10
0.0
 20
0.0
 30
0.0
  0
INSERT
  5
17B
330
1E
100
AcDbEntity
  8
CSLAYER1
100
AcDbBlockReference
  2
FXDIM0002
 10
0.0
 20
0.0
 30
0.0
  0
TEXT
  5
17C
330
1E
100
AcDbEntity
  8
CSLAYER1
 62
     3
100
AcDbText
 10
242.3999999999999
 20
17.4
 30
0.0
 40
3.2
  1
GT-NS5
 41
1.05882352941177
  7
FX_FONT
 72
     5
 11
261.6
 21
17.4
 31
0.0
100
AcDbText
  0
ARC
  5
17D
330
1E
100
AcDbEntity
  8
CSLAYER1
  6
CONTINUOUS
 62
     3
100
AcDbCircle
 10
28.947444
 20
133.4601299999998
 30
0.0
 40
14.0
100
AcDbArc
 50
318.5903779999998
 51
0.0
  0
LINE
  5
17E
330
1E
100
AcDbEntity
  8
CSLAYER1
  6
CONTINUOUS
 62
     3
100
AcDbLine
 10
42.94744399999999
 20
133.4601299999998
 30
0.0
 11
42.94744399999999
 21
144.9398699999998
 31
0.0
  0
ARC
  5
17F
330
1E
100
AcDbEntity
  8
CSLAYER1
  6
CONTINUOUS
 62
     3
100
AcDbCircle
 10
28.947444
 20
144.9398699999998
 30
0.0
 40
14.0
100
AcDbArc
 50
0.0
 51
41.40962199999999
  0
LINE
  5
180
330
1E
100
AcDbEntity
  8
CSLAYER1
  6
CONTINUOUS
 62
     3
100
AcDbLine
 10
39.44744399999999
 20
154.1999999999999
 30
0.0
 11
69.44744399999999
 21
154.1999999999999
 31
0.0
  0
LINE
  5
181
330
1E
100
AcDbEntity
  8
CSLAYER1
  6
CONTINUOUS
 62
     3
100
AcDbLine
 10
69.44744399999999
 20
154.1999999999999
 30
0.0
 11
69.44744399999999
 21
124.1999999999999
 31
0.0
  0
LINE
  5
182
330
1E
100
AcDbEntity
  8
CSLAYER1
  6
CONTINUOUS
 62
     3
100
AcDbLine
 10
69.44744399999999
 20
124.1999999999999
 30
0.0
 11
39.44744399999999
 21
124.1999999999999
 31
0.0
  0
LINE
  5
183
330
1E
100
AcDbEntity
  8
CSLAYER1
  6
CONTINUOUS
 62
     3
100
AcDbLine
 10
39.44744399999999
 20
124.1999999999999
 30
0.0
 11
39.44744399999999
 21
137.7
 31
0.0
  0
LINE
  5
184
330
1E
100
AcDbEntity
  8
CSLAYER1
  6
CONTINUOUS
 62
     3
100
AcDbLine
 10
38.847444
 20
137.7
 30
0.0
 11
40.54744399999999
 21
137.7
 31
0.0
  0
LINE
  5
185
330
1E
100
AcDbEntity
  8
CSLAYER1
  6
CONTINUOUS
 62
     3
100
AcDbLine
 10
38.847444
 20
137.7
 30
0.0
 11
38.44744399999999
 21
138.1
 31
0.0
  0
LINE
  5
186
330
1E
100
AcDbEntity
  8
CSLAYER1
  6
CONTINUOUS
 62
     3
100
AcDbLine
 10
38.44744399999999
 20
138.1
 30
0.0
 11
38.44744399999999
 21
140.3
 31
0.0
  0
LINE
  5
187
330
1E
100
AcDbEntity
  8
CSLAYER1
  6
CONTINUOUS
 62
     3
100
AcDbLine
 10
38.44744399999999
 20
140.3
 30
0.0
 11
38.847444
 21
140.6999999999999
 31
0.0
  0
LINE
  5
188
330
1E
100
AcDbEntity
  8
CSLAYER1
  6
CONTINUOUS
 62
     3
100
AcDbLine
 10
38.847444
 20
140.6999999999999
 30
0.0
 11
40.54744399999999
 21
140.6999999999999
 31
0.0
  0
LINE
  5
189
330
1E
100
AcDbEntity
  8
CSLAYER1
  6
CONTINUOUS
 62
     3
100
AcDbLine
 10
39.44744399999999
 20
140.6999999999999
 30
0.0
 11
39.44744399999999
 21
154.1999999999999
 31
0.0
  0
LINE
  5
18A
330
1E
100
AcDbEntity
  8
CSLAYER1
  6
CONTINUOUS
 62
     3
100
AcDbLine
 10
42.94744399999999
 20
146.1999999999999
 30
0.0
 11
50.94744399999999
 21
146.1999999999999
 31
0.0
  0
LINE
  5
18B
330
1E
100
AcDbEntity
  8
CSLAYER1
  6
CONTINUOUS
 62
     3
100
AcDbLine
 10
50.94744399999999
 20
141.1999999999999
 30
0.0
 11
57.94744399999999
 21
141.1999999999999
 31
0.0
  0
LINE
  5
18C
330
1E
100
AcDbEntity
  8
CSLAYER1
  6
CONTINUOUS
 62
     3
100
AcDbLine
 10
57.94744399999999
 20
137.1999999999998
 30
0.0
 11
50.94744399999999
 21
137.1999999999998
 31
0.0
  0
LINE
  5
18D
330
1E
100
AcDbEntity
  8
CSLAYER1
  6
CONTINUOUS
 62
     3
100
AcDbLine
 10
50.94744399999999
 20
132.1999999999998
 30
0.0
 11
42.94744399999999
 21
132.1999999999998
 31
0.0
  0
ARC
  5
18E
330
1E
100
AcDbEntity
  8
CSLAYER1
  6
CONTINUOUS
 62
     3
100
AcDbCircle
 10
54.447444
 20
139.1999999999999
 30
0.0
 40
12.15
100
AcDbArc
 50
253.257804
 51
286.742196
  0
LINE
  5
18F
330
1E
100
AcDbEntity
  8
CSLAYER1
  6
CONTINUOUS
 62
     3
100
AcDbLine
 10
57.94744399999999
 20
124.1999999999999
 30
0.0
 11
57.94744399999999
 21
154.1999999999999
 31
0.0
  0
ARC
  5
190
330
1E
100
AcDbEntity
  8
CSLAYER1
  6
CONTINUOUS
 62
     3
100
AcDbCircle
 10
54.447444
 20
139.1999999999999
 30
0.0
 40
12.15
100
AcDbArc
 50
73.25780400000002
 51
106.7421959999999
  0
LINE
  5
191
330
1E
100
AcDbEntity
  8
CSLAYER1
  6
CONTINUOUS
 62
     3
100
AcDbLine
 10
50.94744399999999
 20
154.1999999999999
 30
0.0
 11
50.94744399999999
 21
124.1999999999999
 31
0.0
  0
LINE
  5
192
330
1E
100
AcDbEntity
  8
CSLAYER1
  6
CONTINUOUS
 62
     3
100
AcDbLine
 10
57.94744399999999
 20
132.1999999999998
 30
0.0
 11
65.94744399999999
 21
132.1999999999998
 31
0.0
  0
LINE
  5
193
330
1E
100
AcDbEntity
  8
CSLAYER1
  6
CONTINUOUS
 62
     3
100
AcDbLine
 10
65.94744399999999
 20
132.1999999999998
 30
0.0
 11
65.94744399999999
 21
146.1999999999999
 31
0.0
  0
LINE
  5
194
330
1E
100
AcDbEntity
  8
CSLAYER1
  6
CONTINUOUS
 62
     3
100
AcDbLine
 10
65.94744399999999
 20
146.1999999999999
 30
0.0
 11
57.94744399999999
 21
146.1999999999999
 31
0.0
  0
ARC
  5
195
330
1E
100
AcDbEntity
  8
CSLAYER1
  6
CONTINUOUS
 62
     3
100
AcDbCircle
 10
79.94744399999998
 20
144.9398699999998
 30
0.0
 40
14.0
100
AcDbArc
 50
138.590378
 51
180.0
  0
ARC
  5
196
330
1E
100
AcDbEntity
  8
CSLAYER1
  6
CONTINUOUS
 62
     3
100
AcDbCircle
 10
79.94744399999998
 20
133.4601299999998
 30
0.0
 40
14.0
100
AcDbArc
 50
180.0
 51
221.409622
  0
LINE
  5
197
330
1E
100
AcDbEntity
  8
CSLAYER1
  6
CONTINUOUS
 62
     3
100
AcDbLine
 10
97.447444
 20
132.1999999999998
 30
0.0
 11
97.447444
 21
146.1999999999999
 31
0.0
  0
LINE
  5
198
330
1E
100
AcDbEntity
  8
CSLAYER1
  6
CONTINUOUS
 62
     3
100
AcDbLine
 10
97.447444
 20
146.1999999999999
 30
0.0
 11
112.4474439999999
 21
154.1999999999999
 31
0.0
  0
LINE
  5
199
330
1E
100
AcDbEntity
  8
CSLAYER1
  6
CONTINUOUS
 62
     3
100
AcDbLine
 10
112.4474439999999
 20
154.1999999999999
 30
0.0
 11
176.4474439999999
 21
154.1999999999999
 31
0.0
  0
LINE
  5
19A
330
1E
100
AcDbEntity
  8
CSLAYER1
  6
CONTINUOUS
 62
     3
100
AcDbLine
 10
176.4474439999999
 20
154.1999999999999
 30
0.0
 11
176.4474439999999
 21
153.2
 31
0.0
  0
ARC
  5
19B
330
1E
100
AcDbEntity
  8
CSLAYER1
  6
CONTINUOUS
 62
     3
100
AcDbCircle
 10
178.4474439999999
 20
153.2
 30
0.0
 40
2.0
100
AcDbArc
 50
180.0
 51
270.0
  0
LINE
  5
19C
330
1E
100
AcDbEntity
  8
CSLAYER1
  6
CONTINUOUS
 62
     3
100
AcDbLine
 10
178.4474439999999
 20
151.2
 30
0.0
 11
189.9474439999999
 21
151.2
 31
0.0
  0
LINE
  5
19D
330
1E
100
AcDbEntity
  8
CSLAYER1
  6
CONTINUOUS
 62
     3
100
AcDbLine
 10
189.9474439999999
 20
151.2
 30
0.0
 11
191.447444
 21
149.6999999999998
 31
0.0
  0
LINE
  5
19E
330
1E
100
AcDbEntity
  8
CSLAYER1
  6
CONTINUOUS
 62
     3
100
AcDbLine
 10
191.447444
 20
149.6999999999998
 30
0.0
 11
191.447444
 21
128.6999999999999
 31
0.0
  0
LINE
  5
19F
330
1E
100
AcDbEntity
  8
CSLAYER1
  6
CONTINUOUS
 62
     3
100
AcDbLine
 10
191.447444
 20
128.6999999999999
 30
0.0
 11
189.9474439999999
 21
127.2
 31
0.0
  0
LINE
  5
1A0
330
1E
100
AcDbEntity
  8
CSLAYER1
  6
CONTINUOUS
 62
     3
100
AcDbLine
 10
189.9474439999999
 20
127.2
 30
0.0
 11
178.4474439999999
 21
127.2
 31
0.0
  0
ARC
  5
1A1
330
1E
100
AcDbEntity
  8
CSLAYER1
  6
CONTINUOUS
 62
     3
100
AcDbCircle
 10
178.4474439999999
 20
125.2
 30
0.0
 40
2.0
100
AcDbArc
 50
90.0
 51
180.0
  0
LINE
  5
1A2
330
1E
100
AcDbEntity
  8
CSLAYER1
  6
CONTINUOUS
 62
     3
100
AcDbLine
 10
176.4474439999999
 20
125.2
 30
0.0
 11
176.4474439999999
 21
124.1999999999999
 31
0.0
  0
LINE
  5
1A3
330
1E
100
AcDbEntity
  8
CSLAYER1
  6
CONTINUOUS
 62
     3
100
AcDbLine
 10
176.4474439999999
 20
124.1999999999999
 30
0.0
 11
112.4474439999999
 21
124.1999999999999
 31
0.0
  0
LINE
  5
1A4
330
1E
100
AcDbEntity
  8
CSLAYER1
  6
CONTINUOUS
 62
     3
100
AcDbLine
 10
112.4474439999999
 20
124.1999999999999
 30
0.0
 11
97.447444
 21
132.1999999999998
 31
0.0
  0
LINE
  5
1A5
330
1E
100
AcDbEntity
  8
CSLAYER1
  6
CONTINUOUS
 62
     3
100
AcDbLine
 10
102.5109519999999
 20
138.7
 30
0.0
 11
106.383936
 21
138.7
 31
0.0
  0
CIRCLE
  5
1A6
330
1E
100
AcDbEntity
  8
CSLAYER1
  6
CONTINUOUS
 62
     3
100
AcDbCircle
 10
104.4474439999999
 20
139.1999999999999
 30
0.0
 40
2.0
  0
LINE
  5
1A7
330
1E
100
AcDbEntity
  8
CSLAYER1
  6
CONTINUOUS
 62
     3
100
AcDbLine
 10
106.383936
 20
139.7
 30
0.0
 11
102.5109519999999
 21
139.7
 31
0.0
  0
ARC
  5
1A8
330
1E
100
AcDbEntity
  8
CSLAYER1
  6
CONTINUOUS
 62
     3
100
AcDbCircle
 10
104.4474439999999
 20
139.1999999999999
 30
0.0
 40
1.5
100
AcDbArc
 50
199.4712209999999
 51
340.528779
  0
ARC
  5
1A9
330
1E
100
AcDbEntity
  8
CSLAYER1
  6
CONTINUOUS
 62
     3
100
AcDbCircle
 10
104.4474439999999
 20
139.1999999999999
 30
0.0
 40
1.5
100
AcDbArc
 50
19.47122099999998
 51
160.528779
  0
LINE
  5
1AA
330
1E
100
AcDbEntity
  8
CSLAYER1
  6
CONTINUOUS
 62
     3
100
AcDbLine
 10
115.4474439999999
 20
154.1999999999999
 30
0.0
 11
115.4474439999999
 21
124.1999999999999
 31
0.0
  0
CIRCLE
  5
1AB
330
1E
100
AcDbEntity
  8
CSLAYER1
  6
CONTINUOUS
 62
     3
100
AcDbCircle
 10
127.4474439999998
 20
127.2
 30
0.0
 40
1.25
  0
LINE
  5
1AC
330
1E
100
AcDbEntity
  8
CSLAYER1
  6
CONTINUOUS
 62
     3
100
AcDbLine
 10
131.4474439999999
 20
124.1999999999999
 30
0.0
 11
131.4474439999999
 21
154.1999999999999
 31
0.0
  0
CIRCLE
  5
1AD
330
1E
100
AcDbEntity
  8
CSLAYER1
  6
CONTINUOUS
 62
     3
100
AcDbCircle
 10
127.4474439999998
 20
151.2
 30
0.0
 40
1.25
  0
LINE
  5
1AE
330
1E
100
AcDbEntity
  8
CSLAYER1
  6
CONTINUOUS
 62
     3
100
AcDbLine
 10
148.4474439999999
 20
154.1999999999999
 30
0.0
 11
148.4474439999999
 21
124.1999999999999
 31
0.0
  0
CIRCLE
  5
1AF
330
1E
100
AcDbEntity
  8
CSLAYER1
  6
CONTINUOUS
 62
     3
100
AcDbCircle
 10
157.4474439999999
 20
127.2
 30
0.0
 40
1.25
  0
LINE
  5
1B0
330
1E
100
AcDbEntity
  8
CSLAYER1
  6
CONTINUOUS
 62
     3
100
AcDbLine
 10
161.4474439999999
 20
124.1999999999999
 30
0.0
 11
161.4474439999999
 21
132.132236
 31
0.0
  0
LINE
  5
1B1
330
1E
100
AcDbEntity
  8
CSLAYER1
  6
CONTINUOUS
 62
     3
100
AcDbLine
 10
162.9474439999999
 20
133.632236
 30
0.0
 11
170.447444
 21
133.632236
 31
0.0
  0
LINE
  5
1B2
330
1E
100
AcDbEntity
  8
CSLAYER1
  6
CONTINUOUS
 62
     3
100
AcDbLine
 10
170.447444
 20
133.632236
 30
0.0
 11
170.447444
 21
144.767764
 31
0.0
  0
LINE
  5
1B3
330
1E
100
AcDbEntity
  8
CSLAYER1
  6
CONTINUOUS
 62
     3
100
AcDbLine
 10
170.447444
 20
144.767764
 30
0.0
 11
162.9474439999999
 21
144.767764
 31
0.0
  0
LINE
  5
1B4
330
1E
100
AcDbEntity
  8
CSLAYER1
  6
CONTINUOUS
 62
     3
100
AcDbLine
 10
161.4474439999999
 20
146.267764
 30
0.0
 11
161.4474439999999
 21
154.1999999999999
 31
0.0
  0
CIRCLE
  5
1B5
330
1E
100
AcDbEntity
  8
CSLAYER1
  6
CONTINUOUS
 62
     3
100
AcDbCircle
 10
157.4474439999999
 20
151.2
 30
0.0
 40
1.25
  0
ARC
  5
1B6
330
1E
100
AcDbEntity
  8
CSLAYER1
  6
CONTINUOUS
 62
     3
100
AcDbCircle
 10
162.9474439999999
 20
146.267764
 30
0.0
 40
1.5
100
AcDbArc
 50
180.0
 51
270.0
  0
LINE
  5
1B7
330
1E
100
AcDbEntity
  8
CSLAYER1
  6
CONTINUOUS
 62
     3
100
AcDbLine
 10
170.447444
 20
144.767764
 30
0.0
 11
171.447444
 21
143.7677639999999
 31
0.0
  0
LINE
  5
1B8
330
1E
100
AcDbEntity
  8
CSLAYER1
  6
CONTINUOUS
 62
     3
100
AcDbLine
 10
171.447444
 20
134.632236
 30
0.0
 11
170.447444
 21
133.632236
 31
0.0
  0
ARC
  5
1B9
330
1E
100
AcDbEntity
  8
CSLAYER1
  6
CONTINUOUS
 62
     3
100
AcDbCircle
 10
162.9474439999999
 20
132.132236
 30
0.0
 40
1.5
100
AcDbArc
 50
90.0
 51
180.0
  0
LINE
  5
1BA
330
1E
100
AcDbEntity
  8
CSLAYER1
  6
CONTINUOUS
 62
     3
100
AcDbLine
 10
171.447444
 20
124.1999999999999
 30
0.0
 11
171.447444
 21
154.1999999999999
 31
0.0
  0
LINE
  5
1BB
330
1E
100
AcDbEntity
  8
CSLAYER1
  6
CONTINUOUS
 62
     3
100
AcDbLine
 10
189.9474439999999
 20
151.2
 30
0.0
 11
189.9474439999999
 21
127.2
 31
0.0
  0
LINE
  5
1BC
330
1E
100
AcDbEntity
  8
CSLAYER1
  6
CONTINUOUS
 62
     3
100
AcDbLine
 10
225.7541629999999
 20
127.2
 30
0.0
 11
243.7541629999999
 21
127.2
 31
0.0
  0
ARC
  5
1BD
330
1E
100
AcDbEntity
  8
CSLAYER1
  6
CONTINUOUS
 62
     3
100
AcDbCircle
 10
234.7541629999999
 20
139.1999999999999
 30
0.0
 40
13.5
100
AcDbArc
 50
297.266044
 51
62.73395600000001
  0
LINE
  5
1BE
330
1E
100
AcDbEntity
  8
CSLAYER1
  6
CONTINUOUS
 62
     3
100
AcDbLine
 10
243.7541629999999
 20
151.2
 30
0.0
 11
225.7541629999999
 21
151.2
 31
0.0
  0
ARC
  5
1BF
330
1E
100
AcDbEntity
  8
CSLAYER1
  6
CONTINUOUS
 62
     3
100
AcDbCircle
 10
234.7541629999999
 20
139.1999999999999
 30
0.0
 40
13.5
100
AcDbArc
 50
117.266044
 51
242.733956
  0
CIRCLE
  5
1C0
330
1E
100
AcDbEntity
  8
CSLAYER1
  6
CONTINUOUS
 62
     3
100
AcDbCircle
 10
227.683095
 20
132.128932
 30
0.0
 40
1.649999999999999
  0
CIRCLE
  5
1C1
330
1E
100
AcDbEntity
  8
CSLAYER1
  6
CONTINUOUS
 62
     3
100
AcDbCircle
 10
234.7541629999999
 20
139.1999999999999
 30
0.0
 40
4.25
  0
CIRCLE
  5
1C2
330
1E
100
AcDbEntity
  8
CSLAYER1
  6
CONTINUOUS
 62
     3
100
AcDbCircle
 10
241.825231
 20
146.2710679999998
 30
0.0
 40
1.649999999999999
  0
CIRCLE
  5
1C3
330
1E
100
AcDbEntity
  8
CSLAYER1
  6
CONTINUOUS
 62
     3
100
AcDbCircle
 10
234.7541629999999
 20
139.1999999999999
 30
0.0
 40
15.0
  0
LINE
  5
1C4
330
1E
100
AcDbEntity
  8
CSLAYER1
  6
CONTINUOUS
 62
     3
100
AcDbLine
 10
191.447444
 20
91.5
 30
0.0
 11
189.9474439999999
 21
93.0
 31
0.0
  0
LINE
  5
1C5
330
1E
100
AcDbEntity
  8
CSLAYER1
  6
CONTINUOUS
 62
     3
100
AcDbLine
 10
189.9474439999999
 20
93.0
 30
0.0
 11
115.4474439999999
 21
93.0
 31
0.0
  0
LINE
  5
1C6
330
1E
100
AcDbEntity
  8
CSLAYER1
  6
CONTINUOUS
 62
     3
100
AcDbLine
 10
112.4474439999999
 20
90.977589
 30
0.0
 11
112.4474439999999
 21
81.5
 31
0.0
  0
LINE
  5
1C7
330
1E
100
AcDbEntity
  8
CSLAYER1
  6
CONTINUOUS
 62
     3
100
AcDbLine
 10
106.4474439999999
 20
81.5
 30
0.0
 11
106.4474439999999
 21
74.5
 31
0.0
  0
LINE
  5
1C8
330
1E
100
AcDbEntity
  8
CSLAYER1
  6
CONTINUOUS
 62
     3
100
AcDbLine
 10
102.4474439999998
 20
74.5
 30
0.0
 11
102.4474439999998
 21
81.5
 31
0.0
  0
LINE
  5
1C9
330
1E
100
AcDbEntity
  8
CSLAYER1
  6
CONTINUOUS
 62
     3
100
AcDbLine
 10
97.447444
 20
81.5
 30
0.0
 11
121.647444
 21
81.5
 31
0.0
  0
LINE
  5
1CA
330
1E
100
AcDbEntity
  8
CSLAYER1
  6
CONTINUOUS
 62
     3
100
AcDbLine
 10
121.647444
 20
81.5
 30
0.0
 11
121.647444
 21
74.5
 31
0.0
  0
LINE
  5
1CB
330
1E
100
AcDbEntity
  8
CSLAYER1
  6
CONTINUOUS
 62
     3
100
AcDbLine
 10
121.647444
 20
74.5
 30
0.0
 11
97.447444
 21
74.5
 31
0.0
  0
LINE
  5
1CC
330
1E
100
AcDbEntity
  8
CSLAYER1
  6
CONTINUOUS
 62
     3
100
AcDbLine
 10
97.447444
 20
74.5
 30
0.0
 11
97.447444
 21
66.5
 31
0.0
  0
LINE
  5
1CD
330
1E
100
AcDbEntity
  8
CSLAYER1
  6
CONTINUOUS
 62
     3
100
AcDbLine
 10
97.447444
 20
66.5
 30
0.0
 11
106.1873139999998
 21
66.5
 31
0.0
  0
LINE
  5
1CE
330
1E
100
AcDbEntity
  8
CSLAYER1
  6
CONTINUOUS
 62
     3
100
AcDbLine
 10
106.035157
 20
66.5
 30
0.0
 11
106.035157
 21
64.403355
 31
0.0
  0
ARC
  5
1CF
330
1E
100
AcDbEntity
  8
CSLAYER1
  6
CONTINUOUS
 62
     3
100
AcDbCircle
 10
106.8290139999999
 20
65.290408
 30
0.0
 40
1.190407999999999
100
AcDbArc
 50
228.173452
 51
288.173452
  0
LINE
  5
1D0
330
1E
100
AcDbEntity
  8
CSLAYER1
  6
CONTINUOUS
 62
     3
100
AcDbLine
 10
107.097444
 20
64.1
 30
0.0
 11
107.6228699999999
 21
64.403355
 31
0.0
  0
LINE
  5
1D1
330
1E
100
AcDbEntity
  8
CSLAYER1
  6
CONTINUOUS
 62
     3
100
AcDbLine
 10
107.6228699999999
 20
64.403355
 30
0.0
 11
107.6228699999999
 21
66.426519
 31
0.0
  0
LINE
  5
1D2
330
1E
100
AcDbEntity
  8
CSLAYER1
  6
CONTINUOUS
 62
     3
100
AcDbLine
 10
107.097444
 20
64.1
 30
0.0
 11
101.7974439999999
 21
64.1
 31
0.0
  0
LINE
  5
1D3
330
1E
100
AcDbEntity
  8
CSLAYER1
  6
CONTINUOUS
 62
     3
100
AcDbLine
 10
101.7974439999999
 20
64.1
 30
0.0
 11
101.272017
 21
64.403355
 31
0.0
  0
LINE
  5
1D4
330
1E
100
AcDbEntity
  8
CSLAYER1
  6
CONTINUOUS
 62
     3
100
AcDbLine
 10
101.272017
 20
64.403355
 30
0.0
 11
101.272017
 21
66.5
 31
0.0
  0
LINE
  5
1D5
330
1E
100
AcDbEntity
  8
CSLAYER1
  6
CONTINUOUS
 62
     3
100
AcDbLine
 10
102.859731
 20
66.5
 30
0.0
 11
102.859731
 21
64.403355
 31
0.0
  0
ARC
  5
1D6
330
1E
100
AcDbEntity
  8
CSLAYER1
  6
CONTINUOUS
 62
     3
100
AcDbCircle
 10
104.4474439999999
 20
68.406599
 30
0.0
 40
4.306598999999998
100
AcDbArc
 50
248.366392
 51
291.6336079999998
  0
LINE
  5
1D7
330
1E
100
AcDbEntity
  8
CSLAYER1
  6
CONTINUOUS
 62
     3
100
AcDbLine
 10
105.947444
 20
64.1
 30
0.0
 11
105.947444
 21
62.4
 31
0.0
  0
LINE
  5
1D8
330
1E
100
AcDbEntity
  8
CSLAYER1
  6
CONTINUOUS
 62
     3
100
AcDbLine
 10
105.947444
 20
62.4
 30
0.0
 11
105.547444
 21
62.0
 31
0.0
  0
LINE
  5
1D9
330
1E
100
AcDbEntity
  8
CSLAYER1
  6
CONTINUOUS
 62
     3
100
AcDbLine
 10
105.547444
 20
62.0
 30
0.0
 11
103.3474439999999
 21
62.0
 31
0.0
  0
LINE
  5
1DA
330
1E
100
AcDbEntity
  8
CSLAYER1
  6
CONTINUOUS
 62
     3
100
AcDbLine
 10
103.3474439999999
 20
62.0
 30
0.0
 11
102.9474439999999
 21
62.4
 31
0.0
  0
LINE
  5
1DB
330
1E
100
AcDbEntity
  8
CSLAYER1
  6
CONTINUOUS
 62
     3
100
AcDbLine
 10
102.9474439999999
 20
62.4
 30
0.0
 11
102.9474439999999
 21
64.1
 31
0.0
  0
ARC
  5
1DC
330
1E
100
AcDbEntity
  8
CSLAYER1
  6
CONTINUOUS
 62
     3
100
AcDbCircle
 10
102.065874
 20
65.290408
 30
0.0
 40
1.190407999999999
100
AcDbArc
 50
251.826548
 51
311.826548
  0
LINE
  5
1DD
330
1E
100
AcDbEntity
  8
CSLAYER1
  6
CONTINUOUS
 62
     3
100
AcDbLine
 10
112.4474439999999
 20
65.022411
 30
0.0
 11
112.4474439999999
 21
74.5
 31
0.0
  0
CIRCLE
  5
1DE
330
1E
100
AcDbEntity
  8
CSLAYER1
  6
CONTINUOUS
 62
     3
100
AcDbCircle
 10
122.4474439999999
 20
66.0
 30
0.0
 40
1.25
  0
LINE
  5
1DF
330
1E
100
AcDbEntity
  8
CSLAYER1
  6
CONTINUOUS
 62
     3
100
AcDbLine
 10
131.4474439999999
 20
63.0
 30
0.0
 11
131.4474439999999
 21
93.0
 31
0.0
  0
CIRCLE
  5
1E0
330
1E
100
AcDbEntity
  8
CSLAYER1
  6
CONTINUOUS
 62
     3
100
AcDbCircle
 10
122.4474439999999
 20
90.0
 30
0.0
 40
1.25
  0
LINE
  5
1E1
330
1E
100
AcDbEntity
  8
CSLAYER1
  6
CONTINUOUS
 62
     3
100
AcDbLine
 10
106.1873139999998
 20
89.50000000000001
 30
0.0
 11
97.447444
 21
89.50000000000001
 31
0.0
  0
LINE
  5
1E2
330
1E
100
AcDbEntity
  8
CSLAYER1
  6
CONTINUOUS
 62
     3
100
AcDbLine
 10
97.447444
 20
89.50000000000001
 30
0.0
 11
97.447444
 21
81.5
 31
0.0
  0
ARC
  5
1E3
330
1E
100
AcDbEntity
  8
CSLAYER1
  6
CONTINUOUS
 62
     3
100
AcDbCircle
 10
106.1873139999998
 20
103.4999999999999
 30
0.0
 40
14.0
100
AcDbArc
 50
270.0
 51
311.409622
  0
LINE
  5
1E4
330
1E
100
AcDbEntity
  8
CSLAYER1
  6
CONTINUOUS
 62
     3
100
AcDbLine
 10
115.4474439999999
 20
63.0
 30
0.0
 11
189.9474439999999
 21
63.0
 31
0.0
  0
LINE
  5
1E5
330
1E
100
AcDbEntity
  8
CSLAYER1
  6
CONTINUOUS
 62
     3
100
AcDbLine
 10
189.9474439999999
 20
63.0
 30
0.0
 11
191.447444
 21
64.5
 31
0.0
  0
LINE
  5
1E6
330
1E
100
AcDbEntity
  8
CSLAYER1
  6
CONTINUOUS
 62
     3
100
AcDbLine
 10
191.447444
 20
64.5
 30
0.0
 11
191.447444
 21
91.5
 31
0.0
  0
LINE
  5
1E7
330
1E
100
AcDbEntity
  8
CSLAYER1
  6
CONTINUOUS
 62
     3
100
AcDbLine
 10
189.9474439999999
 20
93.0
 30
0.0
 11
189.9474439999999
 21
87.0
 31
0.0
  0
LINE
  5
1E8
330
1E
100
AcDbEntity
  8
CSLAYER1
  6
CONTINUOUS
 62
     3
100
AcDbLine
 10
189.9474439999999
 20
87.0
 30
0.0
 11
178.4474439999999
 21
87.0
 31
0.0
  0
ARC
  5
1E9
330
1E
100
AcDbEntity
  8
CSLAYER1
  6
CONTINUOUS
 62
     3
100
AcDbCircle
 10
178.4474439999999
 20
85.0
 30
0.0
 40
2.0
100
AcDbArc
 50
90.0
 51
180.0
  0
LINE
  5
1EA
330
1E
100
AcDbEntity
  8
CSLAYER1
  6
CONTINUOUS
 62
     3
100
AcDbLine
 10
176.4474439999999
 20
85.0
 30
0.0
 11
176.4474439999999
 21
71.0
 31
0.0
  0
ARC
  5
1EB
330
1E
100
AcDbEntity
  8
CSLAYER1
  6
CONTINUOUS
 62
     3
100
AcDbCircle
 10
178.4474439999999
 20
71.0
 30
0.0
 40
2.0
100
AcDbArc
 50
180.0
 51
270.0
  0
LINE
  5
1EC
330
1E
100
AcDbEntity
  8
CSLAYER1
  6
CONTINUOUS
 62
     3
100
AcDbLine
 10
178.4474439999999
 20
69.0
 30
0.0
 11
189.9474439999999
 21
69.0
 31
0.0
  0
LINE
  5
1ED
330
1E
100
AcDbEntity
  8
CSLAYER1
  6
CONTINUOUS
 62
     3
100
AcDbLine
 10
189.9474439999999
 20
69.0
 30
0.0
 11
191.447444
 21
70.5
 31
0.0
  0
LINE
  5
1EE
330
1E
100
AcDbEntity
  8
CSLAYER1
  6
CONTINUOUS
 62
     3
100
AcDbLine
 10
189.9474439999999
 20
69.0
 30
0.0
 11
189.9474439999999
 21
62.94376899999999
 31
0.0
  0
LINE
  5
1EF
330
1E
100
AcDbEntity
  8
CSLAYER1
  6
CONTINUOUS
 62
     3
100
AcDbLine
 10
171.447444
 20
63.0
 30
0.0
 11
171.447444
 21
93.0
 31
0.0
  0
LINE
  5
1F0
330
1E
100
AcDbEntity
  8
CSLAYER1
  6
CONTINUOUS
 62
     3
100
AcDbLine
 10
170.447444
 20
83.56776399999999
 30
0.0
 11
162.9474439999999
 21
83.56776399999999
 31
0.0
  0
LINE
  5
1F1
330
1E
100
AcDbEntity
  8
CSLAYER1
  6
CONTINUOUS
 62
     3
100
AcDbLine
 10
161.4474439999999
 20
85.06776399999997
 30
0.0
 11
161.4474439999999
 21
93.0
 31
0.0
  0
ARC
  5
1F2
330
1E
100
AcDbEntity
  8
CSLAYER1
  6
CONTINUOUS
 62
     3
100
AcDbCircle
 10
162.9474439999999
 20
85.06776399999997
 30
0.0
 40
1.5
100
AcDbArc
 50
180.0
 51
270.0
  0
LINE
  5
1F3
330
1E
100
AcDbEntity
  8
CSLAYER1
  6
CONTINUOUS
 62
     3
100
AcDbLine
 10
170.447444
 20
83.56776399999999
 30
0.0
 11
171.447444
 21
82.56776399999997
 31
0.0
  0
LINE
  5
1F4
330
1E
100
AcDbEntity
  8
CSLAYER1
  6
CONTINUOUS
 62
     3
100
AcDbLine
 10
170.447444
 20
83.56776399999999
 30
0.0
 11
170.447444
 21
72.432236
 31
0.0
  0
LINE
  5
1F5
330
1E
100
AcDbEntity
  8
CSLAYER1
  6
CONTINUOUS
 62
     3
100
AcDbLine
 10
170.447444
 20
72.432236
 30
0.0
 11
162.9474439999999
 21
72.432236
 31
0.0
  0
ARC
  5
1F6
330
1E
100
AcDbEntity
  8
CSLAYER1
  6
CONTINUOUS
 62
     3
100
AcDbCircle
 10
162.9474439999999
 20
70.932236
 30
0.0
 40
1.5
100
AcDbArc
 50
90.0
 51
180.0
  0
LINE
  5
1F7
330
1E
100
AcDbEntity
  8
CSLAYER1
  6
CONTINUOUS
 62
     3
100
AcDbLine
 10
161.4474439999999
 20
70.932236
 30
0.0
 11
161.4474439999999
 21
63.0
 31
0.0
  0
CIRCLE
  5
1F8
330
1E
100
AcDbEntity
  8
CSLAYER1
  6
CONTINUOUS
 62
     3
100
AcDbCircle
 10
152.4474439999998
 20
66.0
 30
0.0
 40
1.25
  0
LINE
  5
1F9
330
1E
100
AcDbEntity
  8
CSLAYER1
  6
CONTINUOUS
 62
     3
100
AcDbLine
 10
148.4474439999999
 20
63.0
 30
0.0
 11
148.4474439999999
 21
93.0
 31
0.0
  0
CIRCLE
  5
1FA
330
1E
100
AcDbEntity
  8
CSLAYER1
  6
CONTINUOUS
 62
     3
100
AcDbCircle
 10
152.4474439999998
 20
90.0
 30
0.0
 40
1.25
  0
LINE
  5
1FB
330
1E
100
AcDbEntity
  8
CSLAYER1
  6
CONTINUOUS
 62
     3
100
AcDbLine
 10
170.447444
 20
72.432236
 30
0.0
 11
171.447444
 21
73.432236
 31
0.0
  0
LINE
  5
1FC
330
1E
100
AcDbEntity
  8
CSLAYER1
  6
CONTINUOUS
 62
     3
100
AcDbLine
 10
189.9474439999999
 20
87.0
 30
0.0
 11
191.447444
 21
85.5
 31
0.0
  0
ARC
  5
1FD
330
1E
100
AcDbEntity
  8
CSLAYER1
  6
CONTINUOUS
 62
     3
100
AcDbCircle
 10
106.1873139999998
 20
52.5
 30
0.0
 40
14.0
100
AcDbArc
 50
48.590378
 51
90.0
  0
LINE
  5
1FE
330
1E
100
AcDbEntity
  8
CSLAYER1
  6
CENTER
 62
     4
100
AcDbLine
 10
119.587702
 20
90.0
 30
0.0
 11
155.3727639999999
 21
90.0
 31
0.0
  0
CIRCLE
  5
1FF
330
1E
100
AcDbEntity
  8
CSLAYER1
  6
CONTINUOUS
 62
     4
100
AcDbCircle
 10
152.4474439999998
 20
90.0
 30
0.0
 40
1.5
  0
LINE
  5
200
330
1E
100
AcDbEntity
  8
CSLAYER1
  6
CENTER
 62
     4
100
AcDbLine
 10
152.4474439999998
 20
85.969882
 30
0.0
 11
152.4474439999998
 21
94.634546
 31
0.0
  0
LINE
  5
201
330
1E
100
AcDbEntity
  8
CSLAYER1
  6
CENTER
 62
     4
100
AcDbLine
 10
152.4474439999998
 20
70.030118
 30
0.0
 11
152.4474439999998
 21
61.36545400000001
 31
0.0
  0
CIRCLE
  5
202
330
1E
100
AcDbEntity
  8
CSLAYER1
  6
CONTINUOUS
 62
     4
100
AcDbCircle
 10
152.4474439999998
 20
66.0
 30
0.0
 40
1.5
  0
LINE
  5
203
330
1E
100
AcDbEntity
  8
CSLAYER1
  6
CENTER
 62
     4
100
AcDbLine
 10
155.3727639999999
 20
66.0
 30
0.0
 11
119.587702
 21
66.0
 31
0.0
  0
LINE
  5
204
330
1E
100
AcDbEntity
  8
CSLAYER1
  6
CENTER
 62
     4
100
AcDbLine
 10
122.4474439999999
 20
69.077005
 30
0.0
 11
122.4474439999999
 21
61.45210099999999
 31
0.0
  0
CIRCLE
  5
205
330
1E
100
AcDbEntity
  8
CSLAYER1
  6
CONTINUOUS
 62
     4
100
AcDbCircle
 10
122.4474439999999
 20
66.0
 30
0.0
 40
1.5
  0
LINE
  5
206
330
1E
100
AcDbEntity
  8
CSLAYER1
  6
CONTINUOUS
 62
     4
100
AcDbLine
 10
105.6974439999998
 20
64.1
 30
0.0
 11
105.6974439999998
 21
62.14999999999999
 31
0.0
  0
LINE
  5
207
330
1E
100
AcDbEntity
  8
CSLAYER1
  6
CONTINUOUS
 62
     4
100
AcDbLine
 10
105.947444
 20
62.4
 30
0.0
 11
102.9474439999999
 21
62.4
 31
0.0
  0
LINE
  5
208
330
1E
100
AcDbEntity
  8
CSLAYER1
  6
CONTINUOUS
 62
     4
100
AcDbLine
 10
103.1974439999999
 20
62.14999999999999
 30
0.0
 11
103.1974439999999
 21
64.1
 31
0.0
  0
LINE
  5
209
330
1E
100
AcDbEntity
  8
CSLAYER1
  6
CENTER
 62
     4
100
AcDbLine
 10
95.50478199999998
 20
78.0
 30
0.0
 11
195.091161
 21
78.0
 31
0.0
  0
LINE
  5
20A
330
1E
100
AcDbEntity
  8
CSLAYER1
  6
CENTER
 62
     4
100
AcDbLine
 10
234.7541629999999
 20
120.717505
 30
0.0
 11
234.7541629999999
 21
157.4652969999999
 31
0.0
  0
LINE
  5
20B
330
1E
100
AcDbEntity
  8
CSLAYER1
  6
CENTER
 62
     4
100
AcDbLine
 10
238.492637
 20
149.603662
 30
0.0
 11
244.885485
 21
143.210813
 31
0.0
  0
CIRCLE
  5
20C
330
1E
100
AcDbEntity
  8
CSLAYER1
  6
CONTINUOUS
 62
     4
100
AcDbCircle
 10
241.825231
 20
146.2710679999998
 30
0.0
 40
2.0
  0
LINE
  5
20D
330
1E
100
AcDbEntity
  8
CSLAYER1
  6
CENTER
 62
     4
100
AcDbLine
 10
244.9233169999998
 20
149.369154
 30
0.0
 11
239.225343
 21
143.6711799999999
 31
0.0
  0
CIRCLE
  5
20E
330
1E
100
AcDbEntity
  8
CSLAYER1
  6
CONTINUOUS
 62
     4
100
AcDbCircle
 10
234.7541629999999
 20
139.1999999999999
 30
0.0
 40
4.75
  0
LINE
  5
20F
330
1E
100
AcDbEntity
  8
CSLAYER1
  6
CENTER
 62
     4
100
AcDbLine
 10
230.19197
 20
134.637807
 30
0.0
 11
224.563483
 21
129.00932
 31
0.0
  0
LINE
  5
210
330
1E
100
AcDbEntity
  8
CSLAYER1
  6
CENTER
 62
     4
100
AcDbLine
 10
230.256937
 20
129.5550899999998
 30
0.0
 11
224.6979379999999
 21
135.1140889999999
 31
0.0
  0
CIRCLE
  5
211
330
1E
100
AcDbEntity
  8
CSLAYER1
  6
CONTINUOUS
 62
     4
100
AcDbCircle
 10
227.683095
 20
132.128932
 30
0.0
 40
2.0
  0
LINE
  5
212
330
1E
100
AcDbEntity
  8
CSLAYER1
  6
CENTER
 62
     4
100
AcDbLine
 10
216.093474
 20
139.1999999999999
 30
0.0
 11
252.9422209999999
 21
139.1999999999999
 31
0.0
  0
LINE
  5
213
330
1E
100
AcDbEntity
  8
CSLAYER1
  6
CENTER
 62
     4
100
AcDbLine
 10
196.519811
 20
139.1999999999999
 30
0.0
 11
94.02744
 21
139.1999999999999
 31
0.0
  0
LINE
  5
214
330
1E
100
AcDbEntity
  8
CSLAYER1
  6
CENTER
 62
     4
100
AcDbLine
 10
104.4474439999999
 20
142.809167
 30
0.0
 11
104.4474439999999
 21
135.480391
 31
0.0
  0
LINE
  5
215
330
1E
100
AcDbEntity
  8
CSLAYER1
  6
CENTER
 62
     4
100
AcDbLine
 10
124.105354
 20
127.2
 30
0.0
 11
160.2664409999999
 21
127.2
 31
0.0
  0
CIRCLE
  5
216
330
1E
100
AcDbEntity
  8
CSLAYER1
  6
CONTINUOUS
 62
     4
100
AcDbCircle
 10
157.4474439999999
 20
127.2
 30
0.0
 40
1.5
  0
LINE
  5
217
330
1E
100
AcDbEntity
  8
CSLAYER1
  6
CENTER
 62
     4
100
AcDbLine
 10
157.4474439999999
 20
130.14591
 30
0.0
 11
157.4474439999999
 21
122.905774
 31
0.0
  0
LINE
  5
218
330
1E
100
AcDbEntity
  8
CSLAYER1
  6
CENTER
 62
     4
100
AcDbLine
 10
157.4474439999999
 20
148.2540899999999
 30
0.0
 11
157.4474439999999
 21
155.4506469999999
 31
0.0
  0
CIRCLE
  5
219
330
1E
100
AcDbEntity
  8
CSLAYER1
  6
CONTINUOUS
 62
     4
100
AcDbCircle
 10
157.4474439999999
 20
151.2
 30
0.0
 40
1.5
  0
LINE
  5
21A
330
1E
100
AcDbEntity
  8
CSLAYER1
  6
CENTER
 62
     4
100
AcDbLine
 10
160.2664409999999
 20
151.2
 30
0.0
 11
124.105354
 21
151.2
 31
0.0
  0
LINE
  5
21B
330
1E
100
AcDbEntity
  8
CSLAYER1
  6
CENTER
 62
     4
100
AcDbLine
 10
127.4474439999998
 20
148.0851129999998
 30
0.0
 11
127.4474439999998
 21
155.4506469999999
 31
0.0
  0
CIRCLE
  5
21C
330
1E
100
AcDbEntity
  8
CSLAYER1
  6
CONTINUOUS
 62
     4
100
AcDbCircle
 10
127.4474439999998
 20
151.2
 30
0.0
 40
1.5
  0
LINE
  5
21D
330
1E
100
AcDbEntity
  8
CSLAYER1
  6
CENTER
 62
     4
100
AcDbLine
 10
127.4474439999998
 20
130.314887
 30
0.0
 11
127.4474439999998
 21
123.1648379999999
 31
0.0
  0
CIRCLE
  5
21E
330
1E
100
AcDbEntity
  8
CSLAYER1
  6
CONTINUOUS
 62
     4
100
AcDbCircle
 10
127.4474439999998
 20
127.2
 30
0.0
 40
1.5
  0
LINE
  5
21F
330
1E
100
AcDbEntity
  8
CSLAYER1
  6
CENTER
 62
     4
100
AcDbLine
 10
122.4474439999999
 20
94.54789899999999
 30
0.0
 11
122.4474439999999
 21
86.922995
 31
0.0
  0
CIRCLE
  5
220
330
1E
100
AcDbEntity
  8
CSLAYER1
  6
CONTINUOUS
 62
     4
100
AcDbCircle
 10
122.4474439999999
 20
90.0
 30
0.0
 40
1.5
  0
LINE
  5
221
330
1E
100
AcDbEntity
  8
CSLAYER1
  6
CENTER
 62
     4
100
AcDbLine
 10
72.864234
 20
139.1999999999999
 30
0.0
 11
42.94744399999999
 21
139.1999999999999
 31
0.0
  0
LINE
  5
222
330
1E
100
AcDbEntity
  8
CSLAYER1
  6
CONTINUOUS
 62
     4
100
AcDbLine
 10
38.597444
 20
137.9499999999999
 30
0.0
 11
40.54744399999999
 21
137.9499999999999
 31
0.0
  0
LINE
  5
223
330
1E
100
AcDbEntity
  8
CSLAYER1
  6
CONTINUOUS
 62
     4
100
AcDbLine
 10
38.847444
 20
137.7
 30
0.0
 11
38.847444
 21
140.6999999999999
 31
0.0
  0
LINE
  5
224
330
1E
100
AcDbEntity
  8
CSLAYER1
  6
CONTINUOUS
 62
     4
100
AcDbLine
 10
38.597444
 20
140.4499999999998
 30
0.0
 11
40.54744399999999
 21
140.4499999999998
 31
0.0
  0
LINE
  5
225
330
1E
100
AcDbEntity
  8
CSLAYER1
  6
CENTER
 62
     4
100
AcDbLine
 10
54.447444
 20
157.710619
 30
0.0
 11
54.447444
 21
121.3946909999999
 31
0.0
  0
LINE
  5
226
330
1E
100
AcDbEntity
  8
CSLAYER1
  6
CENTER
 62
     4
100
AcDbLine
 10
104.4474439999999
 20
91.149167
 30
0.0
 11
104.4474439999999
 21
59.519165
 31
0.0
  0
LINE
  5
227
330
1E
100
AcDbEntity
  8
CSLAYER1
  6
CONTINUOUS
 62
     3
100
AcDbLine
 10
219.7541629999999
 20
154.1999999999999
 30
0.0
 11
249.7541629999999
 21
154.1999999999999
 31
0.0
  0
LINE
  5
228
330
1E
100
AcDbEntity
  8
CSLAYER1
  6
CONTINUOUS
 62
     3
100
AcDbLine
 10
219.7541629999999
 20
154.1999999999999
 30
0.0
 11
219.7541629999999
 21
124.1999999999999
 31
0.0
  0
LINE
  5
229
330
1E
100
AcDbEntity
  8
CSLAYER1
  6
CONTINUOUS
 62
     3
100
AcDbLine
 10
219.7541629999999
 20
124.1999999999999
 30
0.0
 11
249.7541629999999
 21
124.1999999999999
 31
0.0
  0
LINE
  5
22A
330
1E
100
AcDbEntity
  8
CSLAYER1
  6
CONTINUOUS
 62
     3
100
AcDbLine
 10
249.7541629999999
 20
154.1999999999999
 30
0.0
 11
249.7541629999999
 21
124.1999999999999
 31
0.0
  0
DIMENSION
  5
22B
330
1E
100
AcDbEntity
  8
CSLAYER1
 62
     4
100
AcDbDimension
  2
*D21
 10
191.447444
 20
178.078659
 30
0.0
 11
144.447433
 21
178.578659
 31
0.0
100
AcDbAlignedDimension
 13
97.447444
 23
146.1999999999999
 33
0.0
 14
191.447444
 24
149.6999999999998
 34
0.0
100
AcDbRotatedDimension
  0
LINE
  5
22C
330
1E
100
AcDbEntity
  8
CSLAYER1
  6
CONTINUOUS
 62
     3
100
AcDbLine
 10
40.54744399999999
 20
141.95
 30
0.0
 11
40.54744399999999
 21
136.4499999999999
 31
0.0
  0
LINE
  5
22D
330
1E
100
AcDbEntity
  8
CSLAYER1
  6
CONTINUOUS
 62
     3
100
AcDbLine
 10
42.94744399999999
 20
141.95
 30
0.0
 11
40.54744399999999
 21
141.95
 31
0.0
  0
LINE
  5
22E
330
1E
100
AcDbEntity
  8
CSLAYER1
  6
CONTINUOUS
 62
     3
100
AcDbLine
 10
42.94744399999999
 20
139.1999999999999
 30
0.0
 11
40.850799
 21
139.1999999999999
 31
0.0
  0
ARC
  5
22F
330
1E
100
AcDbEntity
  8
CSLAYER1
  6
CONTINUOUS
 62
     3
100
AcDbCircle
 10
43.815312
 20
140.5749999999999
 30
0.0
 40
3.267868999999998
100
AcDbArc
 50
155.117197
 51
204.882803
  0
LINE
  5
230
330
1E
100
AcDbEntity
  8
CSLAYER1
  6
CONTINUOUS
 62
     3
100
AcDbLine
 10
42.94744399999999
 20
136.4499999999999
 30
0.0
 11
40.54744399999999
 21
136.4499999999999
 31
0.0
  0
ARC
  5
231
330
1E
100
AcDbEntity
  8
CSLAYER1
  6
CONTINUOUS
 62
     3
100
AcDbCircle
 10
43.815312
 20
137.8249999999999
 30
0.0
 40
3.267868999999998
100
AcDbArc
 50
155.117197
 51
204.882803
  0
LINE
  5
232
330
1E
100
AcDbEntity
  8
CSLAYER1
  6
CENTER
 62
     4
100
AcDbLine
 10
40.850799
 20
139.1999999999999
 30
0.0
 11
37.49250399999999
 21
139.1999999999999
 31
0.0
  0
DIMENSION
  5
233
330
1E
100
AcDbEntity
  8
CSLAYER1
 62
     4
100
AcDbDimension
  2
*D22
 10
148.4474439999999
 20
110.995181
 30
0.0
 11
139.947433
 21
111.495178
 31
0.0
 70
     1
 52
270.0
100
AcDbAlignedDimension
 13
131.4474439999999
 23
124.1999999999999
 33
0.0
 14
148.4474439999999
 24
124.1999999999999
 34
0.0
  0
DIMENSION
  5
234
330
1E
100
AcDbEntity
  8
CSLAYER1
 62
     4
100
AcDbDimension
  2
*D23
 10
171.447444
 20
110.995181
 30
0.0
 11
159.947433
 21
111.495178
 31
0.0
 70
     1
 52
270.0
100
AcDbAlignedDimension
 13
148.4474439999999
 23
124.1999999999999
 33
0.0
 14
171.447444
 24
124.1999999999999
 34
0.0
  0
DIMENSION
  5
235
330
1E
100
AcDbEntity
  8
CSLAYER1
 62
     4
100
AcDbDimension
  2
*D24
 10
171.447444
 20
116.995181
 30
0.0
 11
166.447433
 21
117.495178
 31
0.0
 70
     1
 52
270.0
100
AcDbAlignedDimension
 13
161.4474439999999
 23
124.1999999999999
 33
0.0
 14
171.447444
 24
124.1999999999999
 34
0.0
  0
DIMENSION
  5
236
330
1E
100
AcDbEntity
  8
CSLAYER1
 62
     4
100
AcDbDimension
  2
*D25
 10
157.4474439999999
 20
160.8475529999998
 30
0.0
 11
142.447433
 21
161.3475489999999
 31
0.0
 70
     1
100
AcDbAlignedDimension
 13
127.4474439999998
 23
155.4506469999999
 33
0.0
 14
157.4474439999999
 24
155.4506469999999
 34
0.0
  0
INSERT
  5
238
330
1E
100
AcDbEntity
  8
CSLAYER1
100
AcDbBlockReference
  2
FXDIM0003
 10
0.0
 20
0.0
 30
0.0
  0
LINE
  5
239
330
1E
100
AcDbEntity
  8
CSLAYER1
  6
CENTER
 62
     4
100
AcDbLine
 10
234.7541629999999
 20
139.1999999999999
 30
0.0
 11
217.0218999999999
 21
143.951346
 31
0.0
  0
LINE
  5
23A
330
1E
100
AcDbEntity
  8
CSLAYER1
  6
CENTER
 62
     4
100
AcDbLine
 10
188.715655
 20
145.023429
 30
0.0
 11
174.1242379999999
 21
145.023429
 31
0.0
  0
LINE
  5
23B
330
1E
100
AcDbEntity
  8
CSLAYER1
  6
CENTER
 62
     4
100
AcDbLine
 10
181.4474439999999
 20
137.914793
 30
0.0
 11
181.4474439999999
 21
151.9991729999999
 31
0.0
  0
POLYLINE
  5
23C
330
1E
100
AcDbEntity
  8
CSLAYER1
  6
CONTINUOUS
 62
     4
100
AcDb2dPolyline
 66
     1
 10
0.0
 20
0.0
 30
0.0
  0
VERTEX
  5
23D
330
23C
100
AcDbEntity
  8
CSLAYER1
  6
CONTINUOUS
 62
     4
100
AcDbVertex
100
AcDb2dVertex
 10
181.4474439999999
 20
149.7734289999999
 30
0.0
  0
VERTEX
  5
23E
330
23C
100
AcDbEntity
  8
CSLAYER1
  6
CONTINUOUS
 62
     4
100
AcDbVertex
100
AcDb2dVertex
 10
181.047835
 20
149.755353
 30
0.0
  0
VERTEX
  5
23F
330
23C
100
AcDbEntity
  8
CSLAYER1
  6
CONTINUOUS
 62
     4
100
AcDbVertex
100
AcDb2dVertex
 10
180.651267
 20
149.7012649999998
 30
0.0
  0
VERTEX
  5
240
330
23C
100
AcDbEntity
  8
CSLAYER1
  6
CONTINUOUS
 62
     4
100
AcDbVertex
100
AcDb2dVertex
 10
180.260759
 20
149.611576
 30
0.0
  0
VERTEX
  5
241
330
23C
100
AcDbEntity
  8
CSLAYER1
  6
CONTINUOUS
 62
     4
100
AcDbVertex
100
AcDb2dVertex
 10
179.879282
 20
149.4869679999998
 30
0.0
  0
VERTEX
  5
242
330
23C
100
AcDbEntity
  8
CSLAYER1
  6
CONTINUOUS
 62
     4
100
AcDbVertex
100
AcDb2dVertex
 10
179.509739
 20
149.3283909999999
 30
0.0
  0
VERTEX
  5
243
330
23C
100
AcDbEntity
  8
CSLAYER1
  6
CONTINUOUS
 62
     4
100
AcDbVertex
100
AcDb2dVertex
 10
179.154944
 20
149.1370489999999
 30
0.0
  0
VERTEX
  5
244
330
23C
100
AcDbEntity
  8
CSLAYER1
  6
CONTINUOUS
 62
     4
100
AcDbVertex
100
AcDb2dVertex
 10
178.817596
 20
148.9144009999999
 30
0.0
  0
VERTEX
  5
245
330
23C
100
AcDbEntity
  8
CSLAYER1
  6
CONTINUOUS
 62
     4
100
AcDbVertex
100
AcDb2dVertex
 10
178.5002629999999
 20
148.6621399999999
 30
0.0
  0
VERTEX
  5
246
330
23C
100
AcDbEntity
  8
CSLAYER1
  6
CONTINUOUS
 62
     4
100
AcDbVertex
100
AcDb2dVertex
 10
178.205359
 20
148.382186
 30
0.0
  0
VERTEX
  5
247
330
23C
100
AcDbEntity
  8
CSLAYER1
  6
CONTINUOUS
 62
     4
100
AcDbVertex
100
AcDb2dVertex
 10
177.93513
 20
148.07667
 30
0.0
  0
VERTEX
  5
248
330
23C
100
AcDbEntity
  8
CSLAYER1
  6
CONTINUOUS
 62
     4
100
AcDbVertex
100
AcDb2dVertex
 10
177.6916319999999
 20
147.747917
 30
0.0
  0
VERTEX
  5
249
330
23C
100
AcDbEntity
  8
CSLAYER1
  6
CONTINUOUS
 62
     4
100
AcDbVertex
100
AcDb2dVertex
 10
177.4767169999999
 20
147.3984289999999
 30
0.0
  0
VERTEX
  5
24A
330
23C
100
AcDbEntity
  8
CSLAYER1
  6
CONTINUOUS
 62
     4
100
AcDbVertex
100
AcDb2dVertex
 10
177.2920229999999
 20
147.0308649999998
 30
0.0
  0
VERTEX
  5
24B
330
23C
100
AcDbEntity
  8
CSLAYER1
  6
CONTINUOUS
 62
     4
100
AcDbVertex
100
AcDb2dVertex
 10
177.138953
 20
146.6480239999999
 30
0.0
  0
VERTEX
  5
24C
330
23C
100
AcDbEntity
  8
CSLAYER1
  6
CONTINUOUS
 62
     4
100
AcDbVertex
100
AcDb2dVertex
 10
177.0186739999999
 20
146.252819
 30
0.0
  0
VERTEX
  5
24D
330
23C
100
AcDbEntity
  8
CSLAYER1
  6
CONTINUOUS
 62
     4
100
AcDbVertex
100
AcDb2dVertex
 10
176.9320999999999
 20
145.848257
 30
0.0
  0
VERTEX
  5
24E
330
23C
100
AcDbEntity
  8
CSLAYER1
  6
CONTINUOUS
 62
     4
100
AcDbVertex
100
AcDb2dVertex
 10
176.8798909999999
 20
145.4374179999998
 30
0.0
  0
VERTEX
  5
24F
330
23C
100
AcDbEntity
  8
CSLAYER1
  6
CONTINUOUS
 62
     4
100
AcDbVertex
100
AcDb2dVertex
 10
176.8624439999999
 20
145.023429
 30
0.0
  0
VERTEX
  5
250
330
23C
100
AcDbEntity
  8
CSLAYER1
  6
CONTINUOUS
 62
     4
100
AcDbVertex
100
AcDb2dVertex
 10
176.8798909999999
 20
144.6094389999998
 30
0.0
  0
VERTEX
  5
251
330
23C
100
AcDbEntity
  8
CSLAYER1
  6
CONTINUOUS
 62
     4
100
AcDbVertex
100
AcDb2dVertex
 10
176.9320999999999
 20
144.1985999999999
 30
0.0
  0
VERTEX
  5
252
330
23C
100
AcDbEntity
  8
CSLAYER1
  6
CONTINUOUS
 62
     4
100
AcDbVertex
100
AcDb2dVertex
 10
177.0186739999999
 20
143.794038
 30
0.0
  0
VERTEX
  5
253
330
23C
100
AcDbEntity
  8
CSLAYER1
  6
CONTINUOUS
 62
     4
100
AcDbVertex
100
AcDb2dVertex
 10
177.138953
 20
143.398833
 30
0.0
  0
VERTEX
  5
254
330
23C
100
AcDbEntity
  8
CSLAYER1
  6
CONTINUOUS
 62
     4
100
AcDbVertex
100
AcDb2dVertex
 10
177.2920229999999
 20
143.0159919999999
 30
0.0
  0
VERTEX
  5
255
330
23C
100
AcDbEntity
  8
CSLAYER1
  6
CONTINUOUS
 62
     4
100
AcDbVertex
100
AcDb2dVertex
 10
177.4767169999999
 20
142.6484289999999
 30
0.0
  0
VERTEX
  5
256
330
23C
100
AcDbEntity
  8
CSLAYER1
  6
CONTINUOUS
 62
     4
100
AcDbVertex
100
AcDb2dVertex
 10
177.6916319999999
 20
142.2989399999998
 30
0.0
  0
VERTEX
  5
257
330
23C
100
AcDbEntity
  8
CSLAYER1
  6
CONTINUOUS
 62
     4
100
AcDbVertex
100
AcDb2dVertex
 10
177.93513
 20
141.970187
 30
0.0
  0
VERTEX
  5
258
330
23C
100
AcDbEntity
  8
CSLAYER1
  6
CONTINUOUS
 62
     4
100
AcDbVertex
100
AcDb2dVertex
 10
178.205359
 20
141.664671
 30
0.0
  0
VERTEX
  5
259
330
23C
100
AcDbEntity
  8
CSLAYER1
  6
CONTINUOUS
 62
     4
100
AcDbVertex
100
AcDb2dVertex
 10
178.5002629999999
 20
141.3847169999999
 30
0.0
  0
VERTEX
  5
25A
330
23C
100
AcDbEntity
  8
CSLAYER1
  6
CONTINUOUS
 62
     4
100
AcDbVertex
100
AcDb2dVertex
 10
178.817596
 20
141.132456
 30
0.0
  0
VERTEX
  5
25B
330
23C
100
AcDbEntity
  8
CSLAYER1
  6
CONTINUOUS
 62
     4
100
AcDbVertex
100
AcDb2dVertex
 10
179.154944
 20
140.9098079999999
 30
0.0
  0
VERTEX
  5
25C
330
23C
100
AcDbEntity
  8
CSLAYER1
  6
CONTINUOUS
 62
     4
100
AcDbVertex
100
AcDb2dVertex
 10
179.509739
 20
140.718467
 30
0.0
  0
VERTEX
  5
25D
330
23C
100
AcDbEntity
  8
CSLAYER1
  6
CONTINUOUS
 62
     4
100
AcDbVertex
100
AcDb2dVertex
 10
179.879282
 20
140.559889
 30
0.0
  0
VERTEX
  5
25E
330
23C
100
AcDbEntity
  8
CSLAYER1
  6
CONTINUOUS
 62
     4
100
AcDbVertex
100
AcDb2dVertex
 10
180.260759
 20
140.4352809999999
 30
0.0
  0
VERTEX
  5
25F
330
23C
100
AcDbEntity
  8
CSLAYER1
  6
CONTINUOUS
 62
     4
100
AcDbVertex
100
AcDb2dVertex
 10
180.651267
 20
140.3455919999998
 30
0.0
  0
VERTEX
  5
260
330
23C
100
AcDbEntity
  8
CSLAYER1
  6
CONTINUOUS
 62
     4
100
AcDbVertex
100
AcDb2dVertex
 10
181.047835
 20
140.291504
 30
0.0
  0
VERTEX
  5
261
330
23C
100
AcDbEntity
  8
CSLAYER1
  6
CONTINUOUS
 62
     4
100
AcDbVertex
100
AcDb2dVertex
 10
181.4474439999999
 20
140.2734289999999
 30
0.0
  0
VERTEX
  5
262
330
23C
100
AcDbEntity
  8
CSLAYER1
  6
CONTINUOUS
 62
     4
100
AcDbVertex
100
AcDb2dVertex
 10
181.847053
 20
140.291504
 30
0.0
  0
VERTEX
  5
263
330
23C
100
AcDbEntity
  8
CSLAYER1
  6
CONTINUOUS
 62
     4
100
AcDbVertex
100
AcDb2dVertex
 10
182.243621
 20
140.3455919999998
 30
0.0
  0
VERTEX
  5
264
330
23C
100
AcDbEntity
  8
CSLAYER1
  6
CONTINUOUS
 62
     4
100
AcDbVertex
100
AcDb2dVertex
 10
182.634129
 20
140.4352809999999
 30
0.0
  0
VERTEX
  5
265
330
23C
100
AcDbEntity
  8
CSLAYER1
  6
CONTINUOUS
 62
     4
100
AcDbVertex
100
AcDb2dVertex
 10
183.015606
 20
140.559889
 30
0.0
  0
VERTEX
  5
266
330
23C
100
AcDbEntity
  8
CSLAYER1
  6
CONTINUOUS
 62
     4
100
AcDbVertex
100
AcDb2dVertex
 10
183.385149
 20
140.718467
 30
0.0
  0
VERTEX
  5
267
330
23C
100
AcDbEntity
  8
CSLAYER1
  6
CONTINUOUS
 62
     4
100
AcDbVertex
100
AcDb2dVertex
 10
183.739944
 20
140.9098079999999
 30
0.0
  0
VERTEX
  5
268
330
23C
100
AcDbEntity
  8
CSLAYER1
  6
CONTINUOUS
 62
     4
100
AcDbVertex
100
AcDb2dVertex
 10
184.077292
 20
141.132456
 30
0.0
  0
VERTEX
  5
269
330
23C
100
AcDbEntity
  8
CSLAYER1
  6
CONTINUOUS
 62
     4
100
AcDbVertex
100
AcDb2dVertex
 10
184.3946249999999
 20
141.3847169999999
 30
0.0
  0
VERTEX
  5
26A
330
23C
100
AcDbEntity
  8
CSLAYER1
  6
CONTINUOUS
 62
     4
100
AcDbVertex
100
AcDb2dVertex
 10
184.689528
 20
141.664671
 30
0.0
  0
VERTEX
  5
26B
330
23C
100
AcDbEntity
  8
CSLAYER1
  6
CONTINUOUS
 62
     4
100
AcDbVertex
100
AcDb2dVertex
 10
184.959758
 20
141.970187
 30
0.0
  0
VERTEX
  5
26C
330
23C
100
AcDbEntity
  8
CSLAYER1
  6
CONTINUOUS
 62
     4
100
AcDbVertex
100
AcDb2dVertex
 10
185.2032559999999
 20
142.2989399999998
 30
0.0
  0
VERTEX
  5
26D
330
23C
100
AcDbEntity
  8
CSLAYER1
  6
CONTINUOUS
 62
     4
100
AcDbVertex
100
AcDb2dVertex
 10
185.4181699999999
 20
142.6484289999999
 30
0.0
  0
VERTEX
  5
26E
330
23C
100
AcDbEntity
  8
CSLAYER1
  6
CONTINUOUS
 62
     4
100
AcDbVertex
100
AcDb2dVertex
 10
185.6028649999999
 20
143.0159919999999
 30
0.0
  0
VERTEX
  5
26F
330
23C
100
AcDbEntity
  8
CSLAYER1
  6
CONTINUOUS
 62
     4
100
AcDbVertex
100
AcDb2dVertex
 10
185.755935
 20
143.398833
 30
0.0
  0
VERTEX
  5
270
330
23C
100
AcDbEntity
  8
CSLAYER1
  6
CONTINUOUS
 62
     4
100
AcDbVertex
100
AcDb2dVertex
 10
185.8762139999999
 20
143.794038
 30
0.0
  0
VERTEX
  5
271
330
23C
100
AcDbEntity
  8
CSLAYER1
  6
CONTINUOUS
 62
     4
100
AcDbVertex
100
AcDb2dVertex
 10
185.962787
 20
144.1985999999999
 30
0.0
  0
VERTEX
  5
272
330
23C
100
AcDbEntity
  8
CSLAYER1
  6
CONTINUOUS
 62
     4
100
AcDbVertex
100
AcDb2dVertex
 10
186.0149969999999
 20
144.6094389999998
 30
0.0
  0
VERTEX
  5
273
330
23C
100
AcDbEntity
  8
CSLAYER1
  6
CONTINUOUS
 62
     4
100
AcDbVertex
100
AcDb2dVertex
 10
186.032444
 20
145.023429
 30
0.0
  0
VERTEX
  5
274
330
23C
100
AcDbEntity
  8
CSLAYER1
  6
CONTINUOUS
 62
     4
100
AcDbVertex
100
AcDb2dVertex
 10
186.0149969999999
 20
145.4374179999998
 30
0.0
  0
VERTEX
  5
275
330
23C
100
AcDbEntity
  8
CSLAYER1
  6
CONTINUOUS
 62
     4
100
AcDbVertex
100
AcDb2dVertex
 10
185.962787
 20
145.848257
 30
0.0
  0
VERTEX
  5
276
330
23C
100
AcDbEntity
  8
CSLAYER1
  6
CONTINUOUS
 62
     4
100
AcDbVertex
100
AcDb2dVertex
 10
185.8762139999999
 20
146.252819
 30
0.0
  0
VERTEX
  5
277
330
23C
100
AcDbEntity
  8
CSLAYER1
  6
CONTINUOUS
 62
     4
100
AcDbVertex
100
AcDb2dVertex
 10
185.755935
 20
146.6480239999999
 30
0.0
  0
VERTEX
  5
278
330
23C
100
AcDbEntity
  8
CSLAYER1
  6
CONTINUOUS
 62
     4
100
AcDbVertex
100
AcDb2dVertex
 10
185.6028649999999
 20
147.0308649999998
 30
0.0
  0
VERTEX
  5
279
330
23C
100
AcDbEntity
  8
CSLAYER1
  6
CONTINUOUS
 62
     4
100
AcDbVertex
100
AcDb2dVertex
 10
185.4181699999999
 20
147.3984289999999
 30
0.0
  0
VERTEX
  5
27A
330
23C
100
AcDbEntity
  8
CSLAYER1
  6
CONTINUOUS
 62
     4
100
AcDbVertex
100
AcDb2dVertex
 10
185.2032559999999
 20
147.747917
 30
0.0
  0
VERTEX
  5
27B
330
23C
100
AcDbEntity
  8
CSLAYER1
  6
CONTINUOUS
 62
     4
100
AcDbVertex
100
AcDb2dVertex
 10
184.959758
 20
148.07667
 30
0.0
  0
VERTEX
  5
27C
330
23C
100
AcDbEntity
  8
CSLAYER1
  6
CONTINUOUS
 62
     4
100
AcDbVertex
100
AcDb2dVertex
 10
184.689528
 20
148.382186
 30
0.0
  0
VERTEX
  5
27D
330
23C
100
AcDbEntity
  8
CSLAYER1
  6
CONTINUOUS
 62
     4
100
AcDbVertex
100
AcDb2dVertex
 10
184.3946249999999
 20
148.6621399999999
 30
0.0
  0
VERTEX
  5
27E
330
23C
100
AcDbEntity
  8
CSLAYER1
  6
CONTINUOUS
 62
     4
100
AcDbVertex
100
AcDb2dVertex
 10
184.077292
 20
148.9144009999999
 30
0.0
  0
VERTEX
  5
27F
330
23C
100
AcDbEntity
  8
CSLAYER1
  6
CONTINUOUS
 62
     4
100
AcDbVertex
100
AcDb2dVertex
 10
183.739944
 20
149.1370489999999
 30
0.0
  0
VERTEX
  5
280
330
23C
100
AcDbEntity
  8
CSLAYER1
  6
CONTINUOUS
 62
     4
100
AcDbVertex
100
AcDb2dVertex
 10
183.385149
 20
149.3283909999999
 30
0.0
  0
VERTEX
  5
281
330
23C
100
AcDbEntity
  8
CSLAYER1
  6
CONTINUOUS
 62
     4
100
AcDbVertex
100
AcDb2dVertex
 10
183.015606
 20
149.4869679999998
 30
0.0
  0
VERTEX
  5
282
330
23C
100
AcDbEntity
  8
CSLAYER1
  6
CONTINUOUS
 62
     4
100
AcDbVertex
100
AcDb2dVertex
 10
182.634129
 20
149.611576
 30
0.0
  0
VERTEX
  5
283
330
23C
100
AcDbEntity
  8
CSLAYER1
  6
CONTINUOUS
 62
     4
100
AcDbVertex
100
AcDb2dVertex
 10
182.243621
 20
149.7012649999998
 30
0.0
  0
VERTEX
  5
284
330
23C
100
AcDbEntity
  8
CSLAYER1
  6
CONTINUOUS
 62
     4
100
AcDbVertex
100
AcDb2dVertex
 10
181.847053
 20
149.755353
 30
0.0
  0
VERTEX
  5
285
330
23C
100
AcDbEntity
  8
CSLAYER1
  6
CONTINUOUS
 62
     4
100
AcDbVertex
100
AcDb2dVertex
 10
181.4474439999999
 20
149.7734289999999
 30
0.0
  0
SEQEND
  5
286
330
23C
100
AcDbEntity
  8
CSLAYER1
 62
     4
  0
POLYLINE
  5
287
330
1E
100
AcDbEntity
  8
CSLAYER1
  6
CONTINUOUS
 62
     3
100
AcDb2dPolyline
 66
     1
 10
0.0
 20
0.0
 30
0.0
  0
VERTEX
  5
288
330
287
100
AcDbEntity
  8
CSLAYER1
  6
CONTINUOUS
 62
     3
100
AcDbVertex
100
AcDb2dVertex
 10
181.4474439999999
 20
149.273429
 30
0.0
  0
VERTEX
  5
289
330
287
100
AcDbEntity
  8
CSLAYER1
  6
CONTINUOUS
 62
     3
100
AcDbVertex
100
AcDb2dVertex
 10
181.0896699999999
 20
149.257256
 30
0.0
  0
VERTEX
  5
28A
330
287
100
AcDbEntity
  8
CSLAYER1
  6
CONTINUOUS
 62
     3
100
AcDbVertex
100
AcDb2dVertex
 10
180.7346179999999
 20
149.208861
 30
0.0
  0
VERTEX
  5
28B
330
287
100
AcDbEntity
  8
CSLAYER1
  6
CONTINUOUS
 62
     3
100
AcDbVertex
100
AcDb2dVertex
 10
180.3849919999999
 20
149.1286129999999
 30
0.0
  0
VERTEX
  5
28C
330
287
100
AcDbEntity
  8
CSLAYER1
  6
CONTINUOUS
 62
     3
100
AcDbVertex
100
AcDb2dVertex
 10
180.043451
 20
149.017122
 30
0.0
  0
VERTEX
  5
28D
330
287
100
AcDbEntity
  8
CSLAYER1
  6
CONTINUOUS
 62
     3
100
AcDbVertex
100
AcDb2dVertex
 10
179.7125959999999
 20
148.875237
 30
0.0
  0
VERTEX
  5
28E
330
287
100
AcDbEntity
  8
CSLAYER1
  6
CONTINUOUS
 62
     3
100
AcDbVertex
100
AcDb2dVertex
 10
179.3949439999999
 20
148.7040359999999
 30
0.0
  0
VERTEX
  5
28F
330
287
100
AcDbEntity
  8
CSLAYER1
  6
CONTINUOUS
 62
     3
100
AcDbVertex
100
AcDb2dVertex
 10
179.0929129999999
 20
148.504825
 30
0.0
  0
VERTEX
  5
290
330
287
100
AcDbEntity
  8
CSLAYER1
  6
CONTINUOUS
 62
     3
100
AcDbVertex
100
AcDb2dVertex
 10
178.8088009999999
 20
148.2791169999998
 30
0.0
  0
VERTEX
  5
291
330
287
100
AcDbEntity
  8
CSLAYER1
  6
CONTINUOUS
 62
     3
100
AcDbVertex
100
AcDb2dVertex
 10
178.5447709999999
 20
148.028632
 30
0.0
  0
VERTEX
  5
292
330
287
100
AcDbEntity
  8
CSLAYER1
  6
CONTINUOUS
 62
     3
100
AcDbVertex
100
AcDb2dVertex
 10
178.3028309999999
 20
147.755276
 30
0.0
  0
VERTEX
  5
293
330
287
100
AcDbEntity
  8
CSLAYER1
  6
CONTINUOUS
 62
     3
100
AcDbVertex
100
AcDb2dVertex
 10
178.084825
 20
147.4611279999999
 30
0.0
  0
VERTEX
  5
294
330
287
100
AcDbEntity
  8
CSLAYER1
  6
CONTINUOUS
 62
     3
100
AcDbVertex
100
AcDb2dVertex
 10
177.89241
 20
147.148429
 30
0.0
  0
VERTEX
  5
295
330
287
100
AcDbEntity
  8
CSLAYER1
  6
CONTINUOUS
 62
     3
100
AcDbVertex
100
AcDb2dVertex
 10
177.72705
 20
146.819556
 30
0.0
  0
VERTEX
  5
296
330
287
100
AcDbEntity
  8
CSLAYER1
  6
CONTINUOUS
 62
     3
100
AcDbVertex
100
AcDb2dVertex
 10
177.590006
 20
146.4770139999999
 30
0.0
  0
VERTEX
  5
297
330
287
100
AcDbEntity
  8
CSLAYER1
  6
CONTINUOUS
 62
     3
100
AcDbVertex
100
AcDb2dVertex
 10
177.482318
 20
146.123409
 30
0.0
  0
VERTEX
  5
298
330
287
100
AcDbEntity
  8
CSLAYER1
  6
CONTINUOUS
 62
     3
100
AcDbVertex
100
AcDb2dVertex
 10
177.404808
 20
145.761433
 30
0.0
  0
VERTEX
  5
299
330
287
100
AcDbEntity
  8
CSLAYER1
  6
CONTINUOUS
 62
     3
100
AcDbVertex
100
AcDb2dVertex
 10
177.3580649999999
 20
145.39384
 30
0.0
  0
VERTEX
  5
29A
330
287
100
AcDbEntity
  8
CSLAYER1
  6
CONTINUOUS
 62
     3
100
AcDbVertex
100
AcDb2dVertex
 10
177.342444
 20
145.023429
 30
0.0
  0
VERTEX
  5
29B
330
287
100
AcDbEntity
  8
CSLAYER1
  6
CONTINUOUS
 62
     3
100
AcDbVertex
100
AcDb2dVertex
 10
177.3580649999999
 20
144.653017
 30
0.0
  0
VERTEX
  5
29C
330
287
100
AcDbEntity
  8
CSLAYER1
  6
CONTINUOUS
 62
     3
100
AcDbVertex
100
AcDb2dVertex
 10
177.404808
 20
144.285424
 30
0.0
  0
VERTEX
  5
29D
330
287
100
AcDbEntity
  8
CSLAYER1
  6
CONTINUOUS
 62
     3
100
AcDbVertex
100
AcDb2dVertex
 10
177.482318
 20
143.923448
 30
0.0
  0
VERTEX
  5
29E
330
287
100
AcDbEntity
  8
CSLAYER1
  6
CONTINUOUS
 62
     3
100
AcDbVertex
100
AcDb2dVertex
 10
177.590006
 20
143.5698429999999
 30
0.0
  0
VERTEX
  5
29F
330
287
100
AcDbEntity
  8
CSLAYER1
  6
CONTINUOUS
 62
     3
100
AcDbVertex
100
AcDb2dVertex
 10
177.72705
 20
143.227301
 30
0.0
  0
VERTEX
  5
2A0
330
287
100
AcDbEntity
  8
CSLAYER1
  6
CONTINUOUS
 62
     3
100
AcDbVertex
100
AcDb2dVertex
 10
177.89241
 20
142.898429
 30
0.0
  0
VERTEX
  5
2A1
330
287
100
AcDbEntity
  8
CSLAYER1
  6
CONTINUOUS
 62
     3
100
AcDbVertex
100
AcDb2dVertex
 10
178.084825
 20
142.585729
 30
0.0
  0
VERTEX
  5
2A2
330
287
100
AcDbEntity
  8
CSLAYER1
  6
CONTINUOUS
 62
     3
100
AcDbVertex
100
AcDb2dVertex
 10
178.3028309999999
 20
142.291581
 30
0.0
  0
VERTEX
  5
2A3
330
287
100
AcDbEntity
  8
CSLAYER1
  6
CONTINUOUS
 62
     3
100
AcDbVertex
100
AcDb2dVertex
 10
178.5447709999999
 20
142.018225
 30
0.0
  0
VERTEX
  5
2A4
330
287
100
AcDbEntity
  8
CSLAYER1
  6
CONTINUOUS
 62
     3
100
AcDbVertex
100
AcDb2dVertex
 10
178.8088009999999
 20
141.76774
 30
0.0
  0
VERTEX
  5
2A5
330
287
100
AcDbEntity
  8
CSLAYER1
  6
CONTINUOUS
 62
     3
100
AcDbVertex
100
AcDb2dVertex
 10
179.0929129999999
 20
141.542032
 30
0.0
  0
VERTEX
  5
2A6
330
287
100
AcDbEntity
  8
CSLAYER1
  6
CONTINUOUS
 62
     3
100
AcDbVertex
100
AcDb2dVertex
 10
179.3949439999999
 20
141.342821
 30
0.0
  0
VERTEX
  5
2A7
330
287
100
AcDbEntity
  8
CSLAYER1
  6
CONTINUOUS
 62
     3
100
AcDbVertex
100
AcDb2dVertex
 10
179.7125959999999
 20
141.1716199999998
 30
0.0
  0
VERTEX
  5
2A8
330
287
100
AcDbEntity
  8
CSLAYER1
  6
CONTINUOUS
 62
     3
100
AcDbVertex
100
AcDb2dVertex
 10
180.043451
 20
141.029735
 30
0.0
  0
VERTEX
  5
2A9
330
287
100
AcDbEntity
  8
CSLAYER1
  6
CONTINUOUS
 62
     3
100
AcDbVertex
100
AcDb2dVertex
 10
180.3849919999999
 20
140.9182439999999
 30
0.0
  0
VERTEX
  5
2AA
330
287
100
AcDbEntity
  8
CSLAYER1
  6
CONTINUOUS
 62
     3
100
AcDbVertex
100
AcDb2dVertex
 10
180.7346179999999
 20
140.8379959999999
 30
0.0
  0
VERTEX
  5
2AB
330
287
100
AcDbEntity
  8
CSLAYER1
  6
CONTINUOUS
 62
     3
100
AcDbVertex
100
AcDb2dVertex
 10
181.0896699999999
 20
140.7896009999998
 30
0.0
  0
VERTEX
  5
2AC
330
287
100
AcDbEntity
  8
CSLAYER1
  6
CONTINUOUS
 62
     3
100
AcDbVertex
100
AcDb2dVertex
 10
181.4474439999999
 20
140.773429
 30
0.0
  0
VERTEX
  5
2AD
330
287
100
AcDbEntity
  8
CSLAYER1
  6
CONTINUOUS
 62
     3
100
AcDbVertex
100
AcDb2dVertex
 10
181.805218
 20
140.7896009999998
 30
0.0
  0
VERTEX
  5
2AE
330
287
100
AcDbEntity
  8
CSLAYER1
  6
CONTINUOUS
 62
     3
100
AcDbVertex
100
AcDb2dVertex
 10
182.1602699999999
 20
140.8379959999999
 30
0.0
  0
VERTEX
  5
2AF
330
287
100
AcDbEntity
  8
CSLAYER1
  6
CONTINUOUS
 62
     3
100
AcDbVertex
100
AcDb2dVertex
 10
182.509896
 20
140.9182439999999
 30
0.0
  0
VERTEX
  5
2B0
330
287
100
AcDbEntity
  8
CSLAYER1
  6
CONTINUOUS
 62
     3
100
AcDbVertex
100
AcDb2dVertex
 10
182.851437
 20
141.029735
 30
0.0
  0
VERTEX
  5
2B1
330
287
100
AcDbEntity
  8
CSLAYER1
  6
CONTINUOUS
 62
     3
100
AcDbVertex
100
AcDb2dVertex
 10
183.182292
 20
141.1716199999998
 30
0.0
  0
VERTEX
  5
2B2
330
287
100
AcDbEntity
  8
CSLAYER1
  6
CONTINUOUS
 62
     3
100
AcDbVertex
100
AcDb2dVertex
 10
183.4999439999999
 20
141.342821
 30
0.0
  0
VERTEX
  5
2B3
330
287
100
AcDbEntity
  8
CSLAYER1
  6
CONTINUOUS
 62
     3
100
AcDbVertex
100
AcDb2dVertex
 10
183.8019749999999
 20
141.542032
 30
0.0
  0
VERTEX
  5
2B4
330
287
100
AcDbEntity
  8
CSLAYER1
  6
CONTINUOUS
 62
     3
100
AcDbVertex
100
AcDb2dVertex
 10
184.086087
 20
141.76774
 30
0.0
  0
VERTEX
  5
2B5
330
287
100
AcDbEntity
  8
CSLAYER1
  6
CONTINUOUS
 62
     3
100
AcDbVertex
100
AcDb2dVertex
 10
184.3501169999999
 20
142.018225
 30
0.0
  0
VERTEX
  5
2B6
330
287
100
AcDbEntity
  8
CSLAYER1
  6
CONTINUOUS
 62
     3
100
AcDbVertex
100
AcDb2dVertex
 10
184.592056
 20
142.291581
 30
0.0
  0
VERTEX
  5
2B7
330
287
100
AcDbEntity
  8
CSLAYER1
  6
CONTINUOUS
 62
     3
100
AcDbVertex
100
AcDb2dVertex
 10
184.8100629999999
 20
142.585729
 30
0.0
  0
VERTEX
  5
2B8
330
287
100
AcDbEntity
  8
CSLAYER1
  6
CONTINUOUS
 62
     3
100
AcDbVertex
100
AcDb2dVertex
 10
185.002478
 20
142.898429
 30
0.0
  0
VERTEX
  5
2B9
330
287
100
AcDbEntity
  8
CSLAYER1
  6
CONTINUOUS
 62
     3
100
AcDbVertex
100
AcDb2dVertex
 10
185.167837
 20
143.227301
 30
0.0
  0
VERTEX
  5
2BA
330
287
100
AcDbEntity
  8
CSLAYER1
  6
CONTINUOUS
 62
     3
100
AcDbVertex
100
AcDb2dVertex
 10
185.304882
 20
143.5698429999999
 30
0.0
  0
VERTEX
  5
2BB
330
287
100
AcDbEntity
  8
CSLAYER1
  6
CONTINUOUS
 62
     3
100
AcDbVertex
100
AcDb2dVertex
 10
185.412569
 20
143.923448
 30
0.0
  0
VERTEX
  5
2BC
330
287
100
AcDbEntity
  8
CSLAYER1
  6
CONTINUOUS
 62
     3
100
AcDbVertex
100
AcDb2dVertex
 10
185.49008
 20
144.285424
 30
0.0
  0
VERTEX
  5
2BD
330
287
100
AcDbEntity
  8
CSLAYER1
  6
CONTINUOUS
 62
     3
100
AcDbVertex
100
AcDb2dVertex
 10
185.536823
 20
144.653017
 30
0.0
  0
VERTEX
  5
2BE
330
287
100
AcDbEntity
  8
CSLAYER1
  6
CONTINUOUS
 62
     3
100
AcDbVertex
100
AcDb2dVertex
 10
185.552444
 20
145.023429
 30
0.0
  0
VERTEX
  5
2BF
330
287
100
AcDbEntity
  8
CSLAYER1
  6
CONTINUOUS
 62
     3
100
AcDbVertex
100
AcDb2dVertex
 10
185.536823
 20
145.39384
 30
0.0
  0
VERTEX
  5
2C0
330
287
100
AcDbEntity
  8
CSLAYER1
  6
CONTINUOUS
 62
     3
100
AcDbVertex
100
AcDb2dVertex
 10
185.49008
 20
145.761433
 30
0.0
  0
VERTEX
  5
2C1
330
287
100
AcDbEntity
  8
CSLAYER1
  6
CONTINUOUS
 62
     3
100
AcDbVertex
100
AcDb2dVertex
 10
185.412569
 20
146.123409
 30
0.0
  0
VERTEX
  5
2C2
330
287
100
AcDbEntity
  8
CSLAYER1
  6
CONTINUOUS
 62
     3
100
AcDbVertex
100
AcDb2dVertex
 10
185.304882
 20
146.4770139999999
 30
0.0
  0
VERTEX
  5
2C3
330
287
100
AcDbEntity
  8
CSLAYER1
  6
CONTINUOUS
 62
     3
100
AcDbVertex
100
AcDb2dVertex
 10
185.167837
 20
146.819556
 30
0.0
  0
VERTEX
  5
2C4
330
287
100
AcDbEntity
  8
CSLAYER1
  6
CONTINUOUS
 62
     3
100
AcDbVertex
100
AcDb2dVertex
 10
185.002478
 20
147.148429
 30
0.0
  0
VERTEX
  5
2C5
330
287
100
AcDbEntity
  8
CSLAYER1
  6
CONTINUOUS
 62
     3
100
AcDbVertex
100
AcDb2dVertex
 10
184.8100629999999
 20
147.4611279999999
 30
0.0
  0
VERTEX
  5
2C6
330
287
100
AcDbEntity
  8
CSLAYER1
  6
CONTINUOUS
 62
     3
100
AcDbVertex
100
AcDb2dVertex
 10
184.592056
 20
147.755276
 30
0.0
  0
VERTEX
  5
2C7
330
287
100
AcDbEntity
  8
CSLAYER1
  6
CONTINUOUS
 62
     3
100
AcDbVertex
100
AcDb2dVertex
 10
184.3501169999999
 20
148.028632
 30
0.0
  0
VERTEX
  5
2C8
330
287
100
AcDbEntity
  8
CSLAYER1
  6
CONTINUOUS
 62
     3
100
AcDbVertex
100
AcDb2dVertex
 10
184.086087
 20
148.2791169999998
 30
0.0
  0
VERTEX
  5
2C9
330
287
100
AcDbEntity
  8
CSLAYER1
  6
CONTINUOUS
 62
     3
100
AcDbVertex
100
AcDb2dVertex
 10
183.8019749999999
 20
148.504825
 30
0.0
  0
VERTEX
  5
2CA
330
287
100
AcDbEntity
  8
CSLAYER1
  6
CONTINUOUS
 62
     3
100
AcDbVertex
100
AcDb2dVertex
 10
183.4999439999999
 20
148.7040359999999
 30
0.0
  0
VERTEX
  5
2CB
330
287
100
AcDbEntity
  8
CSLAYER1
  6
CONTINUOUS
 62
     3
100
AcDbVertex
100
AcDb2dVertex
 10
183.182292
 20
148.875237
 30
0.0
  0
VERTEX
  5
2CC
330
287
100
AcDbEntity
  8
CSLAYER1
  6
CONTINUOUS
 62
     3
100
AcDbVertex
100
AcDb2dVertex
 10
182.851437
 20
149.017122
 30
0.0
  0
VERTEX
  5
2CD
330
287
100
AcDbEntity
  8
CSLAYER1
  6
CONTINUOUS
 62
     3
100
AcDbVertex
100
AcDb2dVertex
 10
182.509896
 20
149.1286129999999
 30
0.0
  0
VERTEX
  5
2CE
330
287
100
AcDbEntity
  8
CSLAYER1
  6
CONTINUOUS
 62
     3
100
AcDbVertex
100
AcDb2dVertex
 10
182.1602699999999
 20
149.208861
 30
0.0
  0
VERTEX
  5
2CF
330
287
100
AcDbEntity
  8
CSLAYER1
  6
CONTINUOUS
 62
     3
100
AcDbVertex
100
AcDb2dVertex
 10
181.805218
 20
149.257256
 30
0.0
  0
VERTEX
  5
2D0
330
287
100
AcDbEntity
  8
CSLAYER1
  6
CONTINUOUS
 62
     3
100
AcDbVertex
100
AcDb2dVertex
 10
181.4474439999999
 20
149.273429
 30
0.0
  0
SEQEND
  5
2D1
330
287
100
AcDbEntity
  8
CSLAYER1
 62
     3
  0
INSERT
  5
2D2
330
1E
100
AcDbEntity
  8
CSLAYER1
100
AcDbBlockReference
  2
FXDIM0004
 10
0.0
 20
0.0
 30
0.0
  0
CIRCLE
  5
2D3
330
1E
100
AcDbEntity
  8
CSLAYER1
  6
CONTINUOUS
 62
     3
100
AcDbCircle
 10
234.7541629999999
 20
139.1999999999999
 30
0.0
 40
3.0
  0
DIMENSION
  5
2D4
330
1E
100
AcDbEntity
  8
CSLAYER1
 62
     4
100
AcDbDimension
  2
*D29
 10
191.447444
 20
56.343716
 30
0.0
 11
181.447449
 21
56.843716
 31
0.0
 52
270.0
100
AcDbAlignedDimension
 13
171.447444
 23
63.0
 33
0.0
 14
191.447444
 24
64.5
 34
0.0
100
AcDbRotatedDimension
  0
LINE
  5
2D5
330
1E
100
AcDbEntity
  8
CSLAYER1
  6
DOT
 62
     3
100
AcDbLine
 10
4.0
 20
1.0
 30
0.0
 11
283.0
 21
1.0
 31
0.0
  0
LINE
  5
2D6
330
1E
100
AcDbEntity
  8
CSLAYER1
  6
DOT
 62
     3
100
AcDbLine
 10
283.0
 20
1.0
 30
0.0
 11
283.0
 21
195.0
 31
0.0
  0
LINE
  5
2D7
330
1E
100
AcDbEntity
  8
CSLAYER1
  6
DOT
 62
     3
100
AcDbLine
 10
283.0
 20
195.0
 30
0.0
 11
4.0
 21
195.0
 31
0.0
  0
LINE
  5
2D8
330
1E
100
AcDbEntity
  8
CSLAYER1
  6
DOT
 62
     3
100
AcDbLine
 10
4.0
 20
195.0
 30
0.0
 11
4.0
 21
1.0
 31
0.0
  0
LINE
  5
2D9
330
1E
100
AcDbEntity
  8
CSLAYER1
  6
DOT
 62
     3
100
AcDbLine
 10
4.0
 20
98.0
 30
0.0
 11
0.0
 21
98.0
 31
0.0
  0
LINE
  5
2DA
330
1E
100
AcDbEntity
  8
CSLAYER1
  6
DOT
 62
     3
100
AcDbLine
 10
283.0
 20
98.0
 30
0.0
 11
287.0
 21
98.0
 31
0.0
  0
LINE
  5
2DB
330
1E
100
AcDbEntity
  8
CSLAYER1
  6
DOT
 62
     3
100
AcDbLine
 10
143.5
 20
195.0
 30
0.0
 11
143.5
 21
199.0
 31
0.0
  0
ENDSEC
  0
SECTION
  2
OBJECTS
  0
DICTIONARY
  5
C
330
0
100
AcDbDictionary
  3
ACAD_GROUP
350
D
  3
ACAD_LAYOUT
350
19
  3
ACAD_MLINESTYLE
350
16
  3
ACAD_PLOTSETTINGS
350
18
1001
ACAD
1000
TREAT_AS_HARD
1070
     0
1000
TREAT_AS_HARD
1070
     0
  0
DICTIONARY
  5
2E5
330
1E
100
AcDbDictionary
  3
ACAD_LAYOUTSELFREF
350
304
1001
ACAD
1000
TREAT_AS_HARD
1070
     0
  0
DICTIONARY
  5
2E3
330
1A
100
AcDbDictionary
  3
ACAD_LAYOUTSELFREF
350
303
1001
ACAD
1000
TREAT_AS_HARD
1070
     0
  0
DICTIONARY
  5
D
102
{ACAD_REACTORS
330
C
102
}
330
C
100
AcDbDictionary
1001
ACAD
1000
TREAT_AS_HARD
1070
     0
1000
TREAT_AS_HARD
1070
     0
  0
DICTIONARY
  5
19
102
{ACAD_REACTORS
330
C
102
}
330
C
100
AcDbDictionary
1001
ACAD
1000
TREAT_AS_HARD
1070
     0
1000
TREAT_AS_HARD
1070
     0
  0
DICTIONARY
  5
16
102
{ACAD_REACTORS
330
C
102
}
330
C
100
AcDbDictionary
  3
STANDARD
350
17
1001
ACAD
1000
TREAT_AS_HARD
1070
     0
1000
TREAT_AS_HARD
1070
     0
  0
DICTIONARY
  5
18
102
{ACAD_REACTORS
330
C
102
}
330
C
100
AcDbDictionary
1001
ACAD
1000
TREAT_AS_HARD
1070
     0
1000
TREAT_AS_HARD
1070
     0
  0
XRECORD
  5
304
102
{ACAD_REACTORS
330
2E5
102
}
330
2E5
100
AcDbXrecord
340
1E
  0
XRECORD
  5
303
102
{ACAD_REACTORS
330
2E3
102
}
330
2E3
100
AcDbXrecord
340
1A
  0
MLINESTYLE
  5
17
102
{ACAD_REACTORS
330
16
102
}
330
16
100
AcDbMlineStyle
  2
STANDARD
 70
     0
  3

 62
   256
 51
90.0
 52
90.0
 71
     2
 49
0.5
 62
   256
  6
BYLAYER
 49
-0.5
 62
   256
  6
BYLAYER
  0
ENDSEC
  0
EOF
