  0
SECTION
  2
HEADER
  9
$ACADVER
  1
AC1012
  9
$DWGCODEPAGE
  3
dos932
  9
$INSBASE
 10
0.0
 20
0.0
 30
0.0
  9
$EXTMIN
 10
-0.0090630292066862
 20
0.9869389666558276
 30
-0.0015258207003583
  9
$EXTMAX
 10
287.0163123253922
 20
199.0155034058442
 30
0.0000000349246037
  9
$LIMMIN
 10
0.0
 20
0.0
  9
$LIMMAX
 10
297.0
 20
210.0
  9
$ORTHOMODE
 70
     0
  9
$REGENMODE
 70
     1
  9
$FILLMODE
 70
     1
  9
$QTEXTMODE
 70
     0
  9
$MIRRTEXT
 70
     1
  9
$DRAGMODE
 70
     2
  9
$LTSCALE
 40
15.0
  9
$OSMODE
 70
    37
  9
$ATTMODE
 70
     1
  9
$TEXTSIZE
 40
0.2
  9
$TRACEWID
 40
0.05
  9
$TEXTSTYLE
  7
GOTHIC
  9
$CLAYER
  8
CSLAYER1
  9
$CELTYPE
  6
BYLAYER
  9
$CECOLOR
 62
   256
  9
$CELTSCALE
 40
1.0
  9
$DELOBJ
 70
     1
  9
$DISPSILH
 70
     0
  9
$DIMSCALE
 40
1.0
  9
$DIMASZ
 40
0.18
  9
$DIMEXO
 40
0.0625
  9
$DIMDLI
 40
0.38
  9
$DIMRND
 40
0.0
  9
$DIMDLE
 40
0.0
  9
$DIMEXE
 40
0.18
  9
$DIMTP
 40
0.0
  9
$DIMTM
 40
0.0
  9
$DIMTXT
 40
0.18
  9
$DIMCEN
 40
0.09
  9
$DIMTSZ
 40
0.0
  9
$DIMTOL
 70
     0
  9
$DIMLIM
 70
     0
  9
$DIMTIH
 70
     1
  9
$DIMTOH
 70
     1
  9
$DIMSE1
 70
     0
  9
$DIMSE2
 70
     0
  9
$DIMTAD
 70
     0
  9
$DIMZIN
 70
     0
  9
$DIMBLK
  1

  9
$DIMASO
 70
     1
  9
$DIMSHO
 70
     1
  9
$DIMPOST
  1

  9
$DIMAPOST
  1

  9
$DIMALT
 70
     0
  9
$DIMALTD
 70
     2
  9
$DIMALTF
 40
25.4
  9
$DIMLFAC
 40
1.0
  9
$DIMTOFL
 70
     0
  9
$DIMTVP
 40
0.0
  9
$DIMTIX
 70
     0
  9
$DIMSOXD
 70
     0
  9
$DIMSAH
 70
     0
  9
$DIMBLK1
  1

  9
$DIMBLK2
  1

  9
$DIMSTYLE
  2
STANDARD
  9
$DIMCLRD
 70
     0
  9
$DIMCLRE
 70
     0
  9
$DIMCLRT
 70
     0
  9
$DIMTFAC
 40
1.0
  9
$DIMGAP
 40
0.09
  9
$DIMJUST
 70
     0
  9
$DIMSD1
 70
     0
  9
$DIMSD2
 70
     0
  9
$DIMTOLJ
 70
     1
  9
$DIMTZIN
 70
     0
  9
$DIMALTZ
 70
     0
  9
$DIMALTTZ
 70
     0
  9
$DIMFIT
 70
     3
  9
$DIMUPT
 70
     0
  9
$DIMUNIT
 70
     2
  9
$DIMDEC
 70
     4
  9
$DIMTDEC
 70
     4
  9
$DIMALTU
 70
     2
  9
$DIMALTTD
 70
     2
  9
$DIMTXSTY
  7
STANDARD
  9
$DIMAUNIT
 70
     0
  9
$LUNITS
 70
     2
  9
$LUPREC
 70
     4
  9
$SKETCHINC
 40
0.1
  9
$FILLETRAD
 40
0.0
  9
$AUNITS
 70
     0
  9
$AUPREC
 70
     0
  9
$MENU
  1
ACAD
  9
$ELEVATION
 40
0.0
  9
$PELEVATION
 40
0.0
  9
$THICKNESS
 40
0.0
  9
$LIMCHECK
 70
     0
  9
$BLIPMODE
 70
     1
  9
$CHAMFERA
 40
0.0
  9
$CHAMFERB
 40
0.0
  9
$CHAMFERC
 40
0.0
  9
$CHAMFERD
 40
0.0
  9
$SKPOLY
 70
     0
  9
$TDCREATE
 40
2453476.999999999
  9
$TDUPDATE
 40
2453516.482624733
  9
$TDINDWG
 40
0.0002750463
  9
$TDUSRTIMER
 40
0.0002748148
  9
$USRTIMER
 70
     1
  9
$ANGBASE
 50
0.0
  9
$ANGDIR
 70
     0
  9
$PDMODE
 70
     0
  9
$PDSIZE
 40
0.0
  9
$PLINEWID
 40
0.0
  9
$COORDS
 70
     0
  9
$SPLFRAME
 70
     0
  9
$SPLINETYPE
 70
     6
  9
$SPLINESEGS
 70
     8
  9
$ATTDIA
 70
     0
  9
$ATTREQ
 70
     1
  9
$HANDLING
 70
-16383
  9
$HANDSEED
  5
1CB
  9
$SURFTAB1
 70
     6
  9
$SURFTAB2
 70
     6
  9
$SURFTYPE
 70
     6
  9
$SURFU
 70
     6
  9
$SURFV
 70
     6
  9
$UCSNAME
  2

  9
$UCSORG
 10
0.0
 20
0.0
 30
0.0
  9
$UCSXDIR
 10
1.0
 20
0.0
 30
0.0
  9
$UCSYDIR
 10
0.0
 20
1.0
 30
0.0
  9
$PUCSNAME
  2

  9
$PUCSORG
 10
0.0
 20
0.0
 30
0.0
  9
$PUCSXDIR
 10
1.0
 20
0.0
 30
0.0
  9
$PUCSYDIR
 10
0.0
 20
1.0
 30
0.0
  9
$USERI1
 70
     0
  9
$USERI2
 70
     0
  9
$USERI3
 70
     0
  9
$USERI4
 70
     0
  9
$USERI5
 70
     0
  9
$USERR1
 40
0.0
  9
$USERR2
 40
0.0
  9
$USERR3
 40
0.0
  9
$USERR4
 40
0.0
  9
$USERR5
 40
0.0
  9
$WORLDVIEW
 70
     1
  9
$SHADEDGE
 70
     3
  9
$SHADEDIF
 70
    70
  9
$TILEMODE
 70
     1
  9
$MAXACTVP
 70
    64
  9
$PINSBASE
 10
0.0
 20
0.0
 30
0.0
  9
$PLIMCHECK
 70
     0
  9
$PEXTMIN
 10
1.000000000000000E+20
 20
1.000000000000000E+20
 30
1.000000000000000E+20
  9
$PEXTMAX
 10
-1.000000000000000E+20
 20
-1.000000000000000E+20
 30
-1.000000000000000E+20
  9
$PLIMMIN
 10
0.0
 20
0.0
  9
$PLIMMAX
 10
12.0
 20
9.0
  9
$UNITMODE
 70
     0
  9
$VISRETAIN
 70
     1
  9
$PLINEGEN
 70
     0
  9
$PSLTSCALE
 70
     1
  9
$TREEDEPTH
 70
  3020
  9
$PICKSTYLE
 70
     3
  9
$CMLSTYLE
  2
STANDARD
  9
$CMLJUST
 70
     0
  9
$CMLSCALE
 40
1.0
  9
$SAVEIMAGES
 70
     1
  0
ENDSEC
  0
SECTION
  2
CLASSES
  0
CLASS
  1
ACDBDICTIONARYWDFLT
  2
AcDbDictionaryWithDefault
  3
AutoCAD 2000
 90
    32768
280
     0
281
     0
  0
CLASS
  1
ACDBPLACEHOLDER
  2
AcDbPlaceHolder
  3
AutoCAD 2000
 90
    32768
280
     0
281
     0
  0
CLASS
  1
LAYOUT
  2
AcDbLayout
  3
AutoCAD 2000
 90
    32768
280
     0
281
     0
  0
CLASS
  1
DICTIONARYVAR
  2
AcDbDictionaryVar
  3
AutoCAD 2000
 90
    32768
280
     0
281
     0
  0
CLASS
  1
LONG_TRANSACTION
  2
AcDbLongTransaction
  3
AutoCAD 2000
 90
    32768
280
     0
281
     0
  0
CLASS
  1
LWPOLYLINE
  2
AcDbPolyline
  3
AutoCAD 2000
 90
    32768
280
     0
281
     1
  0
CLASS
  1
HATCH
  2
AcDbHatch
  3
AutoCAD 2000
 90
    32768
280
     0
281
     1
  0
CLASS
  1
XRECORD
  2
AcDbXrecord
  3
AutoCAD 2000
 90
    32768
280
     0
281
     0
  0
CLASS
  1
LONG_TRANSACTION
  2
AcDbLongTransaction
  3
AutoCAD 2000
 90
    32768
280
     0
281
     0
  0
CLASS
  1
LWPOLYLINE
  2
AcDbPolyline
  3
AutoCAD 2000
 90
    32768
280
     0
281
     1
  0
CLASS
  1
HATCH
  2
AcDbHatch
  3
AutoCAD 2000
 90
    32768
280
     0
281
     1
  0
CLASS
  1
XRECORD
  2
AcDbXrecord
  3
AutoCAD 2000
 90
    32768
280
     0
281
     0
  0
ENDSEC
  0
SECTION
  2
TABLES
  0
TABLE
  2
VPORT
  5
8
330
0
100
AcDbSymbolTable
 70
     2
  0
VPORT
  5
1C8
330
8
100
AcDbSymbolTableRecord
100
AcDbViewportTableRecord
  2
*ACTIVE
 70
     0
 10
0.0
 20
0.0
 11
1.0
 21
1.0
 12
143.5036246480927
 22
100.00122118625
 13
0.0
 23
0.0
 14
1.0
 24
1.0
 15
0.0
 25
0.0
 16
0.0
 26
0.0
 36
1.0
 17
0.0
 27
0.0
 37
0.0
 40
199.5156375138256
 41
1.510025062656641
 42
50.0
 43
0.0
 44
0.0
 50
0.0
 51
0.0
 71
     0
 72
   100
 73
     1
 74
     1
 75
     0
 76
     0
 77
     0
 78
     0
  0
ENDTAB
  0
TABLE
  2
LTYPE
  5
5
330
0
100
AcDbSymbolTable
 70
     4
  0
LTYPE
  5
13
330
5
100
AcDbSymbolTableRecord
100
AcDbLinetypeTableRecord
  2
BYBLOCK
 70
     0
  3

 72
    65
 73
     0
 40
0.0
  0
LTYPE
  5
14
330
5
100
AcDbSymbolTableRecord
100
AcDbLinetypeTableRecord
  2
BYLAYER
 70
     0
  3

 72
    65
 73
     0
 40
0.0
  0
LTYPE
  5
15
330
5
100
AcDbSymbolTableRecord
100
AcDbLinetypeTableRecord
  2
CONTINUOUS
 70
     0
  3
Solid line
 72
    65
 73
     0
 40
0.0
  0
LTYPE
  5
23
330
5
100
AcDbSymbolTableRecord
100
AcDbLinetypeTableRecord
  2
DASHED
 70
     0
  3
__ __ __ __ __ __ __ __ __ __ __ __ __ __ __
 72
    65
 73
     2
 40
0.75
 49
0.5
 74
     0
 49
-0.25
 74
     0
  0
LTYPE
  5
25
330
5
100
AcDbSymbolTableRecord
100
AcDbLinetypeTableRecord
  2
DOT
 70
     0
  3
...............................................
 72
    65
 73
     2
 40
0.25
 49
0.0
 74
     0
 49
-0.25
 74
     0
  0
LTYPE
  5
28
330
5
100
AcDbSymbolTableRecord
100
AcDbLinetypeTableRecord
  2
CENTER
 70
     0
  3
____ _ ____ _ ____ _ ____ _ ____ _ ____ _ ____ 
 72
    65
 73
     4
 40
2.0
 49
1.25
 74
     0
 49
-0.25
 74
     0
 49
0.25
 74
     0
 49
-0.25
 74
     0
  0
ENDTAB
  0
TABLE
  2
LAYER
  5
2
330
0
100
AcDbSymbolTable
 70
     3
  0
LAYER
  5
10
330
2
100
AcDbSymbolTableRecord
100
AcDbLayerTableRecord
  2
0
 70
     0
 62
     7
  6
CONTINUOUS
  0
LAYER
  5
22
330
2
100
AcDbSymbolTableRecord
100
AcDbLayerTableRecord
  2
CSLAYER1
 70
     0
 62
     7
  6
CONTINUOUS
  0
LAYER
  5
183
330
2
100
AcDbSymbolTableRecord
100
AcDbLayerTableRecord
  2
DEFPOINTS
 70
     0
 62
     7
  6
CONTINUOUS
  0
ENDTAB
  0
TABLE
  2
STYLE
  5
3
330
0
100
AcDbSymbolTable
 70
     3
  0
STYLE
  5
11
330
3
100
AcDbSymbolTableRecord
100
AcDbTextStyleTableRecord
  2
STANDARD
 70
     0
 40
0.0
 41
1.0
 50
0.0
 71
     0
 42
0.2
  3
txt
  4
extfont.shx
  0
STYLE
  5
3A
330
3
100
AcDbSymbolTableRecord
100
AcDbTextStyleTableRecord
  2
FX_FONT
 70
     0
 40
1.0
 41
1.0
 50
0.0
 71
     0
 42
1.0
  3
monotxt
  4
bigfont
  0
STYLE
  5
17B
330
3
100
AcDbSymbolTableRecord
100
AcDbTextStyleTableRecord
  2
GOTHIC
 70
     0
 40
0.0
 41
1.0
 50
0.0
 71
     0
 42
0.2
  3
txt.shx
  4
extfont.shx
  0
ENDTAB
  0
TABLE
  2
VIEW
  5
6
330
0
100
AcDbSymbolTable
 70
     0
  0
ENDTAB
  0
TABLE
  2
UCS
  5
7
330
0
100
AcDbSymbolTable
 70
     0
  0
ENDTAB
  0
TABLE
  2
APPID
  5
9
330
0
100
AcDbSymbolTable
 70
     1
  0
APPID
  5
12
330
9
100
AcDbSymbolTableRecord
100
AcDbRegAppTableRecord
  2
ACAD
 70
     0
  0
ENDTAB
  0
TABLE
  2
DIMSTYLE
  5
A
330
0
100
AcDbSymbolTable
 70
     1
  0
DIMSTYLE
105
178
330
A
100
AcDbSymbolTableRecord
100
AcDbDimStyleTableRecord
  2
STANDARD
 70
     0
  3

  4

  5

  6

  7

 40
1.0
 41
0.18
 42
0.0625
 43
0.38
 44
0.18
 45
0.0
 46
0.0
 47
0.0
 48
0.0
140
0.18
141
0.09
142
0.0
143
25.4
144
1.0
145
0.0
146
1.0
147
0.09
 71
     0
 72
     0
 73
     1
 74
     1
 75
     0
 76
     0
 77
     0
 78
     0
170
     0
171
     2
172
     0
173
     0
174
     0
175
     0
176
     0
177
     0
178
     0
270
     2
271
     4
272
     4
273
     2
274
     2
340
11
275
     0
280
     0
281
     0
282
     0
283
     1
284
     0
285
     0
286
     0
287
     3
288
     0
  0
ENDTAB
  0
TABLE
  2
BLOCK_RECORD
  5
1
330
0
100
AcDbSymbolTable
 70
    19
  0
BLOCK_RECORD
  5
1E
102
{ACAD_XDICTIONARY
360
181
102
}
330
1
100
AcDbSymbolTableRecord
100
AcDbBlockTableRecord
  2
*MODEL_SPACE
  0
BLOCK_RECORD
  5
1A
102
{ACAD_XDICTIONARY
360
17F
102
}
330
1
100
AcDbSymbolTableRecord
100
AcDbBlockTableRecord
  2
*PAPER_SPACE
  0
BLOCK_RECORD
  5
3F
330
1
100
AcDbSymbolTableRecord
100
AcDbBlockTableRecord
  2
FXDIM0000
  0
BLOCK_RECORD
  5
47
330
1
100
AcDbSymbolTableRecord
100
AcDbBlockTableRecord
  2
FXDIM0001
  0
BLOCK_RECORD
  5
51
330
1
100
AcDbSymbolTableRecord
100
AcDbBlockTableRecord
  2
FXDIM0002
  0
BLOCK_RECORD
  5
5B
330
1
100
AcDbSymbolTableRecord
100
AcDbBlockTableRecord
  2
*D3
  0
BLOCK_RECORD
  5
68
330
1
100
AcDbSymbolTableRecord
100
AcDbBlockTableRecord
  2
*D4
  0
BLOCK_RECORD
  5
72
330
1
100
AcDbSymbolTableRecord
100
AcDbBlockTableRecord
  2
*D5
  0
BLOCK_RECORD
  5
7D
330
1
100
AcDbSymbolTableRecord
100
AcDbBlockTableRecord
  2
*D6
  0
BLOCK_RECORD
  5
87
330
1
100
AcDbSymbolTableRecord
100
AcDbBlockTableRecord
  2
*D7
  0
BLOCK_RECORD
  5
92
330
1
100
AcDbSymbolTableRecord
100
AcDbBlockTableRecord
  2
*D8
  0
BLOCK_RECORD
  5
9F
330
1
100
AcDbSymbolTableRecord
100
AcDbBlockTableRecord
  2
*D9
  0
BLOCK_RECORD
  5
AA
330
1
100
AcDbSymbolTableRecord
100
AcDbBlockTableRecord
  2
*D10
  0
BLOCK_RECORD
  5
B5
330
1
100
AcDbSymbolTableRecord
100
AcDbBlockTableRecord
  2
*D11
  0
BLOCK_RECORD
  5
C0
330
1
100
AcDbSymbolTableRecord
100
AcDbBlockTableRecord
  2
*D12
  0
BLOCK_RECORD
  5
CB
330
1
100
AcDbSymbolTableRecord
100
AcDbBlockTableRecord
  2
*D13
  0
BLOCK_RECORD
  5
D2
330
1
100
AcDbSymbolTableRecord
100
AcDbBlockTableRecord
  2
*D14
  0
BLOCK_RECORD
  5
184
330
1
100
AcDbSymbolTableRecord
100
AcDbBlockTableRecord
  2
*D15
  0
BLOCK_RECORD
  5
192
330
1
100
AcDbSymbolTableRecord
100
AcDbBlockTableRecord
  2
*D16
  0
BLOCK_RECORD
  5
1A1
330
1
100
AcDbSymbolTableRecord
100
AcDbBlockTableRecord
  2
*D17
  0
BLOCK_RECORD
  5
1B0
330
1
100
AcDbSymbolTableRecord
100
AcDbBlockTableRecord
  2
*D18
  0
ENDTAB
  0
ENDSEC
  0
SECTION
  2
BLOCKS
  0
BLOCK
  5
1F
330
1E
100
AcDbEntity
  8
0
100
AcDbBlockBegin
  2
*MODEL_SPACE
 70
     0
 10
0.0
 20
0.0
 30
0.0
  3
*MODEL_SPACE
  1

  0
ENDBLK
  5
20
330
1E
100
AcDbEntity
  8
0
100
AcDbBlockEnd
  0
BLOCK
  5
1B
330
1A
100
AcDbEntity
 67
     1
  8
0
100
AcDbBlockBegin
  2
*PAPER_SPACE
 70
     0
 10
0.0
 20
0.0
 30
0.0
  3
*PAPER_SPACE
  1

  0
ENDBLK
  5
1C
330
1A
100
AcDbEntity
 67
     1
  8
0
100
AcDbBlockEnd
  0
BLOCK
  5
40
330
3F
100
AcDbEntity
  8
0
100
AcDbBlockBegin
  2
FXDIM0000
 70
     0
 10
0.0
 20
0.0
 30
0.0
  3
FXDIM0000
  1

  0
LINE
  5
41
330
3F
100
AcDbEntity
  8
CSLAYER1
  6
CONTINUOUS
 62
     4
100
AcDbLine
 10
176.313308
 20
135.599476
 30
0.0
 11
169.434206
 21
109.9263159999999
 31
0.0
  0
LINE
  5
42
330
3F
100
AcDbEntity
  8
CSLAYER1
  6
CONTINUOUS
 62
     4
100
AcDbLine
 10
176.313308
 20
135.599476
 30
0.0
 11
176.313308
 21
132.599476
 31
0.0
  0
LINE
  5
43
330
3F
100
AcDbEntity
  8
CSLAYER1
  6
CONTINUOUS
 62
     4
100
AcDbLine
 10
176.313308
 20
135.599476
 30
0.0
 11
174.813308
 21
133.0014
 31
0.0
  0
LINE
  5
44
330
3F
100
AcDbEntity
  8
CSLAYER1
  6
CONTINUOUS
 62
     4
100
AcDbLine
 10
169.434206
 20
109.9263159999999
 30
0.0
 11
155.434206
 21
109.9263159999999
 31
0.0
  0
TEXT
  5
45
330
3F
100
AcDbEntity
  8
CSLAYER1
 62
     4
100
AcDbText
 10
155.634204
 20
110.9263149999998
 30
0.0
 40
3.2
  1
%%c4.1
 41
1.142857142857133
 51
15.0
  7
FX_FONT
 72
     5
 11
168.4342039999999
 21
110.9263149999998
 31
0.0
100
AcDbText
  0
ENDBLK
  5
46
330
3F
100
AcDbEntity
  8
0
100
AcDbBlockEnd
  0
BLOCK
  5
48
330
47
100
AcDbEntity
  8
0
100
AcDbBlockBegin
  2
FXDIM0001
 70
     0
 10
0.0
 20
0.0
 30
0.0
  3
FXDIM0001
  1

  0
LINE
  5
49
330
47
100
AcDbEntity
  8
CSLAYER1
  6
CONTINUOUS
 62
     4
100
AcDbLine
 10
184.413158
 20
84.52631600000001
 30
0.0
 11
185.913158
 21
87.124392
 31
0.0
  0
LINE
  5
4A
330
47
100
AcDbEntity
  8
CSLAYER1
  6
CONTINUOUS
 62
     4
100
AcDbLine
 10
182.913158
 20
87.124392
 30
0.0
 11
191.913158
 21
87.124392
 31
0.0
  0
LINE
  5
4B
330
47
100
AcDbEntity
  8
CSLAYER1
  6
CONTINUOUS
 62
     4
100
AcDbLine
 10
182.913158
 20
87.124392
 30
0.0
 11
184.413158
 21
84.52631600000001
 31
0.0
  0
LINE
  5
4C
330
47
100
AcDbEntity
  8
CSLAYER1
  6
CONTINUOUS
 62
     4
100
AcDbLine
 10
187.413158
 20
84.52631600000001
 30
0.0
 11
188.913158
 21
87.124392
 31
0.0
  0
LINE
  5
4D
330
47
100
AcDbEntity
  8
CSLAYER1
  6
CONTINUOUS
 62
     4
100
AcDbLine
 10
185.913158
 20
87.124392
 30
0.0
 11
187.413158
 21
84.52631600000001
 31
0.0
  0
LINE
  5
4E
330
47
100
AcDbEntity
  8
CSLAYER1
  6
CONTINUOUS
 62
     4
100
AcDbLine
 10
190.4131579999999
 20
84.52631600000001
 30
0.0
 11
191.913158
 21
87.124392
 31
0.0
  0
LINE
  5
4F
330
47
100
AcDbEntity
  8
CSLAYER1
  6
CONTINUOUS
 62
     4
100
AcDbLine
 10
188.913158
 20
87.124392
 30
0.0
 11
190.4131579999999
 21
84.52631600000001
 31
0.0
  0
ENDBLK
  5
50
330
47
100
AcDbEntity
  8
0
100
AcDbBlockEnd
  0
BLOCK
  5
52
330
51
100
AcDbEntity
  8
0
100
AcDbBlockBegin
  2
FXDIM0002
 70
     0
 10
0.0
 20
0.0
 30
0.0
  3
FXDIM0002
  1

  0
LINE
  5
53
330
51
100
AcDbEntity
  8
CSLAYER1
  6
CONTINUOUS
 62
     4
100
AcDbLine
 10
186.213158
 20
72.526316
 30
0.0
 11
184.713158
 21
69.92824
 31
0.0
  0
LINE
  5
54
330
51
100
AcDbEntity
  8
CSLAYER1
  6
CONTINUOUS
 62
     4
100
AcDbLine
 10
184.713158
 20
69.92824
 30
0.0
 11
193.713158
 21
69.92824
 31
0.0
  0
LINE
  5
55
330
51
100
AcDbEntity
  8
CSLAYER1
  6
CONTINUOUS
 62
     4
100
AcDbLine
 10
187.713158
 20
69.92824
 30
0.0
 11
186.213158
 21
72.526316
 31
0.0
  0
LINE
  5
56
330
51
100
AcDbEntity
  8
CSLAYER1
  6
CONTINUOUS
 62
     4
100
AcDbLine
 10
189.213158
 20
72.526316
 30
0.0
 11
187.713158
 21
69.92824
 31
0.0
  0
LINE
  5
57
330
51
100
AcDbEntity
  8
CSLAYER1
  6
CONTINUOUS
 62
     4
100
AcDbLine
 10
190.713158
 20
69.92824
 30
0.0
 11
189.213158
 21
72.526316
 31
0.0
  0
LINE
  5
58
330
51
100
AcDbEntity
  8
CSLAYER1
  6
CONTINUOUS
 62
     4
100
AcDbLine
 10
192.213158
 20
72.526316
 30
0.0
 11
190.713158
 21
69.92824
 31
0.0
  0
LINE
  5
59
330
51
100
AcDbEntity
  8
CSLAYER1
  6
CONTINUOUS
 62
     4
100
AcDbLine
 10
193.713158
 20
69.92824
 30
0.0
 11
192.213158
 21
72.526316
 31
0.0
  0
ENDBLK
  5
5A
330
51
100
AcDbEntity
  8
0
100
AcDbBlockEnd
  0
BLOCK
  5
5C
330
5B
100
AcDbEntity
  8
0
100
AcDbBlockBegin
  2
*D3
 70
     1
 10
0.0
 20
0.0
 30
0.0
  3
*D3
  1

  0
TEXT
  5
5D
330
5B
100
AcDbEntity
  8
CSLAYER1
 62
     4
100
AcDbText
 10
57.34976899999999
 20
146.474197
 30
0.0
 40
3.2
  1
(0.8)
 41
1.153846225961538
 51
15.0
  7
FX_FONT
 72
     5
 11
73.34976999999998
 21
146.474197
 31
0.0
100
AcDbText
  0
LINE
  5
5E
330
5B
100
AcDbEntity
  8
CSLAYER1
  6
CONTINUOUS
 62
     4
100
AcDbLine
 10
69.066117
 20
145.4741899999999
 30
0.0
 11
69.866117
 21
145.4741899999999
 31
0.0
  0
LINE
  5
5F
330
5B
100
AcDbEntity
  8
CSLAYER1
  6
CONTINUOUS
 62
     4
100
AcDbLine
 10
76.306884
 20
138.2334229999998
 30
0.0
 11
68.359011
 21
146.181296
 31
0.0
  0
LINE
  5
60
330
5B
100
AcDbEntity
  8
CSLAYER1
  6
CONTINUOUS
 62
     4
100
AcDbLine
 10
77.10688399999998
 20
138.2334229999998
 30
0.0
 11
69.15901099999999
 21
146.181296
 31
0.0
  0
LINE
  5
61
330
5B
100
AcDbEntity
  8
CSLAYER1
  6
CONTINUOUS
 62
     4
100
AcDbLine
 10
61.633424
 20
145.4741899999999
 30
0.0
 11
69.066117
 21
145.4741899999999
 31
0.0
  0
LINE
  5
62
330
5B
100
AcDbEntity
  8
CSLAYER1
  6
CONTINUOUS
 62
     4
100
AcDbLine
 10
69.066117
 20
145.4741899999999
 30
0.0
 11
66.16834
 21
146.2506469999999
 31
0.0
  0
LINE
  5
63
330
5B
100
AcDbEntity
  8
CSLAYER1
  6
CONTINUOUS
 62
     4
100
AcDbLine
 10
69.066117
 20
145.4741899999999
 30
0.0
 11
66.16834
 21
144.6977329999999
 31
0.0
  0
LINE
  5
64
330
5B
100
AcDbEntity
  8
CSLAYER1
  6
CONTINUOUS
 62
     4
100
AcDbLine
 10
69.866117
 20
145.4741899999999
 30
0.0
 11
75.866117
 21
145.4741899999999
 31
0.0
  0
LINE
  5
65
330
5B
100
AcDbEntity
  8
CSLAYER1
  6
CONTINUOUS
 62
     4
100
AcDbLine
 10
69.866117
 20
145.4741899999999
 30
0.0
 11
72.76389499999997
 21
146.2506469999999
 31
0.0
  0
LINE
  5
66
330
5B
100
AcDbEntity
  8
CSLAYER1
  6
CONTINUOUS
 62
     4
100
AcDbLine
 10
69.866117
 20
145.4741899999999
 30
0.0
 11
72.76389499999997
 21
144.6977329999999
 31
0.0
  0
ENDBLK
  5
67
330
5B
100
AcDbEntity
  8
0
100
AcDbBlockEnd
  0
BLOCK
  5
69
330
68
100
AcDbEntity
  8
0
100
AcDbBlockBegin
  2
*D4
 70
     1
 10
0.0
 20
0.0
 30
0.0
  3
*D4
  1

  0
TEXT
  5
6A
330
68
100
AcDbEntity
  8
CSLAYER1
 62
     4
100
AcDbText
 10
81.828547
 20
160.892682
 30
0.0
 40
3.2
  1
45%%d
 50
337.4999985585441
 41
1.285714224875631
 51
15.0
  7
FX_FONT
 72
     5
 11
90.69779
 21
157.2189209999999
 31
0.0
100
AcDbText
  0
ARC
  5
6B
330
68
100
AcDbEntity
  8
CSLAYER1
  6
CONTINUOUS
 62
     4
100
AcDbCircle
 10
77.013991
 20
136.726316
 30
0.0
 40
23.169259
100
AcDbArc
 50
45.0
 51
90.0
  0
LINE
  5
6C
330
68
100
AcDbEntity
  8
CSLAYER1
  6
CONTINUOUS
 62
     4
100
AcDbLine
 10
93.397132
 20
153.1094559999999
 30
0.0
 11
90.799055
 21
154.609456
 31
0.0
  0
LINE
  5
6D
330
68
100
AcDbEntity
  8
CSLAYER1
  6
CONTINUOUS
 62
     4
100
AcDbLine
 10
93.397132
 20
153.1094559999999
 30
0.0
 11
91.89713199999999
 21
155.707532
 31
0.0
  0
LINE
  5
6E
330
68
100
AcDbEntity
  8
CSLAYER1
  6
CONTINUOUS
 62
     4
100
AcDbLine
 10
77.013991
 20
159.895575
 30
0.0
 11
79.91176899999998
 21
160.6720319999999
 31
0.0
  0
LINE
  5
6F
330
68
100
AcDbEntity
  8
CSLAYER1
  6
CONTINUOUS
 62
     4
100
AcDbLine
 10
77.013991
 20
159.895575
 30
0.0
 11
79.91176899999998
 21
159.1191179999999
 31
0.0
  0
LINE
  5
70
330
68
100
AcDbEntity
  8
CSLAYER1
  6
CONTINUOUS
 62
     4
100
AcDbLine
 10
88.621098
 20
148.333423
 30
0.0
 11
94.104238
 21
153.8165629999999
 31
0.0
  0
ENDBLK
  5
71
330
68
100
AcDbEntity
  8
0
100
AcDbBlockEnd
  0
BLOCK
  5
73
330
72
100
AcDbEntity
  8
0
100
AcDbBlockBegin
  2
*D5
 70
     1
 10
0.0
 20
0.0
 30
0.0
  3
*D5
  1

  0
TEXT
  5
74
330
72
100
AcDbEntity
  8
CSLAYER1
 62
     4
100
AcDbText
 10
58.709348
 20
132.2697449999999
 30
0.0
 40
3.2
  1
60%%d
 50
299.9999996309515
 41
1.285714300058137
 51
15.0
  7
FX_FONT
 72
     5
 11
63.509348
 21
123.955901
 31
0.0
100
AcDbText
  0
ARC
  5
75
330
72
100
AcDbEntity
  8
CSLAYER1
  6
CONTINUOUS
 62
     4
100
AcDbCircle
 10
77.41399100000002
 20
137.5263159999998
 30
0.0
 40
19.826979
100
AcDbArc
 50
180.0
 51
239.9999999999999
  0
LINE
  5
76
330
72
100
AcDbEntity
  8
CSLAYER1
  6
CONTINUOUS
 62
     4
100
AcDbLine
 10
57.587012
 20
137.5263159999998
 30
0.0
 11
56.81055500000001
 21
134.6285379999999
 31
0.0
  0
LINE
  5
77
330
72
100
AcDbEntity
  8
CSLAYER1
  6
CONTINUOUS
 62
     4
100
AcDbLine
 10
57.587012
 20
137.5263159999998
 30
0.0
 11
58.36346899999998
 21
134.6285379999999
 31
0.0
  0
LINE
  5
78
330
72
100
AcDbEntity
  8
CSLAYER1
  6
CONTINUOUS
 62
     4
100
AcDbLine
 10
67.500502
 20
120.355648
 30
0.0
 11
64.602724
 21
121.132105
 31
0.0
  0
LINE
  5
79
330
72
100
AcDbEntity
  8
CSLAYER1
  6
CONTINUOUS
 62
     4
100
AcDbLine
 10
67.500502
 20
120.355648
 30
0.0
 11
65.379181
 21
122.476969
 31
0.0
  0
LINE
  5
7A
330
72
100
AcDbEntity
  8
CSLAYER1
  6
CONTINUOUS
 62
     4
100
AcDbLine
 10
73.390635
 20
137.5263159999998
 30
0.0
 11
56.587012
 21
137.5263159999998
 31
0.0
  0
LINE
  5
7B
330
72
100
AcDbEntity
  8
CSLAYER1
  6
CONTINUOUS
 62
     4
100
AcDbLine
 10
76.51714100000003
 20
135.9729259999999
 30
0.0
 11
67.00050199999999
 21
119.4896229999999
 31
0.0
  0
ENDBLK
  5
7C
330
72
100
AcDbEntity
  8
0
100
AcDbBlockEnd
  0
BLOCK
  5
7E
330
7D
100
AcDbEntity
  8
0
100
AcDbBlockBegin
  2
*D6
 70
     1
 10
0.0
 20
0.0
 30
0.0
  3
*D6
  1

  0
TEXT
  5
7F
330
7D
100
AcDbEntity
  8
CSLAYER1
 62
     4
100
AcDbText
 10
75.112471
 20
118.2338789999999
 30
0.0
 40
3.2
  1
75%%d
 50
7.500003024516535
 41
1.285714339336949
 51
15.0
  7
FX_FONT
 72
     5
 11
84.630342
 21
119.486931
 31
0.0
100
AcDbText
  0
ARC
  5
80
330
7D
100
AcDbEntity
  8
CSLAYER1
  6
CONTINUOUS
 62
     4
100
AcDbCircle
 10
77.41399100000002
 20
137.5263159999998
 30
0.0
 40
19.826979
100
AcDbArc
 50
239.9999999999999
 51
315.0
  0
LINE
  5
81
330
7D
100
AcDbEntity
  8
CSLAYER1
  6
CONTINUOUS
 62
     4
100
AcDbLine
 10
67.500502
 20
120.355648
 30
0.0
 11
70.398279
 21
119.579191
 31
0.0
  0
LINE
  5
82
330
7D
100
AcDbEntity
  8
CSLAYER1
  6
CONTINUOUS
 62
     4
100
AcDbLine
 10
67.500502
 20
120.355648
 30
0.0
 11
69.62182199999999
 21
118.2343279999999
 31
0.0
  0
LINE
  5
83
330
7D
100
AcDbEntity
  8
CSLAYER1
  6
CONTINUOUS
 62
     4
100
AcDbLine
 10
91.433783
 20
123.5065239999999
 30
0.0
 11
89.93378299999998
 21
120.908448
 31
0.0
  0
LINE
  5
84
330
7D
100
AcDbEntity
  8
CSLAYER1
  6
CONTINUOUS
 62
     4
100
AcDbLine
 10
91.433783
 20
123.5065239999999
 30
0.0
 11
88.835706
 21
122.006524
 31
0.0
  0
LINE
  5
85
330
7D
100
AcDbEntity
  8
CSLAYER1
  6
CONTINUOUS
 62
     4
100
AcDbLine
 10
88.621098
 20
126.319209
 30
0.0
 11
92.140889
 21
122.7994179999999
 31
0.0
  0
ENDBLK
  5
86
330
7D
100
AcDbEntity
  8
0
100
AcDbBlockEnd
  0
BLOCK
  5
88
330
87
100
AcDbEntity
  8
0
100
AcDbBlockBegin
  2
*D7
 70
     1
 10
0.0
 20
0.0
 30
0.0
  3
*D7
  1

  0
TEXT
  5
89
330
87
100
AcDbEntity
  8
CSLAYER1
 62
     4
100
AcDbText
 10
130.321862
 20
66.44855699999999
 30
0.0
 40
3.2
  1
切刃部有効20
 50
329.9999990065037
 41
0.9130435323608237
 51
15.0
  7
FX_FONT
 72
     5
 11
149.720832
 21
55.24855600000001
 31
0.0
100
AcDbText
  0
LINE
  5
8A
330
87
100
AcDbEntity
  8
CSLAYER1
  6
CONTINUOUS
 62
     4
100
AcDbLine
 10
133.8008279999999
 20
69.849148
 30
0.0
 11
151.121336
 21
59.849148
 31
0.0
  0
LINE
  5
8B
330
87
100
AcDbEntity
  8
CSLAYER1
  6
CONTINUOUS
 62
     4
100
AcDbLine
 10
133.8008279999999
 20
69.849148
 30
0.0
 11
136.698605
 21
69.072691
 31
0.0
  0
LINE
  5
8C
330
87
100
AcDbEntity
  8
CSLAYER1
  6
CONTINUOUS
 62
     4
100
AcDbLine
 10
133.8008279999999
 20
69.849148
 30
0.0
 11
135.9221479999999
 21
67.727828
 31
0.0
  0
LINE
  5
8D
330
87
100
AcDbEntity
  8
CSLAYER1
  6
CONTINUOUS
 62
     4
100
AcDbLine
 10
151.121336
 20
59.849148
 30
0.0
 11
148.223558
 21
60.625605
 31
0.0
  0
LINE
  5
8E
330
87
100
AcDbEntity
  8
CSLAYER1
  6
CONTINUOUS
 62
     4
100
AcDbLine
 10
151.121336
 20
59.849148
 30
0.0
 11
149.0000159999999
 21
61.970469
 31
0.0
  0
LINE
  5
8F
330
87
100
AcDbEntity
  8
CSLAYER1
  6
CONTINUOUS
 62
     4
100
AcDbLine
 10
141.513158
 20
83.20729599999998
 30
0.0
 11
133.300828
 21
68.98312299999999
 31
0.0
  0
LINE
  5
90
330
87
100
AcDbEntity
  8
CSLAYER1
  6
CONTINUOUS
 62
     4
100
AcDbLine
 10
158.8336659999999
 20
73.20729599999999
 30
0.0
 11
150.621336
 21
58.983123
 31
0.0
  0
ENDBLK
  5
91
330
87
100
AcDbEntity
  8
0
100
AcDbBlockEnd
  0
BLOCK
  5
93
330
92
100
AcDbEntity
  8
0
100
AcDbBlockBegin
  2
*D8
 70
     1
 10
0.0
 20
0.0
 30
0.0
  3
*D8
  1

  0
TEXT
  5
94
330
92
100
AcDbEntity
  8
CSLAYER1
 62
     4
100
AcDbText
 10
127.9778139999999
 20
74.83637399999998
 30
0.0
 40
3.2
  1
12  
 50
90.0
 41
1.250000000000002
 51
15.0
  7
FX_FONT
 72
     5
 11
127.9778139999999
 21
87.636374
 31
0.0
100
AcDbText
  0
TEXT
  5
95
330
92
100
AcDbEntity
  8
CSLAYER1
 62
     4
100
AcDbText
 10
126.3778139999998
 20
87.636374
 30
0.0
 40
1.6
  1
  0
 50
90.0
 41
1.607142857142856
 51
15.0
  7
FX_FONT
 72
     5
 11
126.3778139999998
 21
92.436374
 31
0.0
100
AcDbText
  0
TEXT
  5
96
330
92
100
AcDbEntity
  8
CSLAYER1
 62
     4
100
AcDbText
 10
127.9778139999999
 20
87.636374
 30
0.0
 40
1.6
  1
-0.15
 50
90.0
 41
1.071428571428571
 51
15.0
  7
FX_FONT
 72
     5
 11
127.9778139999999
 21
95.63637400000001
 31
0.0
100
AcDbText
  0
LINE
  5
97
330
92
100
AcDbEntity
  8
CSLAYER1
  6
CONTINUOUS
 62
     4
100
AcDbLine
 10
128.977812
 20
72.526316
 30
0.0
 11
128.977812
 21
84.52631600000001
 31
0.0
  0
LINE
  5
98
330
92
100
AcDbEntity
  8
CSLAYER1
  6
CONTINUOUS
 62
     4
100
AcDbLine
 10
128.977812
 20
72.526316
 30
0.0
 11
128.201355
 21
75.424093
 31
0.0
  0
LINE
  5
99
330
92
100
AcDbEntity
  8
CSLAYER1
  6
CONTINUOUS
 62
     4
100
AcDbLine
 10
128.977812
 20
72.526316
 30
0.0
 11
129.754269
 21
75.424093
 31
0.0
  0
LINE
  5
9A
330
92
100
AcDbEntity
  8
CSLAYER1
  6
CONTINUOUS
 62
     4
100
AcDbLine
 10
128.977812
 20
84.52631600000001
 30
0.0
 11
128.201355
 21
81.628538
 31
0.0
  0
LINE
  5
9B
330
92
100
AcDbEntity
  8
CSLAYER1
  6
CONTINUOUS
 62
     4
100
AcDbLine
 10
128.977812
 20
84.52631600000001
 30
0.0
 11
129.754269
 21
81.628538
 31
0.0
  0
LINE
  5
9C
330
92
100
AcDbEntity
  8
CSLAYER1
  6
CONTINUOUS
 62
     4
100
AcDbLine
 10
161.013158
 20
72.526316
 30
0.0
 11
127.977812
 21
72.526316
 31
0.0
  0
LINE
  5
9D
330
92
100
AcDbEntity
  8
CSLAYER1
  6
CONTINUOUS
 62
     4
100
AcDbLine
 10
141.013158
 20
84.52631600000001
 30
0.0
 11
127.977812
 21
84.52631600000001
 31
0.0
  0
ENDBLK
  5
9E
330
92
100
AcDbEntity
  8
0
100
AcDbBlockEnd
  0
BLOCK
  5
A0
330
9F
100
AcDbEntity
  8
0
100
AcDbBlockBegin
  2
*D9
 70
     1
 10
0.0
 20
0.0
 30
0.0
  3
*D9
  1

  0
TEXT
  5
A1
330
9F
100
AcDbEntity
  8
CSLAYER1
 62
     4
100
AcDbText
 10
146.7855919999998
 20
71.581039
 30
0.0
 40
3.2
  1
30%%d
 50
75.00000068633638
 41
1.285714429616967
 51
15.0
  7
FX_FONT
 72
     5
 11
149.2702549999999
 21
80.85392799999999
 31
0.0
100
AcDbText
  0
ARC
  5
A2
330
9F
100
AcDbEntity
  8
CSLAYER1
  6
CONTINUOUS
 62
     4
100
AcDbCircle
 10
162.0131579999998
 20
72.526316
 30
0.0
 40
13.707601
100
AcDbArc
 50
150.0
 51
180.0
  0
ARC
  5
A3
330
9F
100
AcDbEntity
  8
CSLAYER1
  6
CONTINUOUS
 62
     4
100
AcDbCircle
 10
162.0131579999998
 20
72.526316
 30
0.0
 40
13.707601
100
AcDbArc
 50
129.177135
 51
150.0
  0
LINE
  5
A4
330
9F
100
AcDbEntity
  8
CSLAYER1
  6
CONTINUOUS
 62
     4
100
AcDbLine
 10
150.142027
 20
79.380116
 30
0.0
 11
150.918485
 21
82.27789399999997
 31
0.0
  0
LINE
  5
A5
330
9F
100
AcDbEntity
  8
CSLAYER1
  6
CONTINUOUS
 62
     4
100
AcDbLine
 10
150.142027
 20
79.380116
 30
0.0
 11
152.263348
 21
81.50143599999998
 31
0.0
  0
ARC
  5
A6
330
9F
100
AcDbEntity
  8
CSLAYER1
  6
CONTINUOUS
 62
     4
100
AcDbCircle
 10
162.0131579999998
 20
72.526316
 30
0.0
 40
13.707601
100
AcDbArc
 50
180.0
 51
200.8228649999999
  0
LINE
  5
A7
330
9F
100
AcDbEntity
  8
CSLAYER1
  6
CONTINUOUS
 62
     4
100
AcDbLine
 10
148.3055569999999
 20
72.526316
 30
0.0
 11
147.5291
 21
69.62853800000001
 31
0.0
  0
LINE
  5
A8
330
9F
100
AcDbEntity
  8
CSLAYER1
  6
CONTINUOUS
 62
     4
100
AcDbLine
 10
148.3055569999999
 20
72.526316
 30
0.0
 11
149.0820139999998
 21
69.62853800000001
 31
0.0
  0
ENDBLK
  5
A9
330
9F
100
AcDbEntity
  8
0
100
AcDbBlockEnd
  0
BLOCK
  5
AB
330
AA
100
AcDbEntity
  8
0
100
AcDbBlockBegin
  2
*D10
 70
     1
 10
0.0
 20
0.0
 30
0.0
  3
*D10
  1

  0
TEXT
  5
AC
330
AA
100
AcDbEntity
  8
CSLAYER1
 62
     4
100
AcDbText
 10
166.313153
 20
60.468113
 30
0.0
 40
3.2
  1
15
 41
1.200000000000001
 51
15.0
  7
FX_FONT
 72
     5
 11
172.713153
 21
60.468113
 31
0.0
100
AcDbText
  0
LINE
  5
AD
330
AA
100
AcDbEntity
  8
CSLAYER1
  6
CONTINUOUS
 62
     4
100
AcDbLine
 10
162.0131579999998
 20
59.46811199999999
 30
0.0
 11
177.013158
 21
59.46811199999999
 31
0.0
  0
LINE
  5
AE
330
AA
100
AcDbEntity
  8
CSLAYER1
  6
CONTINUOUS
 62
     4
100
AcDbLine
 10
162.0131579999998
 20
59.46811199999999
 30
0.0
 11
164.910935
 21
60.24456899999999
 31
0.0
  0
LINE
  5
AF
330
AA
100
AcDbEntity
  8
CSLAYER1
  6
CONTINUOUS
 62
     4
100
AcDbLine
 10
162.0131579999998
 20
59.46811199999999
 30
0.0
 11
164.910935
 21
58.691654
 31
0.0
  0
LINE
  5
B0
330
AA
100
AcDbEntity
  8
CSLAYER1
  6
CONTINUOUS
 62
     4
100
AcDbLine
 10
177.013158
 20
59.46811199999999
 30
0.0
 11
174.11538
 21
60.24456899999999
 31
0.0
  0
LINE
  5
B1
330
AA
100
AcDbEntity
  8
CSLAYER1
  6
CONTINUOUS
 62
     4
100
AcDbLine
 10
177.013158
 20
59.46811199999999
 30
0.0
 11
174.11538
 21
58.691654
 31
0.0
  0
LINE
  5
B2
330
AA
100
AcDbEntity
  8
CSLAYER1
  6
CONTINUOUS
 62
     4
100
AcDbLine
 10
162.0131579999998
 20
71.52631600000002
 30
0.0
 11
162.0131579999998
 21
58.468112
 31
0.0
  0
LINE
  5
B3
330
AA
100
AcDbEntity
  8
CSLAYER1
  6
CONTINUOUS
 62
     4
100
AcDbLine
 10
177.013158
 20
67.991116
 30
0.0
 11
177.013158
 21
58.468112
 31
0.0
  0
ENDBLK
  5
B4
330
AA
100
AcDbEntity
  8
0
100
AcDbBlockEnd
  0
BLOCK
  5
B6
330
B5
100
AcDbEntity
  8
0
100
AcDbBlockBegin
  2
*D11
 70
     1
 10
0.0
 20
0.0
 30
0.0
  3
*D11
  1

  0
TEXT
  5
B7
330
B5
100
AcDbEntity
  8
CSLAYER1
 62
     4
100
AcDbText
 10
156.3131529999999
 20
165.1056819999999
 30
0.0
 40
3.2
  1
35
 41
1.199999999999995
 51
15.0
  7
FX_FONT
 72
     5
 11
162.7131529999998
 21
165.1056819999999
 31
0.0
100
AcDbText
  0
LINE
  5
B8
330
B5
100
AcDbEntity
  8
CSLAYER1
  6
CONTINUOUS
 62
     4
100
AcDbLine
 10
142.013158
 20
164.1056739999999
 30
0.0
 11
177.013158
 21
164.1056739999999
 31
0.0
  0
LINE
  5
B9
330
B5
100
AcDbEntity
  8
CSLAYER1
  6
CONTINUOUS
 62
     4
100
AcDbLine
 10
142.013158
 20
164.1056739999999
 30
0.0
 11
144.910935
 21
164.882131
 31
0.0
  0
LINE
  5
BA
330
B5
100
AcDbEntity
  8
CSLAYER1
  6
CONTINUOUS
 62
     4
100
AcDbLine
 10
142.013158
 20
164.1056739999999
 30
0.0
 11
144.910935
 21
163.3292169999999
 31
0.0
  0
LINE
  5
BB
330
B5
100
AcDbEntity
  8
CSLAYER1
  6
CONTINUOUS
 62
     4
100
AcDbLine
 10
177.013158
 20
164.1056739999999
 30
0.0
 11
174.11538
 21
164.882131
 31
0.0
  0
LINE
  5
BC
330
B5
100
AcDbEntity
  8
CSLAYER1
  6
CONTINUOUS
 62
     4
100
AcDbLine
 10
177.013158
 20
164.1056739999999
 30
0.0
 11
174.11538
 21
163.3292169999999
 31
0.0
  0
LINE
  5
BD
330
B5
100
AcDbEntity
  8
CSLAYER1
  6
CONTINUOUS
 62
     4
100
AcDbLine
 10
142.013158
 20
138.5263159999998
 30
0.0
 11
142.013158
 21
165.105674
 31
0.0
  0
LINE
  5
BE
330
B5
100
AcDbEntity
  8
CSLAYER1
  6
CONTINUOUS
 62
     4
100
AcDbLine
 10
177.013158
 20
153.0893489999999
 30
0.0
 11
177.013158
 21
165.105674
 31
0.0
  0
ENDBLK
  5
BF
330
B5
100
AcDbEntity
  8
0
100
AcDbBlockEnd
  0
BLOCK
  5
C1
330
C0
100
AcDbEntity
  8
0
100
AcDbBlockBegin
  2
*D12
 70
     1
 10
0.0
 20
0.0
 30
0.0
  3
*D12
  1

  0
TEXT
  5
C2
330
C0
100
AcDbEntity
  8
CSLAYER1
 62
     4
100
AcDbText
 10
130.508621
 20
126.3263209999999
 30
0.0
 40
3.2
  1
22.5~24
 50
90.0
 41
1.050000046875005
 51
15.0
  7
FX_FONT
 72
     5
 11
130.508621
 21
148.726322
 31
0.0
100
AcDbText
  0
LINE
  5
C3
330
C0
100
AcDbEntity
  8
CSLAYER1
  6
CONTINUOUS
 62
     4
100
AcDbLine
 10
131.508624
 20
126.026316
 30
0.0
 11
131.508624
 21
149.0263159999998
 31
0.0
  0
LINE
  5
C4
330
C0
100
AcDbEntity
  8
CSLAYER1
  6
CONTINUOUS
 62
     4
100
AcDbLine
 10
131.508624
 20
126.026316
 30
0.0
 11
130.732167
 21
128.924093
 31
0.0
  0
LINE
  5
C5
330
C0
100
AcDbEntity
  8
CSLAYER1
  6
CONTINUOUS
 62
     4
100
AcDbLine
 10
131.508624
 20
126.026316
 30
0.0
 11
132.285081
 21
128.924093
 31
0.0
  0
LINE
  5
C6
330
C0
100
AcDbEntity
  8
CSLAYER1
  6
CONTINUOUS
 62
     4
100
AcDbLine
 10
131.508624
 20
149.0263159999998
 30
0.0
 11
130.732167
 21
146.1285379999999
 31
0.0
  0
LINE
  5
C7
330
C0
100
AcDbEntity
  8
CSLAYER1
  6
CONTINUOUS
 62
     4
100
AcDbLine
 10
131.508624
 20
149.0263159999998
 30
0.0
 11
132.285081
 21
146.1285379999999
 31
0.0
  0
LINE
  5
C8
330
C0
100
AcDbEntity
  8
CSLAYER1
  6
CONTINUOUS
 62
     4
100
AcDbLine
 10
159.117025
 20
126.026316
 30
0.0
 11
130.508624
 21
126.026316
 31
0.0
  0
LINE
  5
C9
330
C0
100
AcDbEntity
  8
CSLAYER1
  6
CONTINUOUS
 62
     4
100
AcDbLine
 10
159.117025
 20
149.0263159999998
 30
0.0
 11
130.508624
 21
149.0263159999998
 31
0.0
  0
ENDBLK
  5
CA
330
C0
100
AcDbEntity
  8
0
100
AcDbBlockEnd
  0
BLOCK
  5
CC
330
CB
100
AcDbEntity
  8
0
100
AcDbBlockBegin
  2
*D13
 70
     1
 10
0.0
 20
0.0
 30
0.0
  3
*D13
  1

  0
TEXT
  5
CD
330
CB
100
AcDbEntity
  8
CSLAYER1
 62
     4
100
AcDbText
 10
149.473342
 20
114.8349529999999
 30
0.0
 40
3.2
  1
R20
 50
71.21691872750051
 41
1.124999994207794
 51
15.0
  7
FX_FONT
 72
     5
 11
152.564409
 21
123.9236989999999
 31
0.0
100
AcDbText
  0
LINE
  5
CE
330
CB
100
AcDbEntity
  8
CSLAYER1
  6
CONTINUOUS
 62
     4
100
AcDbLine
 10
153.677299
 20
127.091429
 30
0.0
 11
160.117025
 21
146.0263159999998
 31
0.0
  0
LINE
  5
CF
330
CB
100
AcDbEntity
  8
CSLAYER1
  6
CONTINUOUS
 62
     4
100
AcDbLine
 10
153.677299
 20
127.091429
 30
0.0
 11
153.875237
 21
130.0848919999999
 31
0.0
  0
LINE
  5
D0
330
CB
100
AcDbEntity
  8
CSLAYER1
  6
CONTINUOUS
 62
     4
100
AcDbLine
 10
153.677299
 20
127.091429
 30
0.0
 11
155.3454499999999
 21
129.584875
 31
0.0
  0
ENDBLK
  5
D1
330
CB
100
AcDbEntity
  8
0
100
AcDbBlockEnd
  0
BLOCK
  5
D3
330
D2
100
AcDbEntity
  8
0
100
AcDbBlockBegin
  2
*D14
 70
     1
 10
0.0
 20
0.0
 30
0.0
  3
*D14
  1

  0
TEXT
  5
D4
330
D2
100
AcDbEntity
  8
CSLAYER1
 62
     4
100
AcDbText
 10
57.196663
 20
37.897837
 30
0.0
 40
3.2
  1
5
 50
90.0
 41
1.499999999999998
 51
15.0
  7
FX_FONT
 72
     5
 11
57.196663
 21
41.097837
 31
0.0
100
AcDbText
  0
LINE
  5
D5
330
D2
100
AcDbEntity
  8
CSLAYER1
  6
CONTINUOUS
 62
     4
100
AcDbLine
 10
58.196662
 20
36.99783599999999
 30
0.0
 11
58.196662
 21
41.99783599999999
 31
0.0
  0
LINE
  5
D6
330
D2
100
AcDbEntity
  8
CSLAYER1
  6
CONTINUOUS
 62
     4
100
AcDbLine
 10
66.470027
 20
36.99783599999999
 30
0.0
 11
57.19666199999998
 21
36.99783599999999
 31
0.0
  0
LINE
  5
D7
330
D2
100
AcDbEntity
  8
CSLAYER1
  6
CONTINUOUS
 62
     4
100
AcDbLine
 10
66.470027
 20
41.99783599999999
 30
0.0
 11
57.19666199999998
 21
41.99783599999999
 31
0.0
  0
LINE
  5
D8
330
D2
100
AcDbEntity
  8
CSLAYER1
  6
CONTINUOUS
 62
     4
100
AcDbLine
 10
58.196662
 20
30.997836
 30
0.0
 11
58.196662
 21
36.99783599999999
 31
0.0
  0
LINE
  5
D9
330
D2
100
AcDbEntity
  8
CSLAYER1
  6
CONTINUOUS
 62
     4
100
AcDbLine
 10
58.196662
 20
36.99783599999999
 30
0.0
 11
57.420205
 21
34.100058
 31
0.0
  0
LINE
  5
DA
330
D2
100
AcDbEntity
  8
CSLAYER1
  6
CONTINUOUS
 62
     4
100
AcDbLine
 10
58.196662
 20
36.99783599999999
 30
0.0
 11
58.973119
 21
34.100058
 31
0.0
  0
LINE
  5
DB
330
D2
100
AcDbEntity
  8
CSLAYER1
  6
CONTINUOUS
 62
     4
100
AcDbLine
 10
58.196662
 20
41.99783599999999
 30
0.0
 11
58.196662
 21
47.997836
 31
0.0
  0
LINE
  5
DC
330
D2
100
AcDbEntity
  8
CSLAYER1
  6
CONTINUOUS
 62
     4
100
AcDbLine
 10
58.196662
 20
41.99783599999999
 30
0.0
 11
57.420205
 21
44.895613
 31
0.0
  0
LINE
  5
DD
330
D2
100
AcDbEntity
  8
CSLAYER1
  6
CONTINUOUS
 62
     4
100
AcDbLine
 10
58.196662
 20
41.99783599999999
 30
0.0
 11
58.973119
 21
44.895613
 31
0.0
  0
ENDBLK
  5
DE
330
D2
100
AcDbEntity
  8
0
100
AcDbBlockEnd
  0
BLOCK
  5
190
330
184
100
AcDbEntity
  8
0
100
AcDbBlockBegin
  2
*D15
 70
     1
 10
0.0
 20
0.0
 30
0.0
  3
*D15
  1

  0
LINE
  5
185
330
184
100
AcDbEntity
  8
CSLAYER1
 62
     0
100
AcDbLine
 10
87.95818517382413
 20
147.6705101738241
 30
0.0
 11
93.52441038040709
 21
153.2367353804071
 31
0.0
  0
ARC
  5
186
330
184
100
AcDbEntity
  8
CSLAYER1
 62
     0
100
AcDbCircle
 10
77.013991
 20
136.7263159999999
 30
0.0
 40
23.16925900823932
100
AcDbArc
 50
45.4451271508062
 51
66.48443685510064
  0
ARC
  5
187
330
184
100
AcDbEntity
  8
CSLAYER1
 62
     0
100
AcDbCircle
 10
77.013991
 20
136.7263159999999
 30
0.0
 40
23.16925900823932
100
AcDbArc
 50
68.50816017107104
 51
89.55487284919389
  0
SOLID
  5
188
330
184
100
AcDbEntity
  8
CSLAYER1
 62
     0
100
AcDbTrace
 10
93.29048913033618
 20
153.2575354546094
 30
0.0
 11
93.24822784712324
 21
153.2149445642549
 31
0.0
 12
93.39713115979352
 22
153.1094561597934
 32
0.0
 13
93.39713115979352
 23
153.1094561597934
 33
0.0
  0
SOLID
  5
189
330
184
100
AcDbEntity
  8
CSLAYER1
 62
     0
100
AcDbTrace
 10
77.19387310826149
 20
159.8648760322401
 30
0.0
 11
77.19410617570655
 21
159.9248755795682
 31
0.0
 12
77.01399099999997
 22
159.8955750082393
 32
0.0
 13
77.01399099999997
 23
159.8955750082393
 33
0.0
  0
MTEXT
  5
18A
330
184
100
AcDbEntity
  8
CSLAYER1
 62
     0
100
AcDbMText
 10
85.88048256262879
 20
158.131920181165
 30
0.0
 40
0.18
 41
0.0
 71
     5
 72
     1
  1
\A1;45°
1001
ACAD
1000
MTEXTBEGIN
1070
    73
1070
     1
1070
    44
1040
1.0
1070
    74
1070
     0
1000
MTEXTEND
  0
POINT
  5
18B
330
184
100
AcDbEntity
  8
DEFPOINTS
 62
     0
100
AcDbPoint
 10
88.59862050411967
 20
156.7914828879966
 30
0.0
  0
POINT
  5
18C
330
184
100
AcDbEntity
  8
DEFPOINTS
 62
     0
100
AcDbPoint
 10
77.81399099999998
 20
137.5263159999998
 30
0.0
  0
POINT
  5
18D
330
184
100
AcDbEntity
  8
DEFPOINTS
 62
     0
100
AcDbPoint
 10
77.013991
 20
160.754005
 30
0.0
  0
POINT
  5
18E
330
184
100
AcDbEntity
  8
DEFPOINTS
 62
     0
100
AcDbPoint
 10
77.013991
 20
137.9099249999998
 30
0.0
  0
POINT
  5
18F
330
184
100
AcDbEntity
  8
DEFPOINTS
 62
     0
100
AcDbPoint
 10
87.91399100000003
 20
147.6263159999999
 30
0.0
  0
ENDBLK
  5
191
330
184
100
AcDbEntity
  8
0
100
AcDbBlockEnd
  0
BLOCK
  5
19F
330
192
100
AcDbEntity
  8
0
100
AcDbBlockBegin
  2
*D16
 70
     1
 10
0.0
 20
0.0
 30
0.0
  3
*D16
  1

  0
LINE
  5
193
330
192
100
AcDbEntity
  8
CSLAYER1
 62
     0
100
AcDbLine
 10
74.328135
 20
137.5263159999998
 30
0.0
 11
57.40701217807689
 21
137.5263159999999
 31
0.0
  0
LINE
  5
194
330
192
100
AcDbEntity
  8
CSLAYER1
 62
     0
100
AcDbLine
 10
76.98589102172076
 20
136.7848243997229
 30
0.0
 11
67.41050854209936
 21
120.1997600728875
 31
0.0
  0
ARC
  5
195
330
192
100
AcDbEntity
  8
CSLAYER1
 62
     0
100
AcDbCircle
 10
77.41399100000002
 20
137.5263159999998
 30
0.0
 40
19.82697882192313
100
AcDbArc
 50
180.5201637537741
 51
209.4011759705681
  0
ARC
  5
196
330
192
100
AcDbEntity
  8
CSLAYER1
 62
     0
100
AcDbCircle
 10
77.41399100000002
 20
137.5263159999998
 30
0.0
 40
19.82697882192313
100
AcDbArc
 50
210.602482727093
 51
239.4798592387404
  0
SOLID
  5
197
330
192
100
AcDbEntity
  8
CSLAYER1
 62
     0
100
AcDbTrace
 10
57.55782955566075
 20
137.346181676372
 30
0.0
 11
57.61782893750858
 21
137.3464540325411
 31
0.0
 12
57.58701217807686
 22
137.5263159999999
 32
0.0
 13
57.58701217807686
 23
137.5263159999999
 33
0.0
  0
SOLID
  5
198
330
192
100
AcDbEntity
  8
CSLAYER1
 62
     0
100
AcDbTrace
 10
67.36015177946692
 20
120.4722637056202
 30
0.0
 11
67.32991624197859
 21
120.42043888268
 31
0.0
 12
67.50050847954364
 22
120.3556446816852
 32
0.0
 13
67.50050847954364
 23
120.3556446816852
 33
0.0
  0
MTEXT
  5
199
330
192
100
AcDbEntity
  8
CSLAYER1
 62
     0
100
AcDbMText
 10
60.24332564903613
 20
127.6128231437864
 30
0.0
 40
0.18
 41
0.0
 71
     5
 72
     1
  1
\A1;60°
1001
ACAD
1000
MTEXTBEGIN
1070
    73
1070
     1
1070
    44
1040
1.0
1070
    74
1070
     0
1000
MTEXTEND
  0
POINT
  5
19A
330
192
100
AcDbEntity
  8
DEFPOINTS
 62
     0
100
AcDbPoint
 10
58.78272621565141
 20
130.7450873693989
 30
0.0
  0
POINT
  5
19B
330
192
100
AcDbEntity
  8
DEFPOINTS
 62
     0
100
AcDbPoint
 10
77.01315799999997
 20
137.5263159999998
 30
0.0
  0
POINT
  5
19C
330
192
100
AcDbEntity
  8
DEFPOINTS
 62
     0
100
AcDbPoint
 10
77.01714100000002
 20
136.838951
 30
0.0
  0
POINT
  5
19D
330
192
100
AcDbEntity
  8
DEFPOINTS
 62
     0
100
AcDbPoint
 10
77.41399100000002
 20
137.5263159999998
 30
0.0
  0
POINT
  5
19E
330
192
100
AcDbEntity
  8
DEFPOINTS
 62
     0
100
AcDbPoint
 10
74.390635
 20
137.5263159999998
 30
0.0
  0
ENDBLK
  5
1A0
330
192
100
AcDbEntity
  8
0
100
AcDbBlockEnd
  0
BLOCK
  5
1AE
330
1A1
100
AcDbEntity
  8
0
100
AcDbBlockBegin
  2
*D17
 70
     1
 10
0.0
 20
0.0
 30
0.0
  3
*D17
  1

  0
LINE
  5
1A2
330
1A1
100
AcDbEntity
  8
CSLAYER1
 62
     0
100
AcDbLine
 10
76.98589102172073
 20
136.7848243997229
 30
0.0
 11
67.41050818319378
 21
120.1997594512446
 31
0.0
  0
LINE
  5
1A3
330
1A1
100
AcDbEntity
  8
CSLAYER1
 62
     0
100
AcDbLine
 10
87.95818517382416
 20
126.9821218261758
 30
0.0
 11
91.56106190360675
 21
123.3792450963931
 31
0.0
  0
ARC
  5
1A4
330
1A1
100
AcDbEntity
  8
CSLAYER1
 62
     0
100
AcDbCircle
 10
77.41399100000002
 20
137.5263159999998
 30
0.0
 40
19.82697953973444
100
AcDbArc
 50
240.5201867274563
 51
276.3995691890344
  0
ARC
  5
1A5
330
1A1
100
AcDbEntity
  8
CSLAYER1
 62
     0
100
AcDbCircle
 10
77.41399100000002
 20
137.5263159999998
 30
0.0
 40
19.82697953973444
100
AcDbArc
 50
278.6032438389574
 51
314.4798362650578
  0
SOLID
  5
1A6
330
1A1
100
AcDbEntity
  8
CSLAYER1
 62
     0
100
AcDbTrace
 10
67.64191775605185
 20
120.2403040625906
 30
0.0
 11
67.6716815587165
 21
120.2924012415061
 31
0.0
 12
67.50050812063808
 22
120.3556440600423
 32
0.0
 13
67.50050812063808
 23
120.3556440600423
 33
0.0
  0
SOLID
  5
1A7
330
1A1
100
AcDbEntity
  8
CSLAYER1
 62
     0
100
AcDbTrace
 10
91.28481032657452
 20
123.4011334396829
 30
0.0
 11
91.32704371145893
 21
123.3585148850242
 31
0.0
 12
91.43378268299317
 22
123.5065243170067
 32
0.0
 13
91.43378268299317
 23
123.5065243170067
 33
0.0
  0
MTEXT
  5
1A8
330
1A1
100
AcDbEntity
  8
CSLAYER1
 62
     0
100
AcDbMText
 10
80.00193508674664
 20
117.8689595380308
 30
0.0
 40
0.18
 41
0.0
 71
     5
 72
     1
  1
\A1;75°
1001
ACAD
1000
MTEXTBEGIN
1070
    73
1070
     1
1070
    44
1040
1.0
1070
    74
1070
     0
1000
MTEXTEND
  0
POINT
  5
1A9
330
1A1
100
AcDbEntity
  8
DEFPOINTS
 62
     0
100
AcDbPoint
 10
75.6859611559002
 20
117.7747836410423
 30
0.0
  0
POINT
  5
1AA
330
1A1
100
AcDbEntity
  8
DEFPOINTS
 62
     0
100
AcDbPoint
 10
77.41399100000002
 20
137.5263159999998
 30
0.0
  0
POINT
  5
1AB
330
1A1
100
AcDbEntity
  8
DEFPOINTS
 62
     0
100
AcDbPoint
 10
87.91399100000003
 20
127.0263159999999
 30
0.0
  0
POINT
  5
1AC
330
1A1
100
AcDbEntity
  8
DEFPOINTS
 62
     0
100
AcDbPoint
 10
77.41399100000002
 20
137.5263159999998
 30
0.0
  0
POINT
  5
1AD
330
1A1
100
AcDbEntity
  8
DEFPOINTS
 62
     0
100
AcDbPoint
 10
77.01714100000001
 20
136.838951
 30
0.0
  0
ENDBLK
  5
1AF
330
1A1
100
AcDbEntity
  8
0
100
AcDbBlockEnd
  0
BLOCK
  5
1BB
330
1B0
100
AcDbEntity
  8
0
100
AcDbBlockBegin
  2
*D18
 70
     1
 10
0.0
 20
0.0
 30
0.0
  3
*D18
  1

  0
ARC
  5
1B1
330
1B0
100
AcDbEntity
  8
CSLAYER1
 62
     0
100
AcDbCircle
 10
162.0131579999998
 20
72.526316
 30
0.0
 40
13.70760111943802
100
AcDbArc
 50
150.7523800572628
 51
164.2196376639494
  0
ARC
  5
1B2
330
1B0
100
AcDbEntity
  8
CSLAYER1
 62
     0
100
AcDbCircle
 10
162.0131579999998
 20
72.526316
 30
0.0
 40
13.70760111943802
100
AcDbArc
 50
165.7775253918184
 51
179.2476207673505
  0
SOLID
  5
1B3
330
1B0
100
AcDbEntity
  8
CSLAYER1
 62
     0
100
AcDbTrace
 10
150.0269738526799
 20
79.23847335630044
 30
0.0
 11
150.0791312283394
 21
79.2088151674766
 31
0.0
 12
150.1420271069811
 22
79.38011638886712
 32
0.0
 13
150.1420271069811
 23
79.38011638886712
 33
0.0
  0
SOLID
  5
1B4
330
1B0
100
AcDbEntity
  8
CSLAYER1
 62
     0
100
AcDbTrace
 10
148.3367380599723
 20
72.70611514919313
 30
0.0
 11
148.2767393532389
 21
72.70650909120772
 31
0.0
 12
148.3055568805619
 22
72.526316
 32
0.0
 13
148.3055568805619
 23
72.526316
 33
0.0
  0
MTEXT
  5
1B5
330
1B0
100
AcDbEntity
  8
CSLAYER1
 62
     0
100
AcDbMText
 10
148.7726320367355
 20
76.0741041370989
 30
0.0
 40
0.18
 41
0.0
 71
     5
 72
     1
  1
\A1;30°
1001
ACAD
1000
MTEXTBEGIN
1070
    73
1070
     1
1070
    44
1040
1.0
1070
    74
1070
     0
1000
MTEXTEND
  0
POINT
  5
1B6
330
1B0
100
AcDbEntity
  8
DEFPOINTS
 62
     0
100
AcDbPoint
 10
149.1322263344041
 20
77.21459157593121
 30
0.0
  0
POINT
  5
1B7
330
1B0
100
AcDbEntity
  8
DEFPOINTS
 62
     0
100
AcDbPoint
 10
162.0131579999998
 20
72.52631600000002
 30
0.0
  0
POINT
  5
1B8
330
1B0
100
AcDbEntity
  8
DEFPOINTS
 62
     0
100
AcDbPoint
 10
127.977812
 20
72.526316
 30
0.0
  0
POINT
  5
1B9
330
1B0
100
AcDbEntity
  8
DEFPOINTS
 62
     0
100
AcDbPoint
 10
161.013158
 20
72.52631600000002
 30
0.0
  0
POINT
  5
1BA
330
1B0
100
AcDbEntity
  8
DEFPOINTS
 62
     0
100
AcDbPoint
 10
142.013158
 20
84.07332100000003
 30
0.0
  0
ENDBLK
  5
1BC
330
1B0
100
AcDbEntity
  8
0
100
AcDbBlockEnd
  0
ENDSEC
  0
SECTION
  2
ENTITIES
  0
POINT
  5
DF
330
1E
100
AcDbEntity
  8
CSLAYER1
 62
     3
100
AcDbPoint
 10
250.4999999999999
 20
43.5
 30
0.0
  0
POINT
  5
E0
330
1E
100
AcDbEntity
  8
CSLAYER1
 62
     3
100
AcDbPoint
 10
271.0
 20
43.5
 30
0.0
  0
POINT
  5
E1
330
1E
100
AcDbEntity
  8
CSLAYER1
 62
     3
100
AcDbPoint
 10
271.0
 20
53.5
 30
0.0
  0
POINT
  5
E2
330
1E
100
AcDbEntity
  8
CSLAYER1
 62
     3
100
AcDbPoint
 10
250.4999999999999
 20
53.5
 30
0.0
  0
TEXT
  5
E3
330
1E
100
AcDbEntity
  8
CSLAYER1
 62
     3
100
AcDbText
 10
238.099985
 20
51.00000399999998
 30
0.0
 40
5.0
  1
刃開キハ
 41
1.11044776119403
  7
FX_FONT
 72
     5
 11
262.899985
 21
51.00000399999998
 31
0.0
100
AcDbText
  0
TEXT
  5
E4
330
1E
100
AcDbEntity
  8
CSLAYER1
 62
     3
100
AcDbText
 10
237.999985
 20
41.00000399999998
 30
0.0
 40
5.0
  1
切刃部有効
 41
0.872093023255811
  7
FX_FONT
 72
     5
 11
262.9999849999999
 21
41.00000399999998
 31
0.0
100
AcDbText
  0
TEXT
  5
E5
330
1E
100
AcDbEntity
  8
CSLAYER1
 62
     3
100
AcDbText
 10
268.5
 20
51.00000399999998
 30
0.0
 40
5.0
  1
5
 41
1.499999999999983
  7
FX_FONT
 72
     5
 11
273.4999999999999
 21
51.00000399999998
 31
0.0
100
AcDbText
  0
TEXT
  5
E6
330
1E
100
AcDbEntity
  8
CSLAYER1
 62
     3
100
AcDbText
 10
266.0
 20
41.00000399999998
 30
0.0
 40
5.0
  1
20
 41
1.199999999999999
  7
FX_FONT
 72
     5
 11
276.0
 21
41.00000399999998
 31
0.0
100
AcDbText
  0
POINT
  5
E7
330
1E
100
AcDbEntity
  8
CSLAYER1
 62
     3
100
AcDbPoint
 10
177.013158
 20
137.5263159999998
 30
0.0
  0
POINT
  5
E8
330
1E
100
AcDbEntity
  8
CSLAYER1
 62
     3
100
AcDbPoint
 10
177.013158
 20
78.52631600000002
 30
0.0
  0
INSERT
  5
E9
330
1E
100
AcDbEntity
  8
CSLAYER1
100
AcDbBlockReference
  2
FXDIM0000
 10
0.0
 20
0.0
 30
0.0
  0
INSERT
  5
EA
330
1E
100
AcDbEntity
  8
CSLAYER1
100
AcDbBlockReference
  2
FXDIM0001
 10
0.0
 20
0.0
 30
0.0
  0
INSERT
  5
EB
330
1E
100
AcDbEntity
  8
CSLAYER1
100
AcDbBlockReference
  2
FXDIM0002
 10
0.0
 20
0.0
 30
0.0
  0
POINT
  5
EC
330
1E
100
AcDbEntity
  8
CSLAYER1
 62
     3
100
AcDbPoint
 10
252.0
 20
19.0
 30
0.0
  0
TEXT
  5
ED
330
1E
100
AcDbEntity
  8
CSLAYER1
 62
     3
100
AcDbText
 10
240.0
 20
17.0
 30
0.0
 40
4.0
  1
N10LAS
 41
1.058823529411764
  7
FX_FONT
 72
     5
 11
264.0
 21
17.0
 31
0.0
100
AcDbText
  0
LINE
  5
EE
330
1E
100
AcDbEntity
  8
CSLAYER1
  6
CONTINUOUS
 62
     3
100
AcDbLine
 10
279.0
 20
40.0
 30
0.0
 11
238.0
 21
40.0
 31
0.0
  0
LINE
  5
EF
330
1E
100
AcDbEntity
  8
CSLAYER1
  6
CONTINUOUS
 62
     3
100
AcDbLine
 10
238.0
 20
50.0
 30
0.0
 11
279.0
 21
50.0
 31
0.0
  0
LINE
  5
F0
330
1E
100
AcDbEntity
  8
CSLAYER1
  6
CONTINUOUS
 62
     3
100
AcDbLine
 10
197.013158
 20
84.52631600000001
 30
0.0
 11
142.013158
 21
84.52631600000001
 31
0.0
  0
LINE
  5
F1
330
1E
100
AcDbEntity
  8
CSLAYER1
  6
CONTINUOUS
 62
     3
100
AcDbLine
 10
142.013158
 20
84.52631600000001
 30
0.0
 11
142.013158
 21
84.07332099999997
 31
0.0
  0
LINE
  5
F2
330
1E
100
AcDbEntity
  8
CSLAYER1
  6
CONTINUOUS
 62
     3
100
AcDbLine
 10
142.013158
 20
84.07332099999997
 30
0.0
 11
162.0131579999998
 21
72.526316
 31
0.0
  0
LINE
  5
F3
330
1E
100
AcDbEntity
  8
CSLAYER1
  6
CONTINUOUS
 62
     3
100
AcDbLine
 10
162.0131579999998
 20
72.526316
 30
0.0
 11
197.013158
 21
72.526316
 31
0.0
  0
LINE
  5
F4
330
1E
100
AcDbEntity
  8
CSLAYER1
  6
CONTINUOUS
 62
     3
100
AcDbLine
 10
166.4122219999998
 20
77.526316
 30
0.0
 11
166.4122219999998
 21
72.526316
 31
0.0
  0
LINE
  5
F5
330
1E
100
AcDbEntity
  8
CSLAYER1
  6
CONTINUOUS
 62
     3
100
AcDbLine
 10
172.114178
 20
72.526316
 30
0.0
 11
172.114178
 21
78.02631600000002
 31
0.0
  0
LINE
  5
F6
330
1E
100
AcDbEntity
  8
CSLAYER1
  6
CONTINUOUS
 62
     3
100
AcDbLine
 10
172.114178
 20
78.02631600000002
 30
0.0
 11
172.614178
 21
78.52631600000002
 31
0.0
  0
LINE
  5
F7
330
1E
100
AcDbEntity
  8
CSLAYER1
  6
CONTINUOUS
 62
     3
100
AcDbLine
 10
167.4122219999999
 20
78.52631600000002
 30
0.0
 11
186.676735
 21
78.52631600000002
 31
0.0
  0
ARC
  5
F8
330
1E
100
AcDbEntity
  8
CSLAYER1
  6
CONTINUOUS
 62
     3
100
AcDbCircle
 10
186.676735
 20
79.52631600000002
 30
0.0
 40
1.0
100
AcDbArc
 50
270.0
 51
0.0
  0
LINE
  5
F9
330
1E
100
AcDbEntity
  8
CSLAYER1
  6
CONTINUOUS
 62
     3
100
AcDbLine
 10
187.676735
 20
79.52631600000002
 30
0.0
 11
187.676735
 21
84.52631600000001
 31
0.0
  0
LINE
  5
FA
330
1E
100
AcDbEntity
  8
CSLAYER1
  6
CONTINUOUS
 62
     3
100
AcDbLine
 10
181.9121369999999
 20
84.52631600000001
 30
0.0
 11
181.9121369999999
 21
79.02631600000002
 31
0.0
  0
LINE
  5
FB
330
1E
100
AcDbEntity
  8
CSLAYER1
  6
CONTINUOUS
 62
     3
100
AcDbLine
 10
181.9121369999999
 20
79.02631600000002
 30
0.0
 11
181.412137
 21
78.52631600000002
 31
0.0
  0
ARC
  5
FC
330
1E
100
AcDbEntity
  8
CSLAYER1
  6
CONTINUOUS
 62
     3
100
AcDbCircle
 10
167.4122219999999
 20
77.526316
 30
0.0
 40
1.0
100
AcDbArc
 50
90.0
 51
180.0
  0
LINE
  5
FD
330
1E
100
AcDbEntity
  8
CSLAYER1
  6
CONTINUOUS
 62
     3
100
AcDbLine
 10
160.117025
 20
126.026316
 30
0.0
 11
185.013158
 21
126.026316
 31
0.0
  0
LINE
  5
FE
330
1E
100
AcDbEntity
  8
CSLAYER1
  6
CONTINUOUS
 62
     3
100
AcDbLine
 10
231.013158
 20
136.0263159999999
 30
0.0
 11
190.313158
 21
136.0263159999999
 31
0.0
  0
LINE
  5
FF
330
1E
100
AcDbEntity
  8
CSLAYER1
  6
CONTINUOUS
 62
     3
100
AcDbLine
 10
190.6714009999999
 20
136.0263159999999
 30
0.0
 11
187.619657
 21
126.044511
 31
0.0
  0
ARC
  5
100
330
1E
100
AcDbEntity
  8
CSLAYER1
  6
CONTINUOUS
 62
     3
100
AcDbCircle
 10
177.013158
 20
137.5263159999998
 30
0.0
 40
12.5
100
AcDbArc
 50
293.0739179999999
 51
0.0
  0
LINE
  5
101
330
1E
100
AcDbEntity
  8
CSLAYER1
  6
CONTINUOUS
 62
     3
100
AcDbLine
 10
189.513158
 20
138.2263159999999
 30
0.0
 11
189.513158
 21
136.8263159999999
 31
0.0
  0
ARC
  5
102
330
1E
100
AcDbEntity
  8
CSLAYER1
  6
CONTINUOUS
 62
     3
100
AcDbCircle
 10
190.313158
 20
136.8263159999999
 30
0.0
 40
0.8
100
AcDbArc
 50
180.0
 51
270.0
  0
ARC
  5
103
330
1E
100
AcDbEntity
  8
CSLAYER1
  6
CONTINUOUS
 62
     3
100
AcDbCircle
 10
190.313158
 20
138.2263159999999
 30
0.0
 40
0.8
100
AcDbArc
 50
90.0
 51
180.0
  0
LINE
  5
104
330
1E
100
AcDbEntity
  8
CSLAYER1
  6
CONTINUOUS
 62
     3
100
AcDbLine
 10
190.313158
 20
139.0263159999999
 30
0.0
 11
231.013158
 21
139.0263159999999
 31
0.0
  0
LINE
  5
105
330
1E
100
AcDbEntity
  8
CSLAYER1
  6
CONTINUOUS
 62
     3
100
AcDbLine
 10
185.013158
 20
149.0263159999998
 30
0.0
 11
160.117025
 21
149.0263159999998
 31
0.0
  0
ARC
  5
106
330
1E
100
AcDbEntity
  8
CSLAYER1
  6
CONTINUOUS
 62
     3
100
AcDbCircle
 10
160.117025
 20
129.0263159999998
 30
0.0
 40
20.0
100
AcDbArc
 50
90.0
 51
154.849337
  0
LINE
  5
107
330
1E
100
AcDbEntity
  8
CSLAYER1
  6
CONTINUOUS
 62
     3
100
AcDbLine
 10
142.013158
 20
137.5263159999998
 30
0.0
 11
159.333666
 21
137.5263159999998
 31
0.0
  0
LINE
  5
108
330
1E
100
AcDbEntity
  8
CSLAYER1
  6
CONTINUOUS
 62
     3
100
AcDbLine
 10
159.333666
 20
137.7763159999998
 30
0.0
 11
162.472752
 21
137.7763159999998
 31
0.0
  0
LINE
  5
109
330
1E
100
AcDbEntity
  8
CSLAYER1
  6
CONTINUOUS
 62
     3
100
AcDbLine
 10
162.472752
 20
137.7763159999998
 30
0.0
 11
163.192933
 21
138.496497
 31
0.0
  0
LINE
  5
10A
330
1E
100
AcDbEntity
  8
CSLAYER1
  6
CONTINUOUS
 62
     3
100
AcDbLine
 10
163.192933
 20
138.496497
 30
0.0
 11
166.4122219999998
 21
149.0263159999998
 31
0.0
  0
ARC
  5
10B
330
1E
100
AcDbEntity
  8
CSLAYER1
  6
CONTINUOUS
 62
     3
100
AcDbCircle
 10
177.013158
 20
137.5263159999998
 30
0.0
 40
12.5
100
AcDbArc
 50
113.0739179999999
 51
169.7805199999999
  0
ARC
  5
10C
330
1E
100
AcDbEntity
  8
CSLAYER1
  6
CONTINUOUS
 62
     3
100
AcDbCircle
 10
160.117025
 20
146.0263159999998
 30
0.0
 40
20.0
100
AcDbArc
 50
205.1506629999999
 51
270.0
  0
LINE
  5
10D
330
1E
100
AcDbEntity
  8
CSLAYER1
  6
CONTINUOUS
 62
     3
100
AcDbLine
 10
159.333666
 20
137.2763159999998
 30
0.0
 11
161.7590599999998
 21
137.2763159999998
 31
0.0
  0
ARC
  5
10E
330
1E
100
AcDbEntity
  8
CSLAYER1
  6
CONTINUOUS
 62
     3
100
AcDbCircle
 10
161.7590599999998
 20
140.2763159999999
 30
0.0
 40
3.0
100
AcDbArc
 50
270.0
 51
349.78052
  0
ARC
  5
10F
330
1E
100
AcDbEntity
  8
CSLAYER1
  6
CONTINUOUS
 62
     3
100
AcDbCircle
 10
161.7590599999998
 20
134.7763159999999
 30
0.0
 40
3.0
100
AcDbArc
 50
66.44353599999999
 51
90.0
  0
CIRCLE
  5
110
330
1E
100
AcDbEntity
  8
CSLAYER1
  6
CONTINUOUS
 62
     3
100
AcDbCircle
 10
177.013158
 20
137.5263159999998
 30
0.0
 40
2.049999999999998
  0
CIRCLE
  5
111
330
1E
100
AcDbEntity
  8
CSLAYER1
  6
CONTINUOUS
 62
     3
100
AcDbCircle
 10
177.013158
 20
137.5263159999998
 30
0.0
 40
8.55
  0
LINE
  5
112
330
1E
100
AcDbEntity
  8
CSLAYER1
  6
CONTINUOUS
 62
     3
100
AcDbLine
 10
87.91399100000003
 20
127.026316
 30
0.0
 11
77.41399100000002
 21
137.5263159999998
 31
0.0
  0
LINE
  5
113
330
1E
100
AcDbEntity
  8
CSLAYER1
  6
CONTINUOUS
 62
     3
100
AcDbLine
 10
77.41399100000002
 20
137.5263159999998
 30
0.0
 11
77.01714100000002
 21
136.838951
 31
0.0
  0
LINE
  5
114
330
1E
100
AcDbEntity
  8
CSLAYER1
  6
CONTINUOUS
 62
     3
100
AcDbLine
 10
87.91399100000003
 20
147.626316
 30
0.0
 11
77.813991
 21
137.5263159999998
 31
0.0
  0
LINE
  5
115
330
1E
100
AcDbEntity
  8
CSLAYER1
  6
CONTINUOUS
 62
     3
100
AcDbLine
 10
77.813991
 20
137.5263159999998
 30
0.0
 11
77.01315799999997
 21
137.5263159999998
 31
0.0
  0
LINE
  5
116
330
1E
100
AcDbEntity
  8
CSLAYER1
  6
CENTER
 62
     4
100
AcDbLine
 10
77.01315799999997
 20
137.5263159999998
 30
0.0
 11
74.390635
 21
137.5263159999998
 31
0.0
  0
LINE
  5
117
330
1E
100
AcDbEntity
  8
CSLAYER1
  6
CENTER
 62
     4
100
AcDbLine
 10
77.813991
 20
137.5263159999998
 30
0.0
 11
98.08519099999999
 21
137.5263159999998
 31
0.0
  0
LINE
  5
118
330
1E
100
AcDbEntity
  8
CSLAYER1
  6
CENTER
 62
     4
100
AcDbLine
 10
138.504651
 20
137.5263159999998
 30
0.0
 11
142.013158
 21
137.5263159999998
 31
0.0
  0
LINE
  5
119
330
1E
100
AcDbEntity
  8
CSLAYER1
  6
CENTER
 62
     4
100
AcDbLine
 10
159.333666
 20
137.5263159999998
 30
0.0
 11
233.713941
 21
137.5263159999998
 31
0.0
  0
LINE
  5
11A
330
1E
100
AcDbEntity
  8
CSLAYER1
  6
CENTER
 62
     4
100
AcDbLine
 10
177.013158
 20
152.0893489999999
 30
0.0
 11
177.013158
 21
122.840422
 31
0.0
  0
LINE
  5
11B
330
1E
100
AcDbEntity
  8
CSLAYER1
  6
CENTER
 62
     4
100
AcDbLine
 10
177.013158
 20
88.18806100000001
 30
0.0
 11
177.013158
 21
68.99111600000001
 31
0.0
  0
LINE
  5
11C
330
1E
100
AcDbEntity
  8
CSLAYER1
  6
CENTER
 62
     4
100
AcDbLine
 10
166.4122219999998
 20
78.52631600000002
 30
0.0
 11
160.513158
 21
78.52631600000002
 31
0.0
  0
LINE
  5
11D
330
1E
100
AcDbEntity
  8
CSLAYER1
  6
CENTER
 62
     4
100
AcDbLine
 10
187.676735
 20
78.52631600000002
 30
0.0
 11
193.013158
 21
78.52631600000002
 31
0.0
  0
LINE
  5
11E
330
1E
100
AcDbEntity
  8
CSLAYER1
  6
DASHED
 62
     4
100
AcDbLine
 10
163.013158
 20
84.52631600000001
 30
0.0
 11
161.248337
 21
74.51751699999999
 31
0.0
  0
ARC
  5
11F
330
1E
100
AcDbEntity
  8
CSLAYER1
  6
DASHED
 62
     4
100
AcDbCircle
 10
160.263529
 20
74.691165
 30
0.0
 40
1.0
100
AcDbArc
 50
239.9999999999999
 51
350.0
  0
LINE
  5
120
330
1E
100
AcDbEntity
  8
CSLAYER1
  6
CONTINUOUS
 62
     3
100
AcDbLine
 10
162.761797
 20
138.065361
 30
0.0
 11
159.020874
 21
146.0877949999999
 31
0.0
  0
LINE
  5
121
330
1E
100
AcDbEntity
  8
CSLAYER1
  6
CONTINUOUS
 62
     3
100
AcDbLine
 10
142.4523399999999
 20
138.4049569999999
 30
0.0
 11
156.9114129999999
 21
146.7529059999999
 31
0.0
  0
ARC
  5
122
330
1E
100
AcDbEntity
  8
CSLAYER1
  6
CONTINUOUS
 62
     3
100
AcDbCircle
 10
157.6614129999998
 20
145.4538679999999
 30
0.0
 40
1.5
100
AcDbArc
 50
25.0
 51
119.9999999999999
  0
LINE
  5
123
330
1E
100
AcDbEntity
  8
CSLAYER1
  6
CONTINUOUS
 62
     3
100
AcDbLine
 10
158.300195
 20
146.811055
 30
0.0
 11
160.927637
 21
137.7763159999998
 31
0.0
  0
LINE
  5
124
330
1E
100
AcDbEntity
  8
CSLAYER1
  6
CONTINUOUS
 62
     3
100
AcDbLine
 10
163.013158
 20
137.5263159999998
 30
0.0
 11
159.020874
 21
128.964836
 31
0.0
  0
LINE
  5
125
330
1E
100
AcDbEntity
  8
CSLAYER1
  6
CONTINUOUS
 62
     3
100
AcDbLine
 10
142.4523399999999
 20
136.6476749999999
 30
0.0
 11
156.9114129999999
 21
128.2997249999999
 31
0.0
  0
ARC
  5
126
330
1E
100
AcDbEntity
  8
CSLAYER1
  6
CONTINUOUS
 62
     3
100
AcDbCircle
 10
157.6614129999998
 20
129.5987639999998
 30
0.0
 40
1.5
100
AcDbArc
 50
239.9999999999999
 51
335.0
  0
LINE
  5
127
330
1E
100
AcDbEntity
  8
CSLAYER1
  6
CONTINUOUS
 62
     3
100
AcDbLine
 10
158.300195
 20
128.241576
 30
0.0
 11
160.927637
 21
137.2763159999998
 31
0.0
  0
LINE
  5
128
330
1E
100
AcDbEntity
  8
CSLAYER1
  6
CONTINUOUS
 62
     3
100
AcDbLine
 10
77.900902
 20
149.0263159999998
 30
0.0
 11
87.91399100000003
 21
149.0263159999998
 31
0.0
  0
ARC
  5
129
330
1E
100
AcDbEntity
  8
CSLAYER1
  6
CONTINUOUS
 62
     3
100
AcDbCircle
 10
152.013991
 20
137.5263159999998
 30
0.0
 40
75.0
100
AcDbArc
 50
180.525115
 51
188.820148
  0
ARC
  5
12A
330
1E
100
AcDbEntity
  8
CSLAYER1
  6
CONTINUOUS
 62
     3
100
AcDbCircle
 10
152.013991
 20
137.5263159999998
 30
0.0
 40
75.0
100
AcDbArc
 50
171.179852
 51
180.0
  0
LINE
  5
12B
330
1E
100
AcDbEntity
  8
CSLAYER1
  6
CONTINUOUS
 62
     3
100
AcDbLine
 10
77.900902
 20
126.026316
 30
0.0
 11
87.91399100000003
 21
126.026316
 31
0.0
  0
LINE
  5
12C
330
1E
100
AcDbEntity
  8
CSLAYER1
  6
CONTINUOUS
 62
     3
100
AcDbLine
 10
87.91399100000003
 20
149.0263159999998
 30
0.0
 11
87.91399100000003
 21
147.626316
 31
0.0
  0
LINE
  5
12D
330
1E
100
AcDbEntity
  8
CSLAYER1
  6
CONTINUOUS
 62
     3
100
AcDbLine
 10
87.91399100000003
 20
126.026316
 30
0.0
 11
87.91399100000003
 21
127.026316
 31
0.0
  0
DIMENSION
  5
12E
330
1E
100
AcDbEntity
  8
CSLAYER1
 62
     4
100
AcDbDimension
  2
*D3
 10
69.866117
 20
145.4741899999999
 30
0.0
 11
65.34976999999999
 21
146.474197
 31
0.0
 70
     1
 52
135.0
100
AcDbAlignedDimension
 13
77.013991
 23
137.5263159999998
 33
0.0
 14
77.813991
 24
137.5263159999998
 34
0.0
  0
DIMENSION
  5
133
330
1E
100
AcDbEntity
  8
CSLAYER1
 62
     4
100
AcDbDimension
  2
*D7
 10
151.121336
 20
59.849148
 30
0.0
 11
140.0213469999999
 21
60.84855699999999
 31
0.0
 70
     1
100
AcDbAlignedDimension
 13
142.013158
 23
84.07332099999997
 33
0.0
 14
159.333666
 24
74.07332099999997
 34
0.0
  0
DIMENSION
  5
134
330
1E
100
AcDbEntity
  8
CSLAYER1
 62
     4
100
AcDbDimension
  2
*D8
 10
128.977812
 20
84.52631600000001
 30
0.0
 11
127.9778139999999
 21
85.236374
 31
0.0
100
AcDbAlignedDimension
 13
162.0131579999998
 23
72.526316
 33
0.0
 14
142.013158
 24
84.52631600000001
 34
0.0
 50
90.0
100
AcDbRotatedDimension
  0
DIMENSION
  5
136
330
1E
100
AcDbEntity
  8
CSLAYER1
 62
     4
100
AcDbDimension
  2
*D10
 10
177.013158
 20
59.46811199999999
 30
0.0
 11
169.513153
 21
60.468113
 31
0.0
 52
270.0
100
AcDbAlignedDimension
 13
162.0131579999998
 23
72.526316
 33
0.0
 14
177.013158
 24
68.99111600000001
 34
0.0
100
AcDbRotatedDimension
  0
LINE
  5
137
330
1E
100
AcDbEntity
  8
CSLAYER1
  6
CONTINUOUS
 62
     3
100
AcDbLine
 10
159.333666
 20
137.7763159999998
 30
0.0
 11
159.333666
 21
137.2763159999998
 31
0.0
  0
DIMENSION
  5
138
330
1E
100
AcDbEntity
  8
CSLAYER1
 62
     4
100
AcDbDimension
  2
*D11
 10
177.013158
 20
164.1056739999999
 30
0.0
 11
159.513153
 21
165.1056819999999
 31
0.0
100
AcDbAlignedDimension
 13
142.013158
 23
137.5263159999998
 33
0.0
 14
177.013158
 24
152.0893489999999
 34
0.0
100
AcDbRotatedDimension
  0
DIMENSION
  5
139
330
1E
100
AcDbEntity
  8
CSLAYER1
 62
     4
100
AcDbDimension
  2
*D12
 10
131.508624
 20
149.0263159999998
 30
0.0
 11
130.508621
 21
137.5263209999999
 31
0.0
 70
     1
100
AcDbAlignedDimension
 13
160.117025
 23
126.026316
 33
0.0
 14
160.117025
 24
149.0263159999998
 34
0.0
  0
DIMENSION
  5
13A
330
1E
100
AcDbEntity
  8
CSLAYER1
 62
     4
100
AcDbDimension
  2
*D13
 10
160.117025
 20
146.0263159999998
 30
0.0
 11
151.018875
 21
119.379326
 31
0.0
 70
     4
100
AcDbRadialDimension
 15
153.677299
 25
127.091429
 35
0.0
 40
0.0
  0
POINT
  5
13B
330
1E
100
AcDbEntity
  8
CSLAYER1
 62
     3
100
AcDbPoint
 10
102.380627
 20
39.49783599999999
 30
0.0
  0
LINE
  5
13C
330
1E
100
AcDbEntity
  8
CSLAYER1
  6
CONTINUOUS
 62
     3
100
AcDbLine
 10
96.672732
 20
50.61853499999998
 30
0.0
 11
111.533655
 21
51.682747
 31
0.0
  0
LINE
  5
13D
330
1E
100
AcDbEntity
  8
CSLAYER1
  6
CONTINUOUS
 62
     3
100
AcDbLine
 10
102.380627
 20
51.027285
 30
0.0
 11
86.34908000000001
 21
52.175328
 31
0.0
  0
ARC
  5
13E
330
1E
100
AcDbEntity
  8
CSLAYER1
  6
CONTINUOUS
 62
     3
100
AcDbCircle
 10
84.92050799999999
 20
32.226414
 30
0.0
 40
20.0
100
AcDbArc
 50
85.903956
 51
150.7532929999999
  0
LINE
  5
13F
330
1E
100
AcDbEntity
  8
CSLAYER1
  6
CONTINUOUS
 62
     3
100
AcDbLine
 10
67.470027
 20
41.99783599999999
 30
0.0
 11
84.74629300000001
 21
40.760657
 31
0.0
  0
LINE
  5
140
330
1E
100
AcDbEntity
  8
CSLAYER1
  6
CONTINUOUS
 62
     3
100
AcDbLine
 10
84.76415000000001
 20
41.010018
 30
0.0
 11
87.89521800000001
 21
40.78579799999999
 31
0.0
  0
LINE
  5
141
330
1E
100
AcDbEntity
  8
CSLAYER1
  6
CONTINUOUS
 62
     3
100
AcDbLine
 10
87.89521800000001
 20
40.78579799999999
 30
0.0
 11
88.665002
 21
41.452698
 31
0.0
  0
LINE
  5
142
330
1E
100
AcDbEntity
  8
CSLAYER1
  6
CONTINUOUS
 62
     3
100
AcDbLine
 10
88.665002
 20
41.452698
 30
0.0
 11
92.62819699999999
 21
51.72567100000001
 31
0.0
  0
ARC
  5
143
330
1E
100
AcDbEntity
  8
CSLAYER1
  6
CONTINUOUS
 62
     3
100
AcDbCircle
 10
102.380627
 20
39.49783599999999
 30
0.0
 40
12.5
100
AcDbArc
 50
117.169962
 51
173.8765629999999
  0
ARC
  5
144
330
1E
100
AcDbEntity
  8
CSLAYER1
  6
CONTINUOUS
 62
     3
100
AcDbCircle
 10
86.96906400000001
 20
37.844439
 30
0.0
 40
3.0
100
AcDbArc
 50
33.444738
 51
85.903956
  0
CIRCLE
  5
145
330
1E
100
AcDbEntity
  8
CSLAYER1
  6
CONTINUOUS
 62
     3
100
AcDbCircle
 10
102.380627
 20
39.49783599999999
 30
0.0
 40
2.049999999999998
  0
CIRCLE
  5
146
330
1E
100
AcDbEntity
  8
CSLAYER1
  6
CONTINUOUS
 62
     3
100
AcDbCircle
 10
102.380627
 20
39.49783599999999
 30
0.0
 40
8.55
  0
LINE
  5
147
330
1E
100
AcDbEntity
  8
CSLAYER1
  6
CONTINUOUS
 62
     3
100
AcDbLine
 10
36.841017
 20
26.497836
 30
0.0
 11
26.34101699999999
 21
36.99783599999999
 31
0.0
  0
LINE
  5
148
330
1E
100
AcDbEntity
  8
CSLAYER1
  6
CONTINUOUS
 62
     3
100
AcDbLine
 10
26.34101699999999
 20
36.99783599999999
 30
0.0
 11
25.944167
 21
36.31047099999999
 31
0.0
  0
LINE
  5
149
330
1E
100
AcDbEntity
  8
CSLAYER1
  6
CONTINUOUS
 62
     3
100
AcDbLine
 10
36.841017
 20
52.097836
 30
0.0
 11
26.741017
 21
41.99783599999999
 31
0.0
  0
LINE
  5
14A
330
1E
100
AcDbEntity
  8
CSLAYER1
  6
CONTINUOUS
 62
     3
100
AcDbLine
 10
26.741017
 20
41.99783599999999
 30
0.0
 11
25.94018399999999
 21
41.99783599999999
 31
0.0
  0
LINE
  5
14B
330
1E
100
AcDbEntity
  8
CSLAYER1
  6
CENTER
 62
     4
100
AcDbLine
 10
20.96111899999999
 20
39.49783599999999
 30
0.0
 11
43.83647999999999
 21
39.49783599999999
 31
0.0
  0
LINE
  5
14C
330
1E
100
AcDbEntity
  8
CSLAYER1
  6
CENTER
 62
     4
100
AcDbLine
 10
63.407214
 20
39.49783599999999
 30
0.0
 11
114.026424
 21
39.49783599999999
 31
0.0
  0
LINE
  5
14D
330
1E
100
AcDbEntity
  8
CSLAYER1
  6
CENTER
 62
     4
100
AcDbLine
 10
102.380627
 20
54.060869
 30
0.0
 11
102.380627
 21
24.811942
 31
0.0
  0
LINE
  5
14E
330
1E
100
AcDbEntity
  8
CSLAYER1
  6
CONTINUOUS
 62
     3
100
AcDbLine
 10
88.204171
 20
41.053459
 30
0.0
 11
85.045835
 21
49.32261
 31
0.0
  0
LINE
  5
14F
330
1E
100
AcDbEntity
  8
CSLAYER1
  6
CONTINUOUS
 62
     3
100
AcDbLine
 10
67.97084699999999
 20
42.84286199999999
 30
0.0
 11
82.98926899999997
 21
50.13669799999998
 31
0.0
  0
ARC
  5
150
330
1E
100
AcDbEntity
  8
CSLAYER1
  6
CONTINUOUS
 62
     3
100
AcDbCircle
 10
83.64456500000001
 20
48.787406
 30
0.0
 40
1.5
100
AcDbArc
 50
20.903956
 51
115.903956
  0
LINE
  5
151
330
1E
100
AcDbEntity
  8
CSLAYER1
  6
CONTINUOUS
 62
     3
100
AcDbLine
 10
84.378658
 20
50.0955
 30
0.0
 11
86.35405
 21
40.896163
 31
0.0
  0
LINE
  5
152
330
1E
100
AcDbEntity
  8
CSLAYER1
  6
CONTINUOUS
 62
     3
100
AcDbLine
 10
26.827928
 20
53.497836
 30
0.0
 11
36.841017
 21
53.497836
 31
0.0
  0
ARC
  5
153
330
1E
100
AcDbEntity
  8
CSLAYER1
  6
CONTINUOUS
 62
     3
100
AcDbCircle
 10
100.9410169999999
 20
36.99783599999999
 30
0.0
 40
75.0
100
AcDbArc
 50
180.525115
 51
188.820148
  0
ARC
  5
154
330
1E
100
AcDbEntity
  8
CSLAYER1
  6
CONTINUOUS
 62
     3
100
AcDbCircle
 10
100.9410169999999
 20
41.99783599999999
 30
0.0
 40
75.0
100
AcDbArc
 50
171.179852
 51
180.0
  0
LINE
  5
155
330
1E
100
AcDbEntity
  8
CSLAYER1
  6
CONTINUOUS
 62
     3
100
AcDbLine
 10
26.827928
 20
25.497836
 30
0.0
 11
36.841017
 21
25.497836
 31
0.0
  0
LINE
  5
156
330
1E
100
AcDbEntity
  8
CSLAYER1
  6
CONTINUOUS
 62
     3
100
AcDbLine
 10
36.841017
 20
53.497836
 30
0.0
 11
36.841017
 21
52.097836
 31
0.0
  0
LINE
  5
157
330
1E
100
AcDbEntity
  8
CSLAYER1
  6
CONTINUOUS
 62
     3
100
AcDbLine
 10
36.841017
 20
25.497836
 30
0.0
 11
36.841017
 21
26.497836
 31
0.0
  0
LINE
  5
158
330
1E
100
AcDbEntity
  8
CSLAYER1
  6
CONTINUOUS
 62
     3
100
AcDbLine
 10
84.76415000000001
 20
41.010018
 30
0.0
 11
84.74629300000001
 21
40.760657
 31
0.0
  0
LINE
  5
159
330
1E
100
AcDbEntity
  8
CSLAYER1
  6
CONTINUOUS
 62
     3
100
AcDbLine
 10
113.176512
 20
28.741496
 30
0.0
 11
86.34908000000001
 21
26.82034299999999
 31
0.0
  0
ARC
  5
15A
330
1E
100
AcDbEntity
  8
CSLAYER1
  6
CONTINUOUS
 62
     3
100
AcDbCircle
 10
84.92050799999999
 20
46.769258
 30
0.0
 40
20.0
100
AcDbArc
 50
209.246707
 51
274.096044
  0
LINE
  5
15B
330
1E
100
AcDbEntity
  8
CSLAYER1
  6
CONTINUOUS
 62
     3
100
AcDbLine
 10
67.470027
 20
36.99783599999999
 30
0.0
 11
84.74629300000001
 21
38.235015
 31
0.0
  0
LINE
  5
15C
330
1E
100
AcDbEntity
  8
CSLAYER1
  6
CONTINUOUS
 62
     3
100
AcDbLine
 10
84.76415000000001
 20
37.98565399999999
 30
0.0
 11
87.183349
 21
38.158896
 31
0.0
  0
ARC
  5
15D
330
1E
100
AcDbEntity
  8
CSLAYER1
  6
CONTINUOUS
 62
     3
100
AcDbCircle
 10
86.96906400000001
 20
41.151233
 30
0.0
 40
3.0
100
AcDbArc
 50
274.096044
 51
353.8765629999999
  0
LINE
  5
15E
330
1E
100
AcDbEntity
  8
CSLAYER1
  6
CONTINUOUS
 62
     3
100
AcDbLine
 10
88.42879399999999
 20
38.53031899999999
 30
0.0
 11
85.045835
 21
29.67306199999999
 31
0.0
  0
LINE
  5
15F
330
1E
100
AcDbEntity
  8
CSLAYER1
  6
CONTINUOUS
 62
     3
100
AcDbLine
 10
67.97084699999999
 20
36.15280999999999
 30
0.0
 11
82.98926899999997
 21
28.858974
 31
0.0
  0
ARC
  5
160
330
1E
100
AcDbEntity
  8
CSLAYER1
  6
CONTINUOUS
 62
     3
100
AcDbCircle
 10
83.64456500000001
 20
30.208265
 30
0.0
 40
1.5
100
AcDbArc
 50
244.096044
 51
339.096044
  0
LINE
  5
161
330
1E
100
AcDbEntity
  8
CSLAYER1
  6
CONTINUOUS
 62
     3
100
AcDbLine
 10
84.378658
 20
28.90017199999999
 30
0.0
 11
86.35405
 21
38.099509
 31
0.0
  0
LINE
  5
162
330
1E
100
AcDbEntity
  8
CSLAYER1
  6
CONTINUOUS
 62
     3
100
AcDbLine
 10
84.76415000000001
 20
37.98565399999999
 30
0.0
 11
84.74629300000001
 21
38.235015
 31
0.0
  0
DIMENSION
  5
163
330
1E
100
AcDbEntity
  8
CSLAYER1
 62
     4
100
AcDbDimension
  2
*D14
 10
58.196662
 20
41.99783599999999
 30
0.0
 11
57.196663
 21
39.49783699999999
 31
0.0
 70
     1
100
AcDbAlignedDimension
 13
67.470027
 23
36.99783599999999
 33
0.0
 14
67.470027
 24
41.99783599999999
 34
0.0
  0
LINE
  5
164
330
1E
100
AcDbEntity
  8
CSLAYER1
  6
CONTINUOUS
 62
     3
100
AcDbLine
 10
185.013158
 20
149.0263159999998
 30
0.0
 11
225.0117139999999
 21
145.487965
 31
0.0
  0
LINE
  5
165
330
1E
100
AcDbEntity
  8
CSLAYER1
  6
CONTINUOUS
 62
     3
100
AcDbLine
 10
227.513158
 20
139.0263159999999
 30
0.0
 11
227.513158
 21
136.0263159999999
 31
0.0
  0
ARC
  5
166
330
1E
100
AcDbEntity
  8
CSLAYER1
  6
CONTINUOUS
 62
     3
100
AcDbCircle
 10
224.5131859999999
 20
139.007111
 30
0.0
 40
6.5
100
AcDbArc
 50
0.169284
 51
85.601295
  0
LINE
  5
167
330
1E
100
AcDbEntity
  8
CSLAYER1
  6
CONTINUOUS
 62
     3
100
AcDbLine
 10
221.5131579999999
 20
139.0263159999999
 30
0.0
 11
221.5131579999999
 21
136.0263159999999
 31
0.0
  0
ARC
  5
168
330
1E
100
AcDbEntity
  8
CSLAYER1
  6
CONTINUOUS
 62
     3
100
AcDbCircle
 10
224.5131859999999
 20
136.0455199999998
 30
0.0
 40
6.5
100
AcDbArc
 50
274.398705
 51
359.830716
  0
LINE
  5
169
330
1E
100
AcDbEntity
  8
CSLAYER1
  6
CONTINUOUS
 62
     3
100
AcDbLine
 10
225.0117139999999
 20
129.5646659999998
 30
0.0
 11
185.013158
 21
126.026316
 31
0.0
  0
LINE
  5
16A
330
1E
100
AcDbEntity
  8
CSLAYER1
  6
CENTER
 62
     4
100
AcDbLine
 10
224.513158
 20
141.938887
 30
0.0
 11
224.513158
 21
132.109173
 31
0.0
  0
LINE
  5
16B
330
1E
100
AcDbEntity
  8
CSLAYER1
  6
CENTER
 62
     4
100
AcDbLine
 10
195.013158
 20
131.5859389999999
 30
0.0
 11
195.013158
 21
143.685859
 31
0.0
  0
ARC
  5
16C
330
1E
100
AcDbEntity
  8
CSLAYER1
  6
CONTINUOUS
 62
     3
100
AcDbCircle
 10
226.014681
 20
78.649715
 30
0.0
 40
5.0
100
AcDbArc
 50
358.5857999999999
 51
88.56790399999999
  0
LINE
  5
16D
330
1E
100
AcDbEntity
  8
CSLAYER1
  6
CONTINUOUS
 62
     3
100
AcDbLine
 10
226.139642
 20
83.64815400000003
 30
0.0
 11
197.013158
 21
84.52631600000001
 31
0.0
  0
LINE
  5
16E
330
1E
100
AcDbEntity
  8
CSLAYER1
  6
CONTINUOUS
 62
     3
100
AcDbLine
 10
197.013158
 20
72.526316
 30
0.0
 11
226.139642
 21
73.40447799999998
 31
0.0
  0
ARC
  5
16F
330
1E
100
AcDbEntity
  8
CSLAYER1
  6
CONTINUOUS
 62
     3
100
AcDbCircle
 10
226.014681
 20
78.402916
 30
0.0
 40
5.0
100
AcDbArc
 50
271.432096
 51
1.414199999999999
  0
LINE
  5
170
330
1E
100
AcDbEntity
  8
CSLAYER1
  6
CENTER
 62
     4
100
AcDbLine
 10
224.6054399999999
 20
78.52631600000002
 30
0.0
 11
235.986177
 21
78.52631600000002
 31
0.0
  0
LINE
  5
171
330
1E
100
AcDbEntity
  8
CSLAYER1
  6
DOT
 62
     3
100
AcDbLine
 10
4.0
 20
1.0
 30
0.0
 11
283.0
 21
1.0
 31
0.0
  0
LINE
  5
172
330
1E
100
AcDbEntity
  8
CSLAYER1
  6
DOT
 62
     3
100
AcDbLine
 10
283.0
 20
1.0
 30
0.0
 11
283.0
 21
195.0
 31
0.0
  0
LINE
  5
173
330
1E
100
AcDbEntity
  8
CSLAYER1
  6
DOT
 62
     3
100
AcDbLine
 10
283.0
 20
195.0
 30
0.0
 11
4.0
 21
195.0
 31
0.0
  0
LINE
  5
174
330
1E
100
AcDbEntity
  8
CSLAYER1
  6
DOT
 62
     3
100
AcDbLine
 10
4.0
 20
195.0
 30
0.0
 11
4.0
 21
1.0
 31
0.0
  0
LINE
  5
175
330
1E
100
AcDbEntity
  8
CSLAYER1
  6
DOT
 62
     3
100
AcDbLine
 10
283.0
 20
98.0
 30
0.0
 11
287.0
 21
98.0
 31
0.0
  0
LINE
  5
176
330
1E
100
AcDbEntity
  8
CSLAYER1
  6
DOT
 62
     3
100
AcDbLine
 10
143.5
 20
195.0
 30
0.0
 11
143.5
 21
199.0
 31
0.0
  0
LINE
  5
177
330
1E
100
AcDbEntity
  8
CSLAYER1
  6
DOT
 62
     3
100
AcDbLine
 10
4.0
 20
98.0
 30
0.0
 11
0.0
 21
98.0
 31
0.0
  0
ENDSEC
  0
SECTION
  2
OBJECTS
  0
DICTIONARY
  5
C
330
0
100
AcDbDictionary
  3
ACAD_GROUP
350
D
  3
ACAD_LAYOUT
350
19
  3
ACAD_MLINESTYLE
350
16
  3
ACAD_PLOTSETTINGS
350
18
1001
ACAD
1000
TREAT_AS_HARD
1070
     0
1000
TREAT_AS_HARD
1070
     0
  0
DICTIONARY
  5
181
330
1E
100
AcDbDictionary
  3
ACAD_LAYOUTSELFREF
350
1CA
1001
ACAD
1000
TREAT_AS_HARD
1070
     0
  0
DICTIONARY
  5
17F
330
1A
100
AcDbDictionary
  3
ACAD_LAYOUTSELFREF
350
1C9
1001
ACAD
1000
TREAT_AS_HARD
1070
     0
  0
DICTIONARY
  5
D
102
{ACAD_REACTORS
330
C
102
}
330
C
100
AcDbDictionary
1001
ACAD
1000
TREAT_AS_HARD
1070
     0
1000
TREAT_AS_HARD
1070
     0
  0
DICTIONARY
  5
19
102
{ACAD_REACTORS
330
C
102
}
330
C
100
AcDbDictionary
1001
ACAD
1000
TREAT_AS_HARD
1070
     0
1000
TREAT_AS_HARD
1070
     0
  0
DICTIONARY
  5
16
102
{ACAD_REACTORS
330
C
102
}
330
C
100
AcDbDictionary
  3
STANDARD
350
17
1001
ACAD
1000
TREAT_AS_HARD
1070
     0
1000
TREAT_AS_HARD
1070
     0
  0
DICTIONARY
  5
18
102
{ACAD_REACTORS
330
C
102
}
330
C
100
AcDbDictionary
1001
ACAD
1000
TREAT_AS_HARD
1070
     0
1000
TREAT_AS_HARD
1070
     0
  0
XRECORD
  5
1CA
102
{ACAD_REACTORS
330
181
102
}
330
181
100
AcDbXrecord
340
1E
  0
XRECORD
  5
1C9
102
{ACAD_REACTORS
330
17F
102
}
330
17F
100
AcDbXrecord
340
1A
  0
MLINESTYLE
  5
17
102
{ACAD_REACTORS
330
16
102
}
330
16
100
AcDbMlineStyle
  2
STANDARD
 70
     0
  3

 62
   256
 51
90.0
 52
90.0
 71
     2
 49
0.5
 62
   256
  6
BYLAYER
 49
-0.5
 62
   256
  6
BYLAYER
  0
ENDSEC
  0
EOF
