  0
SECTION
  2
HEADER
  9
$ACADVER
  1
AC1012
  9
$DWGCODEPAGE
  3
dos932
  9
$INSBASE
 10
0.0
 20
0.0
 30
0.0
  9
$EXTMIN
 10
0.0
 20
1.0
 30
0.0
  9
$EXTMAX
 10
287.0
 20
199.0
 30
0.0
  9
$LIMMIN
 10
0.0
 20
0.0
  9
$LIMMAX
 10
297.0
 20
210.0
  9
$ORTHOMODE
 70
     0
  9
$REGENMODE
 70
     1
  9
$FILLMODE
 70
     1
  9
$QTEXTMODE
 70
     0
  9
$MIRRTEXT
 70
     1
  9
$DRAGMODE
 70
     2
  9
$LTSCALE
 40
15.0
  9
$OSMODE
 70
    37
  9
$ATTMODE
 70
     1
  9
$TEXTSIZE
 40
0.2
  9
$TRACEWID
 40
0.05
  9
$TEXTSTYLE
  7
GOTHIC
  9
$CLAYER
  8
CSLAYER1
  9
$CELTYPE
  6
BYLAYER
  9
$CECOLOR
 62
   256
  9
$CELTSCALE
 40
1.0
  9
$DELOBJ
 70
     1
  9
$DISPSILH
 70
     0
  9
$DIMSCALE
 40
1.0
  9
$DIMASZ
 40
0.18
  9
$DIMEXO
 40
0.0625
  9
$DIMDLI
 40
0.38
  9
$DIMRND
 40
0.0
  9
$DIMDLE
 40
0.0
  9
$DIMEXE
 40
0.18
  9
$DIMTP
 40
0.0
  9
$DIMTM
 40
0.0
  9
$DIMTXT
 40
0.18
  9
$DIMCEN
 40
0.09
  9
$DIMTSZ
 40
0.0
  9
$DIMTOL
 70
     0
  9
$DIMLIM
 70
     0
  9
$DIMTIH
 70
     1
  9
$DIMTOH
 70
     1
  9
$DIMSE1
 70
     0
  9
$DIMSE2
 70
     0
  9
$DIMTAD
 70
     0
  9
$DIMZIN
 70
     0
  9
$DIMBLK
  1

  9
$DIMASO
 70
     1
  9
$DIMSHO
 70
     1
  9
$DIMPOST
  1

  9
$DIMAPOST
  1

  9
$DIMALT
 70
     0
  9
$DIMALTD
 70
     2
  9
$DIMALTF
 40
25.4
  9
$DIMLFAC
 40
1.0
  9
$DIMTOFL
 70
     0
  9
$DIMTVP
 40
0.0
  9
$DIMTIX
 70
     0
  9
$DIMSOXD
 70
     0
  9
$DIMSAH
 70
     0
  9
$DIMBLK1
  1

  9
$DIMBLK2
  1

  9
$DIMSTYLE
  2
STANDARD
  9
$DIMCLRD
 70
     0
  9
$DIMCLRE
 70
     0
  9
$DIMCLRT
 70
     0
  9
$DIMTFAC
 40
1.0
  9
$DIMGAP
 40
0.09
  9
$DIMJUST
 70
     0
  9
$DIMSD1
 70
     0
  9
$DIMSD2
 70
     0
  9
$DIMTOLJ
 70
     1
  9
$DIMTZIN
 70
     0
  9
$DIMALTZ
 70
     0
  9
$DIMALTTZ
 70
     0
  9
$DIMFIT
 70
     3
  9
$DIMUPT
 70
     0
  9
$DIMUNIT
 70
     2
  9
$DIMDEC
 70
     4
  9
$DIMTDEC
 70
     4
  9
$DIMALTU
 70
     2
  9
$DIMALTTD
 70
     2
  9
$DIMTXSTY
  7
STANDARD
  9
$DIMAUNIT
 70
     0
  9
$LUNITS
 70
     2
  9
$LUPREC
 70
     4
  9
$SKETCHINC
 40
0.1
  9
$FILLETRAD
 40
0.0
  9
$AUNITS
 70
     0
  9
$AUPREC
 70
     0
  9
$MENU
  1
ACAD
  9
$ELEVATION
 40
0.0
  9
$PELEVATION
 40
0.0
  9
$THICKNESS
 40
0.0
  9
$LIMCHECK
 70
     0
  9
$BLIPMODE
 70
     1
  9
$CHAMFERA
 40
0.0
  9
$CHAMFERB
 40
0.0
  9
$CHAMFERC
 40
0.0
  9
$CHAMFERD
 40
0.0
  9
$SKPOLY
 70
     0
  9
$TDCREATE
 40
2453476.999999999
  9
$TDUPDATE
 40
2453476.999999999
  9
$TDINDWG
 40
0.0000037153
  9
$TDUSRTIMER
 40
0.0000037153
  9
$USRTIMER
 70
     1
  9
$ANGBASE
 50
0.0
  9
$ANGDIR
 70
     0
  9
$PDMODE
 70
     0
  9
$PDSIZE
 40
0.0
  9
$PLINEWID
 40
0.0
  9
$COORDS
 70
     2
  9
$SPLFRAME
 70
     0
  9
$SPLINETYPE
 70
     6
  9
$SPLINESEGS
 70
     8
  9
$ATTDIA
 70
     0
  9
$ATTREQ
 70
     1
  9
$HANDLING
 70
 22529
  9
$HANDSEED
  5
158
  9
$SURFTAB1
 70
     6
  9
$SURFTAB2
 70
     6
  9
$SURFTYPE
 70
     6
  9
$SURFU
 70
     6
  9
$SURFV
 70
     6
  9
$UCSNAME
  2

  9
$UCSORG
 10
0.0
 20
0.0
 30
0.0
  9
$UCSXDIR
 10
1.0
 20
0.0
 30
0.0
  9
$UCSYDIR
 10
0.0
 20
1.0
 30
0.0
  9
$PUCSNAME
  2

  9
$PUCSORG
 10
0.0
 20
0.0
 30
0.0
  9
$PUCSXDIR
 10
1.0
 20
0.0
 30
0.0
  9
$PUCSYDIR
 10
0.0
 20
1.0
 30
0.0
  9
$USERI1
 70
     0
  9
$USERI2
 70
     0
  9
$USERI3
 70
     0
  9
$USERI4
 70
     0
  9
$USERI5
 70
     0
  9
$USERR1
 40
0.0
  9
$USERR2
 40
0.0
  9
$USERR3
 40
0.0
  9
$USERR4
 40
0.0
  9
$USERR5
 40
0.0
  9
$WORLDVIEW
 70
     1
  9
$SHADEDGE
 70
     3
  9
$SHADEDIF
 70
    70
  9
$TILEMODE
 70
     1
  9
$MAXACTVP
 70
    64
  9
$PINSBASE
 10
0.0
 20
0.0
 30
0.0
  9
$PLIMCHECK
 70
     0
  9
$PEXTMIN
 10
1.000000000000000E+20
 20
1.000000000000000E+20
 30
1.000000000000000E+20
  9
$PEXTMAX
 10
-1.000000000000000E+20
 20
-1.000000000000000E+20
 30
-1.000000000000000E+20
  9
$PLIMMIN
 10
0.0
 20
0.0
  9
$PLIMMAX
 10
12.0
 20
9.0
  9
$UNITMODE
 70
     0
  9
$VISRETAIN
 70
     1
  9
$PLINEGEN
 70
     0
  9
$PSLTSCALE
 70
     1
  9
$TREEDEPTH
 70
  3020
  9
$PICKSTYLE
 70
     3
  9
$CMLSTYLE
  2
STANDARD
  9
$CMLJUST
 70
     0
  9
$CMLSCALE
 40
1.0
  9
$SAVEIMAGES
 70
     1
  0
ENDSEC
  0
SECTION
  2
CLASSES
  0
CLASS
  1
ACDBDICTIONARYWDFLT
  2
AcDbDictionaryWithDefault
  3
AutoCAD 2000
 90
    32768
280
     0
281
     0
  0
CLASS
  1
ACDBPLACEHOLDER
  2
AcDbPlaceHolder
  3
AutoCAD 2000
 90
    32768
280
     0
281
     0
  0
CLASS
  1
LAYOUT
  2
AcDbLayout
  3
AutoCAD 2000
 90
    32768
280
     0
281
     0
  0
CLASS
  1
DICTIONARYVAR
  2
AcDbDictionaryVar
  3
AutoCAD 2000
 90
    32768
280
     0
281
     0
  0
CLASS
  1
LONG_TRANSACTION
  2
AcDbLongTransaction
  3
AutoCAD 2000
 90
    32768
280
     0
281
     0
  0
CLASS
  1
LWPOLYLINE
  2
AcDbPolyline
  3
AutoCAD 2000
 90
    32768
280
     0
281
     1
  0
CLASS
  1
HATCH
  2
AcDbHatch
  3
AutoCAD 2000
 90
    32768
280
     0
281
     1
  0
CLASS
  1
XRECORD
  2
AcDbXrecord
  3
AutoCAD 2000
 90
    32768
280
     0
281
     0
  0
ENDSEC
  0
SECTION
  2
TABLES
  0
TABLE
  2
VPORT
  5
8
330
0
100
AcDbSymbolTable
 70
     2
  0
VPORT
  5
136
330
8
100
AcDbSymbolTableRecord
100
AcDbViewportTableRecord
  2
*ACTIVE
 70
     0
 10
0.0
 20
0.0
 11
1.0
 21
1.0
 12
143.5036246480928
 22
100.00122118625
 13
0.0
 23
0.0
 14
1.0
 24
1.0
 15
0.0
 25
0.0
 16
0.0
 26
0.0
 36
1.0
 17
0.0
 27
0.0
 37
0.0
 40
199.5716441620911
 41
1.637191157347204
 42
50.0
 43
0.0
 44
0.0
 50
0.0
 51
0.0
 71
     0
 72
   100
 73
     1
 74
     1
 75
     0
 76
     0
 77
     0
 78
     0
  0
ENDTAB
  0
TABLE
  2
LTYPE
  5
5
330
0
100
AcDbSymbolTable
 70
     9
  0
LTYPE
  5
13
330
5
100
AcDbSymbolTableRecord
100
AcDbLinetypeTableRecord
  2
BYBLOCK
 70
     0
  3

 72
    65
 73
     0
 40
0.0
  0
LTYPE
  5
14
330
5
100
AcDbSymbolTableRecord
100
AcDbLinetypeTableRecord
  2
BYLAYER
 70
     0
  3

 72
    65
 73
     0
 40
0.0
  0
LTYPE
  5
15
330
5
100
AcDbSymbolTableRecord
100
AcDbLinetypeTableRecord
  2
CONTINUOUS
 70
     0
  3
Solid line
 72
    65
 73
     0
 40
0.0
  0
LTYPE
  5
25
330
5
100
AcDbSymbolTableRecord
100
AcDbLinetypeTableRecord
  2
DOT
 70
     0
  3
...............................................
 72
    65
 73
     2
 40
0.25
 49
0.0
 74
     0
 49
-0.25
 74
     0
  0
LTYPE
  5
28
330
5
100
AcDbSymbolTableRecord
100
AcDbLinetypeTableRecord
  2
CENTER
 70
     0
  3
____ _ ____ _ ____ _ ____ _ ____ _ ____ _ ____ 
 72
    65
 73
     4
 40
2.0
 49
1.25
 74
     0
 49
-0.25
 74
     0
 49
0.25
 74
     0
 49
-0.25
 74
     0
  0
ENDTAB
  0
TABLE
  2
LAYER
  5
2
330
0
100
AcDbSymbolTable
 70
    18
  0
LAYER
  5
10
330
2
100
AcDbSymbolTableRecord
100
AcDbLayerTableRecord
  2
0
 70
     0
 62
     7
  6
CONTINUOUS
  0
LAYER
  5
22
330
2
100
AcDbSymbolTableRecord
100
AcDbLayerTableRecord
  2
CSLAYER1
 70
     0
 62
     7
  6
CONTINUOUS
  0
LAYER
  5
13B
330
2
100
AcDbSymbolTableRecord
100
AcDbLayerTableRecord
  2
Defpoints
 70
     0
 62
     7
  6
CONTINUOUS
  0
ENDTAB
  0
TABLE
  2
STYLE
  5
3
330
0
100
AcDbSymbolTable
 70
     3
  0
STYLE
  5
11
330
3
100
AcDbSymbolTableRecord
100
AcDbTextStyleTableRecord
  2
STANDARD
 70
     0
 40
0.0
 41
1.0
 50
0.0
 71
     0
 42
0.2
  3
txt
  4
extfont.shx
  0
STYLE
  5
3A
330
3
100
AcDbSymbolTableRecord
100
AcDbTextStyleTableRecord
  2
FX_FONT
 70
     0
 40
1.0
 41
1.0
 50
0.0
 71
     0
 42
1.0
  3
monotxt
  4
bigfont
  0
STYLE
  5
133
330
3
100
AcDbSymbolTableRecord
100
AcDbTextStyleTableRecord
  2
GOTHIC
 70
     0
 40
0.0
 41
1.0
 50
0.0
 71
     0
 42
0.2
  3
txt.shx
  4
extfont.shx
  0
ENDTAB
  0
TABLE
  2
VIEW
  5
6
330
0
100
AcDbSymbolTable
 70
     0
  0
ENDTAB
  0
TABLE
  2
UCS
  5
7
330
0
100
AcDbSymbolTable
 70
     0
  0
ENDTAB
  0
TABLE
  2
APPID
  5
9
330
0
100
AcDbSymbolTable
 70
     1
  0
APPID
  5
12
330
9
100
AcDbSymbolTableRecord
100
AcDbRegAppTableRecord
  2
ACAD
 70
     0
  0
ENDTAB
  0
TABLE
  2
DIMSTYLE
  5
A
330
0
100
AcDbSymbolTable
 70
     1
  0
DIMSTYLE
105
130
102
{ACAD_REACTORS
330
10A
330
10C
102
}
330
A
100
AcDbSymbolTableRecord
100
AcDbDimStyleTableRecord
  2
STANDARD
 70
     0
  3

  4

  5

  6

  7

 40
1.0
 41
0.18
 42
0.0625
 43
0.38
 44
0.18
 45
0.0
 46
0.0
 47
0.0
 48
0.0
140
0.18
141
0.09
142
0.0
143
25.4
144
1.0
145
0.0
146
1.0
147
0.09
 71
     0
 72
     0
 73
     1
 74
     1
 75
     0
 76
     0
 77
     0
 78
     0
170
     0
171
     2
172
     0
173
     0
174
     0
175
     0
176
     0
177
     0
178
     0
270
     2
271
     4
272
     4
273
     2
274
     2
340
11
275
     0
280
     0
281
     0
282
     0
283
     1
284
     0
285
     0
286
     0
287
     3
288
     0
  0
ENDTAB
  0
TABLE
  2
BLOCK_RECORD
  5
1
330
0
100
AcDbSymbolTable
 70
    15
  0
BLOCK_RECORD
  5
1E
102
{ACAD_XDICTIONARY
360
139
102
}
330
1
100
AcDbSymbolTableRecord
100
AcDbBlockTableRecord
  2
*MODEL_SPACE
  0
BLOCK_RECORD
  5
1A
102
{ACAD_XDICTIONARY
360
137
102
}
330
1
100
AcDbSymbolTableRecord
100
AcDbBlockTableRecord
  2
*PAPER_SPACE
  0
BLOCK_RECORD
  5
3F
330
1
100
AcDbSymbolTableRecord
100
AcDbBlockTableRecord
  2
FXDIM0000
  0
BLOCK_RECORD
  5
47
330
1
100
AcDbSymbolTableRecord
100
AcDbBlockTableRecord
  2
*D1
  0
BLOCK_RECORD
  5
54
330
1
100
AcDbSymbolTableRecord
100
AcDbBlockTableRecord
  2
FXDIM0001
  0
BLOCK_RECORD
  5
5E
330
1
100
AcDbSymbolTableRecord
100
AcDbBlockTableRecord
  2
FXDIM0002
  0
BLOCK_RECORD
  5
68
330
1
100
AcDbSymbolTableRecord
100
AcDbBlockTableRecord
  2
*D4
  0
BLOCK_RECORD
  5
73
330
1
100
AcDbSymbolTableRecord
100
AcDbBlockTableRecord
  2
*D5
  0
BLOCK_RECORD
  5
7E
330
1
100
AcDbSymbolTableRecord
100
AcDbBlockTableRecord
  2
*D6
  0
BLOCK_RECORD
  5
88
330
1
100
AcDbSymbolTableRecord
100
AcDbBlockTableRecord
  2
*D7
  0
BLOCK_RECORD
  5
91
330
1
100
AcDbSymbolTableRecord
100
AcDbBlockTableRecord
  2
*D8
  0
BLOCK_RECORD
  5
9B
330
1
100
AcDbSymbolTableRecord
100
AcDbBlockTableRecord
  2
*D9
  0
BLOCK_RECORD
  5
A4
330
1
100
AcDbSymbolTableRecord
100
AcDbBlockTableRecord
  2
*D10
  0
BLOCK_RECORD
  5
AF
330
1
100
AcDbSymbolTableRecord
100
AcDbBlockTableRecord
  2
*D11
  0
BLOCK_RECORD
  5
B9
330
1
100
AcDbSymbolTableRecord
100
AcDbBlockTableRecord
  2
*D12
  0
BLOCK_RECORD
  5
13C
330
1
100
AcDbSymbolTableRecord
100
AcDbBlockTableRecord
  2
*D13
  0
BLOCK_RECORD
  5
14A
330
1
100
AcDbSymbolTableRecord
100
AcDbBlockTableRecord
  2
*D14
  0
ENDTAB
  0
ENDSEC
  0
SECTION
  2
BLOCKS
  0
BLOCK
  5
1F
330
1E
100
AcDbEntity
  8
0
100
AcDbBlockBegin
  2
*MODEL_SPACE
 70
     0
 10
0.0
 20
0.0
 30
0.0
  3
*MODEL_SPACE
  1

  0
ENDBLK
  5
20
330
1E
100
AcDbEntity
  8
0
100
AcDbBlockEnd
  0
BLOCK
  5
1B
330
1A
100
AcDbEntity
 67
     1
  8
0
100
AcDbBlockBegin
  2
*PAPER_SPACE
 70
     0
 10
0.0
 20
0.0
 30
0.0
  3
*PAPER_SPACE
  1

  0
ENDBLK
  5
1C
330
1A
100
AcDbEntity
 67
     1
  8
0
100
AcDbBlockEnd
  0
BLOCK
  5
40
330
3F
100
AcDbEntity
  8
CSLAYER1
100
AcDbBlockBegin
  2
FXDIM0000
 70
     0
 10
0.0
 20
0.0
 30
0.0
  3
FXDIM0000
  1

  0
LINE
  5
41
330
3F
100
AcDbEntity
  8
CSLAYER1
  6
CONTINUOUS
 62
     4
100
AcDbLine
 10
166.69985
 20
136.0731609999999
 30
0.0
 11
169.853505
 21
110.302223
 31
0.0
  0
LINE
  5
42
330
3F
100
AcDbEntity
  8
CSLAYER1
  6
CONTINUOUS
 62
     4
100
AcDbLine
 10
166.69985
 20
136.0731609999999
 30
0.0
 11
167.82254
 21
133.291153
 31
0.0
  0
LINE
  5
43
330
3F
100
AcDbEntity
  8
CSLAYER1
  6
CONTINUOUS
 62
     4
100
AcDbLine
 10
166.69985
 20
136.0731609999999
 30
0.0
 11
166.281125
 21
133.102526
 31
0.0
  0
LINE
  5
44
330
3F
100
AcDbEntity
  8
CSLAYER1
  6
CONTINUOUS
 62
     4
100
AcDbLine
 10
169.853505
 20
110.302223
 30
0.0
 11
183.853505
 21
110.302223
 31
0.0
  0
TEXT
  5
45
330
3F
100
AcDbEntity
  8
CSLAYER1
 62
     4
100
AcDbText
 10
170.8535029999999
 20
111.3022159999999
 30
0.0
 40
3.2
  1
%%c4.1
 41
1.142857142857144
 51
15.0
  7
FX_FONT
 72
     5
 11
183.653503
 21
111.3022159999999
 31
0.0
100
AcDbText
  0
ENDBLK
  5
46
330
3F
100
AcDbEntity
  8
0
100
AcDbBlockEnd
  0
BLOCK
  5
48
330
47
100
AcDbEntity
  8
CSLAYER1
100
AcDbBlockBegin
  2
*D1
 70
     1
 10
0.0
 20
0.0
 30
0.0
  3
*D1
  1

  0
TEXT
  5
49
330
47
100
AcDbEntity
  8
CSLAYER1
 62
     4
100
AcDbText
 10
127.9333339999999
 20
69.533336
 30
0.0
 40
3.2
  1
12 
 50
90.0
 41
1.153846153846153
 51
15.0
  7
FX_FONT
 72
     5
 11
127.9333339999999
 21
79.133336
 31
0.0
100
AcDbText
  0
TEXT
  5
4A
330
47
100
AcDbEntity
  8
CSLAYER1
 62
     4
100
AcDbText
 10
126.333334
 20
79.133336
 30
0.0
 40
1.6
  1
  0
 50
90.0
 41
1.607142857142856
 51
15.0
  7
FX_FONT
 72
     5
 11
126.333334
 21
83.933336
 31
0.0
100
AcDbText
  0
TEXT
  5
4B
330
47
100
AcDbEntity
  8
CSLAYER1
 62
     4
100
AcDbText
 10
127.9333339999999
 20
79.133336
 30
0.0
 40
1.6
  1
-0.15
 50
90.0
 41
1.071428571428571
 51
15.0
  7
FX_FONT
 72
     5
 11
127.9333339999999
 21
87.133336
 31
0.0
100
AcDbText
  0
LINE
  5
4C
330
47
100
AcDbEntity
  8
CSLAYER1
  6
CONTINUOUS
 62
     4
100
AcDbLine
 10
137.0
 20
67.0
 30
0.0
 11
128.6583919999999
 21
67.0
 31
0.0
  0
LINE
  5
4D
330
47
100
AcDbEntity
  8
CSLAYER1
  6
CONTINUOUS
 62
     4
100
AcDbLine
 10
137.0
 20
79.0
 30
0.0
 11
128.6583919999999
 21
79.0
 31
0.0
  0
LINE
  5
4E
330
47
100
AcDbEntity
  8
CSLAYER1
  6
CONTINUOUS
 62
     4
100
AcDbLine
 10
129.6583919999999
 20
67.0
 30
0.0
 11
129.6583919999999
 21
79.0
 31
0.0
  0
LINE
  5
4F
330
47
100
AcDbEntity
  8
CSLAYER1
  6
CONTINUOUS
 62
     4
100
AcDbLine
 10
129.6583919999999
 20
67.0
 30
0.0
 11
128.881935
 21
69.89777700000001
 31
0.0
  0
LINE
  5
50
330
47
100
AcDbEntity
  8
CSLAYER1
  6
CONTINUOUS
 62
     4
100
AcDbLine
 10
129.6583919999999
 20
67.0
 30
0.0
 11
130.4348489999999
 21
69.89777700000001
 31
0.0
  0
LINE
  5
51
330
47
100
AcDbEntity
  8
CSLAYER1
  6
CONTINUOUS
 62
     4
100
AcDbLine
 10
129.6583919999999
 20
79.0
 30
0.0
 11
128.881935
 21
76.102223
 31
0.0
  0
LINE
  5
52
330
47
100
AcDbEntity
  8
CSLAYER1
  6
CONTINUOUS
 62
     4
100
AcDbLine
 10
129.6583919999999
 20
79.0
 30
0.0
 11
130.4348489999999
 21
76.102223
 31
0.0
  0
ENDBLK
  5
53
330
47
100
AcDbEntity
  8
0
100
AcDbBlockEnd
  0
BLOCK
  5
55
330
54
100
AcDbEntity
  8
CSLAYER1
100
AcDbBlockBegin
  2
FXDIM0001
 70
     0
 10
0.0
 20
0.0
 30
0.0
  3
FXDIM0001
  1

  0
LINE
  5
56
330
54
100
AcDbEntity
  8
CSLAYER1
  6
CONTINUOUS
 62
     4
100
AcDbLine
 10
172.1999999999999
 20
79.0
 30
0.0
 11
173.6999999999999
 21
81.598076
 31
0.0
  0
LINE
  5
57
330
54
100
AcDbEntity
  8
CSLAYER1
  6
CONTINUOUS
 62
     4
100
AcDbLine
 10
170.6999999999999
 20
81.598076
 30
0.0
 11
179.6999999999999
 21
81.598076
 31
0.0
  0
LINE
  5
58
330
54
100
AcDbEntity
  8
CSLAYER1
  6
CONTINUOUS
 62
     4
100
AcDbLine
 10
170.6999999999999
 20
81.598076
 30
0.0
 11
172.1999999999999
 21
79.0
 31
0.0
  0
LINE
  5
59
330
54
100
AcDbEntity
  8
CSLAYER1
  6
CONTINUOUS
 62
     4
100
AcDbLine
 10
175.1999999999999
 20
79.0
 30
0.0
 11
176.6999999999999
 21
81.598076
 31
0.0
  0
LINE
  5
5A
330
54
100
AcDbEntity
  8
CSLAYER1
  6
CONTINUOUS
 62
     4
100
AcDbLine
 10
173.6999999999999
 20
81.598076
 30
0.0
 11
175.1999999999999
 21
79.0
 31
0.0
  0
LINE
  5
5B
330
54
100
AcDbEntity
  8
CSLAYER1
  6
CONTINUOUS
 62
     4
100
AcDbLine
 10
178.2
 20
79.0
 30
0.0
 11
179.6999999999999
 21
81.598076
 31
0.0
  0
LINE
  5
5C
330
54
100
AcDbEntity
  8
CSLAYER1
  6
CONTINUOUS
 62
     4
100
AcDbLine
 10
176.6999999999999
 20
81.598076
 30
0.0
 11
178.2
 21
79.0
 31
0.0
  0
ENDBLK
  5
5D
330
54
100
AcDbEntity
  8
0
100
AcDbBlockEnd
  0
BLOCK
  5
5F
330
5E
100
AcDbEntity
  8
CSLAYER1
100
AcDbBlockBegin
  2
FXDIM0002
 70
     0
 10
0.0
 20
0.0
 30
0.0
  3
FXDIM0002
  1

  0
LINE
  5
60
330
5E
100
AcDbEntity
  8
CSLAYER1
  6
CONTINUOUS
 62
     4
100
AcDbLine
 10
174.5999999999999
 20
67.0
 30
0.0
 11
173.0999999999999
 21
64.40192399999999
 31
0.0
  0
LINE
  5
61
330
5E
100
AcDbEntity
  8
CSLAYER1
  6
CONTINUOUS
 62
     4
100
AcDbLine
 10
173.0999999999999
 20
64.40192399999999
 30
0.0
 11
182.0999999999999
 21
64.40192399999999
 31
0.0
  0
LINE
  5
62
330
5E
100
AcDbEntity
  8
CSLAYER1
  6
CONTINUOUS
 62
     4
100
AcDbLine
 10
176.0999999999999
 20
64.40192399999999
 30
0.0
 11
174.5999999999999
 21
67.0
 31
0.0
  0
LINE
  5
63
330
5E
100
AcDbEntity
  8
CSLAYER1
  6
CONTINUOUS
 62
     4
100
AcDbLine
 10
177.5999999999999
 20
67.0
 30
0.0
 11
176.0999999999999
 21
64.40192399999999
 31
0.0
  0
LINE
  5
64
330
5E
100
AcDbEntity
  8
CSLAYER1
  6
CONTINUOUS
 62
     4
100
AcDbLine
 10
179.0999999999999
 20
64.40192399999999
 30
0.0
 11
177.5999999999999
 21
67.0
 31
0.0
  0
LINE
  5
65
330
5E
100
AcDbEntity
  8
CSLAYER1
  6
CONTINUOUS
 62
     4
100
AcDbLine
 10
180.6
 20
67.0
 30
0.0
 11
179.0999999999999
 21
64.40192399999999
 31
0.0
  0
LINE
  5
66
330
5E
100
AcDbEntity
  8
CSLAYER1
  6
CONTINUOUS
 62
     4
100
AcDbLine
 10
182.0999999999999
 20
64.40192399999999
 30
0.0
 11
180.6
 21
67.0
 31
0.0
  0
ENDBLK
  5
67
330
5E
100
AcDbEntity
  8
0
100
AcDbBlockEnd
  0
BLOCK
  5
69
330
68
100
AcDbEntity
  8
CSLAYER1
100
AcDbBlockBegin
  2
*D4
 70
     1
 10
0.0
 20
0.0
 30
0.0
  3
*D4
  1

  0
TEXT
  5
6A
330
68
100
AcDbEntity
  8
CSLAYER1
 62
     4
100
AcDbText
 10
118.533333
 20
126.8
 30
0.0
 40
3.2
  1
22.5~24
 50
90.0
 41
1.049999999999999
 51
15.0
  7
FX_FONT
 72
     5
 11
118.533333
 21
149.1999999999999
 31
0.0
100
AcDbText
  0
LINE
  5
6B
330
68
100
AcDbEntity
  8
CSLAYER1
  6
CONTINUOUS
 62
     4
100
AcDbLine
 10
119.533336
 20
126.5
 30
0.0
 11
119.533336
 21
149.5
 31
0.0
  0
LINE
  5
6C
330
68
100
AcDbEntity
  8
CSLAYER1
  6
CONTINUOUS
 62
     4
100
AcDbLine
 10
119.533336
 20
126.5
 30
0.0
 11
118.756879
 21
129.3977769999999
 31
0.0
  0
LINE
  5
6D
330
68
100
AcDbEntity
  8
CSLAYER1
  6
CONTINUOUS
 62
     4
100
AcDbLine
 10
119.533336
 20
126.5
 30
0.0
 11
120.3097929999999
 21
129.3977769999999
 31
0.0
  0
LINE
  5
6E
330
68
100
AcDbEntity
  8
CSLAYER1
  6
CONTINUOUS
 62
     4
100
AcDbLine
 10
119.533336
 20
149.5
 30
0.0
 11
118.756879
 21
146.602223
 31
0.0
  0
LINE
  5
6F
330
68
100
AcDbEntity
  8
CSLAYER1
  6
CONTINUOUS
 62
     4
100
AcDbLine
 10
119.533336
 20
149.5
 30
0.0
 11
120.3097929999999
 21
146.602223
 31
0.0
  0
LINE
  5
70
330
68
100
AcDbEntity
  8
CSLAYER1
  6
CONTINUOUS
 62
     4
100
AcDbLine
 10
148.1038669999999
 20
126.5
 30
0.0
 11
118.533336
 21
126.5
 31
0.0
  0
LINE
  5
71
330
68
100
AcDbEntity
  8
CSLAYER1
  6
CONTINUOUS
 62
     4
100
AcDbLine
 10
148.1038669999999
 20
149.5
 30
0.0
 11
118.533336
 21
149.5
 31
0.0
  0
ENDBLK
  5
72
330
68
100
AcDbEntity
  8
0
100
AcDbBlockEnd
  0
BLOCK
  5
74
330
73
100
AcDbEntity
  8
CSLAYER1
100
AcDbBlockBegin
  2
*D5
 70
     1
 10
0.0
 20
0.0
 30
0.0
  3
*D5
  1

  0
TEXT
  5
75
330
73
100
AcDbEntity
  8
CSLAYER1
 62
     4
100
AcDbText
 10
124.533333
 20
134.8
 30
0.0
 40
3.2
  1
12
 50
90.0
 41
1.199999999999995
 51
15.0
  7
FX_FONT
 72
     5
 11
124.533333
 21
141.1999999999999
 31
0.0
100
AcDbText
  0
LINE
  5
76
330
73
100
AcDbEntity
  8
CSLAYER1
  6
CONTINUOUS
 62
     4
100
AcDbLine
 10
125.533336
 20
132.0
 30
0.0
 11
125.533336
 21
144.0
 31
0.0
  0
LINE
  5
77
330
73
100
AcDbEntity
  8
CSLAYER1
  6
CONTINUOUS
 62
     4
100
AcDbLine
 10
125.533336
 20
132.0
 30
0.0
 11
124.756879
 21
134.8977769999999
 31
0.0
  0
LINE
  5
78
330
73
100
AcDbEntity
  8
CSLAYER1
  6
CONTINUOUS
 62
     4
100
AcDbLine
 10
125.533336
 20
132.0
 30
0.0
 11
126.309793
 21
134.8977769999999
 31
0.0
  0
LINE
  5
79
330
73
100
AcDbEntity
  8
CSLAYER1
  6
CONTINUOUS
 62
     4
100
AcDbLine
 10
125.533336
 20
144.0
 30
0.0
 11
124.756879
 21
141.102223
 31
0.0
  0
LINE
  5
7A
330
73
100
AcDbEntity
  8
CSLAYER1
  6
CONTINUOUS
 62
     4
100
AcDbLine
 10
125.533336
 20
144.0
 30
0.0
 11
126.309793
 21
141.102223
 31
0.0
  0
LINE
  5
7B
330
73
100
AcDbEntity
  8
CSLAYER1
  6
CONTINUOUS
 62
     4
100
AcDbLine
 10
137.0
 20
132.0
 30
0.0
 11
124.533336
 21
132.0
 31
0.0
  0
LINE
  5
7C
330
73
100
AcDbEntity
  8
CSLAYER1
  6
CONTINUOUS
 62
     4
100
AcDbLine
 10
137.0
 20
144.0
 30
0.0
 11
124.533336
 21
144.0
 31
0.0
  0
ENDBLK
  5
7D
330
73
100
AcDbEntity
  8
0
100
AcDbBlockEnd
  0
BLOCK
  5
7F
330
7E
100
AcDbEntity
  8
CSLAYER1
100
AcDbBlockBegin
  2
*D6
 70
     1
 10
0.0
 20
0.0
 30
0.0
  3
*D6
  1

  0
TEXT
  5
80
330
7E
100
AcDbEntity
  8
CSLAYER1
 62
     4
100
AcDbText
 10
139.8539369999999
 20
159.842359
 30
0.0
 40
3.2
  1
35%%d
 50
342.5000025384459
 41
1.285714165637192
 51
15.0
  7
FX_FONT
 72
     5
 11
149.0096189999999
 21
156.955584
 31
0.0
100
AcDbText
  0
ARC
  5
81
330
7E
100
AcDbEntity
  8
CSLAYER1
  6
CONTINUOUS
 62
     4
100
AcDbCircle
 10
138.0
 20
138.0
 30
0.0
 40
20.388918
100
AcDbArc
 50
55.0
 51
90.0
  0
LINE
  5
82
330
7E
100
AcDbEntity
  8
CSLAYER1
  6
CONTINUOUS
 62
     4
100
AcDbLine
 10
149.694603
 20
154.701624
 30
0.0
 11
146.875525
 21
155.727684
 31
0.0
  0
LINE
  5
83
330
7E
100
AcDbEntity
  8
CSLAYER1
  6
CONTINUOUS
 62
     4
100
AcDbLine
 10
149.694603
 20
154.701624
 30
0.0
 11
147.7662399999999
 21
156.999757
 31
0.0
  0
LINE
  5
84
330
7E
100
AcDbEntity
  8
CSLAYER1
  6
CONTINUOUS
 62
     4
100
AcDbLine
 10
138.0
 20
158.3889179999999
 30
0.0
 11
140.8977769999999
 21
159.165375
 31
0.0
  0
LINE
  5
85
330
7E
100
AcDbEntity
  8
CSLAYER1
  6
CONTINUOUS
 62
     4
100
AcDbLine
 10
138.0
 20
158.3889179999999
 30
0.0
 11
140.8977769999999
 21
157.6124609999999
 31
0.0
  0
LINE
  5
86
330
7E
100
AcDbEntity
  8
CSLAYER1
  6
CONTINUOUS
 62
     4
100
AcDbLine
 10
140.0206879999999
 20
140.885841
 30
0.0
 11
150.268179
 21
155.520776
 31
0.0
  0
ENDBLK
  5
87
330
7E
100
AcDbEntity
  8
0
100
AcDbBlockEnd
  0
BLOCK
  5
89
330
88
100
AcDbEntity
  8
CSLAYER1
100
AcDbBlockBegin
  2
*D7
 70
     1
 10
0.0
 20
0.0
 30
0.0
  3
*D7
  1

  0
TEXT
  5
8A
330
88
100
AcDbEntity
  8
CSLAYER1
 62
     4
100
AcDbText
 10
147.5
 20
134.8
 30
0.0
 40
3.2
  1
10
 50
90.0
 41
1.199999999999995
 51
15.0
  7
FX_FONT
 72
     5
 11
147.5
 21
141.1999999999999
 31
0.0
100
AcDbText
  0
LINE
  5
8B
330
88
100
AcDbEntity
  8
CSLAYER1
  6
CONTINUOUS
 62
     4
100
AcDbLine
 10
148.5
 20
133.0
 30
0.0
 11
148.5
 21
143.0
 31
0.0
  0
LINE
  5
8C
330
88
100
AcDbEntity
  8
CSLAYER1
  6
CONTINUOUS
 62
     4
100
AcDbLine
 10
148.5
 20
133.0
 30
0.0
 11
147.723543
 21
135.8977769999999
 31
0.0
  0
LINE
  5
8D
330
88
100
AcDbEntity
  8
CSLAYER1
  6
CONTINUOUS
 62
     4
100
AcDbLine
 10
148.5
 20
133.0
 30
0.0
 11
149.276457
 21
135.8977769999999
 31
0.0
  0
LINE
  5
8E
330
88
100
AcDbEntity
  8
CSLAYER1
  6
CONTINUOUS
 62
     4
100
AcDbLine
 10
148.5
 20
143.0
 30
0.0
 11
147.723543
 21
140.102223
 31
0.0
  0
LINE
  5
8F
330
88
100
AcDbEntity
  8
CSLAYER1
  6
CONTINUOUS
 62
     4
100
AcDbLine
 10
148.5
 20
143.0
 30
0.0
 11
149.276457
 21
140.102223
 31
0.0
  0
ENDBLK
  5
90
330
88
100
AcDbEntity
  8
0
100
AcDbBlockEnd
  0
BLOCK
  5
92
330
91
100
AcDbEntity
  8
CSLAYER1
100
AcDbBlockBegin
  2
*D8
 70
     1
 10
0.0
 20
0.0
 30
0.0
  3
*D8
  1

  0
TEXT
  5
93
330
91
100
AcDbEntity
  8
CSLAYER1
 62
     4
100
AcDbText
 10
138.566217
 20
118.0900379999999
 30
0.0
 40
3.2
  1
45%%d
 50
22.49999915748188
 41
1.285714348609493
 51
15.0
  7
FX_FONT
 72
     5
 11
147.4354609999999
 21
121.763799
 31
0.0
100
AcDbText
  0
ARC
  5
94
330
91
100
AcDbEntity
  8
CSLAYER1
  6
CONTINUOUS
 62
     4
100
AcDbCircle
 10
138.0
 20
132.0
 30
0.0
 40
14.06781099999999
100
AcDbArc
 50
270.0
 51
315.0
  0
LINE
  5
95
330
91
100
AcDbEntity
  8
CSLAYER1
  6
CONTINUOUS
 62
     4
100
AcDbLine
 10
138.0
 20
117.9321889999999
 30
0.0
 11
140.8977769999999
 21
118.7086459999999
 31
0.0
  0
LINE
  5
96
330
91
100
AcDbEntity
  8
CSLAYER1
  6
CONTINUOUS
 62
     4
100
AcDbLine
 10
138.0
 20
117.9321889999999
 30
0.0
 11
140.8977769999999
 21
117.155732
 31
0.0
  0
LINE
  5
97
330
91
100
AcDbEntity
  8
CSLAYER1
  6
CONTINUOUS
 62
     4
100
AcDbLine
 10
147.9474439999999
 20
122.052556
 30
0.0
 11
146.4474439999999
 21
119.454479
 31
0.0
  0
LINE
  5
98
330
91
100
AcDbEntity
  8
CSLAYER1
  6
CONTINUOUS
 62
     4
100
AcDbLine
 10
147.9474439999999
 20
122.052556
 30
0.0
 11
145.349368
 21
120.552556
 31
0.0
  0
LINE
  5
99
330
91
100
AcDbEntity
  8
CSLAYER1
  6
CONTINUOUS
 62
     4
100
AcDbLine
 10
143.018241
 20
126.981759
 30
0.0
 11
148.654551
 21
121.3454489999999
 31
0.0
  0
ENDBLK
  5
9A
330
91
100
AcDbEntity
  8
0
100
AcDbBlockEnd
  0
BLOCK
  5
9C
330
9B
100
AcDbEntity
  8
CSLAYER1
100
AcDbBlockBegin
  2
*D9
 70
     1
 10
0.0
 20
0.0
 30
0.0
  3
*D9
  1

  0
TEXT
  5
9D
330
9B
100
AcDbEntity
  8
CSLAYER1
 62
     4
100
AcDbText
 10
153.940066
 20
118.7880709999999
 30
0.0
 40
3.2
  1
R20
 41
1.125000117187499
 51
15.0
  7
FX_FONT
 72
     5
 11
163.5400669999999
 21
118.7880709999999
 31
0.0
100
AcDbText
  0
LINE
  5
9E
330
9B
100
AcDbEntity
  8
CSLAYER1
  6
CONTINUOUS
 62
     4
100
AcDbLine
 10
144.2845829999999
 20
127.0893199999999
 30
0.0
 11
146.75475
 21
137.038437
 31
0.0
  0
LINE
  5
9F
330
9B
100
AcDbEntity
  8
CSLAYER1
  6
CONTINUOUS
 62
     4
100
AcDbLine
 10
144.2845829999999
 20
127.0893199999999
 30
0.0
 11
144.2292659999999
 21
130.0888099999999
 31
0.0
  0
LINE
  5
A0
330
9B
100
AcDbEntity
  8
CSLAYER1
  6
CONTINUOUS
 62
     4
100
AcDbLine
 10
144.2845829999999
 20
127.0893199999999
 30
0.0
 11
145.736422
 21
129.7146129999999
 31
0.0
  0
LINE
  5
A1
330
9B
100
AcDbEntity
  8
CSLAYER1
  6
CONTINUOUS
 62
     4
100
AcDbLine
 10
145.519667
 20
132.063878
 30
0.0
 11
152.940065
 21
117.788073
 31
0.0
  0
LINE
  5
A2
330
9B
100
AcDbEntity
  8
CSLAYER1
  6
CONTINUOUS
 62
     4
100
AcDbLine
 10
152.940065
 20
117.788073
 30
0.0
 11
164.540065
 21
117.788073
 31
0.0
  0
ENDBLK
  5
A3
330
9B
100
AcDbEntity
  8
0
100
AcDbBlockEnd
  0
BLOCK
  5
A5
330
A4
100
AcDbEntity
  8
CSLAYER1
100
AcDbBlockBegin
  2
*D10
 70
     1
 10
0.0
 20
0.0
 30
0.0
  3
*D10
  1

  0
TEXT
  5
A6
330
A4
100
AcDbEntity
  8
CSLAYER1
 62
     4
100
AcDbText
 10
148.8
 20
171.5582429999999
 30
0.0
 40
3.2
  1
28
 41
1.199999999999995
 51
15.0
  7
FX_FONT
 72
     5
 11
155.1999999999999
 21
171.5582429999999
 31
0.0
100
AcDbText
  0
LINE
  5
A7
330
A4
100
AcDbEntity
  8
CSLAYER1
  6
CONTINUOUS
 62
     4
100
AcDbLine
 10
138.0
 20
170.558252
 30
0.0
 11
166.0
 21
170.558252
 31
0.0
  0
LINE
  5
A8
330
A4
100
AcDbEntity
  8
CSLAYER1
  6
CONTINUOUS
 62
     4
100
AcDbLine
 10
138.0
 20
170.558252
 30
0.0
 11
140.8977769999999
 21
171.334709
 31
0.0
  0
LINE
  5
A9
330
A4
100
AcDbEntity
  8
CSLAYER1
  6
CONTINUOUS
 62
     4
100
AcDbLine
 10
138.0
 20
170.558252
 30
0.0
 11
140.8977769999999
 21
169.781794
 31
0.0
  0
LINE
  5
AA
330
A4
100
AcDbEntity
  8
CSLAYER1
  6
CONTINUOUS
 62
     4
100
AcDbLine
 10
166.0
 20
170.558252
 30
0.0
 11
163.102223
 21
171.334709
 31
0.0
  0
LINE
  5
AB
330
A4
100
AcDbEntity
  8
CSLAYER1
  6
CONTINUOUS
 62
     4
100
AcDbLine
 10
166.0
 20
170.558252
 30
0.0
 11
163.102223
 21
169.781794
 31
0.0
  0
LINE
  5
AC
330
A4
100
AcDbEntity
  8
CSLAYER1
  6
CONTINUOUS
 62
     4
100
AcDbLine
 10
138.0
 20
145.0
 30
0.0
 11
138.0
 21
171.558252
 31
0.0
  0
LINE
  5
AD
330
A4
100
AcDbEntity
  8
CSLAYER1
  6
CONTINUOUS
 62
     4
100
AcDbLine
 10
166.0
 20
153.563033
 30
0.0
 11
166.0
 21
171.558252
 31
0.0
  0
ENDBLK
  5
AE
330
A4
100
AcDbEntity
  8
0
100
AcDbBlockEnd
  0
BLOCK
  5
B0
330
AF
100
AcDbEntity
  8
CSLAYER1
100
AcDbBlockBegin
  2
*D11
 70
     1
 10
0.0
 20
0.0
 30
0.0
  3
*D11
  1

  0
TEXT
  5
B1
330
AF
100
AcDbEntity
  8
CSLAYER1
 62
     4
100
AcDbText
 10
139.3499999999999
 20
165.558243
 30
0.0
 40
3.2
  1
15.5
 41
1.090909090909091
 51
15.0
  7
FX_FONT
 72
     5
 11
152.15
 21
165.558243
 31
0.0
100
AcDbText
  0
LINE
  5
B2
330
AF
100
AcDbEntity
  8
CSLAYER1
  6
CONTINUOUS
 62
     4
100
AcDbLine
 10
138.0
 20
164.558252
 30
0.0
 11
153.5
 21
164.558252
 31
0.0
  0
LINE
  5
B3
330
AF
100
AcDbEntity
  8
CSLAYER1
  6
CONTINUOUS
 62
     4
100
AcDbLine
 10
138.0
 20
164.558252
 30
0.0
 11
140.8977769999999
 21
165.334709
 31
0.0
  0
LINE
  5
B4
330
AF
100
AcDbEntity
  8
CSLAYER1
  6
CONTINUOUS
 62
     4
100
AcDbLine
 10
138.0
 20
164.558252
 30
0.0
 11
140.8977769999999
 21
163.7817939999999
 31
0.0
  0
LINE
  5
B5
330
AF
100
AcDbEntity
  8
CSLAYER1
  6
CONTINUOUS
 62
     4
100
AcDbLine
 10
153.5
 20
164.558252
 30
0.0
 11
150.602223
 21
165.334709
 31
0.0
  0
LINE
  5
B6
330
AF
100
AcDbEntity
  8
CSLAYER1
  6
CONTINUOUS
 62
     4
100
AcDbLine
 10
153.5
 20
164.558252
 30
0.0
 11
150.602223
 21
163.7817939999999
 31
0.0
  0
LINE
  5
B7
330
AF
100
AcDbEntity
  8
CSLAYER1
  6
CONTINUOUS
 62
     4
100
AcDbLine
 10
153.5
 20
139.0
 30
0.0
 11
153.5
 21
165.558252
 31
0.0
  0
ENDBLK
  5
B8
330
AF
100
AcDbEntity
  8
0
100
AcDbBlockEnd
  0
BLOCK
  5
BA
330
B9
100
AcDbEntity
  8
CSLAYER1
100
AcDbBlockBegin
  2
*D12
 70
     1
 10
0.0
 20
0.0
 30
0.0
  3
*D12
  1

  0
TEXT
  5
BB
330
B9
100
AcDbEntity
  8
CSLAYER1
 62
     4
100
AcDbText
 10
44.31392699999999
 20
33.62476599999999
 30
0.0
 40
3.2
  1
8
 50
90.0
 41
1.500000000000001
 51
15.0
  7
FX_FONT
 72
     5
 11
44.31392699999999
 21
36.82476599999999
 31
0.0
100
AcDbText
  0
LINE
  5
BC
330
B9
100
AcDbEntity
  8
CSLAYER1
  6
CONTINUOUS
 62
     4
100
AcDbLine
 10
45.31392499999999
 20
31.224768
 30
0.0
 11
45.31392499999999
 21
39.224768
 31
0.0
  0
LINE
  5
BD
330
B9
100
AcDbEntity
  8
CSLAYER1
  6
CONTINUOUS
 62
     4
100
AcDbLine
 10
45.31392499999999
 20
31.224768
 30
0.0
 11
44.537468
 21
34.122545
 31
0.0
  0
LINE
  5
BE
330
B9
100
AcDbEntity
  8
CSLAYER1
  6
CONTINUOUS
 62
     4
100
AcDbLine
 10
45.31392499999999
 20
31.224768
 30
0.0
 11
46.090383
 21
34.122545
 31
0.0
  0
LINE
  5
BF
330
B9
100
AcDbEntity
  8
CSLAYER1
  6
CONTINUOUS
 62
     4
100
AcDbLine
 10
45.31392499999999
 20
39.224768
 30
0.0
 11
44.537468
 21
36.32699
 31
0.0
  0
LINE
  5
C0
330
B9
100
AcDbEntity
  8
CSLAYER1
  6
CONTINUOUS
 62
     4
100
AcDbLine
 10
45.31392499999999
 20
39.224768
 30
0.0
 11
46.090383
 21
36.32699
 31
0.0
  0
LINE
  5
C1
330
B9
100
AcDbEntity
  8
CSLAYER1
  6
CONTINUOUS
 62
     4
100
AcDbLine
 10
52.83275699999999
 20
31.224768
 30
0.0
 11
44.313925
 21
31.224768
 31
0.0
  0
LINE
  5
C2
330
B9
100
AcDbEntity
  8
CSLAYER1
  6
CONTINUOUS
 62
     4
100
AcDbLine
 10
52.83275699999999
 20
39.224768
 30
0.0
 11
44.313925
 21
39.224768
 31
0.0
  0
ENDBLK
  5
C3
330
B9
100
AcDbEntity
  8
0
100
AcDbBlockEnd
  0
BLOCK
  5
148
330
13C
100
AcDbEntity
  8
0
100
AcDbBlockBegin
  2
*D13
 70
     1
 10
0.0
 20
0.0
 30
0.0
  3
*D13
  1

  0
LINE
  5
13D
330
13C
100
AcDbEntity
  8
CSLAYER1
 62
     0
100
AcDbLine
 10
139.4829595236659
 20
140.117886005293
 30
0.0
 11
149.7978456804778
 21
154.8490723182541
 31
0.0
  0
ARC
  5
13E
330
13C
100
AcDbEntity
  8
CSLAYER1
 62
     0
100
AcDbCircle
 10
138.0
 20
138.0
 30
0.0
 40
20.38891831589906
100
AcDbArc
 50
55.50583144853508
 51
71.38271312635706
  0
ARC
  5
13F
330
13C
100
AcDbEntity
  8
CSLAYER1
 62
     0
100
AcDbCircle
 10
138.0
 20
138.0
 30
0.0
 40
20.38891831589906
100
AcDbArc
 50
73.61046210583729
 51
89.49417258704867
  0
SOLID
  5
140
330
13C
100
AcDbEntity
  8
CSLAYER1
 62
     0
100
AcDbTrace
 10
149.5637989064925
 20
154.8288671075406
 30
0.0
 11
149.5296016112841
 21
154.77956654973
 31
0.0
 12
149.6946019323199
 22
154.7016249430102
 32
0.0
 13
149.6946019323199
 23
154.7016249430102
 33
0.0
  0
SOLID
  5
141
330
13C
100
AcDbEntity
  8
CSLAYER1
 62
     0
100
AcDbTrace
 10
138.1798658214797
 20
158.358124058911
 30
0.0
 11
138.1801306712336
 21
158.4181234743632
 31
0.0
 12
138.0
 22
158.388918315899
 32
0.0
 13
138.0
 23
158.388918315899
 33
0.0
  0
MTEXT
  5
142
330
13C
100
AcDbEntity
  8
CSLAYER1
 62
     0
100
AcDbMText
 10
144.1310652984039
 20
157.4452572212123
 30
0.0
 40
0.18
 41
0.0
 71
     5
 72
     1
  1
\A1;35°
  0
POINT
  5
143
330
13C
100
AcDbEntity
  8
Defpoints
 62
     0
100
AcDbPoint
 10
146.0756371172663
 20
156.7214335787255
 30
0.0
  0
POINT
  5
144
330
13C
100
AcDbEntity
  8
Defpoints
 62
     0
100
AcDbPoint
 10
138.0
 20
138.0
 30
0.0
  0
POINT
  5
145
330
13C
100
AcDbEntity
  8
Defpoints
 62
     0
100
AcDbPoint
 10
138.0
 20
167.9414449999999
 30
0.0
  0
POINT
  5
146
330
13C
100
AcDbEntity
  8
Defpoints
 62
     0
100
AcDbPoint
 10
138.0
 20
145.0
 30
0.0
  0
POINT
  5
147
330
13C
100
AcDbEntity
  8
Defpoints
 62
     0
100
AcDbPoint
 10
139.447111
 20
140.0666889999999
 30
0.0
  0
ENDBLK
  5
149
330
13C
100
AcDbEntity
  8
0
100
AcDbBlockEnd
  0
BLOCK
  5
156
330
14A
100
AcDbEntity
  8
0
100
AcDbBlockBegin
  2
*D14
 70
     1
 10
0.0
 20
0.0
 30
0.0
  3
*D14
  1

  0
LINE
  5
14B
330
14A
100
AcDbEntity
  8
CSLAYER1
 62
     0
100
AcDbLine
 10
142.3553291738242
 20
127.6446708261758
 30
0.0
 11
148.0747232964998
 21
121.9252767035002
 31
0.0
  0
ARC
  5
14C
330
14A
100
AcDbEntity
  8
CSLAYER1
 62
     0
100
AcDbCircle
 10
138.0
 20
132.0
 30
0.0
 40
14.06781032306619
100
AcDbArc
 50
270.7331141399206
 51
290.8433149940888
  0
ARC
  5
14D
330
14A
100
AcDbEntity
  8
CSLAYER1
 62
     0
100
AcDbCircle
 10
138.0
 20
132.0
 30
0.0
 40
14.06781032306619
100
AcDbArc
 50
294.1767759977027
 51
314.2668858600797
  0
SOLID
  5
14E
330
14A
100
AcDbEntity
  8
CSLAYER1
 62
     0
100
AcDbTrace
 10
138.1801882438686
 20
117.9033418560188
 30
0.0
 11
138.1798043888211
 21
117.9633406281338
 31
0.0
 12
138.0
 22
117.9321896769337
 32
0.0
 13
138.0
 23
117.9321896769337
 33
0.0
  0
SOLID
  5
14F
330
14A
100
AcDbEntity
  8
CSLAYER1
 62
     0
100
AcDbTrace
 10
147.7982761244298
 20
121.9474420703252
 30
0.0
 11
147.840430236548
 21
121.9047451051928
 31
0.0
 12
147.9474440758862
 22
122.0525559241138
 32
0.0
 13
147.9474440758862
 23
122.0525559241138
 33
0.0
  0
MTEXT
  5
150
330
14A
100
AcDbEntity
  8
CSLAYER1
 62
     0
100
AcDbMText
 10
143.383517940292
 20
119.0030379752681
 30
0.0
 40
0.18
 41
0.0
 71
     5
 72
     1
  1
\A1;45°
  0
POINT
  5
151
330
14A
100
AcDbEntity
  8
Defpoints
 62
     0
100
AcDbPoint
 10
141.6410172344994
 20
118.4115386896144
 30
0.0
  0
POINT
  5
152
330
14A
100
AcDbEntity
  8
Defpoints
 62
     0
100
AcDbPoint
 10
138.0
 20
131.0
 30
0.0
  0
POINT
  5
153
330
14A
100
AcDbEntity
  8
Defpoints
 62
     0
100
AcDbPoint
 10
142.311135
 20
127.688865
 30
0.0
  0
POINT
  5
154
330
14A
100
AcDbEntity
  8
Defpoints
 62
     0
100
AcDbPoint
 10
138.0
 20
132.0
 30
0.0
  0
POINT
  5
155
330
14A
100
AcDbEntity
  8
Defpoints
 62
     0
100
AcDbPoint
 10
138.0
 20
110.53219
 30
0.0
  0
ENDBLK
  5
157
330
14A
100
AcDbEntity
  8
0
100
AcDbBlockEnd
  0
ENDSEC
  0
SECTION
  2
ENTITIES
  0
POINT
  5
C4
330
1E
100
AcDbEntity
  8
CSLAYER1
 62
     3
100
AcDbPoint
 10
271.0
 20
53.5
 30
0.0
  0
POINT
  5
C5
330
1E
100
AcDbEntity
  8
CSLAYER1
 62
     3
100
AcDbPoint
 10
250.4999999999999
 20
53.5
 30
0.0
  0
TEXT
  5
C6
330
1E
100
AcDbEntity
  8
CSLAYER1
 62
     3
100
AcDbText
 10
238.099985
 20
51.00000399999999
 30
0.0
 40
5.0
  1
刃開キハ
 41
1.110447761194029
  7
FX_FONT
 72
     5
 11
262.899985
 21
51.00000399999999
 31
0.0
100
AcDbText
  0
TEXT
  5
C7
330
1E
100
AcDbEntity
  8
CSLAYER1
 62
     3
100
AcDbText
 10
268.5
 20
51.00000399999999
 30
0.0
 40
5.0
  1
8
 41
1.5
  7
FX_FONT
 72
     5
 11
273.4999999999999
 21
51.00000399999999
 31
0.0
100
AcDbText
  0
TEXT
  5
C8
330
1E
100
AcDbEntity
  8
CSLAYER1
 62
     3
100
AcDbText
 10
242.45
 20
17.25
 30
0.0
 40
3.5
  1
N20AE
 41
1.169387755102042
  7
FX_FONT
 72
     5
 11
261.55
 21
17.25
 31
0.0
100
AcDbText
  0
POINT
  5
C9
330
1E
100
AcDbEntity
  8
CSLAYER1
 62
     3
100
AcDbPoint
 10
166.0
 20
73.0
 30
0.0
  0
INSERT
  5
CA
330
1E
100
AcDbEntity
  8
CSLAYER1
100
AcDbBlockReference
  2
FXDIM0000
 10
0.0
 20
0.0
 30
0.0
  0
DIMENSION
  5
CB
330
1E
100
AcDbEntity
  8
CSLAYER1
 62
     4
100
AcDbDimension
  2
*D1
 10
129.6583919999999
 20
79.0
 30
0.0
 11
127.9333339999999
 21
78.333336
 31
0.0
 70
     1
100
AcDbAlignedDimension
 13
138.0
 23
67.0
 33
0.0
 14
138.0
 24
79.0
 34
0.0
  0
INSERT
  5
CC
330
1E
100
AcDbEntity
  8
CSLAYER1
100
AcDbBlockReference
  2
FXDIM0001
 10
0.0
 20
0.0
 30
0.0
  0
INSERT
  5
CD
330
1E
100
AcDbEntity
  8
CSLAYER1
100
AcDbBlockReference
  2
FXDIM0002
 10
0.0
 20
0.0
 30
0.0
  0
POINT
  5
CE
330
1E
100
AcDbEntity
  8
CSLAYER1
 62
     3
100
AcDbPoint
 10
252.0
 20
19.0
 30
0.0
  0
LINE
  5
CF
330
1E
100
AcDbEntity
  8
CSLAYER1
  6
CONTINUOUS
 62
     3
100
AcDbLine
 10
238.0
 20
50.0
 30
0.0
 11
279.0
 21
50.0
 31
0.0
  0
LINE
  5
D0
330
1E
100
AcDbEntity
  8
CSLAYER1
  6
CONTINUOUS
 62
     3
100
AcDbLine
 10
138.0
 20
67.0
 30
0.0
 11
138.0
 21
79.0
 31
0.0
  0
LINE
  5
D1
330
1E
100
AcDbEntity
  8
CSLAYER1
  6
CONTINUOUS
 62
     3
100
AcDbLine
 10
138.0
 20
79.0
 30
0.0
 11
186.0
 21
79.0
 31
0.0
  0
LINE
  5
D2
330
1E
100
AcDbEntity
  8
CSLAYER1
  6
CONTINUOUS
 62
     3
100
AcDbLine
 10
186.0
 20
79.0
 30
0.0
 11
220.849326
 21
78.346575
 31
0.0
  0
ARC
  5
D3
330
1E
100
AcDbEntity
  8
CSLAYER1
  6
CONTINUOUS
 62
     3
100
AcDbCircle
 10
220.750905
 20
73.097498
 30
0.0
 40
5.25
100
AcDbArc
 50
358.935899
 51
88.92583
  0
LINE
  5
D4
330
1E
100
AcDbEntity
  8
CSLAYER1
  6
CONTINUOUS
 62
     3
100
AcDbLine
 10
220.849326
 20
67.653425
 30
0.0
 11
186.0
 21
67.0
 31
0.0
  0
LINE
  5
D5
330
1E
100
AcDbEntity
  8
CSLAYER1
  6
CONTINUOUS
 62
     3
100
AcDbLine
 10
186.0
 20
67.0
 30
0.0
 11
138.0
 21
67.0
 31
0.0
  0
LINE
  5
D6
330
1E
100
AcDbEntity
  8
CSLAYER1
  6
CONTINUOUS
 62
     3
100
AcDbLine
 10
155.3990639999999
 20
67.0
 30
0.0
 11
155.3990639999999
 21
72.0
 31
0.0
  0
LINE
  5
D7
330
1E
100
AcDbEntity
  8
CSLAYER1
  6
CONTINUOUS
 62
     3
100
AcDbLine
 10
156.3990639999999
 20
73.0
 30
0.0
 11
175.663577
 21
73.0
 31
0.0
  0
ARC
  5
D8
330
1E
100
AcDbEntity
  8
CSLAYER1
  6
CONTINUOUS
 62
     3
100
AcDbCircle
 10
175.663577
 20
74.0
 30
0.0
 40
1.0
100
AcDbArc
 50
270.0
 51
0.0
  0
LINE
  5
D9
330
1E
100
AcDbEntity
  8
CSLAYER1
  6
CONTINUOUS
 62
     3
100
AcDbLine
 10
176.663577
 20
74.0
 30
0.0
 11
176.663577
 21
79.0
 31
0.0
  0
LINE
  5
DA
330
1E
100
AcDbEntity
  8
CSLAYER1
  6
CONTINUOUS
 62
     3
100
AcDbLine
 10
170.8989789999999
 20
79.0
 30
0.0
 11
170.8989789999999
 21
73.5
 31
0.0
  0
LINE
  5
DB
330
1E
100
AcDbEntity
  8
CSLAYER1
  6
CONTINUOUS
 62
     3
100
AcDbLine
 10
170.8989789999999
 20
73.5
 30
0.0
 11
170.398979
 21
73.0
 31
0.0
  0
LINE
  5
DC
330
1E
100
AcDbEntity
  8
CSLAYER1
  6
CONTINUOUS
 62
     3
100
AcDbLine
 10
161.6010209999999
 20
73.0
 30
0.0
 11
161.101021
 21
72.5
 31
0.0
  0
LINE
  5
DD
330
1E
100
AcDbEntity
  8
CSLAYER1
  6
CONTINUOUS
 62
     3
100
AcDbLine
 10
161.101021
 20
72.5
 30
0.0
 11
161.101021
 21
67.0
 31
0.0
  0
ARC
  5
DE
330
1E
100
AcDbEntity
  8
CSLAYER1
  6
CONTINUOUS
 62
     3
100
AcDbCircle
 10
156.3990639999999
 20
72.0
 30
0.0
 40
1.0
100
AcDbArc
 50
90.0
 51
180.0
  0
LINE
  5
DF
330
1E
100
AcDbEntity
  8
CSLAYER1
  6
CONTINUOUS
 62
     3
100
AcDbLine
 10
149.1038669999999
 20
126.5
 30
0.0
 11
176.0
 21
126.5
 31
0.0
  0
LINE
  5
E0
330
1E
100
AcDbEntity
  8
CSLAYER1
  6
CONTINUOUS
 62
     3
100
AcDbLine
 10
176.0
 20
126.5
 30
0.0
 11
220.4960859999999
 21
130.059687
 31
0.0
  0
ARC
  5
E1
330
1E
100
AcDbEntity
  8
CSLAYER1
  6
CONTINUOUS
 62
     3
100
AcDbCircle
 10
220.0176149999999
 20
136.040579
 30
0.0
 40
6.0
100
AcDbArc
 50
274.5739209999999
 51
4.391449999999999
  0
LINE
  5
E2
330
1E
100
AcDbEntity
  8
CSLAYER1
  6
CONTINUOUS
 62
     3
100
AcDbLine
 10
226.0
 20
136.4999999999999
 30
0.0
 11
179.3
 21
136.4999999999999
 31
0.0
  0
LINE
  5
E3
330
1E
100
AcDbEntity
  8
CSLAYER1
  6
CONTINUOUS
 62
     3
100
AcDbLine
 10
179.6582429999999
 20
136.4999999999999
 30
0.0
 11
176.663577
 21
126.7048909999999
 31
0.0
  0
ARC
  5
E4
330
1E
100
AcDbEntity
  8
CSLAYER1
  6
CONTINUOUS
 62
     3
100
AcDbCircle
 10
166.0
 20
138.0
 30
0.0
 40
12.5
100
AcDbArc
 50
293.0739179999999
 51
0.0
  0
LINE
  5
E5
330
1E
100
AcDbEntity
  8
CSLAYER1
  6
CONTINUOUS
 62
     3
100
AcDbLine
 10
178.5
 20
138.7
 30
0.0
 11
178.5
 21
137.3
 31
0.0
  0
ARC
  5
E6
330
1E
100
AcDbEntity
  8
CSLAYER1
  6
CONTINUOUS
 62
     3
100
AcDbCircle
 10
179.3
 20
137.3
 30
0.0
 40
0.8
100
AcDbArc
 50
180.0
 51
270.0
  0
ARC
  5
E7
330
1E
100
AcDbEntity
  8
CSLAYER1
  6
CONTINUOUS
 62
     3
100
AcDbCircle
 10
179.3
 20
138.7
 30
0.0
 40
0.8
100
AcDbArc
 50
90.0
 51
180.0
  0
LINE
  5
E8
330
1E
100
AcDbEntity
  8
CSLAYER1
  6
CONTINUOUS
 62
     3
100
AcDbLine
 10
179.3
 20
139.5
 30
0.0
 11
226.0
 21
139.5
 31
0.0
  0
ARC
  5
E9
330
1E
100
AcDbEntity
  8
CSLAYER1
  6
CONTINUOUS
 62
     3
100
AcDbCircle
 10
220.0176149999999
 20
139.9594209999999
 30
0.0
 40
6.0
100
AcDbArc
 50
355.60855
 51
85.42607900000001
  0
LINE
  5
EA
330
1E
100
AcDbEntity
  8
CSLAYER1
  6
CONTINUOUS
 62
     3
100
AcDbLine
 10
220.4960859999999
 20
145.9403129999999
 30
0.0
 11
176.0
 21
149.5
 31
0.0
  0
LINE
  5
EB
330
1E
100
AcDbEntity
  8
CSLAYER1
  6
CONTINUOUS
 62
     3
100
AcDbLine
 10
176.0
 20
149.5
 30
0.0
 11
149.1038669999999
 21
149.5
 31
0.0
  0
LINE
  5
EC
330
1E
100
AcDbEntity
  8
CSLAYER1
  6
CONTINUOUS
 62
     3
100
AcDbLine
 10
138.0
 20
144.0
 30
0.0
 11
138.0
 21
132.0
 31
0.0
  0
LINE
  5
ED
330
1E
100
AcDbEntity
  8
CSLAYER1
  6
CONTINUOUS
 62
     3
100
AcDbLine
 10
152.708534
 20
140.6996739999999
 30
0.0
 11
155.3990639999999
 21
149.5
 31
0.0
  0
ARC
  5
EE
330
1E
100
AcDbEntity
  8
CSLAYER1
  6
CONTINUOUS
 62
     3
100
AcDbCircle
 10
166.0
 20
138.0
 30
0.0
 40
12.5
100
AcDbArc
 50
113.0739179999999
 51
180.0
  0
ARC
  5
EF
330
1E
100
AcDbEntity
  8
CSLAYER1
  6
CONTINUOUS
 62
     3
100
AcDbCircle
 10
144.0
 20
138.0
 30
0.0
 40
5.0
100
AcDbArc
 50
90.0
 51
155.5853179999999
  0
LINE
  5
F0
330
1E
100
AcDbEntity
  8
CSLAYER1
  6
CONTINUOUS
 62
     3
100
AcDbLine
 10
139.447111
 20
140.0666889999999
 30
0.0
 11
138.0
 21
138.0
 31
0.0
  0
ARC
  5
F1
330
1E
100
AcDbEntity
  8
CSLAYER1
  6
CONTINUOUS
 62
     3
100
AcDbCircle
 10
144.0
 20
138.0
 30
0.0
 40
5.0
100
AcDbArc
 50
204.4146819999999
 51
270.0
  0
CIRCLE
  5
F2
330
1E
100
AcDbEntity
  8
CSLAYER1
  6
CONTINUOUS
 62
     3
100
AcDbCircle
 10
166.0
 20
138.0
 30
0.0
 40
2.049999999999999
  0
CIRCLE
  5
F3
330
1E
100
AcDbEntity
  8
CSLAYER1
  6
CONTINUOUS
 62
     3
100
AcDbCircle
 10
166.0
 20
138.0
 30
0.0
 40
8.55
  0
LINE
  5
F4
330
1E
100
AcDbEntity
  8
CSLAYER1
  6
CONTINUOUS
 62
     3
100
AcDbLine
 10
216.5
 20
139.5
 30
0.0
 11
216.5
 21
136.4999999999999
 31
0.0
  0
LINE
  5
F5
330
1E
100
AcDbEntity
  8
CSLAYER1
  6
CONTINUOUS
 62
     3
100
AcDbLine
 10
222.5
 20
136.4999999999999
 30
0.0
 11
222.5
 21
139.5
 31
0.0
  0
ARC
  5
F6
330
1E
100
AcDbEntity
  8
CSLAYER1
  6
CONTINUOUS
 62
     3
100
AcDbCircle
 10
220.750905
 20
72.902502
 30
0.0
 40
5.25
100
AcDbArc
 50
271.0741699999999
 51
1.064100999999999
  0
LINE
  5
F7
330
1E
100
AcDbEntity
  8
CSLAYER1
  6
CENTER
 62
     4
100
AcDbLine
 10
150.29379
 20
73.0
 30
0.0
 11
155.3990639999999
 21
73.0
 31
0.0
  0
LINE
  5
F8
330
1E
100
AcDbEntity
  8
CSLAYER1
  6
CENTER
 62
     4
100
AcDbLine
 10
166.0
 20
63.46479999999999
 30
0.0
 11
166.0
 21
82.66174499999999
 31
0.0
  0
LINE
  5
F9
330
1E
100
AcDbEntity
  8
CSLAYER1
  6
CENTER
 62
     4
100
AcDbLine
 10
176.663577
 20
73.0
 30
0.0
 11
182.0
 21
73.0
 31
0.0
  0
LINE
  5
FA
330
1E
100
AcDbEntity
  8
CSLAYER1
  6
CENTER
 62
     4
100
AcDbLine
 10
219.5922819999999
 20
73.0
 30
0.0
 11
230.9730189999999
 21
73.0
 31
0.0
  0
LINE
  5
FB
330
1E
100
AcDbEntity
  8
CSLAYER1
  6
CENTER
 62
     4
100
AcDbLine
 10
219.4999999999999
 20
134.1151519999999
 30
0.0
 11
219.4999999999999
 21
142.008485
 31
0.0
  0
LINE
  5
FC
330
1E
100
AcDbEntity
  8
CSLAYER1
  6
CENTER
 62
     4
100
AcDbLine
 10
228.5060609999999
 20
138.0
 30
0.0
 11
134.8042969999999
 21
138.0
 31
0.0
  0
LINE
  5
FD
330
1E
100
AcDbEntity
  8
CSLAYER1
  6
CENTER
 62
     4
100
AcDbLine
 10
184.0
 20
132.1250779999999
 30
0.0
 11
184.0
 21
144.2249979999999
 31
0.0
  0
LINE
  5
FE
330
1E
100
AcDbEntity
  8
CSLAYER1
  6
CENTER
 62
     4
100
AcDbLine
 10
166.0
 20
152.563033
 30
0.0
 11
166.0
 21
123.314107
 31
0.0
  0
LINE
  5
FF
330
1E
100
AcDbEntity
  8
CSLAYER1
  6
CONTINUOUS
 62
     3
100
AcDbLine
 10
144.0
 20
143.0
 30
0.0
 11
148.5
 21
143.0
 31
0.0
  0
LINE
  5
100
330
1E
100
AcDbEntity
  8
CSLAYER1
  6
CONTINUOUS
 62
     3
100
AcDbLine
 10
144.0
 20
133.0
 30
0.0
 11
148.5
 21
133.0
 31
0.0
  0
ARC
  5
101
330
1E
100
AcDbEntity
  8
CSLAYER1
  6
CONTINUOUS
 62
     3
100
AcDbCircle
 10
148.5
 20
138.0
 30
0.0
 40
5.0
100
AcDbArc
 50
270.0
 51
90.0
  0
ARC
  5
102
330
1E
100
AcDbEntity
  8
CSLAYER1
  6
CONTINUOUS
 62
     3
100
AcDbCircle
 10
149.1038669999999
 20
129.4999999999999
 30
0.0
 40
20.0
100
AcDbArc
 50
90.0
 51
109.854736
  0
LINE
  5
103
330
1E
100
AcDbEntity
  8
CSLAYER1
  6
CONTINUOUS
 62
     3
100
AcDbLine
 10
138.0
 20
144.0
 30
0.0
 11
142.311135
 21
148.311135
 31
0.0
  0
LINE
  5
104
330
1E
100
AcDbEntity
  8
CSLAYER1
  6
CONTINUOUS
 62
     3
100
AcDbLine
 10
138.0
 20
132.0
 30
0.0
 11
142.311135
 21
127.6888649999999
 31
0.0
  0
LINE
  5
105
330
1E
100
AcDbEntity
  8
CSLAYER1
  6
CONTINUOUS
 62
     3
100
AcDbLine
 10
142.311135
 20
79.0
 30
0.0
 11
142.311135
 21
67.0
 31
0.0
  0
ARC
  5
106
330
1E
100
AcDbEntity
  8
CSLAYER1
  6
CONTINUOUS
 62
     3
100
AcDbCircle
 10
149.1038669999999
 20
146.5
 30
0.0
 40
20.0
100
AcDbArc
 50
250.145264
 51
270.0
  0
LINE
  5
107
330
1E
100
AcDbEntity
  8
CSLAYER1
  6
CONTINUOUS
 62
     3
100
AcDbLine
 10
139.447111
 20
135.933311
 30
0.0
 11
138.0
 21
138.0
 31
0.0
  0
DIMENSION
  5
108
330
1E
100
AcDbEntity
  8
CSLAYER1
 62
     4
100
AcDbDimension
  2
*D4
 10
119.533336
 20
149.5
 30
0.0
 11
118.533333
 21
138.0
 31
0.0
 70
     1
100
AcDbAlignedDimension
 13
149.1038669999999
 23
126.5
 33
0.0
 14
149.1038669999999
 24
149.5
 34
0.0
  0
DIMENSION
  5
109
330
1E
100
AcDbEntity
  8
CSLAYER1
 62
     4
100
AcDbDimension
  2
*D5
 10
125.533336
 20
144.0
 30
0.0
 11
124.533333
 21
138.0
 31
0.0
 70
     1
100
AcDbAlignedDimension
 13
138.0
 23
132.0
 33
0.0
 14
138.0
 24
144.0
 34
0.0
  0
DIMENSION
  5
10A
330
1E
100
AcDbEntity
  8
CSLAYER1
 62
     4
100
AcDbDimension
  2
*D13
 10
139.447111
 20
140.0666889999999
 30
0.0
 11
144.131065298404
 21
157.4452572212123
 31
0.0
 70
    34
  3
STANDARD
100
AcDb2LineAngularDimension
 13
138.0
 23
167.9414449999999
 33
0.0
 14
138.0
 24
145.0
 34
0.0
 15
138.0
 25
138.0
 35
0.0
 16
146.0756371172663
 26
156.7214335787255
 36
0.0
  0
DIMENSION
  5
10B
330
1E
100
AcDbEntity
  8
CSLAYER1
 62
     4
100
AcDbDimension
  2
*D7
 10
148.5
 20
143.0
 30
0.0
 11
147.5
 21
138.0
 31
0.0
 70
     1
100
AcDbAlignedDimension
 13
144.0
 23
133.0
 33
0.0
 14
144.0
 24
143.0
 34
0.0
  0
DIMENSION
  5
10C
330
1E
100
AcDbEntity
  8
CSLAYER1
 62
     4
100
AcDbDimension
  2
*D14
 10
138.0
 20
110.5321899999999
 30
0.0
 11
143.3835179402921
 21
119.0030379752682
 31
0.0
 70
    34
  3
STANDARD
100
AcDb2LineAngularDimension
 13
142.311135
 23
127.6888649999999
 33
0.0
 14
138.0
 24
132.0
 34
0.0
 15
138.0
 25
131.0
 35
0.0
 16
141.6410172344994
 26
118.4115386896144
 36
0.0
  0
DIMENSION
  5
10D
330
1E
100
AcDbEntity
  8
CSLAYER1
 62
     4
100
AcDbDimension
  2
*D9
 10
149.1038669999999
 20
146.5
 30
0.0
 11
158.7400669999999
 21
118.7880709999999
 31
0.0
 70
     4
100
AcDbRadialDimension
 15
144.2845829999999
 25
127.0893199999999
 35
0.0
 40
0.0
  0
LINE
  5
10E
330
1E
100
AcDbEntity
  8
CSLAYER1
  6
CONTINUOUS
 62
     4
100
AcDbLine
 10
138.0
 20
132.0
 30
0.0
 11
138.0
 21
116.149628
 31
0.0
  0
DIMENSION
  5
10F
330
1E
100
AcDbEntity
  8
CSLAYER1
 62
     4
100
AcDbDimension
  2
*D10
 10
166.0
 20
170.558252
 30
0.0
 11
152.0
 21
171.5582429999999
 31
0.0
100
AcDbAlignedDimension
 13
138.0
 23
144.0
 33
0.0
 14
166.0
 24
152.563033
 34
0.0
100
AcDbRotatedDimension
  0
DIMENSION
  5
110
330
1E
100
AcDbEntity
  8
CSLAYER1
 62
     4
100
AcDbDimension
  2
*D11
 10
153.5
 20
164.558252
 30
0.0
 11
145.75
 21
165.558243
 31
0.0
100
AcDbAlignedDimension
 13
138.0
 23
144.0
 33
0.0
 14
153.5
 24
138.0
 34
0.0
100
AcDbRotatedDimension
  0
LINE
  5
111
330
1E
100
AcDbEntity
  8
CSLAYER1
  6
CONTINUOUS
 62
     3
100
AcDbLine
 10
81.54557
 20
46.84394199999999
 30
0.0
 11
66.465592
 21
49.020549
 31
0.0
  0
LINE
  5
112
330
1E
100
AcDbEntity
  8
CSLAYER1
  6
CONTINUOUS
 62
     3
100
AcDbLine
 10
54.6899
 20
45.16322699999999
 30
0.0
 11
53.83275699999999
 21
39.224768
 31
0.0
  0
LINE
  5
113
330
1E
100
AcDbEntity
  8
CSLAYER1
  6
CONTINUOUS
 62
     3
100
AcDbLine
 10
68.776098
 20
39.795532
 30
0.0
 11
72.69622199999999
 21
48.121235
 31
0.0
  0
ARC
  5
114
330
1E
100
AcDbEntity
  8
CSLAYER1
  6
CONTINUOUS
 62
     3
100
AcDbCircle
 10
81.54557
 20
35.22476799999999
 30
0.0
 40
12.5
100
AcDbArc
 50
121.287129
 51
188.213211
  0
ARC
  5
115
330
1E
100
AcDbEntity
  8
CSLAYER1
  6
CONTINUOUS
 62
     3
100
AcDbCircle
 10
59.77121700000001
 20
38.36762499999999
 30
0.0
 40
5.0
100
AcDbArc
 50
81.78678899999999
 51
147.3721079999999
  0
LINE
  5
116
330
1E
100
AcDbEntity
  8
CSLAYER1
  6
CONTINUOUS
 62
     3
100
AcDbLine
 10
55.560267
 20
41.063529
 30
0.0
 11
53.83275699999999
 21
39.224768
 31
0.0
  0
CIRCLE
  5
117
330
1E
100
AcDbEntity
  8
CSLAYER1
  6
CONTINUOUS
 62
     3
100
AcDbCircle
 10
81.54557
 20
35.22476799999999
 30
0.0
 40
2.049999999999999
  0
CIRCLE
  5
118
330
1E
100
AcDbEntity
  8
CSLAYER1
  6
CONTINUOUS
 62
     3
100
AcDbCircle
 10
81.54557
 20
35.22476799999999
 30
0.0
 40
8.55
  0
LINE
  5
119
330
1E
100
AcDbEntity
  8
CSLAYER1
  6
CENTER
 62
     4
100
AcDbLine
 10
97.456334
 20
35.22476799999999
 30
0.0
 11
50.349867
 21
35.22476799999999
 31
0.0
  0
LINE
  5
11A
330
1E
100
AcDbEntity
  8
CSLAYER1
  6
CENTER
 62
     4
100
AcDbLine
 10
81.54557
 20
49.7878
 30
0.0
 11
81.54557
 21
20.538874
 31
0.0
  0
LINE
  5
11B
330
1E
100
AcDbEntity
  8
CSLAYER1
  6
CONTINUOUS
 62
     3
100
AcDbLine
 10
60.485503
 20
43.31634099999999
 30
0.0
 11
64.93934799999999
 21
42.673484
 31
0.0
  0
ARC
  5
11C
330
1E
100
AcDbEntity
  8
CSLAYER1
  6
CONTINUOUS
 62
     3
100
AcDbCircle
 10
64.22506199999999
 20
37.72476799999999
 30
0.0
 40
5.0
100
AcDbArc
 50
351.786789
 51
81.78678899999999
  0
ARC
  5
11D
330
1E
100
AcDbEntity
  8
CSLAYER1
  6
CONTINUOUS
 62
     3
100
AcDbCircle
 10
63.608449
 20
29.225683
 30
0.0
 40
20.0
100
AcDbArc
 50
81.78678899999999
 51
101.641526
  0
LINE
  5
11E
330
1E
100
AcDbEntity
  8
CSLAYER1
  6
CONTINUOUS
 62
     3
100
AcDbLine
 10
54.6899
 20
45.16322699999999
 30
0.0
 11
59.572693
 21
48.81426799999999
 31
0.0
  0
LINE
  5
11F
330
1E
100
AcDbEntity
  8
CSLAYER1
  6
CONTINUOUS
 62
     3
100
AcDbLine
 10
91.37387099999999
 20
25.024187
 30
0.0
 11
66.465592
 21
21.428986
 31
0.0
  0
LINE
  5
120
330
1E
100
AcDbEntity
  8
CSLAYER1
  6
CONTINUOUS
 62
     3
100
AcDbLine
 10
54.6899
 20
25.286308
 30
0.0
 11
53.83275699999999
 21
31.224768
 31
0.0
  0
ARC
  5
121
330
1E
100
AcDbEntity
  8
CSLAYER1
  6
CONTINUOUS
 62
     3
100
AcDbCircle
 10
59.77121700000001
 20
32.08191
 30
0.0
 40
5.0
100
AcDbArc
 50
212.6278919999999
 51
278.213211
  0
LINE
  5
122
330
1E
100
AcDbEntity
  8
CSLAYER1
  6
CONTINUOUS
 62
     3
100
AcDbLine
 10
55.560267
 20
29.386006
 30
0.0
 11
53.83275699999999
 21
31.224768
 31
0.0
  0
LINE
  5
123
330
1E
100
AcDbEntity
  8
CSLAYER1
  6
CONTINUOUS
 62
     3
100
AcDbLine
 10
60.485503
 20
27.133194
 30
0.0
 11
64.93934799999999
 21
27.776051
 31
0.0
  0
ARC
  5
124
330
1E
100
AcDbEntity
  8
CSLAYER1
  6
CONTINUOUS
 62
     3
100
AcDbCircle
 10
64.22506199999999
 20
32.72476799999999
 30
0.0
 40
5.0
100
AcDbArc
 50
278.213211
 51
8.213210999999999
  0
ARC
  5
125
330
1E
100
AcDbEntity
  8
CSLAYER1
  6
CONTINUOUS
 62
     3
100
AcDbCircle
 10
63.608449
 20
41.223852
 30
0.0
 40
20.0
100
AcDbArc
 50
258.358474
 51
278.213211
  0
LINE
  5
126
330
1E
100
AcDbEntity
  8
CSLAYER1
  6
CONTINUOUS
 62
     3
100
AcDbLine
 10
54.6899
 20
25.286308
 30
0.0
 11
59.572693
 21
21.635267
 31
0.0
  0
LINE
  5
127
330
1E
100
AcDbEntity
  8
CSLAYER1
  6
CONTINUOUS
 62
     3
100
AcDbLine
 10
88.256674
 20
47.812606
 30
0.0
 11
75.053981
 21
45.906962
 31
0.0
  0
DIMENSION
  5
128
330
1E
100
AcDbEntity
  8
CSLAYER1
 62
     4
100
AcDbDimension
  2
*D12
 10
45.31392499999999
 20
39.224768
 30
0.0
 11
44.31392699999999
 21
35.22476599999999
 31
0.0
 70
     1
100
AcDbAlignedDimension
 13
53.83275699999999
 23
31.224768
 33
0.0
 14
53.83275699999999
 24
39.224768
 34
0.0
  0
LINE
  5
129
330
1E
100
AcDbEntity
  8
CSLAYER1
  6
DOT
 62
     3
100
AcDbLine
 10
4.0
 20
1.0
 30
0.0
 11
283.0
 21
1.0
 31
0.0
  0
LINE
  5
12A
330
1E
100
AcDbEntity
  8
CSLAYER1
  6
DOT
 62
     3
100
AcDbLine
 10
283.0
 20
1.0
 30
0.0
 11
283.0
 21
195.0
 31
0.0
  0
LINE
  5
12B
330
1E
100
AcDbEntity
  8
CSLAYER1
  6
DOT
 62
     3
100
AcDbLine
 10
283.0
 20
195.0
 30
0.0
 11
4.0
 21
195.0
 31
0.0
  0
LINE
  5
12C
330
1E
100
AcDbEntity
  8
CSLAYER1
  6
DOT
 62
     3
100
AcDbLine
 10
4.0
 20
195.0
 30
0.0
 11
4.0
 21
1.0
 31
0.0
  0
LINE
  5
12D
330
1E
100
AcDbEntity
  8
CSLAYER1
  6
DOT
 62
     3
100
AcDbLine
 10
283.0
 20
98.0
 30
0.0
 11
287.0
 21
98.0
 31
0.0
  0
LINE
  5
12E
330
1E
100
AcDbEntity
  8
CSLAYER1
  6
DOT
 62
     3
100
AcDbLine
 10
143.5
 20
195.0
 30
0.0
 11
143.5
 21
199.0
 31
0.0
  0
LINE
  5
12F
330
1E
100
AcDbEntity
  8
CSLAYER1
  6
DOT
 62
     3
100
AcDbLine
 10
4.0
 20
98.0
 30
0.0
 11
0.0
 21
98.0
 31
0.0
  0
ENDSEC
  0
SECTION
  2
OBJECTS
  0
DICTIONARY
  5
C
330
0
100
AcDbDictionary
  3
ACAD_GROUP
350
D
  3
ACAD_LAYOUT
350
19
  3
ACAD_MLINESTYLE
350
16
  3
ACAD_PLOTSETTINGS
350
18
1001
ACAD
1000
TREAT_AS_HARD
1070
     0
  0
DICTIONARY
  5
139
330
1E
100
AcDbDictionary
  3
ACAD_LAYOUTSELFREF
350
13A
  0
DICTIONARY
  5
137
330
1A
100
AcDbDictionary
  3
ACAD_LAYOUTSELFREF
350
138
  0
DICTIONARY
  5
D
102
{ACAD_REACTORS
330
C
102
}
330
C
100
AcDbDictionary
1001
ACAD
1000
TREAT_AS_HARD
1070
     0
  0
DICTIONARY
  5
19
102
{ACAD_REACTORS
330
C
102
}
330
C
100
AcDbDictionary
1001
ACAD
1000
TREAT_AS_HARD
1070
     0
  0
DICTIONARY
  5
16
102
{ACAD_REACTORS
330
C
102
}
330
C
100
AcDbDictionary
  3
STANDARD
350
17
1001
ACAD
1000
TREAT_AS_HARD
1070
     0
  0
DICTIONARY
  5
18
102
{ACAD_REACTORS
330
C
102
}
330
C
100
AcDbDictionary
1001
ACAD
1000
TREAT_AS_HARD
1070
     0
  0
XRECORD
  5
13A
102
{ACAD_REACTORS
330
139
102
}
330
139
100
AcDbXrecord
340
1E
  0
XRECORD
  5
138
102
{ACAD_REACTORS
330
137
102
}
330
137
100
AcDbXrecord
340
1A
  0
MLINESTYLE
  5
17
102
{ACAD_REACTORS
330
16
102
}
330
16
100
AcDbMlineStyle
  2
STANDARD
 70
     0
  3

 62
   256
 51
90.0
 52
90.0
 71
     2
 49
0.5
 62
   256
  6
BYLAYER
 49
-0.5
 62
   256
  6
BYLAYER
  0
ENDSEC
  0
EOF
