  0
SECTION
  2
HEADER
  9
$ACADVER
  1
AC1012
  9
$DWGCODEPAGE
  3
dos932
  9
$INSBASE
 10
0.0
 20
0.0
 30
0.0
  9
$EXTMIN
 10
-0.0090630292066862
 20
0.9869389666558276
 30
-0.0015258207003583
  9
$EXTMAX
 10
283.0056159095904
 20
199.0155034058442
 30
0.0000000349246037
  9
$LIMMIN
 10
0.0
 20
0.0
  9
$LIMMAX
 10
297.0
 20
210.0
  9
$ORTHOMODE
 70
     0
  9
$REGENMODE
 70
     1
  9
$FILLMODE
 70
     1
  9
$QTEXTMODE
 70
     0
  9
$MIRRTEXT
 70
     1
  9
$DRAGMODE
 70
     2
  9
$LTSCALE
 40
15.0
  9
$OSMODE
 70
    37
  9
$ATTMODE
 70
     1
  9
$TEXTSIZE
 40
0.2
  9
$TRACEWID
 40
0.05
  9
$TEXTSTYLE
  7
GOTHIC
  9
$CLAYER
  8
CSLAYER1
  9
$CELTYPE
  6
BYLAYER
  9
$CECOLOR
 62
   256
  9
$CELTSCALE
 40
1.0
  9
$DELOBJ
 70
     1
  9
$DISPSILH
 70
     0
  9
$DIMSCALE
 40
1.0
  9
$DIMASZ
 40
0.18
  9
$DIMEXO
 40
0.0625
  9
$DIMDLI
 40
0.38
  9
$DIMRND
 40
0.0
  9
$DIMDLE
 40
0.0
  9
$DIMEXE
 40
0.18
  9
$DIMTP
 40
0.0
  9
$DIMTM
 40
0.0
  9
$DIMTXT
 40
0.18
  9
$DIMCEN
 40
0.09
  9
$DIMTSZ
 40
0.0
  9
$DIMTOL
 70
     0
  9
$DIMLIM
 70
     0
  9
$DIMTIH
 70
     1
  9
$DIMTOH
 70
     1
  9
$DIMSE1
 70
     0
  9
$DIMSE2
 70
     0
  9
$DIMTAD
 70
     0
  9
$DIMZIN
 70
     0
  9
$DIMBLK
  1

  9
$DIMASO
 70
     1
  9
$DIMSHO
 70
     1
  9
$DIMPOST
  1

  9
$DIMAPOST
  1

  9
$DIMALT
 70
     0
  9
$DIMALTD
 70
     2
  9
$DIMALTF
 40
25.4
  9
$DIMLFAC
 40
1.0
  9
$DIMTOFL
 70
     0
  9
$DIMTVP
 40
0.0
  9
$DIMTIX
 70
     0
  9
$DIMSOXD
 70
     0
  9
$DIMSAH
 70
     0
  9
$DIMBLK1
  1

  9
$DIMBLK2
  1

  9
$DIMSTYLE
  2
STANDARD
  9
$DIMCLRD
 70
     0
  9
$DIMCLRE
 70
     0
  9
$DIMCLRT
 70
     0
  9
$DIMTFAC
 40
1.0
  9
$DIMGAP
 40
0.09
  9
$DIMJUST
 70
     0
  9
$DIMSD1
 70
     0
  9
$DIMSD2
 70
     0
  9
$DIMTOLJ
 70
     1
  9
$DIMTZIN
 70
     0
  9
$DIMALTZ
 70
     0
  9
$DIMALTTZ
 70
     0
  9
$DIMFIT
 70
     3
  9
$DIMUPT
 70
     0
  9
$DIMUNIT
 70
     2
  9
$DIMDEC
 70
     4
  9
$DIMTDEC
 70
     4
  9
$DIMALTU
 70
     2
  9
$DIMALTTD
 70
     2
  9
$DIMTXSTY
  7
STANDARD
  9
$DIMAUNIT
 70
     0
  9
$LUNITS
 70
     2
  9
$LUPREC
 70
     4
  9
$SKETCHINC
 40
0.1
  9
$FILLETRAD
 40
0.0
  9
$AUNITS
 70
     0
  9
$AUPREC
 70
     0
  9
$MENU
  1
ACAD
  9
$ELEVATION
 40
0.0
  9
$PELEVATION
 40
0.0
  9
$THICKNESS
 40
0.0
  9
$LIMCHECK
 70
     0
  9
$BLIPMODE
 70
     1
  9
$CHAMFERA
 40
0.0
  9
$CHAMFERB
 40
0.0
  9
$CHAMFERC
 40
0.0
  9
$CHAMFERD
 40
0.0
  9
$SKPOLY
 70
     0
  9
$TDCREATE
 40
2453481.000000000
  9
$TDUPDATE
 40
2453516.558551851
  9
$TDINDWG
 40
0.0014386343
  9
$TDUSRTIMER
 40
0.0014385185
  9
$USRTIMER
 70
     1
  9
$ANGBASE
 50
0.0
  9
$ANGDIR
 70
     0
  9
$PDMODE
 70
     0
  9
$PDSIZE
 40
0.0
  9
$PLINEWID
 40
0.0
  9
$COORDS
 70
     0
  9
$SPLFRAME
 70
     0
  9
$SPLINETYPE
 70
     6
  9
$SPLINESEGS
 70
     8
  9
$ATTDIA
 70
     0
  9
$ATTREQ
 70
     1
  9
$HANDLING
 70
-16383
  9
$HANDSEED
  5
1EE
  9
$SURFTAB1
 70
     6
  9
$SURFTAB2
 70
     6
  9
$SURFTYPE
 70
     6
  9
$SURFU
 70
     6
  9
$SURFV
 70
     6
  9
$UCSNAME
  2

  9
$UCSORG
 10
0.0
 20
0.0
 30
0.0
  9
$UCSXDIR
 10
1.0
 20
0.0
 30
0.0
  9
$UCSYDIR
 10
0.0
 20
1.0
 30
0.0
  9
$PUCSNAME
  2

  9
$PUCSORG
 10
0.0
 20
0.0
 30
0.0
  9
$PUCSXDIR
 10
1.0
 20
0.0
 30
0.0
  9
$PUCSYDIR
 10
0.0
 20
1.0
 30
0.0
  9
$USERI1
 70
     0
  9
$USERI2
 70
     0
  9
$USERI3
 70
     0
  9
$USERI4
 70
     0
  9
$USERI5
 70
     0
  9
$USERR1
 40
0.0
  9
$USERR2
 40
0.0
  9
$USERR3
 40
0.0
  9
$USERR4
 40
0.0
  9
$USERR5
 40
0.0
  9
$WORLDVIEW
 70
     1
  9
$SHADEDGE
 70
     3
  9
$SHADEDIF
 70
    70
  9
$TILEMODE
 70
     1
  9
$MAXACTVP
 70
    64
  9
$PINSBASE
 10
0.0
 20
0.0
 30
0.0
  9
$PLIMCHECK
 70
     0
  9
$PEXTMIN
 10
1.000000000000000E+20
 20
1.000000000000000E+20
 30
1.000000000000000E+20
  9
$PEXTMAX
 10
-1.000000000000000E+20
 20
-1.000000000000000E+20
 30
-1.000000000000000E+20
  9
$PLIMMIN
 10
0.0
 20
0.0
  9
$PLIMMAX
 10
12.0
 20
9.0
  9
$UNITMODE
 70
     0
  9
$VISRETAIN
 70
     1
  9
$PLINEGEN
 70
     0
  9
$PSLTSCALE
 70
     1
  9
$TREEDEPTH
 70
  3020
  9
$PICKSTYLE
 70
     3
  9
$CMLSTYLE
  2
STANDARD
  9
$CMLJUST
 70
     0
  9
$CMLSCALE
 40
1.0
  9
$SAVEIMAGES
 70
     1
  0
ENDSEC
  0
SECTION
  2
CLASSES
  0
CLASS
  1
ACDBDICTIONARYWDFLT
  2
AcDbDictionaryWithDefault
  3
AutoCAD 2000
 90
    32768
280
     0
281
     0
  0
CLASS
  1
ACDBPLACEHOLDER
  2
AcDbPlaceHolder
  3
AutoCAD 2000
 90
    32768
280
     0
281
     0
  0
CLASS
  1
LAYOUT
  2
AcDbLayout
  3
AutoCAD 2000
 90
    32768
280
     0
281
     0
  0
CLASS
  1
DICTIONARYVAR
  2
AcDbDictionaryVar
  3
AutoCAD 2000
 90
    32768
280
     0
281
     0
  0
CLASS
  1
LONG_TRANSACTION
  2
AcDbLongTransaction
  3
AutoCAD 2000
 90
    32768
280
     0
281
     0
  0
CLASS
  1
LWPOLYLINE
  2
AcDbPolyline
  3
AutoCAD 2000
 90
    32768
280
     0
281
     1
  0
CLASS
  1
HATCH
  2
AcDbHatch
  3
AutoCAD 2000
 90
    32768
280
     0
281
     1
  0
CLASS
  1
XRECORD
  2
AcDbXrecord
  3
AutoCAD 2000
 90
    32768
280
     0
281
     0
  0
CLASS
  1
LONG_TRANSACTION
  2
AcDbLongTransaction
  3
AutoCAD 2000
 90
    32768
280
     0
281
     0
  0
CLASS
  1
LWPOLYLINE
  2
AcDbPolyline
  3
AutoCAD 2000
 90
    32768
280
     0
281
     1
  0
CLASS
  1
HATCH
  2
AcDbHatch
  3
AutoCAD 2000
 90
    32768
280
     0
281
     1
  0
CLASS
  1
XRECORD
  2
AcDbXrecord
  3
AutoCAD 2000
 90
    32768
280
     0
281
     0
  0
ENDSEC
  0
SECTION
  2
TABLES
  0
TABLE
  2
VPORT
  5
8
330
0
100
AcDbSymbolTable
 70
     2
  0
VPORT
  5
1EB
330
8
100
AcDbSymbolTableRecord
100
AcDbViewportTableRecord
  2
*ACTIVE
 70
     0
 10
0.0
 20
0.0
 11
1.0
 21
1.0
 12
141.4982764401918
 22
100.00122118625
 13
0.0
 23
0.0
 14
1.0
 24
1.0
 15
0.0
 25
0.0
 16
0.0
 26
0.0
 36
1.0
 17
0.0
 27
0.0
 37
0.0
 40
199.5156375138256
 41
1.510025062656641
 42
50.0
 43
0.0
 44
0.0
 50
0.0
 51
0.0
 71
     0
 72
   100
 73
     1
 74
     1
 75
     0
 76
     0
 77
     0
 78
     0
  0
ENDTAB
  0
TABLE
  2
LTYPE
  5
5
330
0
100
AcDbSymbolTable
 70
     4
  0
LTYPE
  5
13
330
5
100
AcDbSymbolTableRecord
100
AcDbLinetypeTableRecord
  2
BYBLOCK
 70
     0
  3

 72
    65
 73
     0
 40
0.0
  0
LTYPE
  5
14
330
5
100
AcDbSymbolTableRecord
100
AcDbLinetypeTableRecord
  2
BYLAYER
 70
     0
  3

 72
    65
 73
     0
 40
0.0
  0
LTYPE
  5
15
330
5
100
AcDbSymbolTableRecord
100
AcDbLinetypeTableRecord
  2
CONTINUOUS
 70
     0
  3
Solid line
 72
    65
 73
     0
 40
0.0
  0
LTYPE
  5
23
330
5
100
AcDbSymbolTableRecord
100
AcDbLinetypeTableRecord
  2
DASHED
 70
     0
  3
__ __ __ __ __ __ __ __ __ __ __ __ __ __ __
 72
    65
 73
     2
 40
0.75
 49
0.5
 74
     0
 49
-0.25
 74
     0
  0
LTYPE
  5
25
330
5
100
AcDbSymbolTableRecord
100
AcDbLinetypeTableRecord
  2
DOT
 70
     0
  3
...............................................
 72
    65
 73
     2
 40
0.25
 49
0.0
 74
     0
 49
-0.25
 74
     0
  0
LTYPE
  5
28
330
5
100
AcDbSymbolTableRecord
100
AcDbLinetypeTableRecord
  2
CENTER
 70
     0
  3
____ _ ____ _ ____ _ ____ _ ____ _ ____ _ ____ 
 72
    65
 73
     4
 40
2.0
 49
1.25
 74
     0
 49
-0.25
 74
     0
 49
0.25
 74
     0
 49
-0.25
 74
     0
  0
ENDTAB
  0
TABLE
  2
LAYER
  5
2
330
0
100
AcDbSymbolTable
 70
     3
  0
LAYER
  5
10
330
2
100
AcDbSymbolTableRecord
100
AcDbLayerTableRecord
  2
0
 70
     0
 62
     7
  6
CONTINUOUS
  0
LAYER
  5
22
330
2
100
AcDbSymbolTableRecord
100
AcDbLayerTableRecord
  2
CSLAYER1
 70
     0
 62
     7
  6
CONTINUOUS
  0
LAYER
  5
1C4
330
2
100
AcDbSymbolTableRecord
100
AcDbLayerTableRecord
  2
DEFPOINTS
 70
     0
 62
     7
  6
CONTINUOUS
  0
ENDTAB
  0
TABLE
  2
STYLE
  5
3
330
0
100
AcDbSymbolTable
 70
     3
  0
STYLE
  5
11
330
3
100
AcDbSymbolTableRecord
100
AcDbTextStyleTableRecord
  2
STANDARD
 70
     0
 40
0.0
 41
1.0
 50
0.0
 71
     0
 42
0.2
  3
txt
  4
extfont.shx
  0
STYLE
  5
3A
330
3
100
AcDbSymbolTableRecord
100
AcDbTextStyleTableRecord
  2
FX_FONT
 70
     0
 40
1.0
 41
1.0
 50
0.0
 71
     0
 42
1.0
  3
monotxt
  4
bigfont
  0
STYLE
  5
1BC
330
3
100
AcDbSymbolTableRecord
100
AcDbTextStyleTableRecord
  2
GOTHIC
 70
     0
 40
0.0
 41
1.0
 50
0.0
 71
     0
 42
0.2
  3
txt.shx
  4
extfont.shx
  0
ENDTAB
  0
TABLE
  2
VIEW
  5
6
330
0
100
AcDbSymbolTable
 70
     0
  0
ENDTAB
  0
TABLE
  2
UCS
  5
7
330
0
100
AcDbSymbolTable
 70
     0
  0
ENDTAB
  0
TABLE
  2
APPID
  5
9
330
0
100
AcDbSymbolTable
 70
     1
  0
APPID
  5
12
330
9
100
AcDbSymbolTableRecord
100
AcDbRegAppTableRecord
  2
ACAD
 70
     0
  0
ENDTAB
  0
TABLE
  2
DIMSTYLE
  5
A
330
0
100
AcDbSymbolTable
 70
     1
  0
DIMSTYLE
105
1B9
330
A
100
AcDbSymbolTableRecord
100
AcDbDimStyleTableRecord
  2
STANDARD
 70
     0
  3

  4

  5

  6

  7

 40
1.0
 41
0.18
 42
0.0625
 43
0.38
 44
0.18
 45
0.0
 46
0.0
 47
0.0
 48
0.0
140
0.18
141
0.09
142
0.0
143
25.4
144
1.0
145
0.0
146
1.0
147
0.09
 71
     0
 72
     0
 73
     1
 74
     1
 75
     0
 76
     0
 77
     0
 78
     0
170
     0
171
     2
172
     0
173
     0
174
     0
175
     0
176
     0
177
     0
178
     0
270
     2
271
     4
272
     4
273
     2
274
     2
340
11
275
     0
280
     0
281
     0
282
     0
283
     1
284
     0
285
     0
286
     0
287
     3
288
     0
  0
ENDTAB
  0
TABLE
  2
BLOCK_RECORD
  5
1
330
0
100
AcDbSymbolTable
 70
    17
  0
BLOCK_RECORD
  5
1E
102
{ACAD_XDICTIONARY
360
1C2
102
}
330
1
100
AcDbSymbolTableRecord
100
AcDbBlockTableRecord
  2
*MODEL_SPACE
  0
BLOCK_RECORD
  5
1A
102
{ACAD_XDICTIONARY
360
1C0
102
}
330
1
100
AcDbSymbolTableRecord
100
AcDbBlockTableRecord
  2
*PAPER_SPACE
  0
BLOCK_RECORD
  5
3F
330
1
100
AcDbSymbolTableRecord
100
AcDbBlockTableRecord
  2
*D0
  0
BLOCK_RECORD
  5
4A
330
1
100
AcDbSymbolTableRecord
100
AcDbBlockTableRecord
  2
*D1
  0
BLOCK_RECORD
  5
55
330
1
100
AcDbSymbolTableRecord
100
AcDbBlockTableRecord
  2
*D2
  0
BLOCK_RECORD
  5
60
330
1
100
AcDbSymbolTableRecord
100
AcDbBlockTableRecord
  2
*D3
  0
BLOCK_RECORD
  5
6B
330
1
100
AcDbSymbolTableRecord
100
AcDbBlockTableRecord
  2
*D4
  0
BLOCK_RECORD
  5
72
330
1
100
AcDbSymbolTableRecord
100
AcDbBlockTableRecord
  2
FXDIM0000
  0
BLOCK_RECORD
  5
7C
330
1
100
AcDbSymbolTableRecord
100
AcDbBlockTableRecord
  2
FXDIM0001
  0
BLOCK_RECORD
  5
86
330
1
100
AcDbSymbolTableRecord
100
AcDbBlockTableRecord
  2
*D7
  0
BLOCK_RECORD
  5
8F
330
1
100
AcDbSymbolTableRecord
100
AcDbBlockTableRecord
  2
FXDIM0002
  0
BLOCK_RECORD
  5
97
330
1
100
AcDbSymbolTableRecord
100
AcDbBlockTableRecord
  2
*D9
  0
BLOCK_RECORD
  5
A2
330
1
100
AcDbSymbolTableRecord
100
AcDbBlockTableRecord
  2
*D10
  0
BLOCK_RECORD
  5
AC
330
1
100
AcDbSymbolTableRecord
100
AcDbBlockTableRecord
  2
*D11
  0
BLOCK_RECORD
  5
B3
330
1
100
AcDbSymbolTableRecord
100
AcDbBlockTableRecord
  2
*D12
  0
BLOCK_RECORD
  5
BD
330
1
100
AcDbSymbolTableRecord
100
AcDbBlockTableRecord
  2
*D13
  0
BLOCK_RECORD
  5
C8
330
1
100
AcDbSymbolTableRecord
100
AcDbBlockTableRecord
  2
*D14
  0
BLOCK_RECORD
  5
1C5
330
1
100
AcDbSymbolTableRecord
100
AcDbBlockTableRecord
  2
*D15
  0
BLOCK_RECORD
  5
1D2
330
1
100
AcDbSymbolTableRecord
100
AcDbBlockTableRecord
  2
*D16
  0
ENDTAB
  0
ENDSEC
  0
SECTION
  2
BLOCKS
  0
BLOCK
  5
1F
330
1E
100
AcDbEntity
  8
0
100
AcDbBlockBegin
  2
*MODEL_SPACE
 70
     0
 10
0.0
 20
0.0
 30
0.0
  3
*MODEL_SPACE
  1

  0
ENDBLK
  5
20
330
1E
100
AcDbEntity
  8
0
100
AcDbBlockEnd
  0
BLOCK
  5
1B
330
1A
100
AcDbEntity
 67
     1
  8
0
100
AcDbBlockBegin
  2
*PAPER_SPACE
 70
     0
 10
0.0
 20
0.0
 30
0.0
  3
*PAPER_SPACE
  1

  0
ENDBLK
  5
1C
330
1A
100
AcDbEntity
 67
     1
  8
0
100
AcDbBlockEnd
  0
BLOCK
  5
40
330
3F
100
AcDbEntity
  8
0
100
AcDbBlockBegin
  2
*D0
 70
     1
 10
0.0
 20
0.0
 30
0.0
  3
*D0
  1

  0
TEXT
  5
41
330
3F
100
AcDbEntity
  8
CSLAYER1
 62
     4
100
AcDbText
 10
82.107498
 20
127.017102
 30
0.0
 40
3.2
  1
31.5~33
 50
90.0
 41
1.049999999999999
 51
15.0
  7
FX_FONT
 72
     5
 11
82.107498
 21
149.417102
 31
0.0
100
AcDbText
  0
LINE
  5
42
330
3F
100
AcDbEntity
  8
CSLAYER1
  6
CONTINUOUS
 62
     4
100
AcDbLine
 10
131.8875
 20
122.217105
 30
0.0
 11
81.6075
 21
122.217105
 31
0.0
  0
LINE
  5
43
330
3F
100
AcDbEntity
  8
CSLAYER1
  6
CONTINUOUS
 62
     4
100
AcDbLine
 10
131.8875
 20
154.217105
 30
0.0
 11
81.6075
 21
154.217105
 31
0.0
  0
LINE
  5
44
330
3F
100
AcDbEntity
  8
CSLAYER1
  6
CONTINUOUS
 62
     4
100
AcDbLine
 10
82.60749999999999
 20
122.217105
 30
0.0
 11
82.60749999999999
 21
154.217105
 31
0.0
  0
LINE
  5
45
330
3F
100
AcDbEntity
  8
CSLAYER1
  6
CONTINUOUS
 62
     4
100
AcDbLine
 10
82.60749999999999
 20
122.217105
 30
0.0
 11
81.83104300000001
 21
125.1148829999999
 31
0.0
  0
LINE
  5
46
330
3F
100
AcDbEntity
  8
CSLAYER1
  6
CONTINUOUS
 62
     4
100
AcDbLine
 10
82.60749999999999
 20
122.217105
 30
0.0
 11
83.38395699999997
 21
125.1148829999999
 31
0.0
  0
LINE
  5
47
330
3F
100
AcDbEntity
  8
CSLAYER1
  6
CONTINUOUS
 62
     4
100
AcDbLine
 10
82.60749999999999
 20
154.217105
 30
0.0
 11
81.83104300000001
 21
151.319328
 31
0.0
  0
LINE
  5
48
330
3F
100
AcDbEntity
  8
CSLAYER1
  6
CONTINUOUS
 62
     4
100
AcDbLine
 10
82.60749999999999
 20
154.217105
 30
0.0
 11
83.38395699999997
 21
151.319328
 31
0.0
  0
ENDBLK
  5
49
330
3F
100
AcDbEntity
  8
0
100
AcDbBlockEnd
  0
BLOCK
  5
4B
330
4A
100
AcDbEntity
  8
0
100
AcDbBlockBegin
  2
*D1
 70
     1
 10
0.0
 20
0.0
 30
0.0
  3
*D1
  1

  0
TEXT
  5
4C
330
4A
100
AcDbEntity
  8
CSLAYER1
 62
     4
100
AcDbText
 10
88.10749799999998
 20
135.0171019999999
 30
0.0
 40
3.2
  1
17
 50
90.0
 41
1.200000000000001
 51
15.0
  7
FX_FONT
 72
     5
 11
88.10749799999998
 21
141.4171019999999
 31
0.0
100
AcDbText
  0
LINE
  5
4D
330
4A
100
AcDbEntity
  8
CSLAYER1
  6
CONTINUOUS
 62
     4
100
AcDbLine
 10
97.8875
 20
129.717105
 30
0.0
 11
87.60749999999999
 21
129.717105
 31
0.0
  0
LINE
  5
4E
330
4A
100
AcDbEntity
  8
CSLAYER1
  6
CONTINUOUS
 62
     4
100
AcDbLine
 10
97.8875
 20
146.717105
 30
0.0
 11
87.60749999999999
 21
146.717105
 31
0.0
  0
LINE
  5
4F
330
4A
100
AcDbEntity
  8
CSLAYER1
  6
CONTINUOUS
 62
     4
100
AcDbLine
 10
88.60750000000001
 20
129.717105
 30
0.0
 11
88.60750000000001
 21
146.717105
 31
0.0
  0
LINE
  5
50
330
4A
100
AcDbEntity
  8
CSLAYER1
  6
CONTINUOUS
 62
     4
100
AcDbLine
 10
88.60750000000001
 20
129.717105
 30
0.0
 11
87.83104300000003
 21
132.614883
 31
0.0
  0
LINE
  5
51
330
4A
100
AcDbEntity
  8
CSLAYER1
  6
CONTINUOUS
 62
     4
100
AcDbLine
 10
88.60750000000001
 20
129.717105
 30
0.0
 11
89.38395699999999
 21
132.614883
 31
0.0
  0
LINE
  5
52
330
4A
100
AcDbEntity
  8
CSLAYER1
  6
CONTINUOUS
 62
     4
100
AcDbLine
 10
88.60750000000001
 20
146.717105
 30
0.0
 11
87.83104300000003
 21
143.819328
 31
0.0
  0
LINE
  5
53
330
4A
100
AcDbEntity
  8
CSLAYER1
  6
CONTINUOUS
 62
     4
100
AcDbLine
 10
88.60750000000001
 20
146.717105
 30
0.0
 11
89.38395699999999
 21
143.819328
 31
0.0
  0
ENDBLK
  5
54
330
4A
100
AcDbEntity
  8
0
100
AcDbBlockEnd
  0
BLOCK
  5
56
330
55
100
AcDbEntity
  8
0
100
AcDbBlockBegin
  2
*D2
 70
     1
 10
0.0
 20
0.0
 30
0.0
  3
*D2
  1

  0
TEXT
  5
57
330
55
100
AcDbEntity
  8
CSLAYER1
 62
     4
100
AcDbText
 10
150.187497
 20
101.046326
 30
0.0
 40
3.2
  1
23
 41
1.199999999999979
 51
15.0
  7
FX_FONT
 72
     5
 11
156.5874969999998
 21
101.046326
 31
0.0
100
AcDbText
  0
LINE
  5
58
330
55
100
AcDbEntity
  8
CSLAYER1
  6
CONTINUOUS
 62
     4
100
AcDbLine
 10
141.8874999999998
 20
90.280263
 30
0.0
 11
141.8874999999998
 21
101.546324
 31
0.0
  0
LINE
  5
59
330
55
100
AcDbEntity
  8
CSLAYER1
  6
CONTINUOUS
 62
     4
100
AcDbLine
 10
164.8874999999998
 20
96.798078
 30
0.0
 11
164.8874999999998
 21
101.546324
 31
0.0
  0
LINE
  5
5A
330
55
100
AcDbEntity
  8
CSLAYER1
  6
CONTINUOUS
 62
     4
100
AcDbLine
 10
141.8874999999998
 20
100.546324
 30
0.0
 11
164.8874999999998
 21
100.546324
 31
0.0
  0
LINE
  5
5B
330
55
100
AcDbEntity
  8
CSLAYER1
  6
CONTINUOUS
 62
     4
100
AcDbLine
 10
141.8874999999998
 20
100.546324
 30
0.0
 11
144.785277
 21
101.322781
 31
0.0
  0
LINE
  5
5C
330
55
100
AcDbEntity
  8
CSLAYER1
  6
CONTINUOUS
 62
     4
100
AcDbLine
 10
141.8874999999998
 20
100.546324
 30
0.0
 11
144.785277
 21
99.76986700000001
 31
0.0
  0
LINE
  5
5D
330
55
100
AcDbEntity
  8
CSLAYER1
  6
CONTINUOUS
 62
     4
100
AcDbLine
 10
164.8874999999998
 20
100.546324
 30
0.0
 11
161.989723
 21
101.322781
 31
0.0
  0
LINE
  5
5E
330
55
100
AcDbEntity
  8
CSLAYER1
  6
CONTINUOUS
 62
     4
100
AcDbLine
 10
164.8874999999998
 20
100.546324
 30
0.0
 11
161.989723
 21
99.76986700000001
 31
0.0
  0
ENDBLK
  5
5F
330
55
100
AcDbEntity
  8
0
100
AcDbBlockEnd
  0
BLOCK
  5
61
330
60
100
AcDbEntity
  8
0
100
AcDbBlockBegin
  2
*D3
 70
     1
 10
0.0
 20
0.0
 30
0.0
  3
*D3
  1

  0
TEXT
  5
62
330
60
100
AcDbEntity
  8
CSLAYER1
 62
     4
100
AcDbText
 10
149.687497
 20
60.598682
 30
0.0
 40
3.2
  1
24
 41
1.199999999999979
 51
15.0
  7
FX_FONT
 72
     5
 11
156.0874969999999
 21
60.598682
 31
0.0
100
AcDbText
  0
LINE
  5
63
330
60
100
AcDbEntity
  8
CSLAYER1
  6
CONTINUOUS
 62
     4
100
AcDbLine
 10
140.8874999999999
 20
71.28026300000001
 30
0.0
 11
140.8874999999999
 21
59.098684
 31
0.0
  0
LINE
  5
64
330
60
100
AcDbEntity
  8
CSLAYER1
  6
CONTINUOUS
 62
     4
100
AcDbLine
 10
164.8874999999998
 20
65.11743199999999
 30
0.0
 11
164.8874999999998
 21
59.098684
 31
0.0
  0
LINE
  5
65
330
60
100
AcDbEntity
  8
CSLAYER1
  6
CONTINUOUS
 62
     4
100
AcDbLine
 10
140.8874999999999
 20
60.098684
 30
0.0
 11
164.8874999999998
 21
60.098684
 31
0.0
  0
LINE
  5
66
330
60
100
AcDbEntity
  8
CSLAYER1
  6
CONTINUOUS
 62
     4
100
AcDbLine
 10
140.8874999999999
 20
60.098684
 30
0.0
 11
143.785277
 21
60.875141
 31
0.0
  0
LINE
  5
67
330
60
100
AcDbEntity
  8
CSLAYER1
  6
CONTINUOUS
 62
     4
100
AcDbLine
 10
140.8874999999999
 20
60.098684
 30
0.0
 11
143.785277
 21
59.322227
 31
0.0
  0
LINE
  5
68
330
60
100
AcDbEntity
  8
CSLAYER1
  6
CONTINUOUS
 62
     4
100
AcDbLine
 10
164.8874999999998
 20
60.098684
 30
0.0
 11
161.989723
 21
60.875141
 31
0.0
  0
LINE
  5
69
330
60
100
AcDbEntity
  8
CSLAYER1
  6
CONTINUOUS
 62
     4
100
AcDbLine
 10
164.8874999999998
 20
60.098684
 30
0.0
 11
161.989723
 21
59.322227
 31
0.0
  0
ENDBLK
  5
6A
330
60
100
AcDbEntity
  8
0
100
AcDbBlockEnd
  0
BLOCK
  5
6C
330
6B
100
AcDbEntity
  8
0
100
AcDbBlockBegin
  2
*D4
 70
     1
 10
0.0
 20
0.0
 30
0.0
  3
*D4
  1

  0
TEXT
  5
6D
330
6B
100
AcDbEntity
  8
CSLAYER1
 62
     4
100
AcDbText
 10
58.664563
 20
129.645052
 30
0.0
 40
3.2
  1
R85
 50
6.372832503314423
 41
1.124999958335985
 51
15.0
  7
FX_FONT
 72
     5
 11
68.205241
 21
130.71063
 31
0.0
100
AcDbText
  0
LINE
  5
6E
330
6B
100
AcDbEntity
  8
CSLAYER1
  6
CONTINUOUS
 62
     4
100
AcDbLine
 10
51.512743
 20
128.782302
 30
0.0
 11
70.49220699999998
 21
130.9020769999999
 31
0.0
  0
LINE
  5
6F
330
6B
100
AcDbEntity
  8
CSLAYER1
  6
CONTINUOUS
 62
     4
100
AcDbLine
 10
51.512743
 20
128.782302
 30
0.0
 11
54.30643
 21
129.8756079999999
 31
0.0
  0
LINE
  5
70
330
6B
100
AcDbEntity
  8
CSLAYER1
  6
CONTINUOUS
 62
     4
100
AcDbLine
 10
51.512743
 20
128.782302
 30
0.0
 11
54.4788
 21
128.3322889999999
 31
0.0
  0
ENDBLK
  5
71
330
6B
100
AcDbEntity
  8
0
100
AcDbBlockEnd
  0
BLOCK
  5
73
330
72
100
AcDbEntity
  8
0
100
AcDbBlockBegin
  2
FXDIM0000
 70
     0
 10
0.0
 20
0.0
 30
0.0
  3
FXDIM0000
  1

  0
LINE
  5
74
330
72
100
AcDbEntity
  8
CSLAYER1
  6
CONTINUOUS
 62
     4
100
AcDbLine
 10
172.0875
 20
89.280263
 30
0.0
 11
173.5875
 21
91.87833899999999
 31
0.0
  0
LINE
  5
75
330
72
100
AcDbEntity
  8
CSLAYER1
  6
CONTINUOUS
 62
     4
100
AcDbLine
 10
170.5874999999998
 20
91.87833899999999
 30
0.0
 11
179.5875
 21
91.87833899999999
 31
0.0
  0
LINE
  5
76
330
72
100
AcDbEntity
  8
CSLAYER1
  6
CONTINUOUS
 62
     4
100
AcDbLine
 10
170.5874999999998
 20
91.87833899999999
 30
0.0
 11
172.0875
 21
89.280263
 31
0.0
  0
LINE
  5
77
330
72
100
AcDbEntity
  8
CSLAYER1
  6
CONTINUOUS
 62
     4
100
AcDbLine
 10
175.0875
 20
89.280263
 30
0.0
 11
176.5875
 21
91.87833899999999
 31
0.0
  0
LINE
  5
78
330
72
100
AcDbEntity
  8
CSLAYER1
  6
CONTINUOUS
 62
     4
100
AcDbLine
 10
173.5875
 20
91.87833899999999
 30
0.0
 11
175.0875
 21
89.280263
 31
0.0
  0
LINE
  5
79
330
72
100
AcDbEntity
  8
CSLAYER1
  6
CONTINUOUS
 62
     4
100
AcDbLine
 10
178.0874999999999
 20
89.280263
 30
0.0
 11
179.5875
 21
91.87833899999999
 31
0.0
  0
LINE
  5
7A
330
72
100
AcDbEntity
  8
CSLAYER1
  6
CONTINUOUS
 62
     4
100
AcDbLine
 10
176.5875
 20
91.87833899999999
 30
0.0
 11
178.0874999999999
 21
89.280263
 31
0.0
  0
ENDBLK
  5
7B
330
72
100
AcDbEntity
  8
0
100
AcDbBlockEnd
  0
BLOCK
  5
7D
330
7C
100
AcDbEntity
  8
0
100
AcDbBlockBegin
  2
FXDIM0001
 70
     0
 10
0.0
 20
0.0
 30
0.0
  3
FXDIM0001
  1

  0
LINE
  5
7E
330
7C
100
AcDbEntity
  8
CSLAYER1
  6
CONTINUOUS
 62
     4
100
AcDbLine
 10
173.2874999999999
 20
72.280263
 30
0.0
 11
171.7875
 21
69.682187
 31
0.0
  0
LINE
  5
7F
330
7C
100
AcDbEntity
  8
CSLAYER1
  6
CONTINUOUS
 62
     4
100
AcDbLine
 10
171.7875
 20
69.682187
 30
0.0
 11
180.7874999999999
 21
69.682187
 31
0.0
  0
LINE
  5
80
330
7C
100
AcDbEntity
  8
CSLAYER1
  6
CONTINUOUS
 62
     4
100
AcDbLine
 10
174.7875
 20
69.682187
 30
0.0
 11
173.2874999999999
 21
72.280263
 31
0.0
  0
LINE
  5
81
330
7C
100
AcDbEntity
  8
CSLAYER1
  6
CONTINUOUS
 62
     4
100
AcDbLine
 10
176.2875
 20
72.280263
 30
0.0
 11
174.7875
 21
69.682187
 31
0.0
  0
LINE
  5
82
330
7C
100
AcDbEntity
  8
CSLAYER1
  6
CONTINUOUS
 62
     4
100
AcDbLine
 10
177.7874999999999
 20
69.682187
 30
0.0
 11
176.2875
 21
72.280263
 31
0.0
  0
LINE
  5
83
330
7C
100
AcDbEntity
  8
CSLAYER1
  6
CONTINUOUS
 62
     4
100
AcDbLine
 10
179.2874999999999
 20
72.280263
 30
0.0
 11
177.7874999999999
 21
69.682187
 31
0.0
  0
LINE
  5
84
330
7C
100
AcDbEntity
  8
CSLAYER1
  6
CONTINUOUS
 62
     4
100
AcDbLine
 10
180.7874999999999
 20
69.682187
 30
0.0
 11
179.2874999999999
 21
72.280263
 31
0.0
  0
ENDBLK
  5
85
330
7C
100
AcDbEntity
  8
0
100
AcDbBlockEnd
  0
BLOCK
  5
87
330
86
100
AcDbEntity
  8
0
100
AcDbBlockBegin
  2
*D7
 70
     1
 10
0.0
 20
0.0
 30
0.0
  3
*D7
  1

  0
TEXT
  5
88
330
86
100
AcDbEntity
  8
CSLAYER1
 62
     4
100
AcDbText
 10
103.1798629999999
 20
72.403143
 30
0.0
 40
3.2
  1
15%%d
 50
82.49999697548346
 41
1.285714339336949
 51
15.0
  7
FX_FONT
 72
     5
 11
104.432915
 21
81.921014
 31
0.0
100
AcDbText
  0
ARC
  5
89
330
86
100
AcDbEntity
  8
CSLAYER1
  6
CONTINUOUS
 62
     4
100
AcDbCircle
 10
140.8874999999999
 20
72.280263
 30
0.0
 40
36.901082
100
AcDbArc
 50
165.0
 51
180.0
  0
LINE
  5
8A
330
86
100
AcDbEntity
  8
CSLAYER1
  6
CONTINUOUS
 62
     4
100
AcDbLine
 10
105.243792
 20
81.830966
 30
0.0
 11
105.243792
 21
78.830966
 31
0.0
  0
LINE
  5
8B
330
86
100
AcDbEntity
  8
CSLAYER1
  6
CONTINUOUS
 62
     4
100
AcDbLine
 10
105.243792
 20
81.830966
 30
0.0
 11
103.7437919999999
 21
79.23289
 31
0.0
  0
LINE
  5
8C
330
86
100
AcDbEntity
  8
CSLAYER1
  6
CONTINUOUS
 62
     4
100
AcDbLine
 10
103.9864179999999
 20
72.280263
 30
0.0
 11
103.2099609999999
 21
75.17804100000002
 31
0.0
  0
LINE
  5
8D
330
86
100
AcDbEntity
  8
CSLAYER1
  6
CONTINUOUS
 62
     4
100
AcDbLine
 10
103.9864179999999
 20
72.280263
 30
0.0
 11
104.7628749999998
 21
75.17804100000002
 31
0.0
  0
ENDBLK
  5
8E
330
86
100
AcDbEntity
  8
0
100
AcDbBlockEnd
  0
BLOCK
  5
90
330
8F
100
AcDbEntity
  8
0
100
AcDbBlockBegin
  2
FXDIM0002
 70
     0
 10
0.0
 20
0.0
 30
0.0
  3
FXDIM0002
  1

  0
LINE
  5
91
330
8F
100
AcDbEntity
  8
CSLAYER1
  6
CONTINUOUS
 62
     4
100
AcDbLine
 10
164.175748
 20
135.560809
 30
0.0
 11
157.145306
 21
109.322845
 31
0.0
  0
LINE
  5
92
330
8F
100
AcDbEntity
  8
CSLAYER1
  6
CONTINUOUS
 62
     4
100
AcDbLine
 10
164.175748
 20
135.560809
 30
0.0
 11
164.175748
 21
132.560809
 31
0.0
  0
LINE
  5
93
330
8F
100
AcDbEntity
  8
CSLAYER1
  6
CONTINUOUS
 62
     4
100
AcDbLine
 10
164.175748
 20
135.560809
 30
0.0
 11
162.675748
 21
132.962733
 31
0.0
  0
LINE
  5
94
330
8F
100
AcDbEntity
  8
CSLAYER1
  6
CONTINUOUS
 62
     4
100
AcDbLine
 10
157.145306
 20
109.322845
 30
0.0
 11
142.3453059999999
 21
109.322845
 31
0.0
  0
TEXT
  5
95
330
8F
100
AcDbEntity
  8
CSLAYER1
 62
     4
100
AcDbText
 10
143.3453
 20
109.822845
 30
0.0
 40
3.2
  1
%%c5.1
 41
1.142857142857141
 51
15.0
  7
FX_FONT
 72
     5
 11
156.1453
 21
109.822845
 31
0.0
100
AcDbText
  0
ENDBLK
  5
96
330
8F
100
AcDbEntity
  8
0
100
AcDbBlockEnd
  0
BLOCK
  5
98
330
97
100
AcDbEntity
  8
0
100
AcDbBlockBegin
  2
*D9
 70
     1
 10
0.0
 20
0.0
 30
0.0
  3
*D9
  1

  0
TEXT
  5
99
330
97
100
AcDbEntity
  8
CSLAYER1
 62
     4
100
AcDbText
 10
128.687497
 20
169.6337429999998
 30
0.0
 40
3.2
  1
66
 41
1.199999999999979
 51
15.0
  7
FX_FONT
 72
     5
 11
135.0874969999999
 21
169.6337429999998
 31
0.0
100
AcDbText
  0
LINE
  5
9A
330
97
100
AcDbEntity
  8
CSLAYER1
  6
CONTINUOUS
 62
     4
100
AcDbLine
 10
98.88750000000001
 20
169.1337569999999
 30
0.0
 11
164.8874999999998
 21
169.1337569999999
 31
0.0
  0
LINE
  5
9B
330
97
100
AcDbEntity
  8
CSLAYER1
  6
CONTINUOUS
 62
     4
100
AcDbLine
 10
98.88750000000001
 20
169.1337569999999
 30
0.0
 11
101.785277
 21
169.9102139999999
 31
0.0
  0
LINE
  5
9C
330
97
100
AcDbEntity
  8
CSLAYER1
  6
CONTINUOUS
 62
     4
100
AcDbLine
 10
98.88750000000001
 20
169.1337569999999
 30
0.0
 11
101.785277
 21
168.3573
 31
0.0
  0
LINE
  5
9D
330
97
100
AcDbEntity
  8
CSLAYER1
  6
CONTINUOUS
 62
     4
100
AcDbLine
 10
164.8874999999998
 20
169.1337569999999
 30
0.0
 11
161.989723
 21
169.9102139999999
 31
0.0
  0
LINE
  5
9E
330
97
100
AcDbEntity
  8
CSLAYER1
  6
CONTINUOUS
 62
     4
100
AcDbLine
 10
164.8874999999998
 20
169.1337569999999
 30
0.0
 11
161.989723
 21
168.3573
 31
0.0
  0
LINE
  5
9F
330
97
100
AcDbEntity
  8
CSLAYER1
  6
CONTINUOUS
 62
     4
100
AcDbLine
 10
98.88750000000001
 20
147.717105
 30
0.0
 11
98.88750000000001
 21
170.1337569999999
 31
0.0
  0
LINE
  5
A0
330
97
100
AcDbEntity
  8
CSLAYER1
  6
CONTINUOUS
 62
     4
100
AcDbLine
 10
164.8874999999998
 20
161.092257
 30
0.0
 11
164.8874999999998
 21
170.1337569999999
 31
0.0
  0
ENDBLK
  5
A1
330
97
100
AcDbEntity
  8
0
100
AcDbBlockEnd
  0
BLOCK
  5
A3
330
A2
100
AcDbEntity
  8
0
100
AcDbBlockBegin
  2
*D10
 70
     1
 10
0.0
 20
0.0
 30
0.0
  3
*D10
  1

  0
TEXT
  5
A4
330
A2
100
AcDbEntity
  8
CSLAYER1
 62
     4
100
AcDbText
 10
145.687497
 20
163.6337429999999
 30
0.0
 40
3.2
  1
32
 41
1.199999999999979
 51
15.0
  7
FX_FONT
 72
     5
 11
152.0874969999999
 21
163.6337429999999
 31
0.0
100
AcDbText
  0
LINE
  5
A5
330
A2
100
AcDbEntity
  8
CSLAYER1
  6
CONTINUOUS
 62
     4
100
AcDbLine
 10
132.8874999999999
 20
163.133757
 30
0.0
 11
164.8874999999998
 21
163.133757
 31
0.0
  0
LINE
  5
A6
330
A2
100
AcDbEntity
  8
CSLAYER1
  6
CONTINUOUS
 62
     4
100
AcDbLine
 10
132.8874999999999
 20
163.133757
 30
0.0
 11
135.785277
 21
163.910214
 31
0.0
  0
LINE
  5
A7
330
A2
100
AcDbEntity
  8
CSLAYER1
  6
CONTINUOUS
 62
     4
100
AcDbLine
 10
132.8874999999999
 20
163.133757
 30
0.0
 11
135.785277
 21
162.3573
 31
0.0
  0
LINE
  5
A8
330
A2
100
AcDbEntity
  8
CSLAYER1
  6
CONTINUOUS
 62
     4
100
AcDbLine
 10
164.8874999999998
 20
163.133757
 30
0.0
 11
161.989723
 21
163.910214
 31
0.0
  0
LINE
  5
A9
330
A2
100
AcDbEntity
  8
CSLAYER1
  6
CONTINUOUS
 62
     4
100
AcDbLine
 10
164.8874999999998
 20
163.133757
 30
0.0
 11
161.989723
 21
162.3573
 31
0.0
  0
LINE
  5
AA
330
A2
100
AcDbEntity
  8
CSLAYER1
  6
CONTINUOUS
 62
     4
100
AcDbLine
 10
132.8874999999999
 20
155.217105
 30
0.0
 11
132.8874999999999
 21
164.133757
 31
0.0
  0
ENDBLK
  5
AB
330
A2
100
AcDbEntity
  8
0
100
AcDbBlockEnd
  0
BLOCK
  5
AD
330
AC
100
AcDbEntity
  8
0
100
AcDbBlockBegin
  2
*D11
 70
     1
 10
0.0
 20
0.0
 30
0.0
  3
*D11
  1

  0
TEXT
  5
AE
330
AC
100
AcDbEntity
  8
CSLAYER1
 62
     4
100
AcDbText
 10
56.74921600000001
 20
145.2313429999998
 30
0.0
 40
3.2
  1
R12.5
 50
322.2368500560953
 41
1.071428597797062
 51
15.0
  7
FX_FONT
 72
     5
 11
69.39800100000001
 21
135.432963
 31
0.0
100
AcDbText
  0
LINE
  5
AF
330
AC
100
AcDbEntity
  8
CSLAYER1
  6
CONTINUOUS
 62
     4
100
AcDbLine
 10
55.105637
 20
145.8720889999999
 30
0.0
 11
64.9875
 21
138.2171049999999
 31
0.0
  0
LINE
  5
B0
330
AC
100
AcDbEntity
  8
CSLAYER1
  6
CONTINUOUS
 62
     4
100
AcDbLine
 10
55.105637
 20
145.8720889999999
 30
0.0
 11
57.87197299999998
 21
144.7113209999999
 31
0.0
  0
LINE
  5
B1
330
AC
100
AcDbEntity
  8
CSLAYER1
  6
CONTINUOUS
 62
     4
100
AcDbLine
 10
55.105637
 20
145.8720889999999
 30
0.0
 11
56.92097099999998
 21
143.4836669999999
 31
0.0
  0
ENDBLK
  5
B2
330
AC
100
AcDbEntity
  8
0
100
AcDbBlockEnd
  0
BLOCK
  5
B4
330
B3
100
AcDbEntity
  8
0
100
AcDbBlockBegin
  2
*D12
 70
     1
 10
0.0
 20
0.0
 30
0.0
  3
*D12
  1

  0
TEXT
  5
B5
330
B3
100
AcDbEntity
  8
CSLAYER1
 62
     4
100
AcDbText
 10
54.005189
 20
163.75044
 30
0.0
 40
3.2
  1
35%%d
 50
342.5000043331512
 41
1.285714293367145
 51
15.0
  7
FX_FONT
 72
     5
 11
63.160872
 21
160.863665
 31
0.0
100
AcDbText
  0
ARC
  5
B6
330
B3
100
AcDbEntity
  8
CSLAYER1
  6
CONTINUOUS
 62
     4
100
AcDbCircle
 10
50.98749999999999
 20
138.2171049999999
 30
0.0
 40
24.75900799999999
100
AcDbArc
 50
55.0
 51
90.0
  0
LINE
  5
B7
330
B3
100
AcDbEntity
  8
CSLAYER1
  6
CONTINUOUS
 62
     4
100
AcDbLine
 10
65.18868399999999
 20
158.4984969999998
 30
0.0
 11
62.369606
 21
159.524558
 31
0.0
  0
LINE
  5
B8
330
B3
100
AcDbEntity
  8
CSLAYER1
  6
CONTINUOUS
 62
     4
100
AcDbLine
 10
65.18868399999999
 20
158.4984969999998
 30
0.0
 11
63.26032099999999
 21
160.796631
 31
0.0
  0
LINE
  5
B9
330
B3
100
AcDbEntity
  8
CSLAYER1
  6
CONTINUOUS
 62
     4
100
AcDbLine
 10
50.98749999999999
 20
162.976113
 30
0.0
 11
53.885277
 21
163.7525699999999
 31
0.0
  0
LINE
  5
BA
330
B3
100
AcDbEntity
  8
CSLAYER1
  6
CONTINUOUS
 62
     4
100
AcDbLine
 10
50.98749999999999
 20
162.976113
 30
0.0
 11
53.885277
 21
162.199656
 31
0.0
  0
LINE
  5
BB
330
B3
100
AcDbEntity
  8
CSLAYER1
  6
CONTINUOUS
 62
     4
100
AcDbLine
 10
53.31446500000001
 20
141.540356
 30
0.0
 11
65.76226
 21
159.3176489999999
 31
0.0
  0
ENDBLK
  5
BC
330
B3
100
AcDbEntity
  8
0
100
AcDbBlockEnd
  0
BLOCK
  5
BE
330
BD
100
AcDbEntity
  8
0
100
AcDbBlockBegin
  2
*D13
 70
     1
 10
0.0
 20
0.0
 30
0.0
  3
*D13
  1

  0
TEXT
  5
BF
330
BD
100
AcDbEntity
  8
CSLAYER1
 62
     4
100
AcDbText
 10
102.483213
 20
66.816624
 30
0.0
 40
3.2
  1
切刃部有効38
 50
344.9999993622974
 41
0.9130435017086776
 51
15.0
  7
FX_FONT
 72
     5
 11
124.119952
 21
61.019077
 31
0.0
100
AcDbText
  0
LINE
  5
C0
330
BD
100
AcDbEntity
  8
CSLAYER1
  6
CONTINUOUS
 62
     4
100
AcDbLine
 10
94.81958099999999
 20
68.352451
 30
0.0
 11
131.5247629999998
 21
58.517327
 31
0.0
  0
LINE
  5
C1
330
BD
100
AcDbEntity
  8
CSLAYER1
  6
CONTINUOUS
 62
     4
100
AcDbLine
 10
94.81958099999999
 20
68.352451
 30
0.0
 11
97.819581
 21
68.352451
 31
0.0
  0
LINE
  5
C2
330
BD
100
AcDbEntity
  8
CSLAYER1
  6
CONTINUOUS
 62
     4
100
AcDbLine
 10
94.81958099999999
 20
68.352451
 30
0.0
 11
97.41765800000001
 21
66.852451
 31
0.0
  0
LINE
  5
C3
330
BD
100
AcDbEntity
  8
CSLAYER1
  6
CONTINUOUS
 62
     4
100
AcDbLine
 10
131.5247629999998
 20
58.517327
 30
0.0
 11
128.5247629999998
 21
58.517327
 31
0.0
  0
LINE
  5
C4
330
BD
100
AcDbEntity
  8
CSLAYER1
  6
CONTINUOUS
 62
     4
100
AcDbLine
 10
131.5247629999998
 20
58.517327
 30
0.0
 11
128.926687
 21
60.017327
 31
0.0
  0
LINE
  5
C5
330
BD
100
AcDbEntity
  8
CSLAYER1
  6
CONTINUOUS
 62
     4
100
AcDbLine
 10
98.628681
 20
82.56820299999999
 30
0.0
 11
94.560762
 21
67.386525
 31
0.0
  0
LINE
  5
C6
330
BD
100
AcDbEntity
  8
CSLAYER1
  6
CONTINUOUS
 62
     4
100
AcDbLine
 10
135.333862
 20
72.73308
 30
0.0
 11
131.265944
 21
57.551401
 31
0.0
  0
ENDBLK
  5
C7
330
BD
100
AcDbEntity
  8
0
100
AcDbBlockEnd
  0
BLOCK
  5
C9
330
C8
100
AcDbEntity
  8
0
100
AcDbBlockBegin
  2
*D14
 70
     1
 10
0.0
 20
0.0
 30
0.0
  3
*D14
  1

  0
TEXT
  5
CA
330
C8
100
AcDbEntity
  8
CSLAYER1
 62
     4
100
AcDbText
 10
57.869164
 20
27.25394699999998
 30
0.0
 40
3.2
  1
16
 50
90.0
 41
1.199999999999999
 51
15.0
  7
FX_FONT
 72
     5
 11
57.869164
 21
33.65394699999999
 31
0.0
100
AcDbText
  0
LINE
  5
CB
330
C8
100
AcDbEntity
  8
CSLAYER1
  6
CONTINUOUS
 62
     4
100
AcDbLine
 10
58.369165
 20
22.45394699999998
 30
0.0
 11
58.369165
 21
38.45394699999999
 31
0.0
  0
LINE
  5
CC
330
C8
100
AcDbEntity
  8
CSLAYER1
  6
CONTINUOUS
 62
     4
100
AcDbLine
 10
58.369165
 20
22.45394699999998
 30
0.0
 11
57.59270799999999
 21
25.35172499999999
 31
0.0
  0
LINE
  5
CD
330
C8
100
AcDbEntity
  8
CSLAYER1
  6
CONTINUOUS
 62
     4
100
AcDbLine
 10
58.369165
 20
22.45394699999998
 30
0.0
 11
59.14562199999998
 21
25.35172499999999
 31
0.0
  0
LINE
  5
CE
330
C8
100
AcDbEntity
  8
CSLAYER1
  6
CONTINUOUS
 62
     4
100
AcDbLine
 10
58.369165
 20
38.45394699999999
 30
0.0
 11
57.59270799999999
 21
35.55617
 31
0.0
  0
LINE
  5
CF
330
C8
100
AcDbEntity
  8
CSLAYER1
  6
CONTINUOUS
 62
     4
100
AcDbLine
 10
58.369165
 20
38.45394699999999
 30
0.0
 11
59.14562199999998
 21
35.55617
 31
0.0
  0
LINE
  5
D0
330
C8
100
AcDbEntity
  8
CSLAYER1
  6
CONTINUOUS
 62
     4
100
AcDbLine
 10
69.01559
 20
22.45394699999998
 30
0.0
 11
57.369165
 21
22.45394699999998
 31
0.0
  0
LINE
  5
D1
330
C8
100
AcDbEntity
  8
CSLAYER1
  6
CONTINUOUS
 62
     4
100
AcDbLine
 10
69.01559
 20
38.45394699999999
 30
0.0
 11
57.369165
 21
38.45394699999999
 31
0.0
  0
ENDBLK
  5
D2
330
C8
100
AcDbEntity
  8
0
100
AcDbBlockEnd
  0
BLOCK
  5
1D0
330
1C5
100
AcDbEntity
  8
0
100
AcDbBlockBegin
  2
*D15
 70
     1
 10
0.0
 20
0.0
 30
0.0
  3
*D15
  1

  0
ARC
  5
1C6
330
1C5
100
AcDbEntity
  8
CSLAYER1
 62
     0
100
AcDbCircle
 10
140.8874999999999
 20
72.28026299999998
 30
0.0
 40
36.9010819093141
100
AcDbArc
 50
165.2794837945082
 51
172.218012493956
  0
ARC
  5
1C7
330
1C5
100
AcDbEntity
  8
CSLAYER1
 62
     0
100
AcDbCircle
 10
140.8874999999999
 20
72.28026299999998
 30
0.0
 40
36.9010819093141
100
AcDbArc
 50
172.78180501528
 51
179.7205163099978
  0
SOLID
  5
1C8
330
1C5
100
AcDbEntity
  8
CSLAYER1
 62
     0
100
AcDbTrace
 10
105.1686320856509
 20
81.66467983454905
 30
0.0
 11
105.2266253377293
 21
81.6492920889908
 31
0.0
 12
105.2437919483649
 22
81.83096571800525
 32
0.0
 13
105.2437919483649
 23
81.83096571800525
 33
0.0
  0
SOLID
  5
1C9
330
1C5
100
AcDbEntity
  8
CSLAYER1
 62
     0
100
AcDbTrace
 10
104.0168570129768
 20
72.46018929604857
 30
0.0
 11
103.9568571914317
 21
72.46033563322137
 31
0.0
 12
103.9864180906858
 22
72.28026299999998
 32
0.0
 13
103.9864180906858
 23
72.28026299999998
 33
0.0
  0
MTEXT
  5
1CA
330
1C5
100
AcDbEntity
  8
CSLAYER1
 62
     0
100
AcDbMText
 10
104.3021119574838
 20
77.09682067705753
 30
0.0
 40
0.18
 41
0.0
 71
     5
 72
     1
  1
\A1;15°
1001
ACAD
1000
MTEXTBEGIN
1070
    73
1070
     1
1070
    44
1040
1.0
1070
    74
1070
     0
1000
MTEXTEND
  0
POINT
  5
1CB
330
1C5
100
AcDbEntity
  8
DEFPOINTS
 62
     0
100
AcDbPoint
 10
104.547028433377
 20
78.6880685833011
 30
0.0
  0
POINT
  5
1CC
330
1C5
100
AcDbEntity
  8
DEFPOINTS
 62
     0
100
AcDbPoint
 10
140.8874999999999
 20
72.28026299999998
 30
0.0
  0
POINT
  5
1CD
330
1C5
100
AcDbEntity
  8
DEFPOINTS
 62
     0
100
AcDbPoint
 10
83.208648
 20
72.280263
 30
0.0
  0
POINT
  5
1CE
330
1C5
100
AcDbEntity
  8
DEFPOINTS
 62
     0
100
AcDbPoint
 10
139.8874999999998
 20
72.28026299999998
 30
0.0
  0
POINT
  5
1CF
330
1C5
100
AcDbEntity
  8
DEFPOINTS
 62
     0
100
AcDbPoint
 10
98.88750000000001
 20
83.534129
 30
0.0
  0
ENDBLK
  5
1D1
330
1C5
100
AcDbEntity
  8
0
100
AcDbBlockEnd
  0
BLOCK
  5
1DE
330
1D2
100
AcDbEntity
  8
0
100
AcDbBlockBegin
  2
*D16
 70
     1
 10
0.0
 20
0.0
 30
0.0
  3
*D16
  1

  0
LINE
  5
1D3
330
1D2
100
AcDbEntity
  8
CSLAYER1
 62
     0
100
AcDbLine
 10
52.77673752732376
 20
140.7724010027316
 30
0.0
 11
65.29192751599488
 21
158.6459446005534
 31
0.0
  0
ARC
  5
1D4
330
1D2
100
AcDbEntity
  8
CSLAYER1
 62
     0
100
AcDbCircle
 10
50.98749999999999
 20
138.2171049999999
 30
0.0
 40
24.75900827991145
100
AcDbArc
 50
55.41654582738727
 51
71.5804388804209
  0
ARC
  5
1D5
330
1D2
100
AcDbEntity
  8
CSLAYER1
 62
     0
100
AcDbCircle
 10
50.98749999999999
 20
138.2171049999999
 30
0.0
 40
24.75900827991145
100
AcDbArc
 50
73.41493064189984
 51
89.58345411462923
  0
SOLID
  5
1D6
330
1D2
100
AcDbEntity
  8
CSLAYER1
 62
     0
100
AcDbTrace
 10
65.05797991823708
 20
158.6258412802639
 30
0.0
 11
65.0237442184315
 21
158.5765673839411
 31
0.0
 12
65.18868375730247
 22
158.4984972326858
 32
0.0
 13
65.18868375730247
 23
158.4984972326858
 33
0.0
  0
SOLID
  5
1D7
330
1D2
100
AcDbEntity
  8
CSLAYER1
 62
     0
100
AcDbTrace
 10
51.16738975956164
 20
162.9454591708091
 30
0.0
 11
51.16760786199687
 21
163.0054587744021
 31
0.0
 12
50.98749999999999
 22
162.9761132799114
 32
0.0
 13
50.98749999999999
 23
162.9761132799114
 33
0.0
  0
MTEXT
  5
1D8
330
1D2
100
AcDbEntity
  8
CSLAYER1
 62
     0
100
AcDbMText
 10
58.43267739169194
 20
161.8301908764999
 30
0.0
 40
0.18
 41
0.0
 71
     5
 72
     1
  1
\A1;35°
1001
ACAD
1000
MTEXTBEGIN
1070
    73
1070
     1
1070
    44
1040
1.0
1070
    74
1070
     0
1000
MTEXTEND
  0
POINT
  5
1D9
330
1D2
100
AcDbEntity
  8
DEFPOINTS
 62
     0
100
AcDbPoint
 10
60.79404222220686
 20
160.9512251863804
 30
0.0
  0
POINT
  5
1DA
330
1D2
100
AcDbEntity
  8
DEFPOINTS
 62
     0
100
AcDbPoint
 10
50.98749999999999
 20
138.2171049999999
 30
0.0
  0
POINT
  5
1DB
330
1D2
100
AcDbEntity
  8
DEFPOINTS
 62
     0
100
AcDbPoint
 10
50.98749999999999
 20
164.089185
 30
0.0
  0
POINT
  5
1DC
330
1D2
100
AcDbEntity
  8
DEFPOINTS
 62
     0
100
AcDbPoint
 10
50.98749999999999
 20
138.2171049999999
 30
0.0
  0
POINT
  5
1DD
330
1D2
100
AcDbEntity
  8
DEFPOINTS
 62
     0
100
AcDbPoint
 10
52.740889
 20
140.7212039999999
 30
0.0
  0
ENDBLK
  5
1DF
330
1D2
100
AcDbEntity
  8
0
100
AcDbBlockEnd
  0
ENDSEC
  0
SECTION
  2
ENTITIES
  0
POINT
  5
D3
330
1E
100
AcDbEntity
  8
CSLAYER1
 62
     3
100
AcDbPoint
 10
164.8874999999998
 20
138.2171049999999
 30
0.0
  0
POINT
  5
D4
330
1E
100
AcDbEntity
  8
CSLAYER1
 62
     3
100
AcDbPoint
 10
164.8874999999998
 20
80.78026300000002
 30
0.0
  0
DIMENSION
  5
D5
330
1E
100
AcDbEntity
  8
CSLAYER1
 62
     4
100
AcDbDimension
  2
*D0
 10
82.60749999999999
 20
154.217105
 30
0.0
 11
82.107498
 21
138.217102
 31
0.0
 70
     1
100
AcDbAlignedDimension
 13
132.8874999999999
 23
122.217105
 33
0.0
 14
132.8874999999999
 24
154.217105
 34
0.0
  0
DIMENSION
  5
D6
330
1E
100
AcDbEntity
  8
CSLAYER1
 62
     4
100
AcDbDimension
  2
*D1
 10
88.60750000000001
 20
146.717105
 30
0.0
 11
88.10749799999998
 21
138.217102
 31
0.0
 70
     1
100
AcDbAlignedDimension
 13
98.88750000000001
 23
129.717105
 33
0.0
 14
98.88750000000001
 24
146.717105
 34
0.0
  0
DIMENSION
  5
D7
330
1E
100
AcDbEntity
  8
CSLAYER1
 62
     4
100
AcDbDimension
  2
*D2
 10
164.8874999999998
 20
100.546324
 30
0.0
 11
153.387497
 21
101.046326
 31
0.0
100
AcDbAlignedDimension
 13
141.8874999999998
 23
89.280263
 33
0.0
 14
164.8874999999998
 24
95.79807800000001
 34
0.0
100
AcDbRotatedDimension
  0
DIMENSION
  5
D8
330
1E
100
AcDbEntity
  8
CSLAYER1
 62
     4
100
AcDbDimension
  2
*D3
 10
164.8874999999998
 20
60.098684
 30
0.0
 11
152.8874969999999
 21
60.598682
 31
0.0
 52
270.0
100
AcDbAlignedDimension
 13
140.8874999999999
 23
72.280263
 33
0.0
 14
164.8874999999998
 24
66.11743199999999
 34
0.0
100
AcDbRotatedDimension
  0
DIMENSION
  5
D9
330
1E
100
AcDbEntity
  8
CSLAYER1
 62
     4
100
AcDbDimension
  2
*D4
 10
135.9875
 20
138.2171049999999
 30
0.0
 11
63.434902
 21
130.177841
 31
0.0
 70
     4
100
AcDbRadialDimension
 15
51.512743
 25
128.782302
 35
0.0
 40
0.0
  0
POINT
  5
DA
330
1E
100
AcDbEntity
  8
CSLAYER1
 62
     3
100
AcDbPoint
 10
250.4999999999999
 20
43.5
 30
0.0
  0
POINT
  5
DB
330
1E
100
AcDbEntity
  8
CSLAYER1
 62
     3
100
AcDbPoint
 10
271.0
 20
43.5
 30
0.0
  0
POINT
  5
DC
330
1E
100
AcDbEntity
  8
CSLAYER1
 62
     3
100
AcDbPoint
 10
271.0
 20
53.5
 30
0.0
  0
POINT
  5
DD
330
1E
100
AcDbEntity
  8
CSLAYER1
 62
     3
100
AcDbPoint
 10
250.4999999999999
 20
53.5
 30
0.0
  0
TEXT
  5
DE
330
1E
100
AcDbEntity
  8
CSLAYER1
 62
     3
100
AcDbText
 10
238.099985
 20
51.00000399999998
 30
0.0
 40
5.0
  1
刃開キハ
 41
1.11044776119403
  7
FX_FONT
 72
     5
 11
262.899985
 21
51.00000399999998
 31
0.0
100
AcDbText
  0
TEXT
  5
DF
330
1E
100
AcDbEntity
  8
CSLAYER1
 62
     3
100
AcDbText
 10
237.999985
 20
41.00000399999998
 30
0.0
 40
5.0
  1
切刃部有効
 41
0.872093023255811
  7
FX_FONT
 72
     5
 11
262.9999849999999
 21
41.00000399999998
 31
0.0
100
AcDbText
  0
TEXT
  5
E0
330
1E
100
AcDbEntity
  8
CSLAYER1
 62
     3
100
AcDbText
 10
266.0
 20
51.00000399999998
 30
0.0
 40
5.0
  1
16
 41
1.199999999999999
  7
FX_FONT
 72
     5
 11
276.0
 21
51.00000399999998
 31
0.0
100
AcDbText
  0
TEXT
  5
E1
330
1E
100
AcDbEntity
  8
CSLAYER1
 62
     3
100
AcDbText
 10
266.0
 20
41.00000399999998
 30
0.0
 40
5.0
  1
38
 41
1.199999999999999
  7
FX_FONT
 72
     5
 11
276.0
 21
41.00000399999998
 31
0.0
100
AcDbText
  0
TEXT
  5
E2
330
1E
100
AcDbEntity
  8
CSLAYER1
 62
     3
100
AcDbText
 10
242.45
 20
17.25
 30
0.0
 40
3.5
  1
N30AP
 41
1.169387755102042
  7
FX_FONT
 72
     5
 11
261.55
 21
17.25
 31
0.0
100
AcDbText
  0
INSERT
  5
E3
330
1E
100
AcDbEntity
  8
CSLAYER1
100
AcDbBlockReference
  2
FXDIM0000
 10
0.0
 20
0.0
 30
0.0
  0
INSERT
  5
E4
330
1E
100
AcDbEntity
  8
CSLAYER1
100
AcDbBlockReference
  2
FXDIM0001
 10
0.0
 20
0.0
 30
0.0
  0
POINT
  5
E5
330
1E
100
AcDbEntity
  8
CSLAYER1
 62
     3
100
AcDbPoint
 10
252.0
 20
19.0
 30
0.0
  0
LINE
  5
E6
330
1E
100
AcDbEntity
  8
CSLAYER1
  6
CONTINUOUS
 62
     3
100
AcDbLine
 10
238.0
 20
40.0
 30
0.0
 11
279.0
 21
40.0
 31
0.0
  0
LINE
  5
E7
330
1E
100
AcDbEntity
  8
CSLAYER1
  6
CONTINUOUS
 62
     3
100
AcDbLine
 10
98.88750000000001
 20
83.534129
 30
0.0
 11
140.8874999999999
 21
72.280263
 31
0.0
  0
LINE
  5
E8
330
1E
100
AcDbEntity
  8
CSLAYER1
  6
CONTINUOUS
 62
     3
100
AcDbLine
 10
140.8874999999999
 20
72.280263
 30
0.0
 11
190.8874999999999
 21
72.280263
 31
0.0
  0
LINE
  5
E9
330
1E
100
AcDbEntity
  8
CSLAYER1
  6
CONTINUOUS
 62
     3
100
AcDbLine
 10
190.8874999999999
 20
72.280263
 30
0.0
 11
241.8898399999999
 21
73.59928899999998
 31
0.0
  0
ARC
  5
EA
330
1E
100
AcDbEntity
  8
CSLAYER1
  6
CONTINUOUS
 62
     3
100
AcDbCircle
 10
241.704125
 20
80.78026300000002
 30
0.0
 40
7.183374999999998
100
AcDbArc
 50
270.0
 51
90.0
  0
LINE
  5
EB
330
1E
100
AcDbEntity
  8
CSLAYER1
  6
CONTINUOUS
 62
     3
100
AcDbLine
 10
241.8898399999999
 20
87.961237
 30
0.0
 11
190.8874999999999
 21
89.280263
 31
0.0
  0
LINE
  5
EC
330
1E
100
AcDbEntity
  8
CSLAYER1
  6
CONTINUOUS
 62
     3
100
AcDbLine
 10
190.8874999999999
 20
89.280263
 30
0.0
 11
141.8874999999998
 21
89.280263
 31
0.0
  0
LINE
  5
ED
330
1E
100
AcDbEntity
  8
CSLAYER1
  6
CONTINUOUS
 62
     3
100
AcDbLine
 10
141.8874999999998
 20
89.280263
 30
0.0
 11
141.1997389999999
 21
86.713505
 31
0.0
  0
LINE
  5
EE
330
1E
100
AcDbEntity
  8
CSLAYER1
  6
CONTINUOUS
 62
     3
100
AcDbLine
 10
136.762215
 20
83.790154
 30
0.0
 11
98.88750000000001
 21
89.280263
 31
0.0
  0
LINE
  5
EF
330
1E
100
AcDbEntity
  8
CSLAYER1
  6
CONTINUOUS
 62
     3
100
AcDbLine
 10
98.88750000000001
 20
89.280263
 30
0.0
 11
98.88750000000001
 21
83.534129
 31
0.0
  0
ARC
  5
F0
330
1E
100
AcDbEntity
  8
CSLAYER1
  6
CONTINUOUS
 62
     3
100
AcDbCircle
 10
137.336036
 20
87.748781
 30
0.0
 40
4.0
100
AcDbArc
 50
261.7521669999999
 51
345.0
  0
LINE
  5
F1
330
1E
100
AcDbEntity
  8
CSLAYER1
  6
CONTINUOUS
 62
     3
100
AcDbLine
 10
150.9567389999999
 20
79.780263
 30
0.0
 11
150.9567389999999
 21
72.280263
 31
0.0
  0
LINE
  5
F2
330
1E
100
AcDbEntity
  8
CSLAYER1
  6
CONTINUOUS
 62
     3
100
AcDbLine
 10
159.142937
 20
72.280263
 30
0.0
 11
159.142937
 21
80.280263
 31
0.0
  0
LINE
  5
F3
330
1E
100
AcDbEntity
  8
CSLAYER1
  6
CONTINUOUS
 62
     3
100
AcDbLine
 10
159.142937
 20
80.280263
 30
0.0
 11
159.642937
 21
80.78026300000002
 31
0.0
  0
ARC
  5
F4
330
1E
100
AcDbEntity
  8
CSLAYER1
  6
CONTINUOUS
 62
     3
100
AcDbCircle
 10
151.9567389999999
 20
79.780263
 30
0.0
 40
1.0
100
AcDbArc
 50
90.0
 51
180.0
  0
LINE
  5
F5
330
1E
100
AcDbEntity
  8
CSLAYER1
  6
CONTINUOUS
 62
     3
100
AcDbLine
 10
151.9567389999999
 20
80.78026300000002
 30
0.0
 11
177.8182609999999
 21
80.78026300000002
 31
0.0
  0
ARC
  5
F6
330
1E
100
AcDbEntity
  8
CSLAYER1
  6
CONTINUOUS
 62
     3
100
AcDbCircle
 10
177.8182609999999
 20
81.780263
 30
0.0
 40
1.0
100
AcDbArc
 50
270.0
 51
0.0
  0
LINE
  5
F7
330
1E
100
AcDbEntity
  8
CSLAYER1
  6
CONTINUOUS
 62
     3
100
AcDbLine
 10
178.8182609999999
 20
81.780263
 30
0.0
 11
178.8182609999999
 21
89.280263
 31
0.0
  0
LINE
  5
F8
330
1E
100
AcDbEntity
  8
CSLAYER1
  6
CONTINUOUS
 62
     3
100
AcDbLine
 10
170.632063
 20
89.280263
 30
0.0
 11
170.632063
 21
81.280263
 31
0.0
  0
LINE
  5
F9
330
1E
100
AcDbEntity
  8
CSLAYER1
  6
CONTINUOUS
 62
     3
100
AcDbLine
 10
170.632063
 20
81.280263
 30
0.0
 11
170.1320629999998
 21
80.78026300000002
 31
0.0
  0
ARC
  5
FA
330
1E
100
AcDbEntity
  8
CSLAYER1
  6
CONTINUOUS
 62
     3
100
AcDbCircle
 10
164.8874999999998
 20
138.2171049999999
 30
0.0
 40
17.0
100
AcDbArc
 50
289.7499229999999
 51
2.253785999999998
  0
ARC
  5
FB
330
1E
100
AcDbEntity
  8
CSLAYER1
  6
CONTINUOUS
 62
     3
100
AcDbCircle
 10
182.673731
 20
138.9171049999999
 30
0.0
 40
0.8
100
AcDbArc
 50
90.0
 51
182.253786
  0
LINE
  5
FC
330
1E
100
AcDbEntity
  8
CSLAYER1
  6
CONTINUOUS
 62
     3
100
AcDbLine
 10
182.673731
 20
139.717105
 30
0.0
 11
248.8874999999999
 21
139.717105
 31
0.0
  0
ARC
  5
FD
330
1E
100
AcDbEntity
  8
CSLAYER1
  6
CONTINUOUS
 62
     3
100
AcDbCircle
 10
240.978977
 20
140.9234499999999
 30
0.0
 40
8.0
100
AcDbArc
 50
351.32711
 51
84.64417500000001
  0
LINE
  5
FE
330
1E
100
AcDbEntity
  8
CSLAYER1
  6
CONTINUOUS
 62
     3
100
AcDbLine
 10
241.725703
 20
148.8885239999999
 30
0.0
 11
184.8874999999999
 21
154.217105
 31
0.0
  0
LINE
  5
FF
330
1E
100
AcDbEntity
  8
CSLAYER1
  6
CONTINUOUS
 62
     3
100
AcDbLine
 10
184.8874999999999
 20
154.217105
 30
0.0
 11
132.8874999999999
 21
154.217105
 31
0.0
  0
LINE
  5
100
330
1E
100
AcDbEntity
  8
CSLAYER1
  6
CONTINUOUS
 62
     3
100
AcDbLine
 10
132.8874999999999
 20
154.217105
 30
0.0
 11
98.88750000000001
 21
146.717105
 31
0.0
  0
LINE
  5
101
330
1E
100
AcDbEntity
  8
CSLAYER1
  6
CONTINUOUS
 62
     3
100
AcDbLine
 10
98.88750000000001
 20
146.717105
 30
0.0
 11
98.88750000000001
 21
129.717105
 31
0.0
  0
LINE
  5
102
330
1E
100
AcDbEntity
  8
CSLAYER1
  6
CONTINUOUS
 62
     3
100
AcDbLine
 10
98.88750000000001
 20
129.717105
 30
0.0
 11
132.8874999999999
 21
122.217105
 31
0.0
  0
LINE
  5
103
330
1E
100
AcDbEntity
  8
CSLAYER1
  6
CONTINUOUS
 62
     3
100
AcDbLine
 10
132.8874999999999
 20
122.217105
 30
0.0
 11
184.8874999999999
 21
122.217105
 31
0.0
  0
LINE
  5
104
330
1E
100
AcDbEntity
  8
CSLAYER1
  6
CONTINUOUS
 62
     3
100
AcDbLine
 10
184.8874999999999
 20
122.217105
 30
0.0
 11
241.725703
 21
127.545687
 31
0.0
  0
ARC
  5
105
330
1E
100
AcDbEntity
  8
CSLAYER1
  6
CONTINUOUS
 62
     3
100
AcDbCircle
 10
240.978977
 20
135.510761
 30
0.0
 40
8.0
100
AcDbArc
 50
275.3558249999999
 51
0.0
  0
LINE
  5
106
330
1E
100
AcDbEntity
  8
CSLAYER1
  6
CONTINUOUS
 62
     3
100
AcDbLine
 10
248.8874999999999
 20
136.717105
 30
0.0
 11
182.673731
 21
136.717105
 31
0.0
  0
LINE
  5
107
330
1E
100
AcDbEntity
  8
CSLAYER1
  6
CONTINUOUS
 62
     3
100
AcDbLine
 10
183.251356
 20
136.717105
 30
0.0
 11
178.8182609999999
 21
122.217105
 31
0.0
  0
ARC
  5
108
330
1E
100
AcDbEntity
  8
CSLAYER1
  6
CONTINUOUS
 62
     3
100
AcDbCircle
 10
182.673731
 20
137.517105
 30
0.0
 40
0.8
100
AcDbArc
 50
177.7462139999999
 51
270.0
  0
CIRCLE
  5
109
330
1E
100
AcDbEntity
  8
CSLAYER1
  6
CONTINUOUS
 62
     3
100
AcDbCircle
 10
164.8874999999998
 20
138.2171049999999
 30
0.0
 40
9.55
  0
CIRCLE
  5
10A
330
1E
100
AcDbEntity
  8
CSLAYER1
  6
CONTINUOUS
 62
     3
100
AcDbCircle
 10
164.8874999999998
 20
138.2171049999999
 30
0.0
 40
2.75
  0
ARC
  5
10B
330
1E
100
AcDbEntity
  8
CSLAYER1
  6
CONTINUOUS
 62
     3
100
AcDbCircle
 10
164.8874999999998
 20
138.2171049999999
 30
0.0
 40
17.0
100
AcDbArc
 50
109.7499229999999
 51
174.715267
  0
LINE
  5
10C
330
1E
100
AcDbEntity
  8
CSLAYER1
  6
CONTINUOUS
 62
     3
100
AcDbLine
 10
146.1392429999999
 20
138.459783
 30
0.0
 11
150.9567389999999
 21
154.217105
 31
0.0
  0
LINE
  5
10D
330
1E
100
AcDbEntity
  8
CSLAYER1
  6
CONTINUOUS
 62
     3
100
AcDbLine
 10
141.8874999999998
 20
154.217105
 30
0.0
 11
141.8874999999998
 21
138.467105
 31
0.0
  0
LINE
  5
10E
330
1E
100
AcDbEntity
  8
CSLAYER1
  6
CONTINUOUS
 62
     3
100
AcDbLine
 10
141.8874999999998
 20
137.967105
 30
0.0
 11
141.8874999999998
 21
122.217105
 31
0.0
  0
LINE
  5
10F
330
1E
100
AcDbEntity
  8
CSLAYER1
  6
CONTINUOUS
 62
     3
100
AcDbLine
 10
140.053561
 20
126.120904
 30
0.0
 11
139.766221
 21
126.470948
 31
0.0
  0
LINE
  5
110
330
1E
100
AcDbEntity
  8
CSLAYER1
  6
CONTINUOUS
 62
     3
100
AcDbLine
 10
139.766221
 20
126.470948
 30
0.0
 11
139.5054669999999
 21
126.888258
 31
0.0
  0
LINE
  5
111
330
1E
100
AcDbEntity
  8
CSLAYER1
  6
CONTINUOUS
 62
     3
100
AcDbLine
 10
139.5054669999999
 20
126.888258
 30
0.0
 11
139.255119
 21
127.3917879999999
 31
0.0
  0
LINE
  5
112
330
1E
100
AcDbEntity
  8
CSLAYER1
  6
CONTINUOUS
 62
     3
100
AcDbLine
 10
139.255119
 20
127.3917879999999
 30
0.0
 11
139.017082
 21
127.977705
 31
0.0
  0
LINE
  5
113
330
1E
100
AcDbEntity
  8
CSLAYER1
  6
CONTINUOUS
 62
     3
100
AcDbLine
 10
139.017082
 20
127.977705
 30
0.0
 11
138.7931669999999
 21
128.6415499999999
 31
0.0
  0
LINE
  5
114
330
1E
100
AcDbEntity
  8
CSLAYER1
  6
CONTINUOUS
 62
     3
100
AcDbLine
 10
138.7931669999999
 20
128.6415499999999
 30
0.0
 11
138.585079
 21
129.3782699999999
 31
0.0
  0
LINE
  5
115
330
1E
100
AcDbEntity
  8
CSLAYER1
  6
CONTINUOUS
 62
     3
100
AcDbLine
 10
138.585079
 20
129.3782699999999
 30
0.0
 11
138.394402
 21
130.18226
 31
0.0
  0
LINE
  5
116
330
1E
100
AcDbEntity
  8
CSLAYER1
  6
CONTINUOUS
 62
     3
100
AcDbLine
 10
138.394402
 20
130.18226
 30
0.0
 11
138.222586
 21
131.0474
 31
0.0
  0
LINE
  5
117
330
1E
100
AcDbEntity
  8
CSLAYER1
  6
CONTINUOUS
 62
     3
100
AcDbLine
 10
138.222586
 20
131.0474
 30
0.0
 11
138.0709399999998
 21
131.9671049999999
 31
0.0
  0
LINE
  5
118
330
1E
100
AcDbEntity
  8
CSLAYER1
  6
CONTINUOUS
 62
     3
100
AcDbLine
 10
138.0709399999998
 20
131.9671049999999
 30
0.0
 11
137.9406169999999
 21
132.934377
 31
0.0
  0
LINE
  5
119
330
1E
100
AcDbEntity
  8
CSLAYER1
  6
CONTINUOUS
 62
     3
100
AcDbLine
 10
137.9406169999999
 20
132.934377
 30
0.0
 11
137.832609
 21
133.941853
 31
0.0
  0
LINE
  5
11A
330
1E
100
AcDbEntity
  8
CSLAYER1
  6
CONTINUOUS
 62
     3
100
AcDbLine
 10
137.832609
 20
133.941853
 30
0.0
 11
137.7477379999999
 21
134.9818669999999
 31
0.0
  0
LINE
  5
11B
330
1E
100
AcDbEntity
  8
CSLAYER1
  6
CONTINUOUS
 62
     3
100
AcDbLine
 10
137.7477379999999
 20
134.9818669999999
 30
0.0
 11
137.686651
 21
136.046503
 31
0.0
  0
LINE
  5
11C
330
1E
100
AcDbEntity
  8
CSLAYER1
  6
CONTINUOUS
 62
     3
100
AcDbLine
 10
137.686651
 20
136.046503
 30
0.0
 11
137.6498109999999
 21
137.1276579999999
 31
0.0
  0
LINE
  5
11D
330
1E
100
AcDbEntity
  8
CSLAYER1
  6
CONTINUOUS
 62
     3
100
AcDbLine
 10
137.6498109999999
 20
137.1276579999999
 30
0.0
 11
137.6403249999998
 21
137.967105
 31
0.0
  0
LINE
  5
11E
330
1E
100
AcDbEntity
  8
CSLAYER1
  6
CONTINUOUS
 62
     3
100
AcDbLine
 10
137.6403249999998
 20
138.467105
 30
0.0
 11
137.6498109999999
 21
139.306552
 31
0.0
  0
LINE
  5
11F
330
1E
100
AcDbEntity
  8
CSLAYER1
  6
CONTINUOUS
 62
     3
100
AcDbLine
 10
137.6498109999999
 20
139.306552
 30
0.0
 11
137.686651
 21
140.387707
 31
0.0
  0
LINE
  5
120
330
1E
100
AcDbEntity
  8
CSLAYER1
  6
CONTINUOUS
 62
     3
100
AcDbLine
 10
137.686651
 20
140.387707
 30
0.0
 11
137.7477379999999
 21
141.4523429999998
 31
0.0
  0
LINE
  5
121
330
1E
100
AcDbEntity
  8
CSLAYER1
  6
CONTINUOUS
 62
     3
100
AcDbLine
 10
137.7477379999999
 20
141.4523429999998
 30
0.0
 11
137.832609
 21
142.4923569999999
 31
0.0
  0
LINE
  5
122
330
1E
100
AcDbEntity
  8
CSLAYER1
  6
CONTINUOUS
 62
     3
100
AcDbLine
 10
137.832609
 20
142.4923569999999
 30
0.0
 11
137.9406169999999
 21
143.499834
 31
0.0
  0
LINE
  5
123
330
1E
100
AcDbEntity
  8
CSLAYER1
  6
CONTINUOUS
 62
     3
100
AcDbLine
 10
137.9406169999999
 20
143.499834
 30
0.0
 11
138.0709399999998
 21
144.467105
 31
0.0
  0
LINE
  5
124
330
1E
100
AcDbEntity
  8
CSLAYER1
  6
CONTINUOUS
 62
     3
100
AcDbLine
 10
138.0709399999998
 20
144.467105
 30
0.0
 11
138.222586
 21
145.386811
 31
0.0
  0
LINE
  5
125
330
1E
100
AcDbEntity
  8
CSLAYER1
  6
CONTINUOUS
 62
     3
100
AcDbLine
 10
138.222586
 20
145.386811
 30
0.0
 11
138.394402
 21
146.2519499999999
 31
0.0
  0
LINE
  5
126
330
1E
100
AcDbEntity
  8
CSLAYER1
  6
CONTINUOUS
 62
     3
100
AcDbLine
 10
138.394402
 20
146.2519499999999
 30
0.0
 11
138.585079
 21
147.0559399999999
 31
0.0
  0
LINE
  5
127
330
1E
100
AcDbEntity
  8
CSLAYER1
  6
CONTINUOUS
 62
     3
100
AcDbLine
 10
138.585079
 20
147.0559399999999
 30
0.0
 11
138.7931669999999
 21
147.792661
 31
0.0
  0
LINE
  5
128
330
1E
100
AcDbEntity
  8
CSLAYER1
  6
CONTINUOUS
 62
     3
100
AcDbLine
 10
138.7931669999999
 20
147.792661
 30
0.0
 11
139.017082
 21
148.456506
 31
0.0
  0
LINE
  5
129
330
1E
100
AcDbEntity
  8
CSLAYER1
  6
CONTINUOUS
 62
     3
100
AcDbLine
 10
139.017082
 20
148.456506
 30
0.0
 11
139.255119
 21
149.0424229999999
 31
0.0
  0
LINE
  5
12A
330
1E
100
AcDbEntity
  8
CSLAYER1
  6
CONTINUOUS
 62
     3
100
AcDbLine
 10
139.255119
 20
149.0424229999999
 30
0.0
 11
139.5054669999999
 21
149.5459529999999
 31
0.0
  0
LINE
  5
12B
330
1E
100
AcDbEntity
  8
CSLAYER1
  6
CONTINUOUS
 62
     3
100
AcDbLine
 10
139.5054669999999
 20
149.5459529999999
 30
0.0
 11
139.766221
 21
149.9632629999998
 31
0.0
  0
LINE
  5
12C
330
1E
100
AcDbEntity
  8
CSLAYER1
  6
CONTINUOUS
 62
     3
100
AcDbLine
 10
139.766221
 20
149.9632629999998
 30
0.0
 11
140.053561
 21
150.313306
 31
0.0
  0
LINE
  5
12D
330
1E
100
AcDbEntity
  8
CSLAYER1
  6
CONTINUOUS
 62
     3
100
AcDbLine
 10
139.158009
 20
150.451637
 30
0.0
 11
98.88750000000001
 21
144.2171049999999
 31
0.0
  0
LINE
  5
12E
330
1E
100
AcDbEntity
  8
CSLAYER1
  6
CONTINUOUS
 62
     3
100
AcDbLine
 10
98.88750000000001
 20
140.2171049999999
 30
0.0
 11
137.6374999999999
 21
140.2171049999999
 31
0.0
  0
LINE
  5
12F
330
1E
100
AcDbEntity
  8
CSLAYER1
  6
CONTINUOUS
 62
     3
100
AcDbLine
 10
135.5926809999999
 20
138.2171049999999
 30
0.0
 11
98.88750000000001
 21
138.2171049999999
 31
0.0
  0
LINE
  5
130
330
1E
100
AcDbEntity
  8
CSLAYER1
  6
CONTINUOUS
 62
     3
100
AcDbLine
 10
98.88750000000001
 20
136.217105
 30
0.0
 11
137.6374999999999
 21
136.217105
 31
0.0
  0
ARC
  5
131
330
1E
100
AcDbEntity
  8
CSLAYER1
  6
CONTINUOUS
 62
     3
100
AcDbCircle
 10
139.3874999999999
 20
148.9692969999999
 30
0.0
 40
1.5
100
AcDbArc
 50
0.0
 51
98.80045500000001
  0
LINE
  5
132
330
1E
100
AcDbEntity
  8
CSLAYER1
  6
CONTINUOUS
 62
     3
100
AcDbLine
 10
140.8874999999999
 20
148.9692969999999
 30
0.0
 11
140.8874999999999
 21
138.467105
 31
0.0
  0
LINE
  5
133
330
1E
100
AcDbEntity
  8
CSLAYER1
  6
CONTINUOUS
 62
     3
100
AcDbLine
 10
139.158009
 20
125.9825729999999
 30
0.0
 11
98.88750000000001
 21
132.217105
 31
0.0
  0
LINE
  5
134
330
1E
100
AcDbEntity
  8
CSLAYER1
  6
CONTINUOUS
 62
     3
100
AcDbLine
 10
60.98749999999999
 20
123.9356249999999
 30
0.0
 11
60.98749999999999
 21
122.217105
 31
0.0
  0
LINE
  5
135
330
1E
100
AcDbEntity
  8
CSLAYER1
  6
CONTINUOUS
 62
     3
100
AcDbLine
 10
60.98749999999999
 20
122.217105
 30
0.0
 11
52.4875
 21
122.217105
 31
0.0
  0
LINE
  5
136
330
1E
100
AcDbEntity
  8
CSLAYER1
  6
CONTINUOUS
 62
     3
100
AcDbLine
 10
58.445829
 20
127.565507
 30
0.0
 11
60.98749999999999
 21
123.9356249999999
 31
0.0
  0
ARC
  5
137
330
1E
100
AcDbEntity
  8
CSLAYER1
  6
CONTINUOUS
 62
     3
100
AcDbCircle
 10
64.9875
 20
138.2171049999999
 30
0.0
 40
12.5
100
AcDbArc
 50
191.556133
 51
238.4438669999999
  0
LINE
  5
138
330
1E
100
AcDbEntity
  8
CSLAYER1
  6
CONTINUOUS
 62
     3
100
AcDbLine
 10
52.740889
 20
135.7130069999998
 30
0.0
 11
50.98749999999999
 21
138.2171049999999
 31
0.0
  0
LINE
  5
139
330
1E
100
AcDbEntity
  8
CSLAYER1
  6
CONTINUOUS
 62
     3
100
AcDbLine
 10
50.98749999999999
 20
138.2171049999999
 30
0.0
 11
52.740889
 21
140.721204
 31
0.0
  0
ARC
  5
13A
330
1E
100
AcDbEntity
  8
CSLAYER1
  6
CONTINUOUS
 62
     3
100
AcDbCircle
 10
64.9875
 20
138.2171049999999
 30
0.0
 40
12.5
100
AcDbArc
 50
121.556133
 51
168.4438669999998
  0
LINE
  5
13B
330
1E
100
AcDbEntity
  8
CSLAYER1
  6
CONTINUOUS
 62
     3
100
AcDbLine
 10
58.445829
 20
148.868704
 30
0.0
 11
60.98749999999999
 21
152.498585
 31
0.0
  0
LINE
  5
13C
330
1E
100
AcDbEntity
  8
CSLAYER1
  6
CONTINUOUS
 62
     3
100
AcDbLine
 10
60.98749999999999
 20
152.498585
 30
0.0
 11
60.98749999999999
 21
154.217105
 31
0.0
  0
LINE
  5
13D
330
1E
100
AcDbEntity
  8
CSLAYER1
  6
CONTINUOUS
 62
     3
100
AcDbLine
 10
60.98749999999999
 20
154.217105
 30
0.0
 11
52.4875
 21
154.217105
 31
0.0
  0
ARC
  5
13E
330
1E
100
AcDbEntity
  8
CSLAYER1
  6
CONTINUOUS
 62
     3
100
AcDbCircle
 10
135.9875
 20
138.2171049999999
 30
0.0
 40
85.0
100
AcDbArc
 50
169.1501839999999
 51
190.8498159999999
  0
ARC
  5
13F
330
1E
100
AcDbEntity
  8
CSLAYER1
  6
CONTINUOUS
 62
     3
100
AcDbCircle
 10
139.3874999999999
 20
127.4649139999999
 30
0.0
 40
1.5
100
AcDbArc
 50
261.199545
 51
0.0
  0
LINE
  5
140
330
1E
100
AcDbEntity
  8
CSLAYER1
  6
CONTINUOUS
 62
     3
100
AcDbLine
 10
234.8875
 20
136.717105
 30
0.0
 11
234.8875
 21
139.717105
 31
0.0
  0
LINE
  5
141
330
1E
100
AcDbEntity
  8
CSLAYER1
  6
CONTINUOUS
 62
     3
100
AcDbLine
 10
242.8875
 20
139.717105
 30
0.0
 11
242.8875
 21
136.717105
 31
0.0
  0
LINE
  5
142
330
1E
100
AcDbEntity
  8
CSLAYER1
  6
CONTINUOUS
 62
     3
100
AcDbLine
 10
279.0
 20
50.0
 30
0.0
 11
238.0
 21
50.0
 31
0.0
  0
TEXT
  5
143
330
1E
100
AcDbEntity
  8
CSLAYER1
 62
     4
100
AcDbText
 10
82.92628499999997
 20
78.463899
 30
0.0
 40
3.2
  1
17  
 50
90.0
 41
1.249999999999999
 51
15.0
  7
FX_FONT
 72
     5
 11
82.92628499999997
 21
91.26389899999999
 31
0.0
100
AcDbText
  0
TEXT
  5
144
330
1E
100
AcDbEntity
  8
CSLAYER1
 62
     4
100
AcDbText
 10
81.326285
 20
91.26389899999999
 30
0.0
 40
1.6
  1
  0
 50
90.0
 41
1.60714285714286
 51
15.0
  7
FX_FONT
 72
     5
 11
81.326285
 21
96.06389900000001
 31
0.0
100
AcDbText
  0
TEXT
  5
145
330
1E
100
AcDbEntity
  8
CSLAYER1
 62
     4
100
AcDbText
 10
82.92628499999997
 20
91.26389899999999
 30
0.0
 40
1.6
  1
-0.15
 50
90.0
 41
1.071428571428571
 51
15.0
  7
FX_FONT
 72
     5
 11
82.92628499999997
 21
99.263899
 31
0.0
100
AcDbText
  0
LINE
  5
146
330
1E
100
AcDbEntity
  8
CSLAYER1
  6
CONTINUOUS
 62
     4
100
AcDbLine
 10
83.208648
 20
72.280263
 30
0.0
 11
139.8874999999998
 21
72.280263
 31
0.0
  0
LINE
  5
147
330
1E
100
AcDbEntity
  8
CSLAYER1
  6
DASHED
 62
     4
100
AcDbLine
 10
137.958741
 20
74.617936
 30
0.0
 11
141.1997389999999
 21
86.713505
 31
0.0
  0
LINE
  5
148
330
1E
100
AcDbEntity
  8
CSLAYER1
  6
CONTINUOUS
 62
     4
100
AcDbLine
 10
140.8874999999999
 20
89.280263
 30
0.0
 11
83.208648
 21
89.280263
 31
0.0
  0
LINE
  5
149
330
1E
100
AcDbEntity
  8
CSLAYER1
  6
CONTINUOUS
 62
     4
100
AcDbLine
 10
84.208648
 20
89.280263
 30
0.0
 11
84.208648
 21
72.280263
 31
0.0
  0
LINE
  5
14A
330
1E
100
AcDbEntity
  8
CSLAYER1
  6
CONTINUOUS
 62
     4
100
AcDbLine
 10
84.208648
 20
89.280263
 30
0.0
 11
83.432191
 21
86.382486
 31
0.0
  0
LINE
  5
14B
330
1E
100
AcDbEntity
  8
CSLAYER1
  6
CONTINUOUS
 62
     4
100
AcDbLine
 10
84.208648
 20
89.280263
 30
0.0
 11
84.98510600000001
 21
86.382486
 31
0.0
  0
LINE
  5
14C
330
1E
100
AcDbEntity
  8
CSLAYER1
  6
CONTINUOUS
 62
     4
100
AcDbLine
 10
84.208648
 20
72.280263
 30
0.0
 11
83.432191
 21
75.17804100000002
 31
0.0
  0
LINE
  5
14D
330
1E
100
AcDbEntity
  8
CSLAYER1
  6
CONTINUOUS
 62
     4
100
AcDbLine
 10
84.208648
 20
72.280263
 30
0.0
 11
84.98510600000001
 21
75.17804100000002
 31
0.0
  0
LINE
  5
14E
330
1E
100
AcDbEntity
  8
CSLAYER1
  6
CENTER
 62
     4
100
AcDbLine
 10
145.015006
 20
80.78026300000002
 30
0.0
 11
151.9567389999999
 21
80.78026300000002
 31
0.0
  0
ARC
  5
14F
330
1E
100
AcDbEntity
  8
CSLAYER1
  6
DASHED
 62
     4
100
AcDbCircle
 10
136.509853
 20
75.00616499999998
 30
0.0
 40
1.5
100
AcDbArc
 50
255.0
 51
345.0
  0
LINE
  5
150
330
1E
100
AcDbEntity
  8
CSLAYER1
  6
CENTER
 62
     4
100
AcDbLine
 10
164.8874999999998
 20
66.11743199999999
 30
0.0
 11
164.8874999999998
 21
95.79807800000001
 31
0.0
  0
LINE
  5
151
330
1E
100
AcDbEntity
  8
CSLAYER1
  6
CENTER
 62
     4
100
AcDbLine
 10
177.8182609999999
 20
80.78026300000002
 30
0.0
 11
186.325682
 21
80.78026300000002
 31
0.0
  0
LINE
  5
152
330
1E
100
AcDbEntity
  8
CSLAYER1
  6
CENTER
 62
     4
100
AcDbLine
 10
164.8874999999998
 20
115.5613479999999
 30
0.0
 11
164.8874999999998
 21
160.092257
 31
0.0
  0
LINE
  5
153
330
1E
100
AcDbEntity
  8
CSLAYER1
  6
CENTER
 62
     4
100
AcDbLine
 10
190.8874999999999
 20
146.717105
 30
0.0
 11
190.8874999999999
 21
130.0692689999999
 31
0.0
  0
LINE
  5
154
330
1E
100
AcDbEntity
  8
CSLAYER1
  6
CENTER
 62
     4
100
AcDbLine
 10
238.8875
 20
132.5504389999998
 30
0.0
 11
238.8875
 21
144.2837719999999
 31
0.0
  0
LINE
  5
155
330
1E
100
AcDbEntity
  8
CSLAYER1
  6
CENTER
 62
     4
100
AcDbLine
 10
257.118409
 20
138.2171049999999
 30
0.0
 11
135.5926809999999
 21
138.2171049999999
 31
0.0
  0
LINE
  5
156
330
1E
100
AcDbEntity
  8
CSLAYER1
  6
CENTER
 62
     4
100
AcDbLine
 10
98.88750000000001
 20
138.2171049999999
 30
0.0
 11
93.25593000000001
 21
138.2171049999999
 31
0.0
  0
LINE
  5
157
330
1E
100
AcDbEntity
  8
CSLAYER1
  6
CENTER
 62
     4
100
AcDbLine
 10
60.98749999999999
 20
138.2171049999999
 30
0.0
 11
45.34931799999998
 21
138.2171049999999
 31
0.0
  0
LINE
  5
159
330
1E
100
AcDbEntity
  8
CSLAYER1
  6
CENTER
 62
     4
100
AcDbLine
 10
254.8790149999999
 20
80.794203
 30
0.0
 11
242.7868939999999
 21
80.794203
 31
0.0
  0
LINE
  5
15A
330
1E
100
AcDbEntity
  8
CSLAYER1
  6
CONTINUOUS
 62
     3
100
AcDbLine
 10
140.8874999999999
 20
137.967105
 30
0.0
 11
140.8874999999999
 21
127.4649139999999
 31
0.0
  0
LINE
  5
15B
330
1E
100
AcDbEntity
  8
CSLAYER1
  6
CONTINUOUS
 62
     3
100
AcDbLine
 10
145.9682639999998
 20
138.467105
 30
0.0
 11
135.5926809999999
 21
138.467105
 31
0.0
  0
LINE
  5
15C
330
1E
100
AcDbEntity
  8
CSLAYER1
  6
CONTINUOUS
 62
     3
100
AcDbLine
 10
145.9682639999998
 20
137.967105
 30
0.0
 11
135.5926809999999
 21
137.967105
 31
0.0
  0
ARC
  5
15D
330
1E
100
AcDbEntity
  8
CSLAYER1
  6
CONTINUOUS
 62
     3
100
AcDbCircle
 10
145.9682639999998
 20
139.967105
 30
0.0
 40
2.0
100
AcDbArc
 50
270.0
 51
354.715267
  0
ARC
  5
15E
330
1E
100
AcDbEntity
  8
CSLAYER1
  6
CONTINUOUS
 62
     3
100
AcDbCircle
 10
145.9682639999998
 20
136.467105
 30
0.0
 40
2.0
100
AcDbArc
 50
61.044976
 51
90.0
  0
INSERT
  5
160
330
1E
100
AcDbEntity
  8
CSLAYER1
100
AcDbBlockReference
  2
FXDIM0002
 10
0.0
 20
0.0
 30
0.0
  0
DIMENSION
  5
161
330
1E
100
AcDbEntity
  8
CSLAYER1
 62
     4
100
AcDbDimension
  2
*D9
 10
164.8874999999998
 20
169.1337569999999
 30
0.0
 11
131.8874969999999
 21
169.6337429999998
 31
0.0
100
AcDbAlignedDimension
 13
98.88750000000001
 23
146.717105
 33
0.0
 14
164.8874999999998
 24
160.092257
 34
0.0
100
AcDbRotatedDimension
  0
DIMENSION
  5
162
330
1E
100
AcDbEntity
  8
CSLAYER1
 62
     4
100
AcDbDimension
  2
*D10
 10
164.8874999999998
 20
163.133757
 30
0.0
 11
148.8874969999999
 21
163.6337429999999
 31
0.0
100
AcDbAlignedDimension
 13
132.8874999999999
 23
154.217105
 33
0.0
 14
164.8874999999998
 24
160.092257
 34
0.0
100
AcDbRotatedDimension
  0
DIMENSION
  5
163
330
1E
100
AcDbEntity
  8
CSLAYER1
 62
     4
100
AcDbDimension
  2
*D11
 10
64.9875
 20
138.2171049999999
 30
0.0
 11
63.07360799999999
 21
140.332153
 31
0.0
 70
     4
100
AcDbRadialDimension
 15
55.105637
 25
145.8720889999999
 35
0.0
 40
0.0
  0
POINT
  5
164
330
1E
100
AcDbEntity
  8
CSLAYER1
 62
     3
100
AcDbPoint
 10
135.5289469999999
 20
30.45394699999999
 30
0.0
  0
LINE
  5
165
330
1E
100
AcDbEntity
  8
CSLAYER1
  6
CONTINUOUS
 62
     3
100
AcDbLine
 10
135.5289469999999
 20
46.572798
 30
0.0
 11
105.7042889999999
 21
50.214761
 31
0.0
  0
LINE
  5
166
330
1E
100
AcDbEntity
  8
CSLAYER1
  6
CONTINUOUS
 62
     3
100
AcDbLine
 10
105.7042889999999
 20
50.214761
 30
0.0
 11
71.045893
 21
46.89127399999999
 31
0.0
  0
LINE
  5
167
330
1E
100
AcDbEntity
  8
CSLAYER1
  6
CONTINUOUS
 62
     3
100
AcDbLine
 10
71.045893
 20
46.89127399999999
 30
0.0
 11
70.01559
 21
38.45394699999999
 31
0.0
  0
CIRCLE
  5
168
330
1E
100
AcDbEntity
  8
CSLAYER1
  6
CONTINUOUS
 62
     3
100
AcDbCircle
 10
135.5289469999999
 20
30.45394699999999
 30
0.0
 40
9.55
  0
CIRCLE
  5
169
330
1E
100
AcDbEntity
  8
CSLAYER1
  6
CONTINUOUS
 62
     3
100
AcDbCircle
 10
135.5289469999999
 20
30.45394699999999
 30
0.0
 40
2.75
  0
ARC
  5
16A
330
1E
100
AcDbEntity
  8
CSLAYER1
  6
CONTINUOUS
 62
     3
100
AcDbCircle
 10
135.5289469999999
 20
30.45394699999999
 30
0.0
 40
17.0
100
AcDbArc
 50
116.7119849999999
 51
181.67733
  0
LINE
  5
16B
330
1E
100
AcDbEntity
  8
CSLAYER1
  6
CONTINUOUS
 62
     3
100
AcDbLine
 10
116.9483429999999
 20
32.967352
 30
0.0
 11
123.640297
 21
48.02455
 31
0.0
  0
LINE
  5
16C
330
1E
100
AcDbEntity
  8
CSLAYER1
  6
CONTINUOUS
 62
     3
100
AcDbLine
 10
114.637929
 20
49.123852
 30
0.0
 11
112.7288379999999
 21
33.489983
 31
0.0
  0
LINE
  5
16D
330
1E
100
AcDbEntity
  8
CSLAYER1
  6
CONTINUOUS
 62
     3
100
AcDbLine
 10
108.512979
 20
34.004792
 30
0.0
 11
108.6241459999999
 21
34.836899
 31
0.0
  0
LINE
  5
16E
330
1E
100
AcDbEntity
  8
CSLAYER1
  6
CONTINUOUS
 62
     3
100
AcDbLine
 10
108.6241459999999
 20
34.836899
 30
0.0
 11
108.7917629999999
 21
35.90561799999999
 31
0.0
  0
LINE
  5
16F
330
1E
100
AcDbEntity
  8
CSLAYER1
  6
CONTINUOUS
 62
     3
100
AcDbLine
 10
108.7917629999999
 20
35.90561799999999
 30
0.0
 11
108.981447
 21
36.954999
 31
0.0
  0
LINE
  5
170
330
1E
100
AcDbEntity
  8
CSLAYER1
  6
CONTINUOUS
 62
     3
100
AcDbLine
 10
108.981447
 20
36.954999
 30
0.0
 11
109.191754
 21
37.977057
 31
0.0
  0
LINE
  5
171
330
1E
100
AcDbEntity
  8
CSLAYER1
  6
CONTINUOUS
 62
     3
100
AcDbLine
 10
109.191754
 20
37.977057
 30
0.0
 11
109.421084
 21
38.964013
 31
0.0
  0
LINE
  5
172
330
1E
100
AcDbEntity
  8
CSLAYER1
  6
CONTINUOUS
 62
     3
100
AcDbLine
 10
109.421084
 20
38.964013
 30
0.0
 11
109.667691
 21
39.908356
 31
0.0
  0
LINE
  5
173
330
1E
100
AcDbEntity
  8
CSLAYER1
  6
CONTINUOUS
 62
     3
100
AcDbLine
 10
109.667691
 20
39.908356
 30
0.0
 11
109.929699
 21
40.80289899999999
 31
0.0
  0
LINE
  5
174
330
1E
100
AcDbEntity
  8
CSLAYER1
  6
CONTINUOUS
 62
     3
100
AcDbLine
 10
109.929699
 20
40.80289899999999
 30
0.0
 11
110.2051129999999
 21
41.640833
 31
0.0
  0
LINE
  5
175
330
1E
100
AcDbEntity
  8
CSLAYER1
  6
CONTINUOUS
 62
     3
100
AcDbLine
 10
110.2051129999999
 20
41.640833
 30
0.0
 11
110.4918379999999
 21
42.415782
 31
0.0
  0
LINE
  5
176
330
1E
100
AcDbEntity
  8
CSLAYER1
  6
CONTINUOUS
 62
     3
100
AcDbLine
 10
110.4918379999999
 20
42.415782
 30
0.0
 11
110.7876909999999
 21
43.12184799999999
 31
0.0
  0
LINE
  5
177
330
1E
100
AcDbEntity
  8
CSLAYER1
  6
CONTINUOUS
 62
     3
100
AcDbLine
 10
110.7876909999999
 20
43.12184799999999
 30
0.0
 11
111.0904209999999
 21
43.753657
 31
0.0
  0
LINE
  5
178
330
1E
100
AcDbEntity
  8
CSLAYER1
  6
CONTINUOUS
 62
     3
100
AcDbLine
 10
111.0904209999999
 20
43.753657
 30
0.0
 11
111.3977229999999
 21
44.306401
 31
0.0
  0
LINE
  5
179
330
1E
100
AcDbEntity
  8
CSLAYER1
  6
CONTINUOUS
 62
     3
100
AcDbLine
 10
111.3977229999999
 20
44.306401
 30
0.0
 11
111.7072599999999
 21
44.77587299999998
 31
0.0
  0
LINE
  5
17A
330
1E
100
AcDbEntity
  8
CSLAYER1
  6
CONTINUOUS
 62
     3
100
AcDbLine
 10
111.7072599999999
 20
44.77587299999998
 30
0.0
 11
112.0166739999999
 21
45.15849999999999
 31
0.0
  0
LINE
  5
17B
330
1E
100
AcDbEntity
  8
CSLAYER1
  6
CONTINUOUS
 62
     3
100
AcDbLine
 10
112.0166739999999
 20
45.15849999999999
 30
0.0
 11
112.344325
 21
45.471133
 31
0.0
  0
LINE
  5
17C
330
1E
100
AcDbEntity
  8
CSLAYER1
  6
CONTINUOUS
 62
     3
100
AcDbLine
 10
111.472144
 20
45.716996
 30
0.0
 11
70.742863
 21
44.409707
 31
0.0
  0
LINE
  5
17D
330
1E
100
AcDbEntity
  8
CSLAYER1
  6
CONTINUOUS
 62
     3
100
AcDbLine
 10
70.258014
 20
40.439201
 30
0.0
 11
108.722296
 21
35.74223099999999
 31
0.0
  0
LINE
  5
17E
330
1E
100
AcDbEntity
  8
CSLAYER1
  6
CONTINUOUS
 62
     3
100
AcDbLine
 10
106.45013
 20
34.004834
 30
0.0
 11
70.01559
 21
38.45394699999999
 31
0.0
  0
ARC
  5
17F
330
1E
100
AcDbEntity
  8
CSLAYER1
  6
CONTINUOUS
 62
     3
100
AcDbCircle
 10
111.5202639999999
 20
44.21776799999999
 30
0.0
 40
1.5
100
AcDbArc
 50
353.0379369999998
 51
91.83839300000004
  0
LINE
  5
180
330
1E
100
AcDbEntity
  8
CSLAYER1
  6
CONTINUOUS
 62
     3
100
AcDbLine
 10
113.009204
 20
44.03595
 30
0.0
 11
111.736211
 21
33.611195
 31
0.0
  0
LINE
  5
181
330
1E
100
AcDbEntity
  8
CSLAYER1
  6
CONTINUOUS
 62
     3
100
AcDbLine
 10
21.628947
 20
38.45394699999999
 30
0.0
 11
23.382336
 21
40.958046
 31
0.0
  0
ARC
  5
182
330
1E
100
AcDbEntity
  8
CSLAYER1
  6
CONTINUOUS
 62
     3
100
AcDbCircle
 10
35.62894699999999
 20
38.45394699999999
 30
0.0
 40
12.5
100
AcDbArc
 50
121.556133
 51
168.4438669999998
  0
LINE
  5
183
330
1E
100
AcDbEntity
  8
CSLAYER1
  6
CONTINUOUS
 62
     3
100
AcDbLine
 10
29.087277
 20
49.10554600000001
 30
0.0
 11
31.62894699999998
 21
52.735427
 31
0.0
  0
LINE
  5
184
330
1E
100
AcDbEntity
  8
CSLAYER1
  6
CONTINUOUS
 62
     3
100
AcDbLine
 10
31.62894699999998
 20
52.735427
 30
0.0
 11
31.62894699999998
 21
54.453947
 31
0.0
  0
LINE
  5
185
330
1E
100
AcDbEntity
  8
CSLAYER1
  6
CONTINUOUS
 62
     3
100
AcDbLine
 10
31.62894699999998
 20
54.453947
 30
0.0
 11
23.128947
 21
54.453947
 31
0.0
  0
ARC
  5
186
330
1E
100
AcDbEntity
  8
CSLAYER1
  6
CONTINUOUS
 62
     3
100
AcDbCircle
 10
106.628947
 20
38.45394699999999
 30
0.0
 40
85.0
100
AcDbArc
 50
169.1501839999999
 51
180.0
  0
LINE
  5
187
330
1E
100
AcDbEntity
  8
CSLAYER1
  6
CENTER
 62
     4
100
AcDbLine
 10
135.5289469999999
 20
7.798189999999999
 30
0.0
 11
135.5289469999999
 21
52.329099
 31
0.0
  0
LINE
  5
188
330
1E
100
AcDbEntity
  8
CSLAYER1
  6
CENTER
 62
     4
100
AcDbLine
 10
149.046881
 20
30.45394699999999
 30
0.0
 11
63.811052
 21
30.45394699999999
 31
0.0
  0
LINE
  5
189
330
1E
100
AcDbEntity
  8
CSLAYER1
  6
CENTER
 62
     4
100
AcDbLine
 10
34.40628499999998
 20
30.45394699999999
 30
0.0
 11
15.990766
 21
30.45394699999999
 31
0.0
  0
LINE
  5
18A
330
1E
100
AcDbEntity
  8
CSLAYER1
  6
CONTINUOUS
 62
     3
100
AcDbLine
 10
116.779513
 20
32.995345
 30
0.0
 11
106.480433
 21
34.25299099999998
 31
0.0
  0
ARC
  5
18B
330
1E
100
AcDbEntity
  8
CSLAYER1
  6
CONTINUOUS
 62
     3
100
AcDbCircle
 10
116.5370879999999
 20
31.010092
 30
0.0
 40
2.0
100
AcDbArc
 50
358.3226699999998
 51
83.03793699999998
  0
LINE
  5
18D
330
1E
100
AcDbEntity
  8
CSLAYER1
  6
CONTINUOUS
 62
     3
100
AcDbLine
 10
135.5926809999999
 20
137.967105
 30
0.0
 11
135.5926809999999
 21
138.467105
 31
0.0
  0
DIMENSION
  5
18E
330
1E
100
AcDbEntity
  8
CSLAYER1
 62
     4
100
AcDbDimension
  2
*D13
 10
131.5247629999998
 20
58.517327
 30
0.0
 11
113.301582
 21
63.91785
 31
0.0
 70
     1
100
AcDbAlignedDimension
 13
98.88750000000001
 23
83.534129
 33
0.0
 14
135.5926809999999
 24
73.69900600000002
 34
0.0
  0
LINE
  5
18F
330
1E
100
AcDbEntity
  8
CSLAYER1
  6
CONTINUOUS
 62
     3
100
AcDbLine
 10
106.45013
 20
34.004834
 30
0.0
 11
106.480433
 21
34.25299099999998
 31
0.0
  0
LINE
  5
190
330
1E
100
AcDbEntity
  8
CSLAYER1
  6
CONTINUOUS
 62
     3
100
AcDbLine
 10
148.68763
 20
15.94193699999999
 30
0.0
 11
105.7042889999999
 21
10.69313299999999
 31
0.0
  0
LINE
  5
191
330
1E
100
AcDbEntity
  8
CSLAYER1
  6
CONTINUOUS
 62
     3
100
AcDbLine
 10
105.7042889999999
 20
10.69313299999999
 30
0.0
 11
71.045893
 21
14.016621
 31
0.0
  0
LINE
  5
192
330
1E
100
AcDbEntity
  8
CSLAYER1
  6
CONTINUOUS
 62
     3
100
AcDbLine
 10
71.045893
 20
14.016621
 30
0.0
 11
70.01559
 21
22.45394699999998
 31
0.0
  0
LINE
  5
193
330
1E
100
AcDbEntity
  8
CSLAYER1
  6
CONTINUOUS
 62
     3
100
AcDbLine
 10
114.637929
 20
11.78404299999999
 30
0.0
 11
112.7288379999999
 21
27.417912
 31
0.0
  0
LINE
  5
194
330
1E
100
AcDbEntity
  8
CSLAYER1
  6
CONTINUOUS
 62
     3
100
AcDbLine
 10
108.512979
 20
26.903103
 30
0.0
 11
108.6241459999999
 21
26.070995
 31
0.0
  0
LINE
  5
195
330
1E
100
AcDbEntity
  8
CSLAYER1
  6
CONTINUOUS
 62
     3
100
AcDbLine
 10
108.6241459999999
 20
26.070995
 30
0.0
 11
108.7917629999999
 21
25.00227699999999
 31
0.0
  0
LINE
  5
196
330
1E
100
AcDbEntity
  8
CSLAYER1
  6
CONTINUOUS
 62
     3
100
AcDbLine
 10
108.7917629999999
 20
25.00227699999999
 30
0.0
 11
108.981447
 21
23.95289599999999
 31
0.0
  0
LINE
  5
197
330
1E
100
AcDbEntity
  8
CSLAYER1
  6
CONTINUOUS
 62
     3
100
AcDbLine
 10
108.981447
 20
23.95289599999999
 30
0.0
 11
109.191754
 21
22.930838
 31
0.0
  0
LINE
  5
198
330
1E
100
AcDbEntity
  8
CSLAYER1
  6
CONTINUOUS
 62
     3
100
AcDbLine
 10
109.191754
 20
22.930838
 30
0.0
 11
109.421084
 21
21.943882
 31
0.0
  0
LINE
  5
199
330
1E
100
AcDbEntity
  8
CSLAYER1
  6
CONTINUOUS
 62
     3
100
AcDbLine
 10
109.421084
 20
21.943882
 30
0.0
 11
109.667691
 21
20.999539
 31
0.0
  0
LINE
  5
19A
330
1E
100
AcDbEntity
  8
CSLAYER1
  6
CONTINUOUS
 62
     3
100
AcDbLine
 10
109.667691
 20
20.999539
 30
0.0
 11
109.929699
 21
20.104996
 31
0.0
  0
LINE
  5
19B
330
1E
100
AcDbEntity
  8
CSLAYER1
  6
CONTINUOUS
 62
     3
100
AcDbLine
 10
109.929699
 20
20.104996
 30
0.0
 11
110.2051129999999
 21
19.26706199999999
 31
0.0
  0
LINE
  5
19C
330
1E
100
AcDbEntity
  8
CSLAYER1
  6
CONTINUOUS
 62
     3
100
AcDbLine
 10
110.2051129999999
 20
19.26706199999999
 30
0.0
 11
110.4918379999999
 21
18.492112
 31
0.0
  0
LINE
  5
19D
330
1E
100
AcDbEntity
  8
CSLAYER1
  6
CONTINUOUS
 62
     3
100
AcDbLine
 10
110.4918379999999
 20
18.492112
 30
0.0
 11
110.7876909999999
 21
17.78604699999998
 31
0.0
  0
LINE
  5
19E
330
1E
100
AcDbEntity
  8
CSLAYER1
  6
CONTINUOUS
 62
     3
100
AcDbLine
 10
110.7876909999999
 20
17.78604699999998
 30
0.0
 11
111.0904209999999
 21
17.15423699999999
 31
0.0
  0
LINE
  5
19F
330
1E
100
AcDbEntity
  8
CSLAYER1
  6
CONTINUOUS
 62
     3
100
AcDbLine
 10
111.0904209999999
 20
17.15423699999999
 30
0.0
 11
111.3977229999999
 21
16.60149399999999
 31
0.0
  0
LINE
  5
1A0
330
1E
100
AcDbEntity
  8
CSLAYER1
  6
CONTINUOUS
 62
     3
100
AcDbLine
 10
111.3977229999999
 20
16.60149399999999
 30
0.0
 11
111.7072599999999
 21
16.13202199999999
 31
0.0
  0
LINE
  5
1A1
330
1E
100
AcDbEntity
  8
CSLAYER1
  6
CONTINUOUS
 62
     3
100
AcDbLine
 10
111.7072599999999
 20
16.13202199999999
 30
0.0
 11
112.0166739999999
 21
15.749395
 31
0.0
  0
LINE
  5
1A2
330
1E
100
AcDbEntity
  8
CSLAYER1
  6
CONTINUOUS
 62
     3
100
AcDbLine
 10
112.0166739999999
 20
15.749395
 30
0.0
 11
112.344325
 21
15.436762
 31
0.0
  0
LINE
  5
1A3
330
1E
100
AcDbEntity
  8
CSLAYER1
  6
CONTINUOUS
 62
     3
100
AcDbLine
 10
111.472144
 20
15.19089899999999
 30
0.0
 11
70.742863
 21
16.498188
 31
0.0
  0
LINE
  5
1A4
330
1E
100
AcDbEntity
  8
CSLAYER1
  6
CONTINUOUS
 62
     3
100
AcDbLine
 10
70.258014
 20
20.46869399999998
 30
0.0
 11
108.722296
 21
25.165664
 31
0.0
  0
LINE
  5
1A5
330
1E
100
AcDbEntity
  8
CSLAYER1
  6
CONTINUOUS
 62
     3
100
AcDbLine
 10
106.45013
 20
26.90305999999999
 30
0.0
 11
70.01559
 21
22.45394699999998
 31
0.0
  0
ARC
  5
1A6
330
1E
100
AcDbEntity
  8
CSLAYER1
  6
CONTINUOUS
 62
     3
100
AcDbCircle
 10
111.5202639999999
 20
16.690127
 30
0.0
 40
1.5
100
AcDbArc
 50
268.161607
 51
6.962063000000001
  0
LINE
  5
1A7
330
1E
100
AcDbEntity
  8
CSLAYER1
  6
CONTINUOUS
 62
     3
100
AcDbLine
 10
113.009204
 20
16.871945
 30
0.0
 11
111.736211
 21
27.2967
 31
0.0
  0
LINE
  5
1A8
330
1E
100
AcDbEntity
  8
CSLAYER1
  6
CONTINUOUS
 62
     3
100
AcDbLine
 10
116.779513
 20
27.91255
 30
0.0
 11
106.480433
 21
26.65490399999999
 31
0.0
  0
ARC
  5
1A9
330
1E
100
AcDbEntity
  8
CSLAYER1
  6
CONTINUOUS
 62
     3
100
AcDbCircle
 10
116.5370879999999
 20
29.897803
 30
0.0
 40
2.0
100
AcDbArc
 50
276.9620629999999
 51
1.677329999999999
  0
LINE
  5
1AA
330
1E
100
AcDbEntity
  8
CSLAYER1
  6
CONTINUOUS
 62
     3
100
AcDbLine
 10
106.45013
 20
26.90305999999999
 30
0.0
 11
106.480433
 21
26.65490399999999
 31
0.0
  0
LINE
  5
1AB
330
1E
100
AcDbEntity
  8
CSLAYER1
  6
CONTINUOUS
 62
     3
100
AcDbLine
 10
146.481794
 20
47.91027699999999
 30
0.0
 11
127.887348
 21
45.63966299999999
 31
0.0
  0
DIMENSION
  5
1AC
330
1E
100
AcDbEntity
  8
CSLAYER1
 62
     4
100
AcDbDimension
  2
*D14
 10
58.369165
 20
38.45394699999999
 30
0.0
 11
57.869164
 21
30.45394699999999
 31
0.0
 70
     1
100
AcDbAlignedDimension
 13
70.01559
 23
22.45394699999998
 33
0.0
 14
70.01559
 24
38.45394699999999
 34
0.0
  0
LINE
  5
1AD
330
1E
100
AcDbEntity
  8
CSLAYER1
  6
CONTINUOUS
 62
     3
100
AcDbLine
 10
21.628947
 20
22.45394699999998
 30
0.0
 11
23.382336
 21
19.949849
 31
0.0
  0
ARC
  5
1AE
330
1E
100
AcDbEntity
  8
CSLAYER1
  6
CONTINUOUS
 62
     3
100
AcDbCircle
 10
35.62894699999999
 20
22.45394699999998
 30
0.0
 40
12.5
100
AcDbArc
 50
191.556133
 51
238.4438669999999
  0
LINE
  5
1AF
330
1E
100
AcDbEntity
  8
CSLAYER1
  6
CONTINUOUS
 62
     3
100
AcDbLine
 10
29.087277
 20
11.802349
 30
0.0
 11
31.62894699999998
 21
8.172466999999999
 31
0.0
  0
LINE
  5
1B0
330
1E
100
AcDbEntity
  8
CSLAYER1
  6
CONTINUOUS
 62
     3
100
AcDbLine
 10
31.62894699999998
 20
8.172466999999999
 30
0.0
 11
31.62894699999998
 21
6.453947
 31
0.0
  0
LINE
  5
1B1
330
1E
100
AcDbEntity
  8
CSLAYER1
  6
CONTINUOUS
 62
     3
100
AcDbLine
 10
31.62894699999998
 20
6.453947
 30
0.0
 11
23.128947
 21
6.453947
 31
0.0
  0
ARC
  5
1B2
330
1E
100
AcDbEntity
  8
CSLAYER1
  6
CONTINUOUS
 62
     3
100
AcDbCircle
 10
106.628947
 20
22.45394699999998
 30
0.0
 40
85.0
100
AcDbArc
 50
180.0
 51
190.8498159999999
  0
LINE
  5
1B3
330
1E
100
AcDbEntity
  8
CSLAYER1
  6
DOT
 62
     3
100
AcDbLine
 10
4.0
 20
1.0
 30
0.0
 11
283.0
 21
1.0
 31
0.0
  0
LINE
  5
1B4
330
1E
100
AcDbEntity
  8
CSLAYER1
  6
DOT
 62
     3
100
AcDbLine
 10
283.0
 20
1.0
 30
0.0
 11
283.0
 21
195.0
 31
0.0
  0
LINE
  5
1B5
330
1E
100
AcDbEntity
  8
CSLAYER1
  6
DOT
 62
     3
100
AcDbLine
 10
283.0
 20
195.0
 30
0.0
 11
4.0
 21
195.0
 31
0.0
  0
LINE
  5
1B6
330
1E
100
AcDbEntity
  8
CSLAYER1
  6
DOT
 62
     3
100
AcDbLine
 10
4.0
 20
195.0
 30
0.0
 11
4.0
 21
1.0
 31
0.0
  0
LINE
  5
1B7
330
1E
100
AcDbEntity
  8
CSLAYER1
  6
DOT
 62
     3
100
AcDbLine
 10
4.0
 20
98.0
 30
0.0
 11
0.0
 21
98.0
 31
0.0
  0
LINE
  5
1B8
330
1E
100
AcDbEntity
  8
CSLAYER1
  6
DOT
 62
     3
100
AcDbLine
 10
143.5
 20
195.0
 30
0.0
 11
143.5
 21
199.0
 31
0.0
  0
ENDSEC
  0
SECTION
  2
OBJECTS
  0
DICTIONARY
  5
C
330
0
100
AcDbDictionary
  3
ACAD_GROUP
350
D
  3
ACAD_LAYOUT
350
19
  3
ACAD_MLINESTYLE
350
16
  3
ACAD_PLOTSETTINGS
350
18
1001
ACAD
1000
TREAT_AS_HARD
1070
     0
1000
TREAT_AS_HARD
1070
     0
  0
DICTIONARY
  5
1C2
330
1E
100
AcDbDictionary
  3
ACAD_LAYOUTSELFREF
350
1ED
1001
ACAD
1000
TREAT_AS_HARD
1070
     0
  0
DICTIONARY
  5
1C0
330
1A
100
AcDbDictionary
  3
ACAD_LAYOUTSELFREF
350
1EC
1001
ACAD
1000
TREAT_AS_HARD
1070
     0
  0
DICTIONARY
  5
D
102
{ACAD_REACTORS
330
C
102
}
330
C
100
AcDbDictionary
1001
ACAD
1000
TREAT_AS_HARD
1070
     0
1000
TREAT_AS_HARD
1070
     0
  0
DICTIONARY
  5
19
102
{ACAD_REACTORS
330
C
102
}
330
C
100
AcDbDictionary
1001
ACAD
1000
TREAT_AS_HARD
1070
     0
1000
TREAT_AS_HARD
1070
     0
  0
DICTIONARY
  5
16
102
{ACAD_REACTORS
330
C
102
}
330
C
100
AcDbDictionary
  3
STANDARD
350
17
1001
ACAD
1000
TREAT_AS_HARD
1070
     0
1000
TREAT_AS_HARD
1070
     0
  0
DICTIONARY
  5
18
102
{ACAD_REACTORS
330
C
102
}
330
C
100
AcDbDictionary
1001
ACAD
1000
TREAT_AS_HARD
1070
     0
1000
TREAT_AS_HARD
1070
     0
  0
XRECORD
  5
1ED
102
{ACAD_REACTORS
330
1C2
102
}
330
1C2
100
AcDbXrecord
340
1E
  0
XRECORD
  5
1EC
102
{ACAD_REACTORS
330
1C0
102
}
330
1C0
100
AcDbXrecord
340
1A
  0
MLINESTYLE
  5
17
102
{ACAD_REACTORS
330
16
102
}
330
16
100
AcDbMlineStyle
  2
STANDARD
 70
     0
  3

 62
   256
 51
90.0
 52
90.0
 71
     2
 49
0.5
 62
   256
  6
BYLAYER
 49
-0.5
 62
   256
  6
BYLAYER
  0
ENDSEC
  0
EOF
