  0
SECTION
  2
HEADER
  9
$ACADVER
  1
AC1012
  9
$DWGCODEPAGE
  3
dos932
  9
$INSBASE
 10
0.0
 20
0.0
 30
0.0
  9
$EXTMIN
 10
9.98474220045
 20
2.981964806306564
 30
-0.0015258207003583
  9
$EXTMAX
 10
395.0189218472444
 20
275.0068823797708
 30
0.0000000349246037
  9
$LIMMIN
 10
0.0
 20
0.0
  9
$LIMMAX
 10
420.0
 20
297.0
  9
$ORTHOMODE
 70
     0
  9
$REGENMODE
 70
     1
  9
$FILLMODE
 70
     1
  9
$QTEXTMODE
 70
     0
  9
$MIRRTEXT
 70
     1
  9
$DRAGMODE
 70
     2
  9
$LTSCALE
 40
15.0
  9
$OSMODE
 70
    37
  9
$ATTMODE
 70
     1
  9
$TEXTSIZE
 40
0.2
  9
$TRACEWID
 40
0.05
  9
$TEXTSTYLE
  7
GOTHIC
  9
$CLAYER
  8
CSLAYER1
  9
$CELTYPE
  6
BYLAYER
  9
$CECOLOR
 62
   256
  9
$CELTSCALE
 40
1.0
  9
$DELOBJ
 70
     1
  9
$DISPSILH
 70
     0
  9
$DIMSCALE
 40
1.0
  9
$DIMASZ
 40
0.18
  9
$DIMEXO
 40
0.0625
  9
$DIMDLI
 40
0.38
  9
$DIMRND
 40
0.0
  9
$DIMDLE
 40
0.0
  9
$DIMEXE
 40
0.18
  9
$DIMTP
 40
0.0
  9
$DIMTM
 40
0.0
  9
$DIMTXT
 40
0.18
  9
$DIMCEN
 40
0.09
  9
$DIMTSZ
 40
0.0
  9
$DIMTOL
 70
     0
  9
$DIMLIM
 70
     0
  9
$DIMTIH
 70
     1
  9
$DIMTOH
 70
     1
  9
$DIMSE1
 70
     0
  9
$DIMSE2
 70
     0
  9
$DIMTAD
 70
     0
  9
$DIMZIN
 70
     0
  9
$DIMBLK
  1

  9
$DIMASO
 70
     1
  9
$DIMSHO
 70
     1
  9
$DIMPOST
  1

  9
$DIMAPOST
  1

  9
$DIMALT
 70
     0
  9
$DIMALTD
 70
     2
  9
$DIMALTF
 40
25.4
  9
$DIMLFAC
 40
1.0
  9
$DIMTOFL
 70
     0
  9
$DIMTVP
 40
0.0
  9
$DIMTIX
 70
     0
  9
$DIMSOXD
 70
     0
  9
$DIMSAH
 70
     0
  9
$DIMBLK1
  1

  9
$DIMBLK2
  1

  9
$DIMSTYLE
  2
STANDARD
  9
$DIMCLRD
 70
     0
  9
$DIMCLRE
 70
     0
  9
$DIMCLRT
 70
     0
  9
$DIMTFAC
 40
1.0
  9
$DIMGAP
 40
0.09
  9
$DIMJUST
 70
     0
  9
$DIMSD1
 70
     0
  9
$DIMSD2
 70
     0
  9
$DIMTOLJ
 70
     1
  9
$DIMTZIN
 70
     0
  9
$DIMALTZ
 70
     0
  9
$DIMALTTZ
 70
     0
  9
$DIMFIT
 70
     3
  9
$DIMUPT
 70
     0
  9
$DIMUNIT
 70
     2
  9
$DIMDEC
 70
     4
  9
$DIMTDEC
 70
     4
  9
$DIMALTU
 70
     2
  9
$DIMALTTD
 70
     2
  9
$DIMTXSTY
  7
STANDARD
  9
$DIMAUNIT
 70
     0
  9
$LUNITS
 70
     2
  9
$LUPREC
 70
     4
  9
$SKETCHINC
 40
0.1
  9
$FILLETRAD
 40
0.0
  9
$AUNITS
 70
     0
  9
$AUPREC
 70
     0
  9
$MENU
  1
ACAD
  9
$ELEVATION
 40
0.0
  9
$PELEVATION
 40
0.0
  9
$THICKNESS
 40
0.0
  9
$LIMCHECK
 70
     0
  9
$BLIPMODE
 70
     1
  9
$CHAMFERA
 40
0.0
  9
$CHAMFERB
 40
0.0
  9
$CHAMFERC
 40
0.0
  9
$CHAMFERD
 40
0.0
  9
$SKPOLY
 70
     0
  9
$TDCREATE
 40
2453483.000000000
  9
$TDUPDATE
 40
2453516.608851030
  9
$TDINDWG
 40
0.0003210648
  9
$TDUSRTIMER
 40
0.0003210648
  9
$USRTIMER
 70
     1
  9
$ANGBASE
 50
0.0
  9
$ANGDIR
 70
     0
  9
$PDMODE
 70
     0
  9
$PDSIZE
 40
0.0
  9
$PLINEWID
 40
0.0
  9
$COORDS
 70
     0
  9
$SPLFRAME
 70
     0
  9
$SPLINETYPE
 70
     6
  9
$SPLINESEGS
 70
     8
  9
$ATTDIA
 70
     0
  9
$ATTREQ
 70
     1
  9
$HANDLING
 70
-16383
  9
$HANDSEED
  5
356
  9
$SURFTAB1
 70
     6
  9
$SURFTAB2
 70
     6
  9
$SURFTYPE
 70
     6
  9
$SURFU
 70
     6
  9
$SURFV
 70
     6
  9
$UCSNAME
  2

  9
$UCSORG
 10
0.0
 20
0.0
 30
0.0
  9
$UCSXDIR
 10
1.0
 20
0.0
 30
0.0
  9
$UCSYDIR
 10
0.0
 20
1.0
 30
0.0
  9
$PUCSNAME
  2

  9
$PUCSORG
 10
0.0
 20
0.0
 30
0.0
  9
$PUCSXDIR
 10
1.0
 20
0.0
 30
0.0
  9
$PUCSYDIR
 10
0.0
 20
1.0
 30
0.0
  9
$USERI1
 70
     0
  9
$USERI2
 70
     0
  9
$USERI3
 70
     0
  9
$USERI4
 70
     0
  9
$USERI5
 70
     0
  9
$USERR1
 40
0.0
  9
$USERR2
 40
0.0
  9
$USERR3
 40
0.0
  9
$USERR4
 40
0.0
  9
$USERR5
 40
0.0
  9
$WORLDVIEW
 70
     1
  9
$SHADEDGE
 70
     3
  9
$SHADEDIF
 70
    70
  9
$TILEMODE
 70
     1
  9
$MAXACTVP
 70
    64
  9
$PINSBASE
 10
0.0
 20
0.0
 30
0.0
  9
$PLIMCHECK
 70
     0
  9
$PEXTMIN
 10
1.000000000000000E+20
 20
1.000000000000000E+20
 30
1.000000000000000E+20
  9
$PEXTMAX
 10
-1.000000000000000E+20
 20
-1.000000000000000E+20
 30
-1.000000000000000E+20
  9
$PLIMMIN
 10
0.0
 20
0.0
  9
$PLIMMAX
 10
12.0
 20
9.0
  9
$UNITMODE
 70
     0
  9
$VISRETAIN
 70
     1
  9
$PLINEGEN
 70
     0
  9
$PSLTSCALE
 70
     1
  9
$TREEDEPTH
 70
  3020
  9
$PICKSTYLE
 70
     3
  9
$CMLSTYLE
  2
STANDARD
  9
$CMLJUST
 70
     0
  9
$CMLSCALE
 40
1.0
  9
$SAVEIMAGES
 70
     1
  0
ENDSEC
  0
SECTION
  2
CLASSES
  0
CLASS
  1
ACDBDICTIONARYWDFLT
  2
AcDbDictionaryWithDefault
  3
AutoCAD 2000
 90
    32768
280
     0
281
     0
  0
CLASS
  1
ACDBPLACEHOLDER
  2
AcDbPlaceHolder
  3
AutoCAD 2000
 90
    32768
280
     0
281
     0
  0
CLASS
  1
LAYOUT
  2
AcDbLayout
  3
AutoCAD 2000
 90
    32768
280
     0
281
     0
  0
CLASS
  1
DICTIONARYVAR
  2
AcDbDictionaryVar
  3
AutoCAD 2000
 90
    32768
280
     0
281
     0
  0
CLASS
  1
LONG_TRANSACTION
  2
AcDbLongTransaction
  3
AutoCAD 2000
 90
    32768
280
     0
281
     0
  0
CLASS
  1
LWPOLYLINE
  2
AcDbPolyline
  3
AutoCAD 2000
 90
    32768
280
     0
281
     1
  0
CLASS
  1
HATCH
  2
AcDbHatch
  3
AutoCAD 2000
 90
    32768
280
     0
281
     1
  0
CLASS
  1
XRECORD
  2
AcDbXrecord
  3
AutoCAD 2000
 90
    32768
280
     0
281
     0
  0
CLASS
  1
LONG_TRANSACTION
  2
AcDbLongTransaction
  3
AutoCAD 2000
 90
    32768
280
     0
281
     0
  0
CLASS
  1
LWPOLYLINE
  2
AcDbPolyline
  3
AutoCAD 2000
 90
    32768
280
     0
281
     1
  0
CLASS
  1
HATCH
  2
AcDbHatch
  3
AutoCAD 2000
 90
    32768
280
     0
281
     1
  0
CLASS
  1
XRECORD
  2
AcDbXrecord
  3
AutoCAD 2000
 90
    32768
280
     0
281
     0
  0
ENDSEC
  0
SECTION
  2
TABLES
  0
TABLE
  2
VPORT
  5
8
330
0
100
AcDbSymbolTable
 70
     2
  0
VPORT
  5
353
330
8
100
AcDbSymbolTableRecord
100
AcDbViewportTableRecord
  2
*ACTIVE
 70
     0
 10
0.0
 20
0.0
 11
1.0
 21
1.0
 12
202.5018320238472
 22
138.9944235930387
 13
0.0
 23
0.0
 14
1.0
 24
1.0
 15
0.0
 25
0.0
 16
0.0
 26
0.0
 36
1.0
 17
0.0
 27
0.0
 37
0.0
 40
274.0676578806492
 41
1.510025062656641
 42
50.0
 43
0.0
 44
0.0
 50
0.0
 51
0.0
 71
     0
 72
   100
 73
     1
 74
     1
 75
     0
 76
     0
 77
     0
 78
     0
  0
ENDTAB
  0
TABLE
  2
LTYPE
  5
5
330
0
100
AcDbSymbolTable
 70
     4
  0
LTYPE
  5
13
330
5
100
AcDbSymbolTableRecord
100
AcDbLinetypeTableRecord
  2
BYBLOCK
 70
     0
  3

 72
    65
 73
     0
 40
0.0
  0
LTYPE
  5
14
330
5
100
AcDbSymbolTableRecord
100
AcDbLinetypeTableRecord
  2
BYLAYER
 70
     0
  3

 72
    65
 73
     0
 40
0.0
  0
LTYPE
  5
15
330
5
100
AcDbSymbolTableRecord
100
AcDbLinetypeTableRecord
  2
CONTINUOUS
 70
     0
  3
Solid line
 72
    65
 73
     0
 40
0.0
  0
LTYPE
  5
23
330
5
100
AcDbSymbolTableRecord
100
AcDbLinetypeTableRecord
  2
DASHED
 70
     0
  3
__ __ __ __ __ __ __ __ __ __ __ __ __ __ __
 72
    65
 73
     2
 40
0.75
 49
0.5
 74
     0
 49
-0.25
 74
     0
  0
LTYPE
  5
25
330
5
100
AcDbSymbolTableRecord
100
AcDbLinetypeTableRecord
  2
DOT
 70
     0
  3
...............................................
 72
    65
 73
     2
 40
0.25
 49
0.0
 74
     0
 49
-0.25
 74
     0
  0
LTYPE
  5
28
330
5
100
AcDbSymbolTableRecord
100
AcDbLinetypeTableRecord
  2
CENTER
 70
     0
  3
____ _ ____ _ ____ _ ____ _ ____ _ ____ _ ____ 
 72
    65
 73
     4
 40
2.0
 49
1.25
 74
     0
 49
-0.25
 74
     0
 49
0.25
 74
     0
 49
-0.25
 74
     0
  0
ENDTAB
  0
TABLE
  2
LAYER
  5
2
330
0
100
AcDbSymbolTable
 70
     3
  0
LAYER
  5
10
330
2
100
AcDbSymbolTableRecord
100
AcDbLayerTableRecord
  2
0
 70
     0
 62
     7
  6
CONTINUOUS
  0
LAYER
  5
22
330
2
100
AcDbSymbolTableRecord
100
AcDbLayerTableRecord
  2
CSLAYER1
 70
     0
 62
     7
  6
CONTINUOUS
  0
LAYER
  5
32A
330
2
100
AcDbSymbolTableRecord
100
AcDbLayerTableRecord
  2
DEFPOINTS
 70
     0
 62
     7
  6
CONTINUOUS
  0
ENDTAB
  0
TABLE
  2
STYLE
  5
3
330
0
100
AcDbSymbolTable
 70
     3
  0
STYLE
  5
11
330
3
100
AcDbSymbolTableRecord
100
AcDbTextStyleTableRecord
  2
STANDARD
 70
     0
 40
0.0
 41
1.0
 50
0.0
 71
     0
 42
0.2
  3
txt
  4
extfont.shx
  0
STYLE
  5
3A
330
3
100
AcDbSymbolTableRecord
100
AcDbTextStyleTableRecord
  2
FX_FONT
 70
     0
 40
1.0
 41
1.0
 50
0.0
 71
     0
 42
1.0
  3
monotxt
  4
bigfont
  0
STYLE
  5
322
330
3
100
AcDbSymbolTableRecord
100
AcDbTextStyleTableRecord
  2
GOTHIC
 70
     0
 40
0.0
 41
1.0
 50
0.0
 71
     0
 42
0.2
  3
txt.shx
  4
extfont.shx
  0
ENDTAB
  0
TABLE
  2
VIEW
  5
6
330
0
100
AcDbSymbolTable
 70
     0
  0
ENDTAB
  0
TABLE
  2
UCS
  5
7
330
0
100
AcDbSymbolTable
 70
     0
  0
ENDTAB
  0
TABLE
  2
APPID
  5
9
330
0
100
AcDbSymbolTable
 70
     1
  0
APPID
  5
12
330
9
100
AcDbSymbolTableRecord
100
AcDbRegAppTableRecord
  2
ACAD
 70
     0
  0
ENDTAB
  0
TABLE
  2
DIMSTYLE
  5
A
330
0
100
AcDbSymbolTable
 70
     1
  0
DIMSTYLE
105
31F
330
A
100
AcDbSymbolTableRecord
100
AcDbDimStyleTableRecord
  2
STANDARD
 70
     0
  3

  4

  5

  6

  7

 40
1.0
 41
0.18
 42
0.0625
 43
0.38
 44
0.18
 45
0.0
 46
0.0
 47
0.0
 48
0.0
140
0.18
141
0.09
142
0.0
143
25.4
144
1.0
145
0.0
146
1.0
147
0.09
 71
     0
 72
     0
 73
     1
 74
     1
 75
     0
 76
     0
 77
     0
 78
     0
170
     0
171
     2
172
     0
173
     0
174
     0
175
     0
176
     0
177
     0
178
     0
270
     2
271
     4
272
     4
273
     2
274
     2
340
11
275
     0
280
     0
281
     0
282
     0
283
     1
284
     0
285
     0
286
     0
287
     3
288
     0
  0
ENDTAB
  0
TABLE
  2
BLOCK_RECORD
  5
1
330
0
100
AcDbSymbolTable
 70
    26
  0
BLOCK_RECORD
  5
1E
102
{ACAD_XDICTIONARY
360
328
102
}
330
1
100
AcDbSymbolTableRecord
100
AcDbBlockTableRecord
  2
*MODEL_SPACE
  0
BLOCK_RECORD
  5
1A
102
{ACAD_XDICTIONARY
360
326
102
}
330
1
100
AcDbSymbolTableRecord
100
AcDbBlockTableRecord
  2
*PAPER_SPACE
  0
BLOCK_RECORD
  5
3F
330
1
100
AcDbSymbolTableRecord
100
AcDbBlockTableRecord
  2
*D0
  0
BLOCK_RECORD
  5
49
330
1
100
AcDbSymbolTableRecord
100
AcDbBlockTableRecord
  2
*D1
  0
BLOCK_RECORD
  5
54
330
1
100
AcDbSymbolTableRecord
100
AcDbBlockTableRecord
  2
*D2
  0
BLOCK_RECORD
  5
5D
330
1
100
AcDbSymbolTableRecord
100
AcDbBlockTableRecord
  2
*D3
  0
BLOCK_RECORD
  5
67
330
1
100
AcDbSymbolTableRecord
100
AcDbBlockTableRecord
  2
*D4
  0
BLOCK_RECORD
  5
71
330
1
100
AcDbSymbolTableRecord
100
AcDbBlockTableRecord
  2
*D5
  0
BLOCK_RECORD
  5
7C
330
1
100
AcDbSymbolTableRecord
100
AcDbBlockTableRecord
  2
*D6
  0
BLOCK_RECORD
  5
85
330
1
100
AcDbSymbolTableRecord
100
AcDbBlockTableRecord
  2
*D7
  0
BLOCK_RECORD
  5
8F
330
1
100
AcDbSymbolTableRecord
100
AcDbBlockTableRecord
  2
*D8
  0
BLOCK_RECORD
  5
99
330
1
100
AcDbSymbolTableRecord
100
AcDbBlockTableRecord
  2
*D9
  0
BLOCK_RECORD
  5
A3
330
1
100
AcDbSymbolTableRecord
100
AcDbBlockTableRecord
  2
*D10
  0
BLOCK_RECORD
  5
AD
330
1
100
AcDbSymbolTableRecord
100
AcDbBlockTableRecord
  2
*D11
  0
BLOCK_RECORD
  5
B8
330
1
100
AcDbSymbolTableRecord
100
AcDbBlockTableRecord
  2
*D12
  0
BLOCK_RECORD
  5
C1
330
1
100
AcDbSymbolTableRecord
100
AcDbBlockTableRecord
  2
*D13
  0
BLOCK_RECORD
  5
CB
330
1
100
AcDbSymbolTableRecord
100
AcDbBlockTableRecord
  2
*D14
  0
BLOCK_RECORD
  5
D6
330
1
100
AcDbSymbolTableRecord
100
AcDbBlockTableRecord
  2
*D15
  0
BLOCK_RECORD
  5
E0
330
1
100
AcDbSymbolTableRecord
100
AcDbBlockTableRecord
  2
*D16
  0
BLOCK_RECORD
  5
EA
330
1
100
AcDbSymbolTableRecord
100
AcDbBlockTableRecord
  2
*D17
  0
BLOCK_RECORD
  5
F4
330
1
100
AcDbSymbolTableRecord
100
AcDbBlockTableRecord
  2
*D18
  0
BLOCK_RECORD
  5
FE
330
1
100
AcDbSymbolTableRecord
100
AcDbBlockTableRecord
  2
*D19
  0
BLOCK_RECORD
  5
107
330
1
100
AcDbSymbolTableRecord
100
AcDbBlockTableRecord
  2
*D20
  0
BLOCK_RECORD
  5
112
330
1
100
AcDbSymbolTableRecord
100
AcDbBlockTableRecord
  2
FXDIM0000
  0
BLOCK_RECORD
  5
11A
330
1
100
AcDbSymbolTableRecord
100
AcDbBlockTableRecord
  2
FXDIM0001
  0
BLOCK_RECORD
  5
122
330
1
100
AcDbSymbolTableRecord
100
AcDbBlockTableRecord
  2
FXDIM0002
  0
BLOCK_RECORD
  5
32B
330
1
100
AcDbSymbolTableRecord
100
AcDbBlockTableRecord
  2
*D24
  0
BLOCK_RECORD
  5
33A
330
1
100
AcDbSymbolTableRecord
100
AcDbBlockTableRecord
  2
*D25
  0
ENDTAB
  0
ENDSEC
  0
SECTION
  2
BLOCKS
  0
BLOCK
  5
1F
330
1E
100
AcDbEntity
  8
0
100
AcDbBlockBegin
  2
*MODEL_SPACE
 70
     0
 10
0.0
 20
0.0
 30
0.0
  3
*MODEL_SPACE
  1

  0
ENDBLK
  5
20
330
1E
100
AcDbEntity
  8
0
100
AcDbBlockEnd
  0
BLOCK
  5
1B
330
1A
100
AcDbEntity
 67
     1
  8
0
100
AcDbBlockBegin
  2
*PAPER_SPACE
 70
     0
 10
0.0
 20
0.0
 30
0.0
  3
*PAPER_SPACE
  1

  0
ENDBLK
  5
1C
330
1A
100
AcDbEntity
 67
     1
  8
0
100
AcDbBlockEnd
  0
BLOCK
  5
40
330
3F
100
AcDbEntity
  8
0
100
AcDbBlockBegin
  2
*D0
 70
     1
 10
0.0
 20
0.0
 30
0.0
  3
*D0
  1

  0
TEXT
  5
41
330
3F
100
AcDbEntity
  8
CSLAYER1
 62
     4
100
AcDbText
 10
45.198271
 20
128.308716
 30
0.0
 40
3.2
  1
9
 41
1.499999999999998
 51
15.0
  7
FX_FONT
 72
     5
 11
48.398271
 21
128.308716
 31
0.0
100
AcDbText
  0
LINE
  5
42
330
3F
100
AcDbEntity
  8
CSLAYER1
  6
CONTINUOUS
 62
     4
100
AcDbLine
 10
42.29827299999999
 20
127.8087219999999
 30
0.0
 11
51.29827299999998
 21
127.8087219999999
 31
0.0
  0
LINE
  5
43
330
3F
100
AcDbEntity
  8
CSLAYER1
  6
CONTINUOUS
 62
     4
100
AcDbLine
 10
42.29827299999999
 20
127.8087219999999
 30
0.0
 11
45.19605
 21
128.585179
 31
0.0
  0
LINE
  5
44
330
3F
100
AcDbEntity
  8
CSLAYER1
  6
CONTINUOUS
 62
     4
100
AcDbLine
 10
42.29827299999999
 20
127.8087219999999
 30
0.0
 11
45.19605
 21
127.0322649999999
 31
0.0
  0
LINE
  5
45
330
3F
100
AcDbEntity
  8
CSLAYER1
  6
CONTINUOUS
 62
     4
100
AcDbLine
 10
51.29827299999998
 20
127.8087219999999
 30
0.0
 11
48.400495
 21
128.585179
 31
0.0
  0
LINE
  5
46
330
3F
100
AcDbEntity
  8
CSLAYER1
  6
CONTINUOUS
 62
     4
100
AcDbLine
 10
51.29827299999998
 20
127.8087219999999
 30
0.0
 11
48.400495
 21
127.0322649999999
 31
0.0
  0
LINE
  5
47
330
3F
100
AcDbEntity
  8
CSLAYER1
  6
CONTINUOUS
 62
     4
100
AcDbLine
 10
51.29827299999998
 20
121.792973
 30
0.0
 11
51.29827299999998
 21
128.8087219999999
 31
0.0
  0
ENDBLK
  5
48
330
3F
100
AcDbEntity
  8
0
100
AcDbBlockEnd
  0
BLOCK
  5
4A
330
49
100
AcDbEntity
  8
0
100
AcDbBlockBegin
  2
*D1
 70
     1
 10
0.0
 20
0.0
 30
0.0
  3
*D1
  1

  0
TEXT
  5
4B
330
49
100
AcDbEntity
  8
CSLAYER1
 62
     4
100
AcDbText
 10
102.4982709999999
 20
134.308716
 30
0.0
 40
3.2
  1
130
 41
1.12500000000001
 51
15.0
  7
FX_FONT
 72
     5
 11
112.098271
 21
134.308716
 31
0.0
100
AcDbText
  0
LINE
  5
4C
330
49
100
AcDbEntity
  8
CSLAYER1
  6
CONTINUOUS
 62
     4
100
AcDbLine
 10
42.29827299999999
 20
133.808722
 30
0.0
 11
172.298273
 21
133.808722
 31
0.0
  0
LINE
  5
4D
330
49
100
AcDbEntity
  8
CSLAYER1
  6
CONTINUOUS
 62
     4
100
AcDbLine
 10
42.29827299999999
 20
133.808722
 30
0.0
 11
45.19605
 21
134.585179
 31
0.0
  0
LINE
  5
4E
330
49
100
AcDbEntity
  8
CSLAYER1
  6
CONTINUOUS
 62
     4
100
AcDbLine
 10
42.29827299999999
 20
133.808722
 30
0.0
 11
45.19605
 21
133.032265
 31
0.0
  0
LINE
  5
4F
330
49
100
AcDbEntity
  8
CSLAYER1
  6
CONTINUOUS
 62
     4
100
AcDbLine
 10
172.298273
 20
133.808722
 30
0.0
 11
169.400495
 21
134.585179
 31
0.0
  0
LINE
  5
50
330
49
100
AcDbEntity
  8
CSLAYER1
  6
CONTINUOUS
 62
     4
100
AcDbLine
 10
172.298273
 20
133.808722
 30
0.0
 11
169.400495
 21
133.032265
 31
0.0
  0
LINE
  5
51
330
49
100
AcDbEntity
  8
CSLAYER1
  6
CONTINUOUS
 62
     4
100
AcDbLine
 10
42.29827299999999
 20
116.90905
 30
0.0
 11
42.29827299999999
 21
134.8087219999999
 31
0.0
  0
LINE
  5
52
330
49
100
AcDbEntity
  8
CSLAYER1
  6
CONTINUOUS
 62
     4
100
AcDbLine
 10
172.298273
 20
116.90905
 30
0.0
 11
172.298273
 21
134.8087219999999
 31
0.0
  0
ENDBLK
  5
53
330
49
100
AcDbEntity
  8
0
100
AcDbBlockEnd
  0
BLOCK
  5
55
330
54
100
AcDbEntity
  8
0
100
AcDbBlockBegin
  2
*D2
 70
     1
 10
0.0
 20
0.0
 30
0.0
  3
*D2
  1

  0
TEXT
  5
56
330
54
100
AcDbEntity
  8
CSLAYER1
 62
     4
100
AcDbText
 10
166.198279
 20
128.308716
 30
0.0
 40
3.2
  1
9
 41
1.499999999999954
 51
15.0
  7
FX_FONT
 72
     5
 11
169.3982789999999
 21
128.308716
 31
0.0
100
AcDbText
  0
LINE
  5
57
330
54
100
AcDbEntity
  8
CSLAYER1
  6
CONTINUOUS
 62
     4
100
AcDbLine
 10
163.2982729999999
 20
127.8087219999999
 30
0.0
 11
172.298273
 21
127.8087219999999
 31
0.0
  0
LINE
  5
58
330
54
100
AcDbEntity
  8
CSLAYER1
  6
CONTINUOUS
 62
     4
100
AcDbLine
 10
163.2982729999999
 20
127.8087219999999
 30
0.0
 11
166.19605
 21
128.585179
 31
0.0
  0
LINE
  5
59
330
54
100
AcDbEntity
  8
CSLAYER1
  6
CONTINUOUS
 62
     4
100
AcDbLine
 10
163.2982729999999
 20
127.8087219999999
 30
0.0
 11
166.19605
 21
127.0322649999999
 31
0.0
  0
LINE
  5
5A
330
54
100
AcDbEntity
  8
CSLAYER1
  6
CONTINUOUS
 62
     4
100
AcDbLine
 10
172.298273
 20
127.8087219999999
 30
0.0
 11
169.400495
 21
128.585179
 31
0.0
  0
LINE
  5
5B
330
54
100
AcDbEntity
  8
CSLAYER1
  6
CONTINUOUS
 62
     4
100
AcDbLine
 10
172.298273
 20
127.8087219999999
 30
0.0
 11
169.400495
 21
127.0322649999999
 31
0.0
  0
ENDBLK
  5
5C
330
54
100
AcDbEntity
  8
0
100
AcDbBlockEnd
  0
BLOCK
  5
5E
330
5D
100
AcDbEntity
  8
0
100
AcDbBlockBegin
  2
*D3
 70
     1
 10
0.0
 20
0.0
 30
0.0
  3
*D3
  1

  0
TEXT
  5
5F
330
5D
100
AcDbEntity
  8
CSLAYER1
 62
     4
100
AcDbText
 10
102.4982709999999
 20
128.308716
 30
0.0
 40
3.2
  1
112
 41
1.12500000000001
 51
15.0
  7
FX_FONT
 72
     5
 11
112.098271
 21
128.308716
 31
0.0
100
AcDbText
  0
LINE
  5
60
330
5D
100
AcDbEntity
  8
CSLAYER1
  6
CONTINUOUS
 62
     4
100
AcDbLine
 10
51.29827299999998
 20
127.8087219999999
 30
0.0
 11
163.2982729999999
 21
127.8087219999999
 31
0.0
  0
LINE
  5
61
330
5D
100
AcDbEntity
  8
CSLAYER1
  6
CONTINUOUS
 62
     4
100
AcDbLine
 10
51.29827299999998
 20
127.8087219999999
 30
0.0
 11
54.19605
 21
128.585179
 31
0.0
  0
LINE
  5
62
330
5D
100
AcDbEntity
  8
CSLAYER1
  6
CONTINUOUS
 62
     4
100
AcDbLine
 10
51.29827299999998
 20
127.8087219999999
 30
0.0
 11
54.19605
 21
127.0322649999999
 31
0.0
  0
LINE
  5
63
330
5D
100
AcDbEntity
  8
CSLAYER1
  6
CONTINUOUS
 62
     4
100
AcDbLine
 10
163.2982729999999
 20
127.8087219999999
 30
0.0
 11
160.400495
 21
128.585179
 31
0.0
  0
LINE
  5
64
330
5D
100
AcDbEntity
  8
CSLAYER1
  6
CONTINUOUS
 62
     4
100
AcDbLine
 10
163.2982729999999
 20
127.8087219999999
 30
0.0
 11
160.400495
 21
127.0322649999999
 31
0.0
  0
LINE
  5
65
330
5D
100
AcDbEntity
  8
CSLAYER1
  6
CONTINUOUS
 62
     4
100
AcDbLine
 10
163.2982729999999
 20
121.792973
 30
0.0
 11
163.2982729999999
 21
128.8087219999999
 31
0.0
  0
ENDBLK
  5
66
330
5D
100
AcDbEntity
  8
0
100
AcDbBlockEnd
  0
BLOCK
  5
68
330
67
100
AcDbEntity
  8
0
100
AcDbBlockBegin
  2
*D4
 70
     1
 10
0.0
 20
0.0
 30
0.0
  3
*D4
  1

  0
TEXT
  5
69
330
67
100
AcDbEntity
  8
CSLAYER1
 62
     4
100
AcDbText
 10
51.59827100000001
 20
260.3894649999999
 30
0.0
 40
3.2
  1
25
 41
1.199999999999995
 51
15.0
  7
FX_FONT
 72
     5
 11
57.99827099999999
 21
260.3894649999999
 31
0.0
100
AcDbText
  0
LINE
  5
6A
330
67
100
AcDbEntity
  8
CSLAYER1
  6
CONTINUOUS
 62
     4
100
AcDbLine
 10
42.29827299999999
 20
259.88948
 30
0.0
 11
67.298273
 21
259.88948
 31
0.0
  0
LINE
  5
6B
330
67
100
AcDbEntity
  8
CSLAYER1
  6
CONTINUOUS
 62
     4
100
AcDbLine
 10
42.29827299999999
 20
259.88948
 30
0.0
 11
45.19605
 21
260.6659379999999
 31
0.0
  0
LINE
  5
6C
330
67
100
AcDbEntity
  8
CSLAYER1
  6
CONTINUOUS
 62
     4
100
AcDbLine
 10
42.29827299999999
 20
259.88948
 30
0.0
 11
45.19605
 21
259.113023
 31
0.0
  0
LINE
  5
6D
330
67
100
AcDbEntity
  8
CSLAYER1
  6
CONTINUOUS
 62
     4
100
AcDbLine
 10
67.298273
 20
259.88948
 30
0.0
 11
64.40049499999999
 21
260.6659379999999
 31
0.0
  0
LINE
  5
6E
330
67
100
AcDbEntity
  8
CSLAYER1
  6
CONTINUOUS
 62
     4
100
AcDbLine
 10
67.298273
 20
259.88948
 30
0.0
 11
64.40049499999999
 21
259.113023
 31
0.0
  0
LINE
  5
6F
330
67
100
AcDbEntity
  8
CSLAYER1
  6
CONTINUOUS
 62
     4
100
AcDbLine
 10
67.298273
 20
238.1119949999999
 30
0.0
 11
67.298273
 21
260.8894799999999
 31
0.0
  0
ENDBLK
  5
70
330
67
100
AcDbEntity
  8
0
100
AcDbBlockEnd
  0
BLOCK
  5
72
330
71
100
AcDbEntity
  8
0
100
AcDbBlockBegin
  2
*D5
 70
     1
 10
0.0
 20
0.0
 30
0.0
  3
*D5
  1

  0
TEXT
  5
73
330
71
100
AcDbEntity
  8
CSLAYER1
 62
     4
100
AcDbText
 10
102.4982709999999
 20
266.3894959999999
 30
0.0
 40
3.2
  1
130
 41
1.12500000000001
 51
15.0
  7
FX_FONT
 72
     5
 11
112.098271
 21
266.3894959999999
 31
0.0
100
AcDbText
  0
LINE
  5
74
330
71
100
AcDbEntity
  8
CSLAYER1
  6
CONTINUOUS
 62
     4
100
AcDbLine
 10
42.29827299999999
 20
265.88948
 30
0.0
 11
172.298273
 21
265.88948
 31
0.0
  0
LINE
  5
75
330
71
100
AcDbEntity
  8
CSLAYER1
  6
CONTINUOUS
 62
     4
100
AcDbLine
 10
42.29827299999999
 20
265.88948
 30
0.0
 11
45.19605
 21
266.665938
 31
0.0
  0
LINE
  5
76
330
71
100
AcDbEntity
  8
CSLAYER1
  6
CONTINUOUS
 62
     4
100
AcDbLine
 10
42.29827299999999
 20
265.88948
 30
0.0
 11
45.19605
 21
265.113023
 31
0.0
  0
LINE
  5
77
330
71
100
AcDbEntity
  8
CSLAYER1
  6
CONTINUOUS
 62
     4
100
AcDbLine
 10
172.298273
 20
265.88948
 30
0.0
 11
169.400495
 21
266.665938
 31
0.0
  0
LINE
  5
78
330
71
100
AcDbEntity
  8
CSLAYER1
  6
CONTINUOUS
 62
     4
100
AcDbLine
 10
172.298273
 20
265.88948
 30
0.0
 11
169.400495
 21
265.113023
 31
0.0
  0
LINE
  5
79
330
71
100
AcDbEntity
  8
CSLAYER1
  6
CONTINUOUS
 62
     4
100
AcDbLine
 10
42.29827299999999
 20
146.111995
 30
0.0
 11
42.29827299999999
 21
266.8894799999999
 31
0.0
  0
LINE
  5
7A
330
71
100
AcDbEntity
  8
CSLAYER1
  6
CONTINUOUS
 62
     4
100
AcDbLine
 10
172.298273
 20
146.111995
 30
0.0
 11
172.298273
 21
266.8894799999999
 31
0.0
  0
ENDBLK
  5
7B
330
71
100
AcDbEntity
  8
0
100
AcDbBlockEnd
  0
BLOCK
  5
7D
330
7C
100
AcDbEntity
  8
0
100
AcDbBlockBegin
  2
*D6
 70
     1
 10
0.0
 20
0.0
 30
0.0
  3
*D6
  1

  0
TEXT
  5
7E
330
7C
100
AcDbEntity
  8
CSLAYER1
 62
     4
100
AcDbText
 10
156.5982789999999
 20
260.3894649999999
 30
0.0
 40
3.2
  1
25
 41
1.200000000000001
 51
15.0
  7
FX_FONT
 72
     5
 11
162.9982789999999
 21
260.3894649999999
 31
0.0
100
AcDbText
  0
LINE
  5
7F
330
7C
100
AcDbEntity
  8
CSLAYER1
  6
CONTINUOUS
 62
     4
100
AcDbLine
 10
147.298273
 20
259.88948
 30
0.0
 11
172.298273
 21
259.88948
 31
0.0
  0
LINE
  5
80
330
7C
100
AcDbEntity
  8
CSLAYER1
  6
CONTINUOUS
 62
     4
100
AcDbLine
 10
147.298273
 20
259.88948
 30
0.0
 11
150.19605
 21
260.6659379999999
 31
0.0
  0
LINE
  5
81
330
7C
100
AcDbEntity
  8
CSLAYER1
  6
CONTINUOUS
 62
     4
100
AcDbLine
 10
147.298273
 20
259.88948
 30
0.0
 11
150.19605
 21
259.113023
 31
0.0
  0
LINE
  5
82
330
7C
100
AcDbEntity
  8
CSLAYER1
  6
CONTINUOUS
 62
     4
100
AcDbLine
 10
172.298273
 20
259.88948
 30
0.0
 11
169.400495
 21
260.6659379999999
 31
0.0
  0
LINE
  5
83
330
7C
100
AcDbEntity
  8
CSLAYER1
  6
CONTINUOUS
 62
     4
100
AcDbLine
 10
172.298273
 20
259.88948
 30
0.0
 11
169.400495
 21
259.113023
 31
0.0
  0
ENDBLK
  5
84
330
7C
100
AcDbEntity
  8
0
100
AcDbBlockEnd
  0
BLOCK
  5
86
330
85
100
AcDbEntity
  8
0
100
AcDbBlockBegin
  2
*D7
 70
     1
 10
0.0
 20
0.0
 30
0.0
  3
*D7
  1

  0
TEXT
  5
87
330
85
100
AcDbEntity
  8
CSLAYER1
 62
     4
100
AcDbText
 10
104.0982709999999
 20
260.3894649999999
 30
0.0
 40
3.2
  1
80
 41
1.200000000000017
 51
15.0
  7
FX_FONT
 72
     5
 11
110.498271
 21
260.3894649999999
 31
0.0
100
AcDbText
  0
LINE
  5
88
330
85
100
AcDbEntity
  8
CSLAYER1
  6
CONTINUOUS
 62
     4
100
AcDbLine
 10
67.298273
 20
259.88948
 30
0.0
 11
147.298273
 21
259.88948
 31
0.0
  0
LINE
  5
89
330
85
100
AcDbEntity
  8
CSLAYER1
  6
CONTINUOUS
 62
     4
100
AcDbLine
 10
67.298273
 20
259.88948
 30
0.0
 11
70.19605
 21
260.6659379999999
 31
0.0
  0
LINE
  5
8A
330
85
100
AcDbEntity
  8
CSLAYER1
  6
CONTINUOUS
 62
     4
100
AcDbLine
 10
67.298273
 20
259.88948
 30
0.0
 11
70.19605
 21
259.113023
 31
0.0
  0
LINE
  5
8B
330
85
100
AcDbEntity
  8
CSLAYER1
  6
CONTINUOUS
 62
     4
100
AcDbLine
 10
147.298273
 20
259.88948
 30
0.0
 11
144.400495
 21
260.6659379999999
 31
0.0
  0
LINE
  5
8C
330
85
100
AcDbEntity
  8
CSLAYER1
  6
CONTINUOUS
 62
     4
100
AcDbLine
 10
147.298273
 20
259.88948
 30
0.0
 11
144.400495
 21
259.113023
 31
0.0
  0
LINE
  5
8D
330
85
100
AcDbEntity
  8
CSLAYER1
  6
CONTINUOUS
 62
     4
100
AcDbLine
 10
147.298273
 20
238.1119949999999
 30
0.0
 11
147.298273
 21
260.8894799999999
 31
0.0
  0
ENDBLK
  5
8E
330
85
100
AcDbEntity
  8
0
100
AcDbBlockEnd
  0
BLOCK
  5
90
330
8F
100
AcDbEntity
  8
0
100
AcDbBlockBegin
  2
*D8
 70
     1
 10
0.0
 20
0.0
 30
0.0
  3
*D8
  1

  0
TEXT
  5
91
330
8F
100
AcDbEntity
  8
CSLAYER1
 62
     4
100
AcDbText
 10
220.071835
 20
265.303741
 30
0.0
 40
3.2
  1
15
 41
1.199999999999979
 51
15.0
  7
FX_FONT
 72
     5
 11
226.4718349999998
 21
265.303741
 31
0.0
100
AcDbText
  0
LINE
  5
92
330
8F
100
AcDbEntity
  8
CSLAYER1
  6
CONTINUOUS
 62
     4
100
AcDbLine
 10
215.7718159999999
 20
264.803739
 30
0.0
 11
230.7718159999999
 21
264.803739
 31
0.0
  0
LINE
  5
93
330
8F
100
AcDbEntity
  8
CSLAYER1
  6
CONTINUOUS
 62
     4
100
AcDbLine
 10
215.7718159999999
 20
264.803739
 30
0.0
 11
218.6695939999999
 21
265.580196
 31
0.0
  0
LINE
  5
94
330
8F
100
AcDbEntity
  8
CSLAYER1
  6
CONTINUOUS
 62
     4
100
AcDbLine
 10
215.7718159999999
 20
264.803739
 30
0.0
 11
218.6695939999999
 21
264.0272819999998
 31
0.0
  0
LINE
  5
95
330
8F
100
AcDbEntity
  8
CSLAYER1
  6
CONTINUOUS
 62
     4
100
AcDbLine
 10
230.7718159999999
 20
264.803739
 30
0.0
 11
227.874039
 21
265.580196
 31
0.0
  0
LINE
  5
96
330
8F
100
AcDbEntity
  8
CSLAYER1
  6
CONTINUOUS
 62
     4
100
AcDbLine
 10
230.7718159999999
 20
264.803739
 30
0.0
 11
227.874039
 21
264.0272819999998
 31
0.0
  0
LINE
  5
97
330
8F
100
AcDbEntity
  8
CSLAYER1
  6
CONTINUOUS
 62
     4
100
AcDbLine
 10
230.7718159999999
 20
253.111995
 30
0.0
 11
230.7718159999999
 21
265.803739
 31
0.0
  0
ENDBLK
  5
98
330
8F
100
AcDbEntity
  8
0
100
AcDbBlockEnd
  0
BLOCK
  5
9A
330
99
100
AcDbEntity
  8
0
100
AcDbBlockBegin
  2
*D9
 70
     1
 10
0.0
 20
0.0
 30
0.0
  3
*D9
  1

  0
TEXT
  5
9B
330
99
100
AcDbEntity
  8
CSLAYER1
 62
     4
100
AcDbText
 10
246.621835
 20
265.303741
 30
0.0
 40
3.2
  1
44.5
 41
1.090909090909084
 51
15.0
  7
FX_FONT
 72
     5
 11
259.4218349999999
 21
265.303741
 31
0.0
100
AcDbText
  0
LINE
  5
9C
330
99
100
AcDbEntity
  8
CSLAYER1
  6
CONTINUOUS
 62
     4
100
AcDbLine
 10
230.7718159999999
 20
264.803739
 30
0.0
 11
275.271816
 21
264.803739
 31
0.0
  0
LINE
  5
9D
330
99
100
AcDbEntity
  8
CSLAYER1
  6
CONTINUOUS
 62
     4
100
AcDbLine
 10
230.7718159999999
 20
264.803739
 30
0.0
 11
233.6695939999999
 21
265.580196
 31
0.0
  0
LINE
  5
9E
330
99
100
AcDbEntity
  8
CSLAYER1
  6
CONTINUOUS
 62
     4
100
AcDbLine
 10
230.7718159999999
 20
264.803739
 30
0.0
 11
233.6695939999999
 21
264.0272819999998
 31
0.0
  0
LINE
  5
9F
330
99
100
AcDbEntity
  8
CSLAYER1
  6
CONTINUOUS
 62
     4
100
AcDbLine
 10
275.271816
 20
264.803739
 30
0.0
 11
272.374039
 21
265.580196
 31
0.0
  0
LINE
  5
A0
330
99
100
AcDbEntity
  8
CSLAYER1
  6
CONTINUOUS
 62
     4
100
AcDbLine
 10
275.271816
 20
264.803739
 30
0.0
 11
272.374039
 21
264.0272819999998
 31
0.0
  0
LINE
  5
A1
330
99
100
AcDbEntity
  8
CSLAYER1
  6
CONTINUOUS
 62
     4
100
AcDbLine
 10
275.271816
 20
208.111995
 30
0.0
 11
275.271816
 21
265.803739
 31
0.0
  0
ENDBLK
  5
A2
330
99
100
AcDbEntity
  8
0
100
AcDbBlockEnd
  0
BLOCK
  5
A4
330
A3
100
AcDbEntity
  8
0
100
AcDbBlockBegin
  2
*D10
 70
     1
 10
0.0
 20
0.0
 30
0.0
  3
*D10
  1

  0
TEXT
  5
A5
330
A3
100
AcDbEntity
  8
CSLAYER1
 62
     4
100
AcDbText
 10
191.4718259999999
 20
265.303741
 30
0.0
 40
3.2
  1
10.5
 41
1.090909090909096
 51
15.0
  7
FX_FONT
 72
     5
 11
204.271826
 21
265.303741
 31
0.0
100
AcDbText
  0
LINE
  5
A6
330
A3
100
AcDbEntity
  8
CSLAYER1
  6
CONTINUOUS
 62
     4
100
AcDbLine
 10
205.2718159999999
 20
264.803739
 30
0.0
 11
215.7718159999999
 21
264.803739
 31
0.0
  0
LINE
  5
A7
330
A3
100
AcDbEntity
  8
CSLAYER1
  6
CONTINUOUS
 62
     4
100
AcDbLine
 10
205.2718159999999
 20
223.111995
 30
0.0
 11
205.2718159999999
 21
265.803739
 31
0.0
  0
LINE
  5
A8
330
A3
100
AcDbEntity
  8
CSLAYER1
  6
CONTINUOUS
 62
     4
100
AcDbLine
 10
215.7718159999999
 20
253.111995
 30
0.0
 11
215.7718159999999
 21
265.803739
 31
0.0
  0
LINE
  5
A9
330
A3
100
AcDbEntity
  8
CSLAYER1
  6
CONTINUOUS
 62
     4
100
AcDbLine
 10
190.4718159999999
 20
264.803739
 30
0.0
 11
205.2718159999999
 21
264.803739
 31
0.0
  0
LINE
  5
AA
330
A3
100
AcDbEntity
  8
CSLAYER1
  6
CONTINUOUS
 62
     4
100
AcDbLine
 10
205.2718159999999
 20
264.803739
 30
0.0
 11
202.3740389999999
 21
265.580196
 31
0.0
  0
LINE
  5
AB
330
A3
100
AcDbEntity
  8
CSLAYER1
  6
CONTINUOUS
 62
     4
100
AcDbLine
 10
205.2718159999999
 20
264.803739
 30
0.0
 11
202.3740389999999
 21
264.0272819999998
 31
0.0
  0
ENDBLK
  5
AC
330
A3
100
AcDbEntity
  8
0
100
AcDbBlockEnd
  0
BLOCK
  5
AE
330
AD
100
AcDbEntity
  8
0
100
AcDbBlockBegin
  2
*D11
 70
     1
 10
0.0
 20
0.0
 30
0.0
  3
*D11
  1

  0
TEXT
  5
AF
330
AD
100
AcDbEntity
  8
CSLAYER1
 62
     4
100
AcDbText
 10
246.925125
 20
166.543298
 30
0.0
 40
3.2
  1
60%%d
 50
29.99999963095144
 41
1.285714300058147
 51
15.0
  7
FX_FONT
 72
     5
 11
255.238969
 21
171.343298
 31
0.0
100
AcDbText
  0
ARC
  5
B0
330
AD
100
AcDbEntity
  8
CSLAYER1
  6
CONTINUOUS
 62
     4
100
AcDbCircle
 10
223.271816
 20
217.111995
 30
0.0
 40
56.120435
100
AcDbArc
 50
270.0
 51
330.0
  0
LINE
  5
B1
330
AD
100
AcDbEntity
  8
CSLAYER1
  6
CONTINUOUS
 62
     4
100
AcDbLine
 10
223.271816
 20
160.9915589999999
 30
0.0
 11
226.169594
 21
161.7680159999999
 31
0.0
  0
LINE
  5
B2
330
AD
100
AcDbEntity
  8
CSLAYER1
  6
CONTINUOUS
 62
     4
100
AcDbLine
 10
223.271816
 20
160.9915589999999
 30
0.0
 11
226.169594
 21
160.2151019999999
 31
0.0
  0
LINE
  5
B3
330
AD
100
AcDbEntity
  8
CSLAYER1
  6
CONTINUOUS
 62
     4
100
AcDbLine
 10
271.8735389999999
 20
189.051777
 30
0.0
 11
271.097082
 21
186.1539989999999
 31
0.0
  0
LINE
  5
B4
330
AD
100
AcDbEntity
  8
CSLAYER1
  6
CONTINUOUS
 62
     4
100
AcDbLine
 10
271.8735389999999
 20
189.051777
 30
0.0
 11
269.7522189999999
 21
186.9304559999999
 31
0.0
  0
LINE
  5
B5
330
AD
100
AcDbEntity
  8
CSLAYER1
  6
CONTINUOUS
 62
     4
100
AcDbLine
 10
223.271816
 20
161.6200409999999
 30
0.0
 11
223.271816
 21
159.9915589999999
 31
0.0
  0
LINE
  5
B6
330
AD
100
AcDbEntity
  8
CSLAYER1
  6
CONTINUOUS
 62
     4
100
AcDbLine
 10
270.037614
 20
190.111749
 30
0.0
 11
272.7395649999999
 21
188.551777
 31
0.0
  0
ENDBLK
  5
B7
330
AD
100
AcDbEntity
  8
0
100
AcDbBlockEnd
  0
BLOCK
  5
B9
330
B8
100
AcDbEntity
  8
0
100
AcDbBlockBegin
  2
*D12
 70
     1
 10
0.0
 20
0.0
 30
0.0
  3
*D12
  1

  0
TEXT
  5
BA
330
B8
100
AcDbEntity
  8
CSLAYER1
 62
     4
100
AcDbText
 10
94.08008499999999
 20
183.7340429999999
 30
0.0
 40
3.2
  1
%%c56
 50
46.86763588011767
 41
1.12500006810103
 51
15.0
  7
FX_FONT
 72
     5
 11
100.643472
 21
190.7398949999999
 31
0.0
100
AcDbText
  0
LINE
  5
BB
330
B8
100
AcDbEntity
  8
CSLAYER1
  6
CONTINUOUS
 62
     4
100
AcDbLine
 10
88.155061
 20
176.678262
 30
0.0
 11
126.441484
 21
217.5457269999998
 31
0.0
  0
LINE
  5
BC
330
B8
100
AcDbEntity
  8
CSLAYER1
  6
CONTINUOUS
 62
     4
100
AcDbLine
 10
88.155061
 20
176.678262
 30
0.0
 11
89.569591
 21
179.323844
 31
0.0
  0
LINE
  5
BD
330
B8
100
AcDbEntity
  8
CSLAYER1
  6
CONTINUOUS
 62
     4
100
AcDbLine
 10
88.155061
 20
176.678262
 30
0.0
 11
90.70287099999999
 21
178.2621379999999
 31
0.0
  0
LINE
  5
BE
330
B8
100
AcDbEntity
  8
CSLAYER1
  6
CONTINUOUS
 62
     4
100
AcDbLine
 10
126.441484
 20
217.5457269999998
 30
0.0
 11
125.026954
 21
214.900146
 31
0.0
  0
LINE
  5
BF
330
B8
100
AcDbEntity
  8
CSLAYER1
  6
CONTINUOUS
 62
     4
100
AcDbLine
 10
126.441484
 20
217.5457269999998
 30
0.0
 11
123.8936739999999
 21
215.9618509999999
 31
0.0
  0
ENDBLK
  5
C0
330
B8
100
AcDbEntity
  8
0
100
AcDbBlockEnd
  0
BLOCK
  5
C2
330
C1
100
AcDbEntity
  8
0
100
AcDbBlockBegin
  2
*D13
 70
     1
 10
0.0
 20
0.0
 30
0.0
  3
*D13
  1

  0
TEXT
  5
C3
330
C1
100
AcDbEntity
  8
CSLAYER1
 62
     4
100
AcDbText
 10
376.8025789999998
 20
97.445284
 30
0.0
 40
3.2
  1
45%%d
 50
112.4999991574809
 41
1.285714348609483
 51
15.0
  7
FX_FONT
 72
     5
 11
373.128818
 21
106.314528
 31
0.0
100
AcDbText
  0
ARC
  5
C4
330
C1
100
AcDbEntity
  8
CSLAYER1
  6
CONTINUOUS
 62
     4
100
AcDbCircle
 10
262.5499669999999
 20
55.315796
 30
0.0
 40
122.1778889999999
100
AcDbArc
 50
0.0
 51
45.0
  0
LINE
  5
C5
330
C1
100
AcDbEntity
  8
CSLAYER1
  6
CONTINUOUS
 62
     4
100
AcDbLine
 10
384.727856
 20
55.315796
 30
0.0
 11
383.951399
 21
58.21357299999998
 31
0.0
  0
LINE
  5
C6
330
C1
100
AcDbEntity
  8
CSLAYER1
  6
CONTINUOUS
 62
     4
100
AcDbLine
 10
384.727856
 20
55.315796
 30
0.0
 11
385.504314
 21
58.21357299999998
 31
0.0
  0
LINE
  5
C7
330
C1
100
AcDbEntity
  8
CSLAYER1
  6
CONTINUOUS
 62
     4
100
AcDbLine
 10
348.942781
 20
141.70861
 30
0.0
 11
351.540858
 21
140.20861
 31
0.0
  0
LINE
  5
C8
330
C1
100
AcDbEntity
  8
CSLAYER1
  6
CONTINUOUS
 62
     4
100
AcDbLine
 10
348.942781
 20
141.70861
 30
0.0
 11
350.442781
 21
139.110533
 31
0.0
  0
LINE
  5
C9
330
C1
100
AcDbEntity
  8
CSLAYER1
  6
CONTINUOUS
 62
     4
100
AcDbLine
 10
362.265696
 20
55.315796
 30
0.0
 11
385.727856
 21
55.315796
 31
0.0
  0
ENDBLK
  5
CA
330
C1
100
AcDbEntity
  8
0
100
AcDbBlockEnd
  0
BLOCK
  5
CC
330
CB
100
AcDbEntity
  8
0
100
AcDbBlockBegin
  2
*D14
 70
     1
 10
0.0
 20
0.0
 30
0.0
  3
*D14
  1

  0
TEXT
  5
CD
330
CB
100
AcDbEntity
  8
CSLAYER1
 62
     4
100
AcDbText
 10
23.714458
 20
77.70904200000003
 30
0.0
 40
3.2
  1
70
 50
90.0
 41
1.199999999999995
 51
15.0
  7
FX_FONT
 72
     5
 11
23.714458
 21
84.109042
 31
0.0
100
AcDbText
  0
LINE
  5
CE
330
CB
100
AcDbEntity
  8
CSLAYER1
  6
CONTINUOUS
 62
     4
100
AcDbLine
 10
24.214459
 20
45.90905
 30
0.0
 11
24.214459
 21
115.90905
 31
0.0
  0
LINE
  5
CF
330
CB
100
AcDbEntity
  8
CSLAYER1
  6
CONTINUOUS
 62
     4
100
AcDbLine
 10
24.214459
 20
45.90905
 30
0.0
 11
23.438002
 21
48.806827
 31
0.0
  0
LINE
  5
D0
330
CB
100
AcDbEntity
  8
CSLAYER1
  6
CONTINUOUS
 62
     4
100
AcDbLine
 10
24.214459
 20
45.90905
 30
0.0
 11
24.99091599999999
 21
48.806827
 31
0.0
  0
LINE
  5
D1
330
CB
100
AcDbEntity
  8
CSLAYER1
  6
CONTINUOUS
 62
     4
100
AcDbLine
 10
24.214459
 20
115.90905
 30
0.0
 11
23.438002
 21
113.0112719999999
 31
0.0
  0
LINE
  5
D2
330
CB
100
AcDbEntity
  8
CSLAYER1
  6
CONTINUOUS
 62
     4
100
AcDbLine
 10
24.214459
 20
115.90905
 30
0.0
 11
24.99091599999999
 21
113.0112719999999
 31
0.0
  0
LINE
  5
D3
330
CB
100
AcDbEntity
  8
CSLAYER1
  6
CONTINUOUS
 62
     4
100
AcDbLine
 10
41.29827299999998
 20
45.90905
 30
0.0
 11
23.214459
 21
45.90905
 31
0.0
  0
LINE
  5
D4
330
CB
100
AcDbEntity
  8
CSLAYER1
  6
CONTINUOUS
 62
     4
100
AcDbLine
 10
41.29827299999998
 20
115.90905
 30
0.0
 11
23.214459
 21
115.90905
 31
0.0
  0
ENDBLK
  5
D5
330
CB
100
AcDbEntity
  8
0
100
AcDbBlockEnd
  0
BLOCK
  5
D7
330
D6
100
AcDbEntity
  8
0
100
AcDbBlockBegin
  2
*D15
 70
     1
 10
0.0
 20
0.0
 30
0.0
  3
*D15
  1

  0
TEXT
  5
D8
330
D6
100
AcDbEntity
  8
CSLAYER1
 62
     4
100
AcDbText
 10
29.714458
 20
47.809046
 30
0.0
 40
3.2
  1
7
 50
90.0
 41
1.500000000000001
 51
15.0
  7
FX_FONT
 72
     5
 11
29.714458
 21
51.009046
 31
0.0
100
AcDbText
  0
LINE
  5
D9
330
D6
100
AcDbEntity
  8
CSLAYER1
  6
CONTINUOUS
 62
     4
100
AcDbLine
 10
30.214459
 20
45.90905
 30
0.0
 11
30.214459
 21
52.90905
 31
0.0
  0
LINE
  5
DA
330
D6
100
AcDbEntity
  8
CSLAYER1
  6
CONTINUOUS
 62
     4
100
AcDbLine
 10
30.214459
 20
45.90905
 30
0.0
 11
29.438002
 21
48.806827
 31
0.0
  0
LINE
  5
DB
330
D6
100
AcDbEntity
  8
CSLAYER1
  6
CONTINUOUS
 62
     4
100
AcDbLine
 10
30.214459
 20
45.90905
 30
0.0
 11
30.99091599999999
 21
48.806827
 31
0.0
  0
LINE
  5
DC
330
D6
100
AcDbEntity
  8
CSLAYER1
  6
CONTINUOUS
 62
     4
100
AcDbLine
 10
30.214459
 20
52.90905
 30
0.0
 11
29.438002
 21
50.01127199999999
 31
0.0
  0
LINE
  5
DD
330
D6
100
AcDbEntity
  8
CSLAYER1
  6
CONTINUOUS
 62
     4
100
AcDbLine
 10
30.214459
 20
52.90905
 30
0.0
 11
30.99091599999999
 21
50.01127199999999
 31
0.0
  0
LINE
  5
DE
330
D6
100
AcDbEntity
  8
CSLAYER1
  6
CONTINUOUS
 62
     4
100
AcDbLine
 10
50.298273
 20
52.90905
 30
0.0
 11
29.214459
 21
52.90905
 31
0.0
  0
ENDBLK
  5
DF
330
D6
100
AcDbEntity
  8
0
100
AcDbBlockEnd
  0
BLOCK
  5
E1
330
E0
100
AcDbEntity
  8
0
100
AcDbBlockBegin
  2
*D16
 70
     1
 10
0.0
 20
0.0
 30
0.0
  3
*D16
  1

  0
TEXT
  5
E2
330
E0
100
AcDbEntity
  8
CSLAYER1
 62
     4
100
AcDbText
 10
29.714458
 20
55.70904599999999
 30
0.0
 40
3.2
  1
12
 50
90.0
 41
1.200000000000001
 51
15.0
  7
FX_FONT
 72
     5
 11
29.714458
 21
62.109046
 31
0.0
100
AcDbText
  0
LINE
  5
E3
330
E0
100
AcDbEntity
  8
CSLAYER1
  6
CONTINUOUS
 62
     4
100
AcDbLine
 10
30.214459
 20
52.90905
 30
0.0
 11
30.214459
 21
64.90904999999999
 31
0.0
  0
LINE
  5
E4
330
E0
100
AcDbEntity
  8
CSLAYER1
  6
CONTINUOUS
 62
     4
100
AcDbLine
 10
30.214459
 20
52.90905
 30
0.0
 11
29.438002
 21
55.806827
 31
0.0
  0
LINE
  5
E5
330
E0
100
AcDbEntity
  8
CSLAYER1
  6
CONTINUOUS
 62
     4
100
AcDbLine
 10
30.214459
 20
52.90905
 30
0.0
 11
30.99091599999999
 21
55.806827
 31
0.0
  0
LINE
  5
E6
330
E0
100
AcDbEntity
  8
CSLAYER1
  6
CONTINUOUS
 62
     4
100
AcDbLine
 10
30.214459
 20
64.90904999999999
 30
0.0
 11
29.438002
 21
62.011272
 31
0.0
  0
LINE
  5
E7
330
E0
100
AcDbEntity
  8
CSLAYER1
  6
CONTINUOUS
 62
     4
100
AcDbLine
 10
30.214459
 20
64.90904999999999
 30
0.0
 11
30.99091599999999
 21
62.011272
 31
0.0
  0
LINE
  5
E8
330
E0
100
AcDbEntity
  8
CSLAYER1
  6
CONTINUOUS
 62
     4
100
AcDbLine
 10
50.298273
 20
64.90904999999999
 30
0.0
 11
29.214459
 21
64.90904999999999
 31
0.0
  0
ENDBLK
  5
E9
330
E0
100
AcDbEntity
  8
0
100
AcDbBlockEnd
  0
BLOCK
  5
EB
330
EA
100
AcDbEntity
  8
0
100
AcDbBlockBegin
  2
*D17
 70
     1
 10
0.0
 20
0.0
 30
0.0
  3
*D17
  1

  0
TEXT
  5
EC
330
EA
100
AcDbEntity
  8
CSLAYER1
 62
     4
100
AcDbText
 10
29.714458
 20
77.70904200000003
 30
0.0
 40
3.2
  1
32
 50
90.0
 41
1.199999999999995
 51
15.0
  7
FX_FONT
 72
     5
 11
29.714458
 21
84.109042
 31
0.0
100
AcDbText
  0
LINE
  5
ED
330
EA
100
AcDbEntity
  8
CSLAYER1
  6
CONTINUOUS
 62
     4
100
AcDbLine
 10
30.214459
 20
64.90904999999999
 30
0.0
 11
30.214459
 21
96.90905
 31
0.0
  0
LINE
  5
EE
330
EA
100
AcDbEntity
  8
CSLAYER1
  6
CONTINUOUS
 62
     4
100
AcDbLine
 10
30.214459
 20
64.90904999999999
 30
0.0
 11
29.438002
 21
67.80682699999998
 31
0.0
  0
LINE
  5
EF
330
EA
100
AcDbEntity
  8
CSLAYER1
  6
CONTINUOUS
 62
     4
100
AcDbLine
 10
30.214459
 20
64.90904999999999
 30
0.0
 11
30.99091599999999
 21
67.80682699999998
 31
0.0
  0
LINE
  5
F0
330
EA
100
AcDbEntity
  8
CSLAYER1
  6
CONTINUOUS
 62
     4
100
AcDbLine
 10
30.214459
 20
96.90905
 30
0.0
 11
29.438002
 21
94.01127200000001
 31
0.0
  0
LINE
  5
F1
330
EA
100
AcDbEntity
  8
CSLAYER1
  6
CONTINUOUS
 62
     4
100
AcDbLine
 10
30.214459
 20
96.90905
 30
0.0
 11
30.99091599999999
 21
94.01127200000001
 31
0.0
  0
LINE
  5
F2
330
EA
100
AcDbEntity
  8
CSLAYER1
  6
CONTINUOUS
 62
     4
100
AcDbLine
 10
50.298273
 20
96.90905
 30
0.0
 11
29.214459
 21
96.90905
 31
0.0
  0
ENDBLK
  5
F3
330
EA
100
AcDbEntity
  8
0
100
AcDbBlockEnd
  0
BLOCK
  5
F5
330
F4
100
AcDbEntity
  8
0
100
AcDbBlockBegin
  2
*D18
 70
     1
 10
0.0
 20
0.0
 30
0.0
  3
*D18
  1

  0
TEXT
  5
F6
330
F4
100
AcDbEntity
  8
CSLAYER1
 62
     4
100
AcDbText
 10
29.714458
 20
99.70904199999999
 30
0.0
 40
3.2
  1
12
 50
90.0
 41
1.199999999999982
 51
15.0
  7
FX_FONT
 72
     5
 11
29.714458
 21
106.1090419999999
 31
0.0
100
AcDbText
  0
LINE
  5
F7
330
F4
100
AcDbEntity
  8
CSLAYER1
  6
CONTINUOUS
 62
     4
100
AcDbLine
 10
30.214459
 20
96.90905
 30
0.0
 11
30.214459
 21
108.9090499999999
 31
0.0
  0
LINE
  5
F8
330
F4
100
AcDbEntity
  8
CSLAYER1
  6
CONTINUOUS
 62
     4
100
AcDbLine
 10
30.214459
 20
96.90905
 30
0.0
 11
29.438002
 21
99.806827
 31
0.0
  0
LINE
  5
F9
330
F4
100
AcDbEntity
  8
CSLAYER1
  6
CONTINUOUS
 62
     4
100
AcDbLine
 10
30.214459
 20
96.90905
 30
0.0
 11
30.99091599999999
 21
99.806827
 31
0.0
  0
LINE
  5
FA
330
F4
100
AcDbEntity
  8
CSLAYER1
  6
CONTINUOUS
 62
     4
100
AcDbLine
 10
30.214459
 20
108.9090499999999
 30
0.0
 11
29.438002
 21
106.011272
 31
0.0
  0
LINE
  5
FB
330
F4
100
AcDbEntity
  8
CSLAYER1
  6
CONTINUOUS
 62
     4
100
AcDbLine
 10
30.214459
 20
108.9090499999999
 30
0.0
 11
30.99091599999999
 21
106.011272
 31
0.0
  0
LINE
  5
FC
330
F4
100
AcDbEntity
  8
CSLAYER1
  6
CONTINUOUS
 62
     4
100
AcDbLine
 10
50.298273
 20
108.9090499999999
 30
0.0
 11
29.214459
 21
108.9090499999999
 31
0.0
  0
ENDBLK
  5
FD
330
F4
100
AcDbEntity
  8
0
100
AcDbBlockEnd
  0
BLOCK
  5
FF
330
FE
100
AcDbEntity
  8
0
100
AcDbBlockBegin
  2
*D19
 70
     1
 10
0.0
 20
0.0
 30
0.0
  3
*D19
  1

  0
TEXT
  5
100
330
FE
100
AcDbEntity
  8
CSLAYER1
 62
     4
100
AcDbText
 10
29.714458
 20
110.8090419999999
 30
0.0
 40
3.2
  1
7
 50
90.0
 41
1.500000000000001
 51
15.0
  7
FX_FONT
 72
     5
 11
29.714458
 21
114.0090419999999
 31
0.0
100
AcDbText
  0
LINE
  5
101
330
FE
100
AcDbEntity
  8
CSLAYER1
  6
CONTINUOUS
 62
     4
100
AcDbLine
 10
30.214459
 20
108.9090499999999
 30
0.0
 11
30.214459
 21
115.90905
 31
0.0
  0
LINE
  5
102
330
FE
100
AcDbEntity
  8
CSLAYER1
  6
CONTINUOUS
 62
     4
100
AcDbLine
 10
30.214459
 20
108.9090499999999
 30
0.0
 11
29.438002
 21
111.8068269999999
 31
0.0
  0
LINE
  5
103
330
FE
100
AcDbEntity
  8
CSLAYER1
  6
CONTINUOUS
 62
     4
100
AcDbLine
 10
30.214459
 20
108.9090499999999
 30
0.0
 11
30.99091599999999
 21
111.8068269999999
 31
0.0
  0
LINE
  5
104
330
FE
100
AcDbEntity
  8
CSLAYER1
  6
CONTINUOUS
 62
     4
100
AcDbLine
 10
30.214459
 20
115.90905
 30
0.0
 11
29.438002
 21
113.0112719999999
 31
0.0
  0
LINE
  5
105
330
FE
100
AcDbEntity
  8
CSLAYER1
  6
CONTINUOUS
 62
     4
100
AcDbLine
 10
30.214459
 20
115.90905
 30
0.0
 11
30.99091599999999
 21
113.0112719999999
 31
0.0
  0
ENDBLK
  5
106
330
FE
100
AcDbEntity
  8
0
100
AcDbBlockEnd
  0
BLOCK
  5
108
330
107
100
AcDbEntity
  8
0
100
AcDbBlockBegin
  2
*D20
 70
     1
 10
0.0
 20
0.0
 30
0.0
  3
*D20
  1

  0
TEXT
  5
109
330
107
100
AcDbEntity
  8
CSLAYER1
 62
     4
100
AcDbText
 10
55.168204
 20
91.12291
 30
0.0
 40
3.2
  1
6
 41
1.500000000000001
 51
15.0
  7
FX_FONT
 72
     5
 11
58.368204
 21
91.12291
 31
0.0
100
AcDbText
  0
LINE
  5
10A
330
107
100
AcDbEntity
  8
CSLAYER1
  6
CONTINUOUS
 62
     4
100
AcDbLine
 10
48.29827299999998
 20
90.6229
 30
0.0
 11
54.29827299999999
 21
90.6229
 31
0.0
  0
LINE
  5
10B
330
107
100
AcDbEntity
  8
CSLAYER1
  6
CONTINUOUS
 62
     4
100
AcDbLine
 10
48.29827299999998
 20
90.6229
 30
0.0
 11
51.19604999999999
 21
91.399357
 31
0.0
  0
LINE
  5
10C
330
107
100
AcDbEntity
  8
CSLAYER1
  6
CONTINUOUS
 62
     4
100
AcDbLine
 10
48.29827299999998
 20
90.6229
 30
0.0
 11
51.19604999999999
 21
89.84644300000002
 31
0.0
  0
LINE
  5
10D
330
107
100
AcDbEntity
  8
CSLAYER1
  6
CONTINUOUS
 62
     4
100
AcDbLine
 10
54.29827299999999
 20
90.6229
 30
0.0
 11
51.40049499999999
 21
91.399357
 31
0.0
  0
LINE
  5
10E
330
107
100
AcDbEntity
  8
CSLAYER1
  6
CONTINUOUS
 62
     4
100
AcDbLine
 10
54.29827299999999
 20
90.6229
 30
0.0
 11
51.40049499999999
 21
89.84644300000002
 31
0.0
  0
LINE
  5
10F
330
107
100
AcDbEntity
  8
CSLAYER1
  6
CONTINUOUS
 62
     4
100
AcDbLine
 10
48.29827299999998
 20
98.90905
 30
0.0
 11
48.29827299999998
 21
89.62290000000001
 31
0.0
  0
LINE
  5
110
330
107
100
AcDbEntity
  8
CSLAYER1
  6
CONTINUOUS
 62
     4
100
AcDbLine
 10
54.29827299999999
 20
98.90905
 30
0.0
 11
54.29827299999999
 21
89.62290000000001
 31
0.0
  0
ENDBLK
  5
111
330
107
100
AcDbEntity
  8
0
100
AcDbBlockEnd
  0
BLOCK
  5
113
330
112
100
AcDbEntity
  8
0
100
AcDbBlockBegin
  2
FXDIM0000
 70
     0
 10
0.0
 20
0.0
 30
0.0
  3
FXDIM0000
  1

  0
LINE
  5
114
330
112
100
AcDbEntity
  8
CSLAYER1
  6
CONTINUOUS
 62
     4
100
AcDbLine
 10
344.1454549999998
 20
158.6818179999999
 30
0.0
 11
326.836364
 21
182.0999999999999
 31
0.0
  0
CIRCLE
  5
115
330
112
100
AcDbEntity
  8
CSLAYER1
  6
CONTINUOUS
 62
     4
100
AcDbCircle
 10
344.1454549999998
 20
158.6818179999999
 30
0.0
 40
0.3
  0
CIRCLE
  5
116
330
112
100
AcDbEntity
  8
CSLAYER1
  6
CONTINUOUS
 62
     4
100
AcDbCircle
 10
344.1454549999998
 20
158.6818179999999
 30
0.0
 40
0.15
  0
LINE
  5
117
330
112
100
AcDbEntity
  8
CSLAYER1
  6
CONTINUOUS
 62
     4
100
AcDbLine
 10
326.836364
 20
182.0999999999999
 30
0.0
 11
302.4363629999998
 21
182.0999999999999
 31
0.0
  0
TEXT
  5
118
330
112
100
AcDbEntity
  8
CSLAYER1
 62
     4
100
AcDbText
 10
303.4363519999998
 20
182.600006
 30
0.0
 40
3.2
  1
GT-NR30
 41
1.050000046875004
 51
15.0
  7
FX_FONT
 72
     5
 11
325.836353
 21
182.600006
 31
0.0
100
AcDbText
  0
ENDBLK
  5
119
330
112
100
AcDbEntity
  8
0
100
AcDbBlockEnd
  0
BLOCK
  5
11B
330
11A
100
AcDbEntity
  8
0
100
AcDbBlockBegin
  2
FXDIM0001
 70
     0
 10
0.0
 20
0.0
 30
0.0
  3
FXDIM0001
  1

  0
LINE
  5
11C
330
11A
100
AcDbEntity
  8
CSLAYER1
  6
CONTINUOUS
 62
     4
100
AcDbLine
 10
219.866395
 20
218.6347799999999
 30
0.0
 11
202.03654
 21
226.6076689999999
 31
0.0
  0
LINE
  5
11D
330
11A
100
AcDbEntity
  8
CSLAYER1
  6
CONTINUOUS
 62
     4
100
AcDbLine
 10
219.866395
 20
218.6347799999999
 30
0.0
 11
216.904092
 21
219.108868
 31
0.0
  0
LINE
  5
11E
330
11A
100
AcDbEntity
  8
CSLAYER1
  6
CONTINUOUS
 62
     4
100
AcDbLine
 10
219.866395
 20
218.6347799999999
 30
0.0
 11
217.5380089999999
 21
220.526504
 31
0.0
  0
LINE
  5
11F
330
11A
100
AcDbEntity
  8
CSLAYER1
  6
CONTINUOUS
 62
     4
100
AcDbLine
 10
202.03654
 20
226.6076689999999
 30
0.0
 11
177.636539
 21
226.6076689999999
 31
0.0
  0
TEXT
  5
120
330
11A
100
AcDbEntity
  8
CSLAYER1
 62
     4
100
AcDbText
 10
178.636548
 20
227.107666
 30
0.0
 40
3.2
  1
六角穴付ボルト
 41
0.8823529411764672
 51
15.0
  7
FX_FONT
 72
     5
 11
201.0365479999999
 21
227.107666
 31
0.0
100
AcDbText
  0
ENDBLK
  5
121
330
11A
100
AcDbEntity
  8
0
100
AcDbBlockEnd
  0
BLOCK
  5
123
330
122
100
AcDbEntity
  8
0
100
AcDbBlockBegin
  2
FXDIM0002
 70
     0
 10
0.0
 20
0.0
 30
0.0
  3
FXDIM0002
  1

  0
LINE
  5
124
330
122
100
AcDbEntity
  8
CSLAYER1
  6
CONTINUOUS
 62
     4
100
AcDbLine
 10
219.392045
 20
246.346893
 30
0.0
 11
202.03654
 21
254.107669
 31
0.0
  0
LINE
  5
125
330
122
100
AcDbEntity
  8
CSLAYER1
  6
CONTINUOUS
 62
     4
100
AcDbLine
 10
219.392045
 20
246.346893
 30
0.0
 11
216.429742
 21
246.820981
 31
0.0
  0
LINE
  5
126
330
122
100
AcDbEntity
  8
CSLAYER1
  6
CONTINUOUS
 62
     4
100
AcDbLine
 10
219.392045
 20
246.346893
 30
0.0
 11
217.0636589999999
 21
248.238617
 31
0.0
  0
LINE
  5
127
330
122
100
AcDbEntity
  8
CSLAYER1
  6
CONTINUOUS
 62
     4
100
AcDbLine
 10
202.03654
 20
254.107669
 30
0.0
 11
177.636539
 21
254.107669
 31
0.0
  0
TEXT
  5
128
330
122
100
AcDbEntity
  8
CSLAYER1
 62
     4
100
AcDbText
 10
178.636548
 20
254.607666
 30
0.0
 40
3.2
  1
六角穴付ボルト
 41
0.8823529411764672
 51
15.0
  7
FX_FONT
 72
     5
 11
201.0365479999999
 21
254.607666
 31
0.0
100
AcDbText
  0
ENDBLK
  5
129
330
122
100
AcDbEntity
  8
0
100
AcDbBlockEnd
  0
BLOCK
  5
338
330
32B
100
AcDbEntity
  8
0
100
AcDbBlockBegin
  2
*D24
 70
     1
 10
0.0
 20
0.0
 30
0.0
  3
*D24
  1

  0
LINE
  5
32C
330
32B
100
AcDbEntity
  8
CSLAYER1
 62
     0
100
AcDbLine
 10
223.271816
 20
162.5575409999999
 30
0.0
 11
223.2718159999999
 21
160.8115592143055
 31
0.0
  0
LINE
  5
32D
330
32B
100
AcDbEntity
  8
CSLAYER1
 62
     0
100
AcDbLine
 10
269.2257145875934
 20
190.5804989997523
 30
0.0
 11
272.0294235057268
 21
188.9617768840316
 31
0.0
  0
ARC
  5
32E
330
32B
100
AcDbEntity
  8
CSLAYER1
 62
     0
100
AcDbCircle
 10
223.271816
 20
217.111995
 30
0.0
 40
56.12043578569444
100
AcDbArc
 50
270.1837698618806
 51
299.6303928958728
  0
ARC
  5
32F
330
32B
100
AcDbEntity
  8
CSLAYER1
 62
     0
100
AcDbCircle
 10
223.271816
 20
217.111995
 30
0.0
 40
56.12043578569444
100
AcDbArc
 50
300.3655224573011
 51
329.8162298759266
  0
SOLID
  5
330
330
32B
100
AcDbEntity
  8
CSLAYER1
 62
     0
100
AcDbTrace
 10
223.4518638793514
 20
160.9618479177833
 30
0.0
 11
223.451767657718
 21
161.0218478406283
 31
0.0
 12
223.271816
 22
160.9915592143054
 32
0.0
 13
223.271816
 23
160.9915592143054
 33
0.0
  0
SOLID
  5
331
330
32B
100
AcDbEntity
  8
CSLAYER1
 62
     0
100
AcDbTrace
 10
271.7573323841134
 20
188.9110784914013
 30
0.0
 11
271.8092457305678
 21
188.8809951993622
 31
0.0
 12
271.8735389334574
 22
189.0517768847449
 32
0.0
 13
271.8735389334574
 23
189.0517768847449
 33
0.0
  0
MTEXT
  5
332
330
32B
100
AcDbEntity
  8
CSLAYER1
 62
     0
100
AcDbMText
 10
251.3320337816434
 20
168.5102718739316
 30
0.0
 40
0.18
 41
0.0
 71
     5
 72
     1
  1
\A1;60°
1001
ACAD
1000
MTEXTBEGIN
1070
    73
1070
     1
1070
    44
1040
1.0
1070
    74
1070
     0
1000
MTEXTEND
  0
POINT
  5
333
330
32B
100
AcDbEntity
  8
DEFPOINTS
 62
     0
100
AcDbPoint
 10
242.4661354104799
 20
164.3760355876148
 30
0.0
  0
POINT
  5
334
330
32B
100
AcDbEntity
  8
DEFPOINTS
 62
     0
100
AcDbPoint
 10
223.271816
 20
217.111995
 30
0.0
  0
POINT
  5
335
330
32B
100
AcDbEntity
  8
DEFPOINTS
 62
     0
100
AcDbPoint
 10
269.1715879999999
 20
190.6117489999999
 30
0.0
  0
POINT
  5
336
330
32B
100
AcDbEntity
  8
DEFPOINTS
 62
     0
100
AcDbPoint
 10
223.271816
 20
217.111995
 30
0.0
  0
POINT
  5
337
330
32B
100
AcDbEntity
  8
DEFPOINTS
 62
     0
100
AcDbPoint
 10
223.271816
 20
162.6200409999999
 30
0.0
  0
ENDBLK
  5
339
330
32B
100
AcDbEntity
  8
0
100
AcDbBlockEnd
  0
BLOCK
  5
346
330
33A
100
AcDbEntity
  8
0
100
AcDbBlockBegin
  2
*D25
 70
     1
 10
0.0
 20
0.0
 30
0.0
  3
*D25
  1

  0
LINE
  5
33B
330
33A
100
AcDbEntity
  8
CSLAYER1
 62
     0
100
AcDbLine
 10
361.3281959999998
 20
55.31579599999999
 30
0.0
 11
384.9078560553601
 21
55.31579599999999
 31
0.0
  0
ARC
  5
33C
330
33A
100
AcDbEntity
  8
CSLAYER1
 62
     0
100
AcDbCircle
 10
262.5499669999999
 20
55.31579599999997
 30
0.0
 40
122.1778890553602
100
AcDbArc
 50
0.0844116830368977
 51
22.4086635772638
  0
ARC
  5
33D
330
33A
100
AcDbEntity
  8
CSLAYER1
 62
     0
100
AcDbCircle
 10
262.5499669999999
 20
55.31579599999997
 30
0.0
 40
122.1778890553602
100
AcDbArc
 50
22.59139677271137
 51
44.9155883169631
  0
SOLID
  5
33E
330
33A
100
AcDbEntity
  8
CSLAYER1
 62
     0
100
AcDbTrace
 10
384.757723453671
 20
55.49581805008865
 30
0.0
 11
384.6977234699497
 21
55.49577385223877
 31
0.0
 12
384.7278560553601
 22
55.31579599999995
 32
0.0
 13
384.7278560553601
 23
55.31579599999995
 33
0.0
  0
SOLID
  5
33F
330
33A
100
AcDbEntity
  8
CSLAYER1
 62
     0
100
AcDbTrace
 10
349.0487374664059
 20
141.560039346843
 30
0.0
 11
349.0911951143656
 21
141.602434489604
 31
0.0
 12
348.9427808621026
 22
141.7086098621028
 32
0.0
 13
348.9427808621026
 23
141.7086098621028
 33
0.0
  0
MTEXT
  5
340
330
33A
100
AcDbEntity
  8
CSLAYER1
 62
     0
100
AcDbMText
 10
375.427618023682
 20
102.0712499428262
 30
0.0
 40
0.18
 41
0.0
 71
     5
 72
     1
  1
\A1;45°
1001
ACAD
1000
MTEXTBEGIN
1070
    73
1070
     1
1070
    44
1040
1.0
1070
    74
1070
     0
1000
MTEXTEND
  0
POINT
  5
341
330
33A
100
AcDbEntity
  8
DEFPOINTS
 62
     0
100
AcDbPoint
 10
380.5647454400527
 20
86.93776057795004
 30
0.0
  0
POINT
  5
342
330
33A
100
AcDbEntity
  8
DEFPOINTS
 62
     0
100
AcDbPoint
 10
291.2656959999998
 20
55.31579599999997
 30
0.0
  0
POINT
  5
343
330
33A
100
AcDbEntity
  8
DEFPOINTS
 62
     0
100
AcDbPoint
 10
379.6921339999998
 20
172.4579629999999
 30
0.0
  0
POINT
  5
344
330
33A
100
AcDbEntity
  8
DEFPOINTS
 62
     0
100
AcDbPoint
 10
262.5499669999999
 20
55.31579599999997
 30
0.0
  0
POINT
  5
345
330
33A
100
AcDbEntity
  8
DEFPOINTS
 62
     0
100
AcDbPoint
 10
361.2656959999998
 20
55.31579599999999
 30
0.0
  0
ENDBLK
  5
347
330
33A
100
AcDbEntity
  8
0
100
AcDbBlockEnd
  0
ENDSEC
  0
SECTION
  2
ENTITIES
  0
POINT
  5
12A
330
1E
100
AcDbEntity
  8
CSLAYER1
 62
     3
100
AcDbPoint
 10
10.0
 20
3.0
 30
0.0
  0
POINT
  5
12B
330
1E
100
AcDbEntity
  8
CSLAYER1
 62
     3
100
AcDbPoint
 10
365.5
 20
20.5
 30
0.0
  0
LINE
  5
12C
330
1E
100
AcDbEntity
  8
CSLAYER1
  6
CENTER
 62
     4
100
AcDbLine
 10
107.2982729999999
 20
256.0750829999999
 30
0.0
 11
107.2982729999999
 21
151.003297
 31
0.0
  0
LINE
  5
12D
330
1E
100
AcDbEntity
  8
CSLAYER1
  6
CONTINUOUS
 62
     3
100
AcDbLine
 10
67.298273
 20
145.111995
 30
0.0
 11
67.298273
 21
237.111995
 31
0.0
  0
LINE
  5
12E
330
1E
100
AcDbEntity
  8
CSLAYER1
  6
CONTINUOUS
 62
     3
100
AcDbLine
 10
67.298273
 20
157.111995
 30
0.0
 11
147.298273
 21
157.111995
 31
0.0
  0
LINE
  5
12F
330
1E
100
AcDbEntity
  8
CSLAYER1
  6
CONTINUOUS
 62
     3
100
AcDbLine
 10
64.29827299999999
 20
237.111995
 30
0.0
 11
96.298273
 21
237.111995
 31
0.0
  0
LINE
  5
130
330
1E
100
AcDbEntity
  8
CSLAYER1
  6
CONTINUOUS
 62
     3
100
AcDbLine
 10
96.298273
 20
252.111995
 30
0.0
 11
106.2982729999999
 21
252.111995
 31
0.0
  0
LINE
  5
131
330
1E
100
AcDbEntity
  8
CSLAYER1
  6
CONTINUOUS
 62
     3
100
AcDbLine
 10
108.2982729999999
 20
252.111995
 30
0.0
 11
108.2982729999999
 21
225.0941319999999
 31
0.0
  0
LINE
  5
132
330
1E
100
AcDbEntity
  8
CSLAYER1
  6
CONTINUOUS
 62
     3
100
AcDbLine
 10
106.2982729999999
 20
252.111995
 30
0.0
 11
106.2982729999999
 21
225.0941319999999
 31
0.0
  0
LINE
  5
133
330
1E
100
AcDbEntity
  8
CSLAYER1
  6
CONTINUOUS
 62
     3
100
AcDbLine
 10
118.2982729999999
 20
252.111995
 30
0.0
 11
118.2982729999999
 21
237.111995
 31
0.0
  0
LINE
  5
134
330
1E
100
AcDbEntity
  8
CSLAYER1
  6
CONTINUOUS
 62
     3
100
AcDbLine
 10
96.298273
 20
252.111995
 30
0.0
 11
96.298273
 21
237.111995
 31
0.0
  0
LINE
  5
135
330
1E
100
AcDbEntity
  8
CSLAYER1
  6
CONTINUOUS
 62
     3
100
AcDbLine
 10
108.2982729999999
 20
252.111995
 30
0.0
 11
118.2982729999999
 21
252.111995
 31
0.0
  0
LINE
  5
136
330
1E
100
AcDbEntity
  8
CSLAYER1
  6
CENTER
 62
     4
100
AcDbLine
 10
92.593291
 20
244.6119949999999
 30
0.0
 11
126.4108659999999
 21
244.6119949999999
 31
0.0
  0
LINE
  5
137
330
1E
100
AcDbEntity
  8
CSLAYER1
  6
DASHED
 62
     4
100
AcDbLine
 10
108.2982729999999
 20
247.311995
 30
0.0
 11
118.2982729999999
 21
247.311995
 31
0.0
  0
LINE
  5
138
330
1E
100
AcDbEntity
  8
CSLAYER1
  6
DASHED
 62
     4
100
AcDbLine
 10
108.2982729999999
 20
241.911995
 30
0.0
 11
118.2982729999999
 21
241.911995
 31
0.0
  0
LINE
  5
139
330
1E
100
AcDbEntity
  8
CSLAYER1
  6
DASHED
 62
     4
100
AcDbLine
 10
118.2982729999999
 20
242.111995
 30
0.0
 11
108.2982729999999
 21
242.111995
 31
0.0
  0
LINE
  5
13A
330
1E
100
AcDbEntity
  8
CSLAYER1
  6
DASHED
 62
     4
100
AcDbLine
 10
118.2982729999999
 20
242.511995
 30
0.0
 11
108.2982729999999
 21
242.511995
 31
0.0
  0
LINE
  5
13B
330
1E
100
AcDbEntity
  8
CSLAYER1
  6
DASHED
 62
     4
100
AcDbLine
 10
118.2982729999999
 20
247.111995
 30
0.0
 11
108.2982729999999
 21
247.111995
 31
0.0
  0
LINE
  5
13C
330
1E
100
AcDbEntity
  8
CSLAYER1
  6
DASHED
 62
     4
100
AcDbLine
 10
118.2982729999999
 20
246.711995
 30
0.0
 11
108.2982729999999
 21
246.711995
 31
0.0
  0
LINE
  5
13D
330
1E
100
AcDbEntity
  8
CSLAYER1
  6
DASHED
 62
     4
100
AcDbLine
 10
106.2982729999999
 20
247.111995
 30
0.0
 11
96.298273
 21
247.111995
 31
0.0
  0
LINE
  5
13E
330
1E
100
AcDbEntity
  8
CSLAYER1
  6
DASHED
 62
     4
100
AcDbLine
 10
106.2982729999999
 20
246.711995
 30
0.0
 11
96.298273
 21
246.711995
 31
0.0
  0
LINE
  5
13F
330
1E
100
AcDbEntity
  8
CSLAYER1
  6
DASHED
 62
     4
100
AcDbLine
 10
106.2982729999999
 20
242.511995
 30
0.0
 11
96.298273
 21
242.511995
 31
0.0
  0
LINE
  5
140
330
1E
100
AcDbEntity
  8
CSLAYER1
  6
DASHED
 62
     4
100
AcDbLine
 10
106.2982729999999
 20
242.111995
 30
0.0
 11
96.298273
 21
242.111995
 31
0.0
  0
LINE
  5
141
330
1E
100
AcDbEntity
  8
CSLAYER1
  6
CONTINUOUS
 62
     3
100
AcDbLine
 10
108.2982729999999
 20
242.111995
 30
0.0
 11
106.2982729999999
 21
242.111995
 31
0.0
  0
LINE
  5
142
330
1E
100
AcDbEntity
  8
CSLAYER1
  6
CONTINUOUS
 62
     4
100
AcDbLine
 10
108.2982729999999
 20
242.511995
 30
0.0
 11
106.2982729999999
 21
242.511995
 31
0.0
  0
LINE
  5
143
330
1E
100
AcDbEntity
  8
CSLAYER1
  6
CONTINUOUS
 62
     4
100
AcDbLine
 10
108.2982729999999
 20
246.711995
 30
0.0
 11
106.2982729999999
 21
246.711995
 31
0.0
  0
LINE
  5
144
330
1E
100
AcDbEntity
  8
CSLAYER1
  6
CONTINUOUS
 62
     3
100
AcDbLine
 10
108.2982729999999
 20
247.111995
 30
0.0
 11
106.2982729999999
 21
247.111995
 31
0.0
  0
LINE
  5
145
330
1E
100
AcDbEntity
  8
CSLAYER1
  6
CENTER
 62
     4
100
AcDbLine
 10
85.484734
 20
177.111995
 30
0.0
 11
53.14097
 21
177.111995
 31
0.0
  0
LINE
  5
146
330
1E
100
AcDbEntity
  8
CSLAYER1
  6
CENTER
 62
     4
100
AcDbLine
 10
85.484734
 20
217.111995
 30
0.0
 11
53.14097
 21
217.111995
 31
0.0
  0
LINE
  5
147
330
1E
100
AcDbEntity
  8
CSLAYER1
  6
DASHED
 62
     4
100
AcDbLine
 10
230.7718159999999
 20
237.111995
 30
0.0
 11
230.7718159999999
 21
180.8801019999999
 31
0.0
  0
LINE
  5
148
330
1E
100
AcDbEntity
  8
CSLAYER1
  6
CONTINUOUS
 62
     3
100
AcDbLine
 10
230.7718159999999
 20
252.111995
 30
0.0
 11
215.7718159999999
 21
252.111995
 31
0.0
  0
LINE
  5
149
330
1E
100
AcDbEntity
  8
CSLAYER1
  6
CONTINUOUS
 62
     3
100
AcDbLine
 10
215.7718159999999
 20
237.111995
 30
0.0
 11
245.2718159999999
 21
237.111995
 31
0.0
  0
LINE
  5
14A
330
1E
100
AcDbEntity
  8
CSLAYER1
  6
CENTER
 62
     4
100
AcDbLine
 10
236.415695
 20
177.111995
 30
0.0
 11
210.5840979999999
 21
177.111995
 31
0.0
  0
LINE
  5
14B
330
1E
100
AcDbEntity
  8
CSLAYER1
  6
CENTER
 62
     4
100
AcDbLine
 10
235.113261
 20
217.111995
 30
0.0
 11
211.018242
 21
217.111995
 31
0.0
  0
LINE
  5
14C
330
1E
100
AcDbEntity
  8
CSLAYER1
  6
CENTER
 62
     4
100
AcDbLine
 10
223.271816
 20
162.6200409999999
 30
0.0
 11
223.271816
 21
257.8070349999999
 31
0.0
  0
LINE
  5
14D
330
1E
100
AcDbEntity
  8
CSLAYER1
  6
CENTER
 62
     4
100
AcDbLine
 10
233.8108279999999
 20
244.6119949999999
 30
0.0
 11
212.971893
 21
244.6119949999999
 31
0.0
  0
CIRCLE
  5
14E
330
1E
100
AcDbEntity
  8
CSLAYER1
  6
CONTINUOUS
 62
     3
100
AcDbCircle
 10
223.271816
 20
244.6119949999999
 30
0.0
 40
4.25
  0
CIRCLE
  5
14F
330
1E
100
AcDbEntity
  8
CSLAYER1
  6
CONTINUOUS
 62
     3
100
AcDbCircle
 10
223.271816
 20
244.6119949999999
 30
0.0
 40
3.730385
  0
LINE
  5
150
330
1E
100
AcDbEntity
  8
CSLAYER1
  6
CONTINUOUS
 62
     3
100
AcDbLine
 10
222.117116
 20
242.6119949999999
 30
0.0
 11
224.4265169999999
 21
242.6119949999999
 31
0.0
  0
LINE
  5
151
330
1E
100
AcDbEntity
  8
CSLAYER1
  6
CONTINUOUS
 62
     3
100
AcDbLine
 10
220.9624149999999
 20
244.6119949999999
 30
0.0
 11
222.117116
 21
242.6119949999999
 31
0.0
  0
LINE
  5
152
330
1E
100
AcDbEntity
  8
CSLAYER1
  6
CONTINUOUS
 62
     3
100
AcDbLine
 10
222.117116
 20
246.6119949999999
 30
0.0
 11
220.9624149999999
 21
244.6119949999999
 31
0.0
  0
LINE
  5
153
330
1E
100
AcDbEntity
  8
CSLAYER1
  6
CONTINUOUS
 62
     3
100
AcDbLine
 10
224.4265169999999
 20
246.6119949999999
 30
0.0
 11
222.117116
 21
246.6119949999999
 31
0.0
  0
LINE
  5
154
330
1E
100
AcDbEntity
  8
CSLAYER1
  6
CONTINUOUS
 62
     3
100
AcDbLine
 10
225.5812179999999
 20
244.6119949999999
 30
0.0
 11
224.4265169999999
 21
246.6119949999999
 31
0.0
  0
LINE
  5
155
330
1E
100
AcDbEntity
  8
CSLAYER1
  6
CONTINUOUS
 62
     3
100
AcDbLine
 10
224.4265169999999
 20
242.6119949999999
 30
0.0
 11
225.5812179999999
 21
244.6119949999999
 31
0.0
  0
CIRCLE
  5
156
330
1E
100
AcDbEntity
  8
CSLAYER1
  6
CONTINUOUS
 62
     3
100
AcDbCircle
 10
223.271816
 20
217.111995
 30
0.0
 40
4.25
  0
CIRCLE
  5
157
330
1E
100
AcDbEntity
  8
CSLAYER1
  6
CONTINUOUS
 62
     3
100
AcDbCircle
 10
223.271816
 20
217.111995
 30
0.0
 40
3.730385
  0
LINE
  5
158
330
1E
100
AcDbEntity
  8
CSLAYER1
  6
CONTINUOUS
 62
     3
100
AcDbLine
 10
222.117116
 20
215.111995
 30
0.0
 11
224.4265169999999
 21
215.111995
 31
0.0
  0
LINE
  5
159
330
1E
100
AcDbEntity
  8
CSLAYER1
  6
CONTINUOUS
 62
     3
100
AcDbLine
 10
220.9624149999999
 20
217.111995
 30
0.0
 11
222.117116
 21
215.111995
 31
0.0
  0
LINE
  5
15A
330
1E
100
AcDbEntity
  8
CSLAYER1
  6
CONTINUOUS
 62
     3
100
AcDbLine
 10
222.117116
 20
219.111995
 30
0.0
 11
220.9624149999999
 21
217.111995
 31
0.0
  0
LINE
  5
15B
330
1E
100
AcDbEntity
  8
CSLAYER1
  6
CONTINUOUS
 62
     3
100
AcDbLine
 10
224.4265169999999
 20
219.111995
 30
0.0
 11
222.117116
 21
219.111995
 31
0.0
  0
LINE
  5
15C
330
1E
100
AcDbEntity
  8
CSLAYER1
  6
CONTINUOUS
 62
     3
100
AcDbLine
 10
225.5812179999999
 20
217.111995
 30
0.0
 11
224.4265169999999
 21
219.111995
 31
0.0
  0
LINE
  5
15D
330
1E
100
AcDbEntity
  8
CSLAYER1
  6
CONTINUOUS
 62
     3
100
AcDbLine
 10
224.4265169999999
 20
215.111995
 30
0.0
 11
225.5812179999999
 21
217.111995
 31
0.0
  0
CIRCLE
  5
15E
330
1E
100
AcDbEntity
  8
CSLAYER1
  6
CONTINUOUS
 62
     3
100
AcDbCircle
 10
223.271816
 20
177.111995
 30
0.0
 40
4.25
  0
CIRCLE
  5
15F
330
1E
100
AcDbEntity
  8
CSLAYER1
  6
CONTINUOUS
 62
     3
100
AcDbCircle
 10
223.271816
 20
177.111995
 30
0.0
 40
3.730385
  0
LINE
  5
160
330
1E
100
AcDbEntity
  8
CSLAYER1
  6
CONTINUOUS
 62
     3
100
AcDbLine
 10
222.117116
 20
175.111995
 30
0.0
 11
224.4265169999999
 21
175.111995
 31
0.0
  0
LINE
  5
161
330
1E
100
AcDbEntity
  8
CSLAYER1
  6
CONTINUOUS
 62
     3
100
AcDbLine
 10
220.9624149999999
 20
177.111995
 30
0.0
 11
222.117116
 21
175.111995
 31
0.0
  0
LINE
  5
162
330
1E
100
AcDbEntity
  8
CSLAYER1
  6
CONTINUOUS
 62
     3
100
AcDbLine
 10
222.117116
 20
179.111995
 30
0.0
 11
220.9624149999999
 21
177.111995
 31
0.0
  0
LINE
  5
163
330
1E
100
AcDbEntity
  8
CSLAYER1
  6
CONTINUOUS
 62
     3
100
AcDbLine
 10
224.4265169999999
 20
179.111995
 30
0.0
 11
222.117116
 21
179.111995
 31
0.0
  0
LINE
  5
164
330
1E
100
AcDbEntity
  8
CSLAYER1
  6
CONTINUOUS
 62
     3
100
AcDbLine
 10
225.5812179999999
 20
177.111995
 30
0.0
 11
224.4265169999999
 21
179.111995
 31
0.0
  0
LINE
  5
165
330
1E
100
AcDbEntity
  8
CSLAYER1
  6
CONTINUOUS
 62
     3
100
AcDbLine
 10
224.4265169999999
 20
175.111995
 30
0.0
 11
225.5812179999999
 21
177.111995
 31
0.0
  0
LINE
  5
166
330
1E
100
AcDbEntity
  8
CSLAYER1
  6
CONTINUOUS
 62
     3
100
AcDbLine
 10
205.2718159999999
 20
142.111995
 30
0.0
 11
275.271816
 21
142.111995
 31
0.0
  0
LINE
  5
167
330
1E
100
AcDbEntity
  8
CSLAYER1
  6
CONTINUOUS
 62
     3
100
AcDbLine
 10
205.2718159999999
 20
145.111995
 30
0.0
 11
275.271816
 21
145.111995
 31
0.0
  0
LINE
  5
168
330
1E
100
AcDbEntity
  8
CSLAYER1
  6
CONTINUOUS
 62
     3
100
AcDbLine
 10
205.2718159999999
 20
142.111995
 30
0.0
 11
205.2718159999999
 21
222.111995
 31
0.0
  0
ARC
  5
169
330
1E
100
AcDbEntity
  8
CSLAYER1
  6
CENTER
 62
     4
100
AcDbCircle
 10
223.271816
 20
217.111995
 30
0.0
 40
40.0
100
AcDbArc
 50
270.0
 51
337.1874439999998
  0
LINE
  5
16A
330
1E
100
AcDbEntity
  8
CSLAYER1
  6
CENTER
 62
     4
100
AcDbLine
 10
213.4150529999998
 20
222.8028
 30
0.0
 11
269.1715879999999
 21
190.6117489999999
 31
0.0
  0
ARC
  5
16B
330
1E
100
AcDbEntity
  8
CSLAYER1
  6
DASHED
 62
     4
100
AcDbCircle
 10
223.271816
 20
217.111995
 30
0.0
 40
37.0
100
AcDbArc
 50
274.4846299999999
 51
278.427266
  0
ARC
  5
16C
330
1E
100
AcDbEntity
  8
CSLAYER1
  6
DASHED
 62
     4
100
AcDbCircle
 10
223.271816
 20
217.111995
 30
0.0
 40
43.0
100
AcDbArc
 50
274.159851
 51
277.8162529999999
  0
ARC
  5
16D
330
1E
100
AcDbEntity
  8
CSLAYER1
  6
CONTINUOUS
 62
     3
100
AcDbCircle
 10
257.912833
 20
197.111995
 30
0.0
 40
3.0
100
AcDbArc
 50
330.0
 51
150.0
  0
LINE
  5
16E
330
1E
100
AcDbEntity
  8
CSLAYER1
  6
CONTINUOUS
 62
     3
100
AcDbLine
 10
275.271816
 20
142.111995
 30
0.0
 11
275.271816
 21
207.1119949999999
 31
0.0
  0
LINE
  5
16F
330
1E
100
AcDbEntity
  8
CSLAYER1
  6
CONTINUOUS
 62
     3
100
AcDbLine
 10
215.7718159999999
 20
232.611995
 30
0.0
 11
215.7718159999999
 21
252.111995
 31
0.0
  0
LINE
  5
170
330
1E
100
AcDbEntity
  8
CSLAYER1
  6
CONTINUOUS
 62
     3
100
AcDbLine
 10
230.7718159999999
 20
237.111995
 30
0.0
 11
230.7718159999999
 21
252.111995
 31
0.0
  0
LINE
  5
171
330
1E
100
AcDbEntity
  8
CSLAYER1
  6
DASHED
 62
     4
100
AcDbLine
 10
215.7718159999999
 20
157.111995
 30
0.0
 11
215.7718159999999
 21
232.611995
 31
0.0
  0
LINE
  5
172
330
1E
100
AcDbEntity
  8
CSLAYER1
  6
CONTINUOUS
 62
     3
100
AcDbLine
 10
230.7718159999999
 20
174.7711159999999
 30
0.0
 11
230.7718159999999
 21
180.8801019999999
 31
0.0
  0
LINE
  5
173
330
1E
100
AcDbEntity
  8
CSLAYER1
  6
CONTINUOUS
 62
     3
100
AcDbLine
 10
64.29827299999999
 20
237.111995
 30
0.0
 11
64.29827299999999
 21
145.111995
 31
0.0
  0
LINE
  5
174
330
1E
100
AcDbEntity
  8
CSLAYER1
  6
CONTINUOUS
 62
     3
100
AcDbLine
 10
64.29827299999999
 20
142.111995
 30
0.0
 11
42.29827299999999
 21
142.111995
 31
0.0
  0
LINE
  5
175
330
1E
100
AcDbEntity
  8
CSLAYER1
  6
CONTINUOUS
 62
     3
100
AcDbLine
 10
64.29827299999999
 20
145.111995
 30
0.0
 11
42.29827299999999
 21
145.111995
 31
0.0
  0
LINE
  5
176
330
1E
100
AcDbEntity
  8
CSLAYER1
  6
CONTINUOUS
 62
     3
100
AcDbLine
 10
42.29827299999999
 20
145.111995
 30
0.0
 11
42.29827299999999
 21
142.111995
 31
0.0
  0
LINE
  5
177
330
1E
100
AcDbEntity
  8
CSLAYER1
  6
CONTINUOUS
 62
     3
100
AcDbLine
 10
42.29827299999999
 20
45.90905
 30
0.0
 11
67.298273
 21
45.90905
 31
0.0
  0
LINE
  5
178
330
1E
100
AcDbEntity
  8
CSLAYER1
  6
CONTINUOUS
 62
     3
100
AcDbLine
 10
42.29827299999999
 20
115.90905
 30
0.0
 11
67.298273
 21
115.90905
 31
0.0
  0
LINE
  5
179
330
1E
100
AcDbEntity
  8
CSLAYER1
  6
CONTINUOUS
 62
     3
100
AcDbLine
 10
42.29827299999999
 20
45.90905
 30
0.0
 11
42.29827299999999
 21
115.90905
 31
0.0
  0
LINE
  5
17A
330
1E
100
AcDbEntity
  8
CSLAYER1
  6
CONTINUOUS
 62
     3
100
AcDbLine
 10
172.298273
 20
45.90905
 30
0.0
 11
172.298273
 21
115.90905
 31
0.0
  0
LINE
  5
17B
330
1E
100
AcDbEntity
  8
CSLAYER1
  6
CONTINUOUS
 62
     3
100
AcDbLine
 10
147.298273
 20
45.90905
 30
0.0
 11
147.298273
 21
115.90905
 31
0.0
  0
LINE
  5
17C
330
1E
100
AcDbEntity
  8
CSLAYER1
  6
CONTINUOUS
 62
     3
100
AcDbLine
 10
67.298273
 20
45.90905
 30
0.0
 11
67.298273
 21
115.90905
 31
0.0
  0
LINE
  5
17D
330
1E
100
AcDbEntity
  8
CSLAYER1
  6
CONTINUOUS
 62
     3
100
AcDbLine
 10
67.298273
 20
105.40905
 30
0.0
 11
147.298273
 21
105.40905
 31
0.0
  0
LINE
  5
17E
330
1E
100
AcDbEntity
  8
CSLAYER1
  6
CONTINUOUS
 62
     3
100
AcDbLine
 10
67.298273
 20
90.40905
 30
0.0
 11
147.298273
 21
90.40905
 31
0.0
  0
LINE
  5
17F
330
1E
100
AcDbEntity
  8
CSLAYER1
  6
CONTINUOUS
 62
     3
100
AcDbLine
 10
147.298273
 20
45.90905
 30
0.0
 11
172.298273
 21
45.90905
 31
0.0
  0
LINE
  5
180
330
1E
100
AcDbEntity
  8
CSLAYER1
  6
CONTINUOUS
 62
     3
100
AcDbLine
 10
147.298273
 20
115.90905
 30
0.0
 11
172.298273
 21
115.90905
 31
0.0
  0
LINE
  5
181
330
1E
100
AcDbEntity
  8
CSLAYER1
  6
CENTER
 62
     4
100
AcDbLine
 10
107.2982729999999
 20
37.655291
 30
0.0
 11
107.2982729999999
 21
124.646326
 31
0.0
  0
LINE
  5
182
330
1E
100
AcDbEntity
  8
CSLAYER1
  6
CENTER
 62
     4
100
AcDbLine
 10
163.2982729999999
 20
38.06477499999999
 30
0.0
 11
163.2982729999999
 21
120.792973
 31
0.0
  0
LINE
  5
183
330
1E
100
AcDbEntity
  8
CSLAYER1
  6
DASHED
 62
     4
100
AcDbLine
 10
150.298273
 20
45.90905
 30
0.0
 11
150.298273
 21
115.90905
 31
0.0
  0
LINE
  5
184
330
1E
100
AcDbEntity
  8
CSLAYER1
  6
CENTER
 62
     4
100
AcDbLine
 10
51.29827299999998
 20
38.06477499999999
 30
0.0
 11
51.29827299999998
 21
120.792973
 31
0.0
  0
LINE
  5
185
330
1E
100
AcDbEntity
  8
CSLAYER1
  6
DASHED
 62
     4
100
AcDbLine
 10
64.29827299999999
 20
45.90905
 30
0.0
 11
64.29827299999999
 21
115.90905
 31
0.0
  0
LINE
  5
186
330
1E
100
AcDbEntity
  8
CSLAYER1
  6
CENTER
 62
     4
100
AcDbLine
 10
51.29827299999998
 20
151.069917
 30
0.0
 11
51.29827299999998
 21
138.8665449999999
 31
0.0
  0
LINE
  5
187
330
1E
100
AcDbEntity
  8
CSLAYER1
  6
CENTER
 62
     4
100
AcDbLine
 10
250.943985
 20
197.111995
 30
0.0
 11
200.543985
 21
197.111995
 31
0.0
  0
LINE
  5
188
330
1E
100
AcDbEntity
  8
CSLAYER1
  6
DASHED
 62
     4
100
AcDbLine
 10
230.7718159999999
 20
174.7711159999999
 30
0.0
 11
230.7718159999999
 21
157.111995
 31
0.0
  0
LINE
  5
189
330
1E
100
AcDbEntity
  8
CSLAYER1
  6
CONTINUOUS
 62
     3
100
AcDbLine
 10
245.2718159999999
 20
237.111995
 30
0.0
 11
275.271816
 21
207.1119949999999
 31
0.0
  0
LINE
  5
18A
330
1E
100
AcDbEntity
  8
CSLAYER1
  6
CENTER
 62
     4
100
AcDbLine
 10
60.886936
 20
197.111995
 30
0.0
 11
155.567007
 21
197.111995
 31
0.0
  0
DIMENSION
  5
18B
330
1E
100
AcDbEntity
  8
CSLAYER1
 62
     4
100
AcDbDimension
  2
*D0
 10
51.29827299999998
 20
127.8087219999999
 30
0.0
 11
46.79827099999999
 21
128.308716
 31
0.0
100
AcDbAlignedDimension
 13
42.29827299999999
 23
115.90905
 33
0.0
 14
51.29827299999998
 24
120.792973
 34
0.0
100
AcDbRotatedDimension
  0
DIMENSION
  5
18C
330
1E
100
AcDbEntity
  8
CSLAYER1
 62
     4
100
AcDbDimension
  2
*D1
 10
172.298273
 20
133.808722
 30
0.0
 11
107.298271
 21
134.308716
 31
0.0
 70
     1
100
AcDbAlignedDimension
 13
42.29827299999999
 23
115.90905
 33
0.0
 14
172.298273
 24
115.90905
 34
0.0
  0
DIMENSION
  5
18D
330
1E
100
AcDbEntity
  8
CSLAYER1
 62
     4
100
AcDbDimension
  2
*D2
 10
172.298273
 20
127.8087219999999
 30
0.0
 11
167.798279
 21
128.308716
 31
0.0
100
AcDbAlignedDimension
 13
163.2982729999999
 23
120.792973
 33
0.0
 14
172.298273
 24
115.90905
 34
0.0
100
AcDbRotatedDimension
  0
DIMENSION
  5
18E
330
1E
100
AcDbEntity
  8
CSLAYER1
 62
     4
100
AcDbDimension
  2
*D3
 10
163.2982729999999
 20
127.8087219999999
 30
0.0
 11
107.298271
 21
128.308716
 31
0.0
 70
     1
100
AcDbAlignedDimension
 13
51.29827299999998
 23
120.792973
 33
0.0
 14
163.2982729999999
 24
120.792973
 34
0.0
  0
DIMENSION
  5
18F
330
1E
100
AcDbEntity
  8
CSLAYER1
 62
     4
100
AcDbDimension
  2
*D4
 10
67.298273
 20
259.88948
 30
0.0
 11
54.798271
 21
260.3894649999999
 31
0.0
100
AcDbAlignedDimension
 13
42.29827299999999
 23
145.111995
 33
0.0
 14
67.298273
 24
237.111995
 34
0.0
100
AcDbRotatedDimension
  0
DIMENSION
  5
190
330
1E
100
AcDbEntity
  8
CSLAYER1
 62
     4
100
AcDbDimension
  2
*D5
 10
172.298273
 20
265.88948
 30
0.0
 11
107.298271
 21
266.3894959999999
 31
0.0
 70
     1
100
AcDbAlignedDimension
 13
42.29827299999999
 23
145.111995
 33
0.0
 14
172.298273
 24
145.111995
 34
0.0
  0
DIMENSION
  5
191
330
1E
100
AcDbEntity
  8
CSLAYER1
 62
     4
100
AcDbDimension
  2
*D6
 10
172.298273
 20
259.88948
 30
0.0
 11
159.798279
 21
260.3894649999999
 31
0.0
100
AcDbAlignedDimension
 13
147.298273
 23
237.111995
 33
0.0
 14
172.298273
 24
145.111995
 34
0.0
100
AcDbRotatedDimension
  0
DIMENSION
  5
192
330
1E
100
AcDbEntity
  8
CSLAYER1
 62
     4
100
AcDbDimension
  2
*D7
 10
147.298273
 20
259.88948
 30
0.0
 11
107.298271
 21
260.3894649999999
 31
0.0
 70
     1
100
AcDbAlignedDimension
 13
67.298273
 23
237.111995
 33
0.0
 14
147.298273
 24
237.111995
 34
0.0
  0
DIMENSION
  5
193
330
1E
100
AcDbEntity
  8
CSLAYER1
 62
     4
100
AcDbDimension
  2
*D8
 10
230.7718159999999
 20
264.803739
 30
0.0
 11
223.271835
 21
265.303741
 31
0.0
 70
     1
100
AcDbAlignedDimension
 13
215.7718159999999
 23
252.111995
 33
0.0
 14
230.7718159999999
 24
252.111995
 34
0.0
  0
DIMENSION
  5
194
330
1E
100
AcDbEntity
  8
CSLAYER1
 62
     4
100
AcDbDimension
  2
*D9
 10
275.271816
 20
264.803739
 30
0.0
 11
253.021835
 21
265.303741
 31
0.0
100
AcDbAlignedDimension
 13
230.7718159999999
 23
252.111995
 33
0.0
 14
275.271816
 24
207.1119949999999
 34
0.0
100
AcDbRotatedDimension
  0
DIMENSION
  5
195
330
1E
100
AcDbEntity
  8
CSLAYER1
 62
     4
100
AcDbDimension
  2
*D10
 10
215.7718159999999
 20
264.803739
 30
0.0
 11
197.8718259999999
 21
265.303741
 31
0.0
100
AcDbAlignedDimension
 13
205.2718159999999
 23
222.111995
 33
0.0
 14
215.7718159999999
 24
252.111995
 34
0.0
100
AcDbRotatedDimension
  0
ARC
  5
197
330
1E
100
AcDbEntity
  8
CSLAYER1
  6
CONTINUOUS
 62
     3
100
AcDbCircle
 10
107.2982729999999
 20
197.111995
 30
0.0
 40
28.0
100
AcDbArc
 50
92.04671300000002
 51
87.953287
  0
LINE
  5
198
330
1E
100
AcDbEntity
  8
CSLAYER1
  6
CONTINUOUS
 62
     3
100
AcDbLine
 10
147.298273
 20
145.111995
 30
0.0
 11
147.298273
 21
237.111995
 31
0.0
  0
LINE
  5
199
330
1E
100
AcDbEntity
  8
CSLAYER1
  6
CONTINUOUS
 62
     3
100
AcDbLine
 10
150.298273
 20
237.111995
 30
0.0
 11
118.2982729999999
 21
237.111995
 31
0.0
  0
LINE
  5
19A
330
1E
100
AcDbEntity
  8
CSLAYER1
  6
CONTINUOUS
 62
     3
100
AcDbLine
 10
150.298273
 20
237.111995
 30
0.0
 11
150.298273
 21
145.111995
 31
0.0
  0
LINE
  5
19B
330
1E
100
AcDbEntity
  8
CSLAYER1
  6
CONTINUOUS
 62
     3
100
AcDbLine
 10
150.298273
 20
142.111995
 30
0.0
 11
172.298273
 21
142.111995
 31
0.0
  0
LINE
  5
19C
330
1E
100
AcDbEntity
  8
CSLAYER1
  6
CONTINUOUS
 62
     3
100
AcDbLine
 10
150.298273
 20
145.111995
 30
0.0
 11
172.298273
 21
145.111995
 31
0.0
  0
LINE
  5
19D
330
1E
100
AcDbEntity
  8
CSLAYER1
  6
CONTINUOUS
 62
     3
100
AcDbLine
 10
172.298273
 20
145.111995
 30
0.0
 11
172.298273
 21
142.111995
 31
0.0
  0
LINE
  5
19E
330
1E
100
AcDbEntity
  8
CSLAYER1
  6
CENTER
 62
     4
100
AcDbLine
 10
163.2982729999999
 20
151.069917
 30
0.0
 11
163.2982729999999
 21
138.8665449999999
 31
0.0
  0
LINE
  5
19F
330
1E
100
AcDbEntity
  8
CSLAYER1
  6
CENTER
 62
     4
100
AcDbLine
 10
129.111811
 20
177.111995
 30
0.0
 11
161.455576
 21
177.111995
 31
0.0
  0
LINE
  5
1A0
330
1E
100
AcDbEntity
  8
CSLAYER1
  6
CENTER
 62
     4
100
AcDbLine
 10
129.111811
 20
217.111995
 30
0.0
 11
161.455576
 21
217.111995
 31
0.0
  0
DIMENSION
  5
1A1
330
1E
100
AcDbEntity
  8
CSLAYER1
 62
     4
100
AcDbDimension
  2
*D12
 10
126.441484
 20
217.5457269999998
 30
0.0
 11
97.361778
 21
187.236969
 31
0.0
 70
     3
100
AcDbDiametricDimension
 15
88.155061
 25
176.678262
 35
0.0
 40
0.0
  0
LINE
  5
1A2
330
1E
100
AcDbEntity
  8
CSLAYER1
  6
DASHED
 62
     4
100
AcDbLine
 10
303.068997
 20
147.119097
 30
0.0
 11
340.188814
 21
109.99928
 31
0.0
  0
LINE
  5
1A3
330
1E
100
AcDbEntity
  8
CSLAYER1
  6
CONTINUOUS
 62
     3
100
AcDbLine
 10
289.82026
 20
160.367834
 30
0.0
 11
279.213658
 21
149.7612319999998
 31
0.0
  0
LINE
  5
1A4
330
1E
100
AcDbEntity
  8
CSLAYER1
  6
CONTINUOUS
 62
     3
100
AcDbLine
 10
306.2656959999998
 20
150.315796
 30
0.0
 11
331.2656959999998
 21
150.315796
 31
0.0
  0
LINE
  5
1A5
330
1E
100
AcDbEntity
  8
CSLAYER1
  6
CENTER
 62
     4
100
AcDbLine
 10
321.107141
 20
130.315796
 30
0.0
 11
297.012122
 21
130.315796
 31
0.0
  0
LINE
  5
1A6
330
1E
100
AcDbEntity
  8
CSLAYER1
  6
CENTER
 62
     4
100
AcDbLine
 10
347.797326
 20
91.784166
 30
0.0
 11
280.4899569999999
 21
159.091535
 31
0.0
  0
LINE
  5
1A7
330
1E
100
AcDbEntity
  8
CSLAYER1
  6
CENTER
 62
     4
100
AcDbLine
 10
297.272466
 20
157.2134389999999
 30
0.0
 11
282.537114
 21
142.478086
 31
0.0
  0
CIRCLE
  5
1A8
330
1E
100
AcDbEntity
  8
CSLAYER1
  6
CONTINUOUS
 62
     3
100
AcDbCircle
 10
289.82026
 20
149.7612319999998
 30
0.0
 40
4.25
  0
LINE
  5
1A9
330
1E
100
AcDbEntity
  8
CSLAYER1
  6
CONTINUOUS
 62
     3
100
AcDbLine
 10
290.417977
 20
147.5305219999999
 30
0.0
 11
292.05097
 21
149.163515
 31
0.0
  0
LINE
  5
1AA
330
1E
100
AcDbEntity
  8
CSLAYER1
  6
CONTINUOUS
 62
     3
100
AcDbLine
 10
288.187267
 20
148.1282389999998
 30
0.0
 11
290.417977
 21
147.5305219999999
 31
0.0
  0
LINE
  5
1AB
330
1E
100
AcDbEntity
  8
CSLAYER1
  6
CONTINUOUS
 62
     3
100
AcDbLine
 10
287.58955
 20
150.3589489999999
 30
0.0
 11
288.187267
 21
148.1282389999998
 31
0.0
  0
LINE
  5
1AC
330
1E
100
AcDbEntity
  8
CSLAYER1
  6
CONTINUOUS
 62
     3
100
AcDbLine
 10
289.222543
 20
151.9919419999999
 30
0.0
 11
287.58955
 21
150.3589489999999
 31
0.0
  0
LINE
  5
1AD
330
1E
100
AcDbEntity
  8
CSLAYER1
  6
CONTINUOUS
 62
     3
100
AcDbLine
 10
291.4532529999998
 20
151.394225
 30
0.0
 11
289.222543
 21
151.9919419999999
 31
0.0
  0
CIRCLE
  5
1AE
330
1E
100
AcDbEntity
  8
CSLAYER1
  6
CONTINUOUS
 62
     3
100
AcDbCircle
 10
309.2656959999998
 20
130.315796
 30
0.0
 40
4.25
  0
CIRCLE
  5
1AF
330
1E
100
AcDbEntity
  8
CSLAYER1
  6
CONTINUOUS
 62
     3
100
AcDbCircle
 10
309.2656959999998
 20
130.315796
 30
0.0
 40
3.730385
  0
LINE
  5
1B0
330
1E
100
AcDbEntity
  8
CSLAYER1
  6
CONTINUOUS
 62
     3
100
AcDbLine
 10
309.8634129999998
 20
128.085086
 30
0.0
 11
311.4964059999998
 21
129.718079
 31
0.0
  0
LINE
  5
1B1
330
1E
100
AcDbEntity
  8
CSLAYER1
  6
CONTINUOUS
 62
     3
100
AcDbLine
 10
307.6327029999998
 20
128.682803
 30
0.0
 11
309.8634129999998
 21
128.085086
 31
0.0
  0
LINE
  5
1B2
330
1E
100
AcDbEntity
  8
CSLAYER1
  6
CONTINUOUS
 62
     3
100
AcDbLine
 10
307.034986
 20
130.913513
 30
0.0
 11
307.6327029999998
 21
128.682803
 31
0.0
  0
LINE
  5
1B3
330
1E
100
AcDbEntity
  8
CSLAYER1
  6
CONTINUOUS
 62
     3
100
AcDbLine
 10
308.667979
 20
132.5465059999999
 30
0.0
 11
307.034986
 21
130.913513
 31
0.0
  0
LINE
  5
1B4
330
1E
100
AcDbEntity
  8
CSLAYER1
  6
CONTINUOUS
 62
     3
100
AcDbLine
 10
310.898689
 20
131.9487889999998
 30
0.0
 11
308.667979
 21
132.5465059999999
 31
0.0
  0
LINE
  5
1B5
330
1E
100
AcDbEntity
  8
CSLAYER1
  6
CONTINUOUS
 62
     3
100
AcDbLine
 10
311.4964059999998
 20
129.718079
 30
0.0
 11
310.898689
 21
131.9487889999998
 31
0.0
  0
CIRCLE
  5
1B6
330
1E
100
AcDbEntity
  8
CSLAYER1
  6
CONTINUOUS
 62
     3
100
AcDbCircle
 10
337.5499669999998
 20
102.031525
 30
0.0
 40
4.25
  0
CIRCLE
  5
1B7
330
1E
100
AcDbEntity
  8
CSLAYER1
  6
CONTINUOUS
 62
     3
100
AcDbCircle
 10
337.5499669999998
 20
102.031525
 30
0.0
 40
3.730385
  0
LINE
  5
1B8
330
1E
100
AcDbEntity
  8
CSLAYER1
  6
CONTINUOUS
 62
     3
100
AcDbLine
 10
338.1476839999999
 20
99.80081400000001
 30
0.0
 11
339.7806779999999
 21
101.4338079999999
 31
0.0
  0
LINE
  5
1B9
330
1E
100
AcDbEntity
  8
CSLAYER1
  6
CONTINUOUS
 62
     3
100
AcDbLine
 10
335.916974
 20
100.398531
 30
0.0
 11
338.1476839999999
 21
99.80081400000001
 31
0.0
  0
LINE
  5
1BA
330
1E
100
AcDbEntity
  8
CSLAYER1
  6
CONTINUOUS
 62
     3
100
AcDbLine
 10
335.319257
 20
102.629241
 30
0.0
 11
335.916974
 21
100.398531
 31
0.0
  0
LINE
  5
1BB
330
1E
100
AcDbEntity
  8
CSLAYER1
  6
CONTINUOUS
 62
     3
100
AcDbLine
 10
336.9522499999998
 20
104.262235
 30
0.0
 11
335.319257
 21
102.629241
 31
0.0
  0
LINE
  5
1BC
330
1E
100
AcDbEntity
  8
CSLAYER1
  6
CONTINUOUS
 62
     3
100
AcDbLine
 10
339.1829609999998
 20
103.664518
 30
0.0
 11
336.9522499999998
 21
104.262235
 31
0.0
  0
LINE
  5
1BD
330
1E
100
AcDbEntity
  8
CSLAYER1
  6
CONTINUOUS
 62
     3
100
AcDbLine
 10
339.7806779999999
 20
101.4338079999999
 30
0.0
 11
339.1829609999998
 21
103.664518
 31
0.0
  0
LINE
  5
1BE
330
1E
100
AcDbEntity
  8
CSLAYER1
  6
CONTINUOUS
 62
     3
100
AcDbLine
 10
291.2656959999998
 20
55.315796
 30
0.0
 11
361.2656959999998
 21
55.315796
 31
0.0
  0
LINE
  5
1BF
330
1E
100
AcDbEntity
  8
CSLAYER1
  6
CONTINUOUS
 62
     3
100
AcDbLine
 10
291.2656959999998
 20
58.315796
 30
0.0
 11
361.2656959999998
 21
58.315796
 31
0.0
  0
LINE
  5
1C0
330
1E
100
AcDbEntity
  8
CSLAYER1
  6
CONTINUOUS
 62
     3
100
AcDbLine
 10
291.2656959999998
 20
55.315796
 30
0.0
 11
291.2656959999998
 21
135.315796
 31
0.0
  0
ARC
  5
1C1
330
1E
100
AcDbEntity
  8
CSLAYER1
  6
CENTER
 62
     4
100
AcDbCircle
 10
309.2656959999998
 20
130.315796
 30
0.0
 40
40.0
100
AcDbArc
 50
259.9926009999999
 51
337.1874439999998
  0
LINE
  5
1C2
330
1E
100
AcDbEntity
  8
CSLAYER1
  6
CENTER
 62
     4
100
AcDbLine
 10
299.4089329999998
 20
136.0066009999999
 30
0.0
 11
355.165468
 21
103.81555
 31
0.0
  0
ARC
  5
1C3
330
1E
100
AcDbEntity
  8
CSLAYER1
  6
CONTINUOUS
 62
     3
100
AcDbCircle
 10
309.2656959999998
 20
130.315796
 30
0.0
 40
37.0
100
AcDbArc
 50
270.0
 51
306.5727339999999
  0
ARC
  5
1C4
330
1E
100
AcDbEntity
  8
CSLAYER1
  6
CONTINUOUS
 62
     3
100
AcDbCircle
 10
309.2656959999998
 20
130.315796
 30
0.0
 40
43.0
100
AcDbArc
 50
270.0
 51
307.183747
  0
ARC
  5
1C5
330
1E
100
AcDbEntity
  8
CSLAYER1
  6
CONTINUOUS
 62
     3
100
AcDbCircle
 10
343.906712
 20
110.3157959999998
 30
0.0
 40
3.0
100
AcDbArc
 50
330.0
 51
150.0
  0
LINE
  5
1C6
330
1E
100
AcDbEntity
  8
CSLAYER1
  6
CONTINUOUS
 62
     3
100
AcDbLine
 10
361.2656959999998
 20
55.315796
 30
0.0
 11
361.2656959999998
 21
120.3157959999999
 31
0.0
  0
LINE
  5
1C7
330
1E
100
AcDbEntity
  8
CSLAYER1
  6
CONTINUOUS
 62
     3
100
AcDbLine
 10
292.462395
 20
136.512495
 30
0.0
 11
279.213658
 21
149.7612319999998
 31
0.0
  0
LINE
  5
1C8
330
1E
100
AcDbEntity
  8
CSLAYER1
  6
CONTINUOUS
 62
     3
100
AcDbLine
 10
303.068997
 20
147.119097
 30
0.0
 11
289.82026
 21
160.367834
 31
0.0
  0
LINE
  5
1C9
330
1E
100
AcDbEntity
  8
CSLAYER1
  6
DASHED
 62
     4
100
AcDbLine
 10
333.901918
 20
95.07297300000001
 30
0.0
 11
346.388802
 21
82.58608800000002
 31
0.0
  0
LINE
  5
1CA
330
1E
100
AcDbEntity
  8
CSLAYER1
  6
CONTINUOUS
 62
     3
100
AcDbLine
 10
344.5085189999998
 20
105.679574
 30
0.0
 11
340.188814
 21
109.99928
 31
0.0
  0
LINE
  5
1CB
330
1E
100
AcDbEntity
  8
CSLAYER1
  6
DASHED
 62
     4
100
AcDbLine
 10
344.5085189999998
 20
105.679574
 30
0.0
 11
356.5292289999998
 21
93.658864
 31
0.0
  0
LINE
  5
1CC
330
1E
100
AcDbEntity
  8
CSLAYER1
  6
CONTINUOUS
 62
     3
100
AcDbLine
 10
331.2656959999998
 20
150.315796
 30
0.0
 11
361.2656959999998
 21
120.3157959999999
 31
0.0
  0
LINE
  5
1CD
330
1E
100
AcDbEntity
  8
CSLAYER1
  6
DASHED
 62
     4
100
AcDbLine
 10
307.851483
 20
61.019331
 30
0.0
 11
361.2656959999998
 21
114.433545
 31
0.0
  0
LINE
  5
1CE
330
1E
100
AcDbEntity
  8
CSLAYER1
  6
CONTINUOUS
 62
     3
100
AcDbLine
 10
386.340335
 20
139.508184
 30
0.0
 11
384.219015
 21
141.629504
 31
0.0
  0
ARC
  5
1CF
330
1E
100
AcDbEntity
  8
CSLAYER1
  6
CONTINUOUS
 62
     3
100
AcDbCircle
 10
385.633229
 20
143.043718
 30
0.0
 40
2.0
100
AcDbArc
 50
135.0
 51
225.0
  0
LINE
  5
1D0
330
1E
100
AcDbEntity
  8
CSLAYER1
  6
CONTINUOUS
 62
     3
100
AcDbLine
 10
384.219015
 20
144.4579309999999
 30
0.0
 11
392.350743
 21
152.589659
 31
0.0
  0
LINE
  5
1D1
330
1E
100
AcDbEntity
  8
CSLAYER1
  6
CONTINUOUS
 62
     3
100
AcDbLine
 10
392.350743
 20
152.589659
 30
0.0
 11
392.350743
 21
154.71098
 31
0.0
  0
LINE
  5
1D2
330
1E
100
AcDbEntity
  8
CSLAYER1
  6
CONTINUOUS
 62
     3
100
AcDbLine
 10
392.350743
 20
154.71098
 30
0.0
 11
361.9451509999998
 21
185.116571
 31
0.0
  0
LINE
  5
1D3
330
1E
100
AcDbEntity
  8
CSLAYER1
  6
CONTINUOUS
 62
     3
100
AcDbLine
 10
361.9451509999998
 20
185.116571
 30
0.0
 11
359.8238309999998
 21
185.116571
 31
0.0
  0
LINE
  5
1D4
330
1E
100
AcDbEntity
  8
CSLAYER1
  6
CONTINUOUS
 62
     3
100
AcDbLine
 10
359.8238309999998
 20
185.116571
 30
0.0
 11
351.6921029999998
 21
176.9848429999999
 31
0.0
  0
ARC
  5
1D5
330
1E
100
AcDbEntity
  8
CSLAYER1
  6
CONTINUOUS
 62
     3
100
AcDbCircle
 10
350.27789
 20
178.399057
 30
0.0
 40
2.0
100
AcDbArc
 50
225.0
 51
315.0
  0
LINE
  5
1D6
330
1E
100
AcDbEntity
  8
CSLAYER1
  6
CONTINUOUS
 62
     3
100
AcDbLine
 10
348.8636759999998
 20
176.9848429999999
 30
0.0
 11
346.742356
 21
179.1061639999999
 31
0.0
  0
LINE
  5
1D7
330
1E
100
AcDbEntity
  8
CSLAYER1
  6
CONTINUOUS
 62
     3
100
AcDbLine
 10
346.742356
 20
179.1061639999999
 30
0.0
 11
317.9519879999998
 21
150.315796
 31
0.0
  0
LINE
  5
1D8
330
1E
100
AcDbEntity
  8
CSLAYER1
  6
CONTINUOUS
 62
     3
100
AcDbLine
 10
268.2535029999999
 20
100.6173109999999
 30
0.0
 11
291.2656959999998
 21
77.605118
 31
0.0
  0
ARC
  5
1D9
330
1E
100
AcDbEntity
  8
CSLAYER1
  6
DASHED
 62
     4
100
AcDbCircle
 10
299.159997
 20
45.256778
 30
0.0
 40
18.0
100
AcDbArc
 50
61.12762
 51
116.0128229999999
  0
LINE
  5
1DA
330
1E
100
AcDbEntity
  8
CSLAYER1
  6
CONTINUOUS
 62
     3
100
AcDbLine
 10
286.432075
 20
57.9847
 30
0.0
 11
273.9103569999999
 21
45.462982
 31
0.0
  0
LINE
  5
1DB
330
1E
100
AcDbEntity
  8
CSLAYER1
  6
CONTINUOUS
 62
     3
100
AcDbLine
 10
273.9103569999999
 20
45.462982
 30
0.0
 11
268.2535029999999
 21
45.462982
 31
0.0
  0
LINE
  5
1DC
330
1E
100
AcDbEntity
  8
CSLAYER1
  6
CONTINUOUS
 62
     3
100
AcDbLine
 10
268.2535029999999
 20
45.462982
 30
0.0
 11
266.4857359999999
 21
47.23074899999999
 31
0.0
  0
LINE
  5
1DD
330
1E
100
AcDbEntity
  8
CSLAYER1
  6
CONTINUOUS
 62
     3
100
AcDbLine
 10
266.4857359999999
 20
47.23074899999999
 30
0.0
 11
287.6989389999998
 21
68.443952
 31
0.0
  0
LINE
  5
1DE
330
1E
100
AcDbEntity
  8
CSLAYER1
  6
CONTINUOUS
 62
     3
100
AcDbLine
 10
287.6989389999998
 20
68.443952
 30
0.0
 11
275.678124
 21
80.464768
 31
0.0
  0
LINE
  5
1DF
330
1E
100
AcDbEntity
  8
CSLAYER1
  6
CONTINUOUS
 62
     3
100
AcDbLine
 10
275.678124
 20
80.464768
 30
0.0
 11
254.464921
 21
59.251564
 31
0.0
  0
LINE
  5
1E0
330
1E
100
AcDbEntity
  8
CSLAYER1
  6
CONTINUOUS
 62
     3
100
AcDbLine
 10
254.464921
 20
59.251564
 30
0.0
 11
252.697154
 21
61.019331
 31
0.0
  0
LINE
  5
1E1
330
1E
100
AcDbEntity
  8
CSLAYER1
  6
CONTINUOUS
 62
     3
100
AcDbLine
 10
252.697154
 20
61.019331
 30
0.0
 11
252.697154
 21
66.676185
 31
0.0
  0
LINE
  5
1E2
330
1E
100
AcDbEntity
  8
CSLAYER1
  6
CONTINUOUS
 62
     3
100
AcDbLine
 10
252.697154
 20
66.676185
 30
0.0
 11
265.218872
 21
79.19790400000002
 31
0.0
  0
ARC
  5
1E3
330
1E
100
AcDbEntity
  8
CSLAYER1
  6
CONTINUOUS
 62
     3
100
AcDbCircle
 10
252.49095
 20
91.92582599999999
 30
0.0
 40
18.0
100
AcDbArc
 50
315.0
 51
28.87237999999999
  0
LINE
  5
1E4
330
1E
100
AcDbEntity
  8
CSLAYER1
  6
CONTINUOUS
 62
     3
100
AcDbLine
 10
259.0611149999999
 20
75.86857399999998
 30
0.0
 11
252.697154
 21
69.504613
 31
0.0
  0
LINE
  5
1E5
330
1E
100
AcDbEntity
  8
CSLAYER1
  6
CONTINUOUS
 62
     3
100
AcDbLine
 10
252.697154
 20
69.504613
 30
0.0
 11
254.111367
 21
68.09039900000001
 31
0.0
  0
LINE
  5
1E6
330
1E
100
AcDbEntity
  8
CSLAYER1
  6
CONTINUOUS
 62
     3
100
AcDbLine
 10
252.697154
 20
69.504613
 30
0.0
 11
252.697154
 21
70.91882599999998
 31
0.0
  0
LINE
  5
1E7
330
1E
100
AcDbEntity
  8
CSLAYER1
  6
CONTINUOUS
 62
     3
100
AcDbLine
 10
252.697154
 20
70.91882599999998
 30
0.0
 11
254.8184739999999
 21
73.04014599999998
 31
0.0
  0
LINE
  5
1E8
330
1E
100
AcDbEntity
  8
CSLAYER1
  6
CONTINUOUS
 62
     3
100
AcDbLine
 10
254.8184739999999
 20
73.04014599999998
 30
0.0
 11
255.525581
 21
72.33304
 31
0.0
  0
LINE
  5
1E9
330
1E
100
AcDbEntity
  8
CSLAYER1
  6
CONTINUOUS
 62
     3
100
AcDbLine
 10
256.232688
 20
73.04014599999998
 30
0.0
 11
255.525581
 21
73.747253
 31
0.0
  0
LINE
  5
1EA
330
1E
100
AcDbEntity
  8
CSLAYER1
  6
CONTINUOUS
 62
     3
100
AcDbLine
 10
255.525581
 20
73.747253
 30
0.0
 11
257.6469009999998
 21
75.86857399999998
 31
0.0
  0
LINE
  5
1EB
330
1E
100
AcDbEntity
  8
CSLAYER1
  6
CONTINUOUS
 62
     3
100
AcDbLine
 10
257.6469009999998
 20
75.86857399999998
 30
0.0
 11
259.0611149999999
 21
75.86857399999998
 31
0.0
  0
LINE
  5
1EC
330
1E
100
AcDbEntity
  8
CSLAYER1
  6
CONTINUOUS
 62
     3
100
AcDbLine
 10
259.0611149999999
 20
75.86857399999998
 30
0.0
 11
260.475328
 21
74.45435999999998
 31
0.0
  0
LINE
  5
1ED
330
1E
100
AcDbEntity
  8
CSLAYER1
  6
CONTINUOUS
 62
     3
100
AcDbLine
 10
263.657309
 20
68.443952
 30
0.0
 11
275.678124
 21
56.42313699999998
 31
0.0
  0
LINE
  5
1EE
330
1E
100
AcDbEntity
  8
CSLAYER1
  6
CONTINUOUS
 62
     3
100
AcDbLine
 10
272.1425899999999
 20
52.887603
 30
0.0
 11
260.1217749999999
 21
64.90841800000001
 31
0.0
  0
LINE
  5
1EF
330
1E
100
AcDbEntity
  8
CSLAYER1
  6
CONTINUOUS
 62
     3
100
AcDbLine
 10
276.8735579999999
 20
48.426183
 30
0.0
 11
279.944335
 21
45.355406
 31
0.0
  0
ARC
  5
1F0
330
1E
100
AcDbEntity
  8
CSLAYER1
  6
CONTINUOUS
 62
     3
100
AcDbCircle
 10
276.425724
 20
52.14000399999999
 30
0.0
 40
7.642733999999999
100
AcDbArc
 50
297.4120459999998
 51
332.587954
  0
ARC
  5
1F1
330
1E
100
AcDbEntity
  8
CSLAYER1
  6
CONTINUOUS
 62
     3
100
AcDbCircle
 10
279.869389
 20
55.336165
 30
0.0
 40
7.5
100
AcDbArc
 50
296.452622
 51
309.6824529999999
  0
LINE
  5
1F2
330
1E
100
AcDbEntity
  8
CSLAYER1
  6
CONTINUOUS
 62
     3
100
AcDbLine
 10
284.6583799999999
 20
49.564201
 30
0.0
 11
279.0015259999999
 21
43.90734699999998
 31
0.0
  0
ARC
  5
1F3
330
1E
100
AcDbEntity
  8
CSLAYER1
  6
CONTINUOUS
 62
     3
100
AcDbCircle
 10
273.2295619999999
 20
48.69633799999999
 30
0.0
 40
7.5
100
AcDbArc
 50
320.317547
 51
333.547378
  0
LINE
  5
1F4
330
1E
100
AcDbEntity
  8
CSLAYER1
  6
CONTINUOUS
 62
     3
100
AcDbLine
 10
280.062186
 20
44.968007
 30
0.0
 11
282.7491919999999
 21
42.281001
 31
0.0
  0
LINE
  5
1F5
330
1E
100
AcDbEntity
  8
CSLAYER1
  6
CONTINUOUS
 62
     3
100
AcDbLine
 10
282.7491919999999
 20
42.281001
 30
0.0
 11
283.456299
 21
42.281001
 31
0.0
  0
LINE
  5
1F6
330
1E
100
AcDbEntity
  8
CSLAYER1
  6
CONTINUOUS
 62
     3
100
AcDbLine
 10
283.456299
 20
42.281001
 30
0.0
 11
286.2847259999998
 21
45.10942899999998
 31
0.0
  0
LINE
  5
1F7
330
1E
100
AcDbEntity
  8
CSLAYER1
  6
CONTINUOUS
 62
     3
100
AcDbLine
 10
286.2847259999998
 20
45.10942899999998
 30
0.0
 11
286.2847259999998
 21
45.81653499999998
 31
0.0
  0
LINE
  5
1F8
330
1E
100
AcDbEntity
  8
CSLAYER1
  6
CONTINUOUS
 62
     3
100
AcDbLine
 10
286.2847259999998
 20
45.81653499999998
 30
0.0
 11
283.59772
 21
48.503541
 31
0.0
  0
LINE
  5
1F9
330
1E
100
AcDbEntity
  8
CSLAYER1
  6
CONTINUOUS
 62
     3
100
AcDbLine
 10
283.210321
 20
48.621392
 30
0.0
 11
280.1395439999999
 21
51.692169
 31
0.0
  0
LINE
  5
1FA
330
1E
100
AcDbEntity
  8
CSLAYER1
  6
CONTINUOUS
 62
     3
100
AcDbLine
 10
281.772538
 20
53.325162
 30
0.0
 11
284.843315
 21
50.25438499999999
 31
0.0
  0
LINE
  5
1FB
330
1E
100
AcDbEntity
  8
CSLAYER1
  6
CONTINUOUS
 62
     3
100
AcDbLine
 10
284.843315
 20
50.25438499999999
 30
0.0
 11
284.6583799999999
 21
49.564201
 31
0.0
  0
LINE
  5
1FC
330
1E
100
AcDbEntity
  8
CSLAYER1
  6
CONTINUOUS
 62
     3
100
AcDbLine
 10
279.0015259999999
 20
43.90734699999998
 30
0.0
 11
278.3113419999998
 21
43.722413
 31
0.0
  0
LINE
  5
1FD
330
1E
100
AcDbEntity
  8
CSLAYER1
  6
CONTINUOUS
 62
     3
100
AcDbLine
 10
278.3113419999998
 20
43.722413
 30
0.0
 11
275.240565
 21
46.79319
 31
0.0
  0
LINE
  5
1FE
330
1E
100
AcDbEntity
  8
CSLAYER1
  6
CONTINUOUS
 62
     3
100
AcDbLine
 10
382.8048009999998
 20
135.9726499999998
 30
0.0
 11
343.206822
 21
175.5706299999999
 31
0.0
  0
LINE
  5
1FF
330
1E
100
AcDbEntity
  8
CSLAYER1
  6
CONTINUOUS
 62
     3
100
AcDbLine
 10
359.8238309999998
 20
185.116571
 30
0.0
 11
392.350743
 21
152.589659
 31
0.0
  0
POLYLINE
  5
200
330
1E
100
AcDbEntity
  8
CSLAYER1
  6
CONTINUOUS
 62
     3
100
AcDb2dPolyline
 66
     1
 10
0.0
 20
0.0
 30
0.0
  0
VERTEX
  5
201
330
200
100
AcDbEntity
  8
CSLAYER1
  6
CONTINUOUS
 62
     3
100
AcDbVertex
100
AcDb2dVertex
 10
361.9473199999998
 20
170.9722669999998
 30
0.0
  0
VERTEX
  5
202
330
200
100
AcDbEntity
  8
CSLAYER1
  6
CONTINUOUS
 62
     3
100
AcDbVertex
100
AcDb2dVertex
 10
361.7057709999998
 20
170.7078469999999
 30
0.0
  0
VERTEX
  5
203
330
200
100
AcDbEntity
  8
CSLAYER1
  6
CONTINUOUS
 62
     3
100
AcDbVertex
100
AcDb2dVertex
 10
361.4889319999998
 20
170.4225669999999
 30
0.0
  0
VERTEX
  5
204
330
200
100
AcDbEntity
  8
CSLAYER1
  6
CONTINUOUS
 62
     3
100
AcDbVertex
100
AcDb2dVertex
 10
361.2984529999998
 20
170.1185999999998
 30
0.0
  0
VERTEX
  5
205
330
200
100
AcDbEntity
  8
CSLAYER1
  6
CONTINUOUS
 62
     3
100
AcDbVertex
100
AcDb2dVertex
 10
361.135783
 20
169.798258
 30
0.0
  0
VERTEX
  5
206
330
200
100
AcDbEntity
  8
CSLAYER1
  6
CONTINUOUS
 62
     3
100
AcDbVertex
100
AcDb2dVertex
 10
361.0021609999998
 20
169.46398
 30
0.0
  0
VERTEX
  5
207
330
200
100
AcDbEntity
  8
CSLAYER1
  6
CONTINUOUS
 62
     3
100
AcDbVertex
100
AcDb2dVertex
 10
360.898604
 20
169.11831
 30
0.0
  0
VERTEX
  5
208
330
200
100
AcDbEntity
  8
CSLAYER1
  6
CONTINUOUS
 62
     3
100
AcDbVertex
100
AcDb2dVertex
 10
360.8258999999998
 20
168.763877
 30
0.0
  0
VERTEX
  5
209
330
200
100
AcDbEntity
  8
CSLAYER1
  6
CONTINUOUS
 62
     3
100
AcDbVertex
100
AcDb2dVertex
 10
360.784602
 20
168.403381
 30
0.0
  0
VERTEX
  5
20A
330
200
100
AcDbEntity
  8
CSLAYER1
  6
CONTINUOUS
 62
     3
100
AcDbVertex
100
AcDb2dVertex
 10
360.775024
 20
168.0395629999999
 30
0.0
  0
VERTEX
  5
20B
330
200
100
AcDbEntity
  8
CSLAYER1
  6
CONTINUOUS
 62
     3
100
AcDbVertex
100
AcDb2dVertex
 10
360.797239
 20
167.675194
 30
0.0
  0
VERTEX
  5
20C
330
200
100
AcDbEntity
  8
CSLAYER1
  6
CONTINUOUS
 62
     3
100
AcDbVertex
100
AcDb2dVertex
 10
360.851079
 20
167.3130469999998
 30
0.0
  0
VERTEX
  5
20D
330
200
100
AcDbEntity
  8
CSLAYER1
  6
CONTINUOUS
 62
     3
100
AcDbVertex
100
AcDb2dVertex
 10
360.936133
 20
166.9558759999999
 30
0.0
  0
VERTEX
  5
20E
330
200
100
AcDbEntity
  8
CSLAYER1
  6
CONTINUOUS
 62
     3
100
AcDbVertex
100
AcDb2dVertex
 10
361.051754
 20
166.606402
 30
0.0
  0
VERTEX
  5
20F
330
200
100
AcDbEntity
  8
CSLAYER1
  6
CONTINUOUS
 62
     3
100
AcDbVertex
100
AcDb2dVertex
 10
361.197063
 20
166.267283
 30
0.0
  0
VERTEX
  5
210
330
200
100
AcDbEntity
  8
CSLAYER1
  6
CONTINUOUS
 62
     3
100
AcDbVertex
100
AcDb2dVertex
 10
361.3709529999998
 20
165.9411
 30
0.0
  0
VERTEX
  5
211
330
200
100
AcDbEntity
  8
CSLAYER1
  6
CONTINUOUS
 62
     3
100
AcDbVertex
100
AcDb2dVertex
 10
361.5720999999998
 20
165.630336
 30
0.0
  0
VERTEX
  5
212
330
200
100
AcDbEntity
  8
CSLAYER1
  6
CONTINUOUS
 62
     3
100
AcDbVertex
100
AcDb2dVertex
 10
361.798975
 20
165.337356
 30
0.0
  0
VERTEX
  5
213
330
200
100
AcDbEntity
  8
CSLAYER1
  6
CONTINUOUS
 62
     3
100
AcDbVertex
100
AcDb2dVertex
 10
362.04985
 20
165.06439
 30
0.0
  0
VERTEX
  5
214
330
200
100
AcDbEntity
  8
CSLAYER1
  6
CONTINUOUS
 62
     3
100
AcDbVertex
100
AcDb2dVertex
 10
362.3228169999998
 20
164.8135149999999
 30
0.0
  0
VERTEX
  5
215
330
200
100
AcDbEntity
  8
CSLAYER1
  6
CONTINUOUS
 62
     3
100
AcDbVertex
100
AcDb2dVertex
 10
362.615797
 20
164.5866399999999
 30
0.0
  0
VERTEX
  5
216
330
200
100
AcDbEntity
  8
CSLAYER1
  6
CONTINUOUS
 62
     3
100
AcDbVertex
100
AcDb2dVertex
 10
362.926561
 20
164.385492
 30
0.0
  0
VERTEX
  5
217
330
200
100
AcDbEntity
  8
CSLAYER1
  6
CONTINUOUS
 62
     3
100
AcDbVertex
100
AcDb2dVertex
 10
363.252743
 20
164.211602
 30
0.0
  0
VERTEX
  5
218
330
200
100
AcDbEntity
  8
CSLAYER1
  6
CONTINUOUS
 62
     3
100
AcDbVertex
100
AcDb2dVertex
 10
363.5918619999998
 20
164.066294
 30
0.0
  0
VERTEX
  5
219
330
200
100
AcDbEntity
  8
CSLAYER1
  6
CONTINUOUS
 62
     3
100
AcDbVertex
100
AcDb2dVertex
 10
363.941337
 20
163.9506729999999
 30
0.0
  0
VERTEX
  5
21A
330
200
100
AcDbEntity
  8
CSLAYER1
  6
CONTINUOUS
 62
     3
100
AcDbVertex
100
AcDb2dVertex
 10
364.2985069999998
 20
163.8656179999999
 30
0.0
  0
VERTEX
  5
21B
330
200
100
AcDbEntity
  8
CSLAYER1
  6
CONTINUOUS
 62
     3
100
AcDbVertex
100
AcDb2dVertex
 10
364.6606549999998
 20
163.811779
 30
0.0
  0
VERTEX
  5
21C
330
200
100
AcDbEntity
  8
CSLAYER1
  6
CONTINUOUS
 62
     3
100
AcDbVertex
100
AcDb2dVertex
 10
365.025024
 20
163.7895629999999
 30
0.0
  0
VERTEX
  5
21D
330
200
100
AcDbEntity
  8
CSLAYER1
  6
CONTINUOUS
 62
     3
100
AcDbVertex
100
AcDb2dVertex
 10
365.388841
 20
163.7991409999998
 30
0.0
  0
VERTEX
  5
21E
330
200
100
AcDbEntity
  8
CSLAYER1
  6
CONTINUOUS
 62
     3
100
AcDbVertex
100
AcDb2dVertex
 10
365.7493379999998
 20
163.8404389999999
 30
0.0
  0
VERTEX
  5
21F
330
200
100
AcDbEntity
  8
CSLAYER1
  6
CONTINUOUS
 62
     3
100
AcDbVertex
100
AcDb2dVertex
 10
366.10377
 20
163.9131439999998
 30
0.0
  0
VERTEX
  5
220
330
200
100
AcDbEntity
  8
CSLAYER1
  6
CONTINUOUS
 62
     3
100
AcDbVertex
100
AcDb2dVertex
 10
366.449441
 20
164.016701
 30
0.0
  0
VERTEX
  5
221
330
200
100
AcDbEntity
  8
CSLAYER1
  6
CONTINUOUS
 62
     3
100
AcDbVertex
100
AcDb2dVertex
 10
366.783719
 20
164.1503229999998
 30
0.0
  0
VERTEX
  5
222
330
200
100
AcDbEntity
  8
CSLAYER1
  6
CONTINUOUS
 62
     3
100
AcDbVertex
100
AcDb2dVertex
 10
367.1040609999998
 20
164.3129919999998
 30
0.0
  0
VERTEX
  5
223
330
200
100
AcDbEntity
  8
CSLAYER1
  6
CONTINUOUS
 62
     3
100
AcDbVertex
100
AcDb2dVertex
 10
367.408028
 20
164.503471
 30
0.0
  0
VERTEX
  5
224
330
200
100
AcDbEntity
  8
CSLAYER1
  6
CONTINUOUS
 62
     3
100
AcDbVertex
100
AcDb2dVertex
 10
367.693307
 20
164.720311
 30
0.0
  0
VERTEX
  5
225
330
200
100
AcDbEntity
  8
CSLAYER1
  6
CONTINUOUS
 62
     3
100
AcDbVertex
100
AcDb2dVertex
 10
367.9577279999998
 20
164.96186
 30
0.0
  0
VERTEX
  5
226
330
200
100
AcDbEntity
  8
CSLAYER1
  6
CONTINUOUS
 62
     3
100
AcDbVertex
100
AcDb2dVertex
 10
368.1992769999998
 20
165.22628
 30
0.0
  0
VERTEX
  5
227
330
200
100
AcDbEntity
  8
CSLAYER1
  6
CONTINUOUS
 62
     3
100
AcDbVertex
100
AcDb2dVertex
 10
368.4161159999998
 20
165.511559
 30
0.0
  0
VERTEX
  5
228
330
200
100
AcDbEntity
  8
CSLAYER1
  6
CONTINUOUS
 62
     3
100
AcDbVertex
100
AcDb2dVertex
 10
368.606595
 20
165.815526
 30
0.0
  0
VERTEX
  5
229
330
200
100
AcDbEntity
  8
CSLAYER1
  6
CONTINUOUS
 62
     3
100
AcDbVertex
100
AcDb2dVertex
 10
368.769264
 20
166.135868
 30
0.0
  0
VERTEX
  5
22A
330
200
100
AcDbEntity
  8
CSLAYER1
  6
CONTINUOUS
 62
     3
100
AcDbVertex
100
AcDb2dVertex
 10
368.9028859999998
 20
166.470146
 30
0.0
  0
VERTEX
  5
22B
330
200
100
AcDbEntity
  8
CSLAYER1
  6
CONTINUOUS
 62
     3
100
AcDbVertex
100
AcDb2dVertex
 10
369.006443
 20
166.8158169999998
 30
0.0
  0
VERTEX
  5
22C
330
200
100
AcDbEntity
  8
CSLAYER1
  6
CONTINUOUS
 62
     3
100
AcDbVertex
100
AcDb2dVertex
 10
369.0791479999998
 20
167.17025
 30
0.0
  0
VERTEX
  5
22D
330
200
100
AcDbEntity
  8
CSLAYER1
  6
CONTINUOUS
 62
     3
100
AcDbVertex
100
AcDb2dVertex
 10
369.120446
 20
167.5307459999999
 30
0.0
  0
VERTEX
  5
22E
330
200
100
AcDbEntity
  8
CSLAYER1
  6
CONTINUOUS
 62
     3
100
AcDbVertex
100
AcDb2dVertex
 10
369.130024
 20
167.8945629999998
 30
0.0
  0
VERTEX
  5
22F
330
200
100
AcDbEntity
  8
CSLAYER1
  6
CONTINUOUS
 62
     3
100
AcDbVertex
100
AcDb2dVertex
 10
369.107808
 20
168.258932
 30
0.0
  0
VERTEX
  5
230
330
200
100
AcDbEntity
  8
CSLAYER1
  6
CONTINUOUS
 62
     3
100
AcDbVertex
100
AcDb2dVertex
 10
369.053969
 20
168.62108
 30
0.0
  0
VERTEX
  5
231
330
200
100
AcDbEntity
  8
CSLAYER1
  6
CONTINUOUS
 62
     3
100
AcDbVertex
100
AcDb2dVertex
 10
368.9689149999998
 20
168.9782499999999
 30
0.0
  0
VERTEX
  5
232
330
200
100
AcDbEntity
  8
CSLAYER1
  6
CONTINUOUS
 62
     3
100
AcDbVertex
100
AcDb2dVertex
 10
368.853293
 20
169.3277249999999
 30
0.0
  0
VERTEX
  5
233
330
200
100
AcDbEntity
  8
CSLAYER1
  6
CONTINUOUS
 62
     3
100
AcDbVertex
100
AcDb2dVertex
 10
368.7079849999998
 20
169.666844
 30
0.0
  0
VERTEX
  5
234
330
200
100
AcDbEntity
  8
CSLAYER1
  6
CONTINUOUS
 62
     3
100
AcDbVertex
100
AcDb2dVertex
 10
368.534095
 20
169.993026
 30
0.0
  0
VERTEX
  5
235
330
200
100
AcDbEntity
  8
CSLAYER1
  6
CONTINUOUS
 62
     3
100
AcDbVertex
100
AcDb2dVertex
 10
368.332947
 20
170.3037899999999
 30
0.0
  0
VERTEX
  5
236
330
200
100
AcDbEntity
  8
CSLAYER1
  6
CONTINUOUS
 62
     3
100
AcDbVertex
100
AcDb2dVertex
 10
368.106072
 20
170.5967699999999
 30
0.0
  0
VERTEX
  5
237
330
200
100
AcDbEntity
  8
CSLAYER1
  6
CONTINUOUS
 62
     3
100
AcDbVertex
100
AcDb2dVertex
 10
367.855197
 20
170.869737
 30
0.0
  0
VERTEX
  5
238
330
200
100
AcDbEntity
  8
CSLAYER1
  6
CONTINUOUS
 62
     3
100
AcDbVertex
100
AcDb2dVertex
 10
367.582231
 20
171.120612
 30
0.0
  0
VERTEX
  5
239
330
200
100
AcDbEntity
  8
CSLAYER1
  6
CONTINUOUS
 62
     3
100
AcDbVertex
100
AcDb2dVertex
 10
367.289251
 20
171.3474869999999
 30
0.0
  0
VERTEX
  5
23A
330
200
100
AcDbEntity
  8
CSLAYER1
  6
CONTINUOUS
 62
     3
100
AcDbVertex
100
AcDb2dVertex
 10
366.978487
 20
171.548634
 30
0.0
  0
VERTEX
  5
23B
330
200
100
AcDbEntity
  8
CSLAYER1
  6
CONTINUOUS
 62
     3
100
AcDbVertex
100
AcDb2dVertex
 10
366.652304
 20
171.7225239999999
 30
0.0
  0
VERTEX
  5
23C
330
200
100
AcDbEntity
  8
CSLAYER1
  6
CONTINUOUS
 62
     3
100
AcDbVertex
100
AcDb2dVertex
 10
366.313185
 20
171.867833
 30
0.0
  0
VERTEX
  5
23D
330
200
100
AcDbEntity
  8
CSLAYER1
  6
CONTINUOUS
 62
     3
100
AcDbVertex
100
AcDb2dVertex
 10
365.9637109999998
 20
171.9834539999999
 30
0.0
  0
VERTEX
  5
23E
330
200
100
AcDbEntity
  8
CSLAYER1
  6
CONTINUOUS
 62
     3
100
AcDbVertex
100
AcDb2dVertex
 10
365.60654
 20
172.068508
 30
0.0
  0
VERTEX
  5
23F
330
200
100
AcDbEntity
  8
CSLAYER1
  6
CONTINUOUS
 62
     3
100
AcDbVertex
100
AcDb2dVertex
 10
365.244393
 20
172.1223479999999
 30
0.0
  0
VERTEX
  5
240
330
200
100
AcDbEntity
  8
CSLAYER1
  6
CONTINUOUS
 62
     3
100
AcDbVertex
100
AcDb2dVertex
 10
364.880024
 20
172.1445629999999
 30
0.0
  0
VERTEX
  5
241
330
200
100
AcDbEntity
  8
CSLAYER1
  6
CONTINUOUS
 62
     3
100
AcDbVertex
100
AcDb2dVertex
 10
364.516207
 20
172.134985
 30
0.0
  0
VERTEX
  5
242
330
200
100
AcDbEntity
  8
CSLAYER1
  6
CONTINUOUS
 62
     3
100
AcDbVertex
100
AcDb2dVertex
 10
364.1557099999998
 20
172.093687
 30
0.0
  0
VERTEX
  5
243
330
200
100
AcDbEntity
  8
CSLAYER1
  6
CONTINUOUS
 62
     3
100
AcDbVertex
100
AcDb2dVertex
 10
363.8012779999998
 20
172.0209829999999
 30
0.0
  0
VERTEX
  5
244
330
200
100
AcDbEntity
  8
CSLAYER1
  6
CONTINUOUS
 62
     3
100
AcDbVertex
100
AcDb2dVertex
 10
363.4556069999998
 20
171.917426
 30
0.0
  0
VERTEX
  5
245
330
200
100
AcDbEntity
  8
CSLAYER1
  6
CONTINUOUS
 62
     3
100
AcDbVertex
100
AcDb2dVertex
 10
363.121329
 20
171.783804
 30
0.0
  0
VERTEX
  5
246
330
200
100
AcDbEntity
  8
CSLAYER1
  6
CONTINUOUS
 62
     3
100
AcDbVertex
100
AcDb2dVertex
 10
362.800987
 20
171.621134
 30
0.0
  0
VERTEX
  5
247
330
200
100
AcDbEntity
  8
CSLAYER1
  6
CONTINUOUS
 62
     3
100
AcDbVertex
100
AcDb2dVertex
 10
362.49702
 20
171.430655
 30
0.0
  0
VERTEX
  5
248
330
200
100
AcDbEntity
  8
CSLAYER1
  6
CONTINUOUS
 62
     3
100
AcDbVertex
100
AcDb2dVertex
 10
362.2117399999998
 20
171.2138159999998
 30
0.0
  0
VERTEX
  5
249
330
200
100
AcDbEntity
  8
CSLAYER1
  6
CONTINUOUS
 62
     3
100
AcDbVertex
100
AcDb2dVertex
 10
361.9473199999998
 20
170.9722669999998
 30
0.0
  0
SEQEND
  5
24A
330
200
100
AcDbEntity
  8
CSLAYER1
 62
     3
  0
LINE
  5
24B
330
1E
100
AcDbEntity
  8
CSLAYER1
  6
CENTER
 62
     4
100
AcDbLine
 10
379.692134
 20
172.4579629999999
 30
0.0
 11
257.1887549999999
 21
49.954583
 31
0.0
  0
LINE
  5
24C
330
1E
100
AcDbEntity
  8
CSLAYER1
  6
CONTINUOUS
 62
     4
100
AcDbLine
 10
280.345029
 20
45.25084999999999
 30
0.0
 11
283.314877
 21
42.281001
 31
0.0
  0
LINE
  5
24D
330
1E
100
AcDbEntity
  8
CSLAYER1
  6
CONTINUOUS
 62
     4
100
AcDbLine
 10
282.7491919999999
 20
42.281001
 30
0.0
 11
286.2847259999998
 21
45.81653499999998
 31
0.0
  0
LINE
  5
24E
330
1E
100
AcDbEntity
  8
CSLAYER1
  6
CONTINUOUS
 62
     4
100
AcDbLine
 10
286.2847259999998
 20
45.25084999999999
 30
0.0
 11
283.314877
 21
48.220698
 31
0.0
  0
LINE
  5
24F
330
1E
100
AcDbEntity
  8
CSLAYER1
  6
CENTER
 62
     4
100
AcDbLine
 10
286.6060899999999
 20
41.959637
 30
0.0
 11
253.378513
 21
75.18721500000002
 31
0.0
  0
LINE
  5
250
330
1E
100
AcDbEntity
  8
CSLAYER1
  6
CENTER
 62
     4
100
AcDbLine
 10
369.979088
 20
162.9404989999999
 30
0.0
 11
360.019928
 21
172.899659
 31
0.0
  0
LINE
  5
251
330
1E
100
AcDbEntity
  8
CSLAYER1
  6
CENTER
 62
     4
100
AcDbLine
 10
370.091925
 20
173.1064649999999
 30
0.0
 11
359.774235
 21
162.788774
 31
0.0
  0
POLYLINE
  5
252
330
1E
100
AcDbEntity
  8
CSLAYER1
  6
CONTINUOUS
 62
     4
100
AcDb2dPolyline
 66
     1
 10
0.0
 20
0.0
 30
0.0
  0
VERTEX
  5
253
330
252
100
AcDbEntity
  8
CSLAYER1
  6
CONTINUOUS
 62
     4
100
AcDbVertex
100
AcDb2dVertex
 10
361.593767
 20
171.325821
 30
0.0
  0
VERTEX
  5
254
330
252
100
AcDbEntity
  8
CSLAYER1
  6
CONTINUOUS
 62
     4
100
AcDbVertex
100
AcDb2dVertex
 10
361.323981
 20
171.030473
 30
0.0
  0
VERTEX
  5
255
330
252
100
AcDbEntity
  8
CSLAYER1
  6
CONTINUOUS
 62
     4
100
AcDbVertex
100
AcDb2dVertex
 10
361.081812
 20
170.711811
 30
0.0
  0
VERTEX
  5
256
330
252
100
AcDbEntity
  8
CSLAYER1
  6
CONTINUOUS
 62
     4
100
AcDbVertex
100
AcDb2dVertex
 10
360.8691
 20
170.37226
 30
0.0
  0
VERTEX
  5
257
330
252
100
AcDbEntity
  8
CSLAYER1
  6
CONTINUOUS
 62
     4
100
AcDbVertex
100
AcDb2dVertex
 10
360.687466
 20
170.014404
 30
0.0
  0
VERTEX
  5
258
330
252
100
AcDbEntity
  8
CSLAYER1
  6
CONTINUOUS
 62
     4
100
AcDbVertex
100
AcDb2dVertex
 10
360.538292
 20
169.6409669999999
 30
0.0
  0
VERTEX
  5
259
330
252
100
AcDbEntity
  8
CSLAYER1
  6
CONTINUOUS
 62
     4
100
AcDbVertex
100
AcDb2dVertex
 10
360.422712
 20
169.2547899999999
 30
0.0
  0
VERTEX
  5
25A
330
252
100
AcDbEntity
  8
CSLAYER1
  6
CONTINUOUS
 62
     4
100
AcDbVertex
100
AcDb2dVertex
 10
360.341608
 20
168.858813
 30
0.0
  0
VERTEX
  5
25B
330
252
100
AcDbEntity
  8
CSLAYER1
  6
CONTINUOUS
 62
     4
100
AcDbVertex
100
AcDb2dVertex
 10
360.295595
 20
168.456049
 30
0.0
  0
VERTEX
  5
25C
330
252
100
AcDbEntity
  8
CSLAYER1
  6
CONTINUOUS
 62
     4
100
AcDbVertex
100
AcDb2dVertex
 10
360.285024
 20
168.0495629999998
 30
0.0
  0
VERTEX
  5
25D
330
252
100
AcDbEntity
  8
CSLAYER1
  6
CONTINUOUS
 62
     4
100
AcDbVertex
100
AcDb2dVertex
 10
360.309975
 20
167.6424499999999
 30
0.0
  0
VERTEX
  5
25E
330
252
100
AcDbEntity
  8
CSLAYER1
  6
CONTINUOUS
 62
     4
100
AcDbVertex
100
AcDb2dVertex
 10
360.37026
 20
167.237807
 30
0.0
  0
VERTEX
  5
25F
330
252
100
AcDbEntity
  8
CSLAYER1
  6
CONTINUOUS
 62
     4
100
AcDbVertex
100
AcDb2dVertex
 10
360.465418
 20
166.8387139999999
 30
0.0
  0
VERTEX
  5
260
330
252
100
AcDbEntity
  8
CSLAYER1
  6
CONTINUOUS
 62
     4
100
AcDbVertex
100
AcDb2dVertex
 10
360.5947249999998
 20
166.448209
 30
0.0
  0
VERTEX
  5
261
330
252
100
AcDbEntity
  8
CSLAYER1
  6
CONTINUOUS
 62
     4
100
AcDbVertex
100
AcDb2dVertex
 10
360.757198
 20
166.0692629999998
 30
0.0
  0
VERTEX
  5
262
330
252
100
AcDbEntity
  8
CSLAYER1
  6
CONTINUOUS
 62
     4
100
AcDbVertex
100
AcDb2dVertex
 10
360.9515999999998
 20
165.70476
 30
0.0
  0
VERTEX
  5
263
330
252
100
AcDbEntity
  8
CSLAYER1
  6
CONTINUOUS
 62
     4
100
AcDbVertex
100
AcDb2dVertex
 10
361.1764519999998
 20
165.3574749999999
 30
0.0
  0
VERTEX
  5
264
330
252
100
AcDbEntity
  8
CSLAYER1
  6
CONTINUOUS
 62
     4
100
AcDbVertex
100
AcDb2dVertex
 10
361.430041
 20
165.030051
 30
0.0
  0
VERTEX
  5
265
330
252
100
AcDbEntity
  8
CSLAYER1
  6
CONTINUOUS
 62
     4
100
AcDbVertex
100
AcDb2dVertex
 10
361.710439
 20
164.724979
 30
0.0
  0
VERTEX
  5
266
330
252
100
AcDbEntity
  8
CSLAYER1
  6
CONTINUOUS
 62
     4
100
AcDbVertex
100
AcDb2dVertex
 10
362.015511
 20
164.444581
 30
0.0
  0
VERTEX
  5
267
330
252
100
AcDbEntity
  8
CSLAYER1
  6
CONTINUOUS
 62
     4
100
AcDbVertex
100
AcDb2dVertex
 10
362.342936
 20
164.190991
 30
0.0
  0
VERTEX
  5
268
330
252
100
AcDbEntity
  8
CSLAYER1
  6
CONTINUOUS
 62
     4
100
AcDbVertex
100
AcDb2dVertex
 10
362.690221
 20
163.96614
 30
0.0
  0
VERTEX
  5
269
330
252
100
AcDbEntity
  8
CSLAYER1
  6
CONTINUOUS
 62
     4
100
AcDbVertex
100
AcDb2dVertex
 10
363.054723
 20
163.7717379999999
 30
0.0
  0
VERTEX
  5
26A
330
252
100
AcDbEntity
  8
CSLAYER1
  6
CONTINUOUS
 62
     4
100
AcDbVertex
100
AcDb2dVertex
 10
363.433669
 20
163.6092649999999
 30
0.0
  0
VERTEX
  5
26B
330
252
100
AcDbEntity
  8
CSLAYER1
  6
CONTINUOUS
 62
     4
100
AcDbVertex
100
AcDb2dVertex
 10
363.824175
 20
163.479957
 30
0.0
  0
VERTEX
  5
26C
330
252
100
AcDbEntity
  8
CSLAYER1
  6
CONTINUOUS
 62
     4
100
AcDbVertex
100
AcDb2dVertex
 10
364.223268
 20
163.3847989999999
 30
0.0
  0
VERTEX
  5
26D
330
252
100
AcDbEntity
  8
CSLAYER1
  6
CONTINUOUS
 62
     4
100
AcDbVertex
100
AcDb2dVertex
 10
364.62791
 20
163.324515
 30
0.0
  0
VERTEX
  5
26E
330
252
100
AcDbEntity
  8
CSLAYER1
  6
CONTINUOUS
 62
     4
100
AcDbVertex
100
AcDb2dVertex
 10
365.035024
 20
163.2995629999999
 30
0.0
  0
VERTEX
  5
26F
330
252
100
AcDbEntity
  8
CSLAYER1
  6
CONTINUOUS
 62
     4
100
AcDbVertex
100
AcDb2dVertex
 10
365.441509
 20
163.310134
 30
0.0
  0
VERTEX
  5
270
330
252
100
AcDbEntity
  8
CSLAYER1
  6
CONTINUOUS
 62
     4
100
AcDbVertex
100
AcDb2dVertex
 10
365.8442729999998
 20
163.356147
 30
0.0
  0
VERTEX
  5
271
330
252
100
AcDbEntity
  8
CSLAYER1
  6
CONTINUOUS
 62
     4
100
AcDbVertex
100
AcDb2dVertex
 10
366.240251
 20
163.437252
 30
0.0
  0
VERTEX
  5
272
330
252
100
AcDbEntity
  8
CSLAYER1
  6
CONTINUOUS
 62
     4
100
AcDbVertex
100
AcDb2dVertex
 10
366.6264269999998
 20
163.5528309999999
 30
0.0
  0
VERTEX
  5
273
330
252
100
AcDbEntity
  8
CSLAYER1
  6
CONTINUOUS
 62
     4
100
AcDbVertex
100
AcDb2dVertex
 10
366.999865
 20
163.702006
 30
0.0
  0
VERTEX
  5
274
330
252
100
AcDbEntity
  8
CSLAYER1
  6
CONTINUOUS
 62
     4
100
AcDbVertex
100
AcDb2dVertex
 10
367.3577209999998
 20
163.8836399999999
 30
0.0
  0
VERTEX
  5
275
330
252
100
AcDbEntity
  8
CSLAYER1
  6
CONTINUOUS
 62
     4
100
AcDbVertex
100
AcDb2dVertex
 10
367.697272
 20
164.0963509999999
 30
0.0
  0
VERTEX
  5
276
330
252
100
AcDbEntity
  8
CSLAYER1
  6
CONTINUOUS
 62
     4
100
AcDbVertex
100
AcDb2dVertex
 10
368.0159339999998
 20
164.3385209999999
 30
0.0
  0
VERTEX
  5
277
330
252
100
AcDbEntity
  8
CSLAYER1
  6
CONTINUOUS
 62
     4
100
AcDbVertex
100
AcDb2dVertex
 10
368.311281
 20
164.608306
 30
0.0
  0
VERTEX
  5
278
330
252
100
AcDbEntity
  8
CSLAYER1
  6
CONTINUOUS
 62
     4
100
AcDbVertex
100
AcDb2dVertex
 10
368.581066
 20
164.903654
 30
0.0
  0
VERTEX
  5
279
330
252
100
AcDbEntity
  8
CSLAYER1
  6
CONTINUOUS
 62
     4
100
AcDbVertex
100
AcDb2dVertex
 10
368.823236
 20
165.2223149999999
 30
0.0
  0
VERTEX
  5
27A
330
252
100
AcDbEntity
  8
CSLAYER1
  6
CONTINUOUS
 62
     4
100
AcDbVertex
100
AcDb2dVertex
 10
369.035947
 20
165.5618659999998
 30
0.0
  0
VERTEX
  5
27B
330
252
100
AcDbEntity
  8
CSLAYER1
  6
CONTINUOUS
 62
     4
100
AcDbVertex
100
AcDb2dVertex
 10
369.217581
 20
165.919722
 30
0.0
  0
VERTEX
  5
27C
330
252
100
AcDbEntity
  8
CSLAYER1
  6
CONTINUOUS
 62
     4
100
AcDbVertex
100
AcDb2dVertex
 10
369.366756
 20
166.29316
 30
0.0
  0
VERTEX
  5
27D
330
252
100
AcDbEntity
  8
CSLAYER1
  6
CONTINUOUS
 62
     4
100
AcDbVertex
100
AcDb2dVertex
 10
369.482335
 20
166.679337
 30
0.0
  0
VERTEX
  5
27E
330
252
100
AcDbEntity
  8
CSLAYER1
  6
CONTINUOUS
 62
     4
100
AcDbVertex
100
AcDb2dVertex
 10
369.56344
 20
167.0753139999999
 30
0.0
  0
VERTEX
  5
27F
330
252
100
AcDbEntity
  8
CSLAYER1
  6
CONTINUOUS
 62
     4
100
AcDbVertex
100
AcDb2dVertex
 10
369.6094529999998
 20
167.478078
 30
0.0
  0
VERTEX
  5
280
330
252
100
AcDbEntity
  8
CSLAYER1
  6
CONTINUOUS
 62
     4
100
AcDbVertex
100
AcDb2dVertex
 10
369.620024
 20
167.8845629999998
 30
0.0
  0
VERTEX
  5
281
330
252
100
AcDbEntity
  8
CSLAYER1
  6
CONTINUOUS
 62
     4
100
AcDbVertex
100
AcDb2dVertex
 10
369.595072
 20
168.291677
 30
0.0
  0
VERTEX
  5
282
330
252
100
AcDbEntity
  8
CSLAYER1
  6
CONTINUOUS
 62
     4
100
AcDbVertex
100
AcDb2dVertex
 10
369.5347879999998
 20
168.6963199999999
 30
0.0
  0
VERTEX
  5
283
330
252
100
AcDbEntity
  8
CSLAYER1
  6
CONTINUOUS
 62
     4
100
AcDbVertex
100
AcDb2dVertex
 10
369.4396299999998
 20
169.095412
 30
0.0
  0
VERTEX
  5
284
330
252
100
AcDbEntity
  8
CSLAYER1
  6
CONTINUOUS
 62
     4
100
AcDbVertex
100
AcDb2dVertex
 10
369.310322
 20
169.4859179999999
 30
0.0
  0
VERTEX
  5
285
330
252
100
AcDbEntity
  8
CSLAYER1
  6
CONTINUOUS
 62
     4
100
AcDbVertex
100
AcDb2dVertex
 10
369.147849
 20
169.8648639999998
 30
0.0
  0
VERTEX
  5
286
330
252
100
AcDbEntity
  8
CSLAYER1
  6
CONTINUOUS
 62
     4
100
AcDbVertex
100
AcDb2dVertex
 10
368.953447
 20
170.229366
 30
0.0
  0
VERTEX
  5
287
330
252
100
AcDbEntity
  8
CSLAYER1
  6
CONTINUOUS
 62
     4
100
AcDbVertex
100
AcDb2dVertex
 10
368.728596
 20
170.576651
 30
0.0
  0
VERTEX
  5
288
330
252
100
AcDbEntity
  8
CSLAYER1
  6
CONTINUOUS
 62
     4
100
AcDbVertex
100
AcDb2dVertex
 10
368.475006
 20
170.904076
 30
0.0
  0
VERTEX
  5
289
330
252
100
AcDbEntity
  8
CSLAYER1
  6
CONTINUOUS
 62
     4
100
AcDbVertex
100
AcDb2dVertex
 10
368.194608
 20
171.2091479999999
 30
0.0
  0
VERTEX
  5
28A
330
252
100
AcDbEntity
  8
CSLAYER1
  6
CONTINUOUS
 62
     4
100
AcDbVertex
100
AcDb2dVertex
 10
367.8895359999998
 20
171.4895459999999
 30
0.0
  0
VERTEX
  5
28B
330
252
100
AcDbEntity
  8
CSLAYER1
  6
CONTINUOUS
 62
     4
100
AcDbVertex
100
AcDb2dVertex
 10
367.562112
 20
171.743135
 30
0.0
  0
VERTEX
  5
28C
330
252
100
AcDbEntity
  8
CSLAYER1
  6
CONTINUOUS
 62
     4
100
AcDbVertex
100
AcDb2dVertex
 10
367.214827
 20
171.967987
 30
0.0
  0
VERTEX
  5
28D
330
252
100
AcDbEntity
  8
CSLAYER1
  6
CONTINUOUS
 62
     4
100
AcDbVertex
100
AcDb2dVertex
 10
366.850324
 20
172.162389
 30
0.0
  0
VERTEX
  5
28E
330
252
100
AcDbEntity
  8
CSLAYER1
  6
CONTINUOUS
 62
     4
100
AcDbVertex
100
AcDb2dVertex
 10
366.4713779999998
 20
172.324862
 30
0.0
  0
VERTEX
  5
28F
330
252
100
AcDbEntity
  8
CSLAYER1
  6
CONTINUOUS
 62
     4
100
AcDbVertex
100
AcDb2dVertex
 10
366.0808729999998
 20
172.45417
 30
0.0
  0
VERTEX
  5
290
330
252
100
AcDbEntity
  8
CSLAYER1
  6
CONTINUOUS
 62
     4
100
AcDbVertex
100
AcDb2dVertex
 10
365.68178
 20
172.549328
 30
0.0
  0
VERTEX
  5
291
330
252
100
AcDbEntity
  8
CSLAYER1
  6
CONTINUOUS
 62
     4
100
AcDbVertex
100
AcDb2dVertex
 10
365.277137
 20
172.609612
 30
0.0
  0
VERTEX
  5
292
330
252
100
AcDbEntity
  8
CSLAYER1
  6
CONTINUOUS
 62
     4
100
AcDbVertex
100
AcDb2dVertex
 10
364.870024
 20
172.6345629999999
 30
0.0
  0
VERTEX
  5
293
330
252
100
AcDbEntity
  8
CSLAYER1
  6
CONTINUOUS
 62
     4
100
AcDbVertex
100
AcDb2dVertex
 10
364.4635379999998
 20
172.6239919999999
 30
0.0
  0
VERTEX
  5
294
330
252
100
AcDbEntity
  8
CSLAYER1
  6
CONTINUOUS
 62
     4
100
AcDbVertex
100
AcDb2dVertex
 10
364.060774
 20
172.5779789999999
 30
0.0
  0
VERTEX
  5
295
330
252
100
AcDbEntity
  8
CSLAYER1
  6
CONTINUOUS
 62
     4
100
AcDbVertex
100
AcDb2dVertex
 10
363.664797
 20
172.4968749999999
 30
0.0
  0
VERTEX
  5
296
330
252
100
AcDbEntity
  8
CSLAYER1
  6
CONTINUOUS
 62
     4
100
AcDbVertex
100
AcDb2dVertex
 10
363.27862
 20
172.3812949999999
 30
0.0
  0
VERTEX
  5
297
330
252
100
AcDbEntity
  8
CSLAYER1
  6
CONTINUOUS
 62
     4
100
AcDbVertex
100
AcDb2dVertex
 10
362.905183
 20
172.232121
 30
0.0
  0
VERTEX
  5
298
330
252
100
AcDbEntity
  8
CSLAYER1
  6
CONTINUOUS
 62
     4
100
AcDbVertex
100
AcDb2dVertex
 10
362.547327
 20
172.050487
 30
0.0
  0
VERTEX
  5
299
330
252
100
AcDbEntity
  8
CSLAYER1
  6
CONTINUOUS
 62
     4
100
AcDbVertex
100
AcDb2dVertex
 10
362.2077759999998
 20
171.8377759999999
 30
0.0
  0
VERTEX
  5
29A
330
252
100
AcDbEntity
  8
CSLAYER1
  6
CONTINUOUS
 62
     4
100
AcDbVertex
100
AcDb2dVertex
 10
361.889114
 20
171.595606
 30
0.0
  0
VERTEX
  5
29B
330
252
100
AcDbEntity
  8
CSLAYER1
  6
CONTINUOUS
 62
     4
100
AcDbVertex
100
AcDb2dVertex
 10
361.593767
 20
171.325821
 30
0.0
  0
SEQEND
  5
29C
330
252
100
AcDbEntity
  8
CSLAYER1
 62
     4
  0
LINE
  5
29D
330
1E
100
AcDbEntity
  8
CSLAYER1
  6
CENTER
 62
     4
100
AcDbLine
 10
309.2656959999998
 20
153.368538
 30
0.0
 11
309.2656959999998
 21
80.34255300000003
 31
0.0
  0
ARC
  5
29E
330
1E
100
AcDbEntity
  8
CSLAYER1
  6
CONTINUOUS
 62
     3
100
AcDbCircle
 10
309.2656959999998
 20
90.31579599999998
 30
0.0
 40
3.0
100
AcDbArc
 50
90.0
 51
270.0
  0
ARC
  5
29F
330
1E
100
AcDbEntity
  8
CSLAYER1
  6
DASHED
 62
     4
100
AcDbCircle
 10
309.2656959999998
 20
130.315796
 30
0.0
 40
37.0
100
AcDbArc
 50
319.48463
 51
323.427266
  0
ARC
  5
2A0
330
1E
100
AcDbEntity
  8
CSLAYER1
  6
DASHED
 62
     4
100
AcDbCircle
 10
309.2656959999998
 20
130.315796
 30
0.0
 40
43.0
100
AcDbArc
 50
319.1598509999999
 51
322.8162529999999
  0
LINE
  5
2A1
330
1E
100
AcDbEntity
  8
CSLAYER1
  6
DASHED
 62
     4
100
AcDbLine
 10
329.582212
 20
99.39267800000001
 30
0.0
 11
292.462395
 21
136.512495
 31
0.0
  0
LINE
  5
2A2
330
1E
100
AcDbEntity
  8
CSLAYER1
  6
CONTINUOUS
 62
     3
100
AcDbLine
 10
329.582212
 20
99.39267800000001
 30
0.0
 11
333.901918
 21
95.07297300000001
 31
0.0
  0
LINE
  5
2A3
330
1E
100
AcDbEntity
  8
CSLAYER1
  6
DASHED
 62
     4
100
AcDbLine
 10
317.9519879999998
 20
150.315796
 30
0.0
 11
291.2656959999998
 21
123.6295039999999
 31
0.0
  0
LINE
  5
2A4
330
1E
100
AcDbEntity
  8
CSLAYER1
  6
CONTINUOUS
 62
     3
100
AcDbLine
 10
291.2656959999998
 20
123.6295039999999
 30
0.0
 11
268.2535029999999
 21
100.6173109999999
 31
0.0
  0
ARC
  5
2A5
330
1E
100
AcDbEntity
  8
CSLAYER1
  6
CONTINUOUS
 62
     3
100
AcDbCircle
 10
299.159997
 20
45.256778
 30
0.0
 40
18.0
100
AcDbArc
 50
116.0128229999999
 51
135.0
  0
LINE
  5
2A6
330
1E
100
AcDbEntity
  8
CSLAYER1
  6
DASHED
 62
     4
100
AcDbLine
 10
291.2656959999998
 20
77.605118
 30
0.0
 11
307.851483
 21
61.019331
 31
0.0
  0
LINE
  5
2A7
330
1E
100
AcDbEntity
  8
CSLAYER1
  6
CONTINUOUS
 62
     3
100
AcDbLine
 10
361.2656959999998
 20
114.433545
 30
0.0
 11
386.340335
 21
139.508184
 31
0.0
  0
LINE
  5
2A8
330
1E
100
AcDbEntity
  8
CSLAYER1
  6
DASHED
 62
     4
100
AcDbLine
 10
215.7718159999999
 20
157.111995
 30
0.0
 11
230.7718159999999
 21
157.111995
 31
0.0
  0
LINE
  5
2A9
330
1E
100
AcDbEntity
  8
CSLAYER1
  6
DASHED
 62
     4
100
AcDbLine
 10
356.995404
 20
93.19269
 30
0.0
 11
346.388802
 21
82.58608800000002
 31
0.0
  0
TEXT
  5
2AA
330
1E
100
AcDbEntity
  8
CSLAYER1
 62
     3
100
AcDbText
 10
355.8999999999998
 20
18.89999999999998
 30
0.0
 40
3.2
  1
NR30ST
 41
1.058823529411773
  7
FX_FONT
 72
     5
 11
375.1
 21
18.89999999999998
 31
0.0
100
AcDbText
  0
LINE
  5
2AB
330
1E
100
AcDbEntity
  8
CSLAYER1
  6
CONTINUOUS
 62
     3
100
AcDbLine
 10
300.426861
 20
149.7612319999998
 30
0.0
 11
289.82026
 21
139.154631
 31
0.0
  0
LINE
  5
2AC
330
1E
100
AcDbEntity
  8
CSLAYER1
  6
CONTINUOUS
 62
     3
100
AcDbLine
 10
292.05097
 20
149.163515
 30
0.0
 11
291.4532529999998
 21
151.394225
 31
0.0
  0
CIRCLE
  5
2AD
330
1E
100
AcDbEntity
  8
CSLAYER1
  6
CONTINUOUS
 62
     3
100
AcDbCircle
 10
289.82026
 20
149.7612319999998
 30
0.0
 40
3.730385
  0
LINE
  5
2AF
330
1E
100
AcDbEntity
  8
CSLAYER1
  6
CONTINUOUS
 62
     3
100
AcDbLine
 10
306.2656959999998
 20
150.315796
 30
0.0
 11
291.2656959999998
 21
135.315796
 31
0.0
  0
LINE
  5
2B0
330
1E
100
AcDbEntity
  8
CSLAYER1
  6
CONTINUOUS
 62
     3
100
AcDbLine
 10
220.2718159999999
 20
237.111995
 30
0.0
 11
205.2718159999999
 21
222.111995
 31
0.0
  0
LINE
  5
2B1
330
1E
100
AcDbEntity
  8
CSLAYER1
  6
CONTINUOUS
 62
     3
100
AcDbLine
 10
150.298273
 20
222.111995
 30
0.0
 11
147.298273
 21
222.111995
 31
0.0
  0
LINE
  5
2B2
330
1E
100
AcDbEntity
  8
CSLAYER1
  6
CONTINUOUS
 62
     3
100
AcDbLine
 10
67.298273
 20
222.111995
 30
0.0
 11
64.29827299999999
 21
222.111995
 31
0.0
  0
LINE
  5
2B3
330
1E
100
AcDbEntity
  8
CSLAYER1
  6
CENTER
 62
     4
100
AcDbLine
 10
57.015531
 20
105.9090499999999
 30
0.0
 11
46.448223
 21
105.9090499999999
 31
0.0
  0
LINE
  5
2B4
330
1E
100
AcDbEntity
  8
CSLAYER1
  6
CENTER
 62
     4
100
AcDbLine
 10
57.015531
 20
99.90904999999999
 30
0.0
 11
45.90631
 21
99.90904999999999
 31
0.0
  0
ARC
  5
2B5
330
1E
100
AcDbEntity
  8
CSLAYER1
  6
CONTINUOUS
 62
     3
100
AcDbCircle
 10
51.29827299999998
 20
99.90904999999999
 30
0.0
 40
3.0
100
AcDbArc
 50
180.0
 51
0.0
  0
LINE
  5
2B6
330
1E
100
AcDbEntity
  8
CSLAYER1
  6
CONTINUOUS
 62
     3
100
AcDbLine
 10
54.29827299999999
 20
105.9090499999999
 30
0.0
 11
54.29827299999999
 21
99.90904999999999
 31
0.0
  0
LINE
  5
2B7
330
1E
100
AcDbEntity
  8
CSLAYER1
  6
CONTINUOUS
 62
     3
100
AcDbLine
 10
48.29827299999998
 20
105.9090499999999
 30
0.0
 11
48.29827299999998
 21
99.90904999999999
 31
0.0
  0
LINE
  5
2B8
330
1E
100
AcDbEntity
  8
CSLAYER1
  6
CENTER
 62
     4
100
AcDbLine
 10
57.015531
 20
61.90905
 30
0.0
 11
46.448223
 21
61.90905
 31
0.0
  0
ARC
  5
2B9
330
1E
100
AcDbEntity
  8
CSLAYER1
  6
CONTINUOUS
 62
     3
100
AcDbCircle
 10
51.29827299999998
 20
61.90905
 30
0.0
 40
3.0
100
AcDbArc
 50
0.0
 51
180.0
  0
LINE
  5
2BA
330
1E
100
AcDbEntity
  8
CSLAYER1
  6
CENTER
 62
     4
100
AcDbLine
 10
57.015531
 20
55.90905
 30
0.0
 11
45.90631
 21
55.90905
 31
0.0
  0
ARC
  5
2BB
330
1E
100
AcDbEntity
  8
CSLAYER1
  6
CONTINUOUS
 62
     3
100
AcDbCircle
 10
51.29827299999998
 20
55.90905
 30
0.0
 40
3.0
100
AcDbArc
 50
180.0
 51
0.0
  0
LINE
  5
2BC
330
1E
100
AcDbEntity
  8
CSLAYER1
  6
CONTINUOUS
 62
     3
100
AcDbLine
 10
54.29827299999999
 20
61.90905
 30
0.0
 11
54.29827299999999
 21
55.90905
 31
0.0
  0
LINE
  5
2BD
330
1E
100
AcDbEntity
  8
CSLAYER1
  6
CONTINUOUS
 62
     3
100
AcDbLine
 10
48.29827299999998
 20
61.90905
 30
0.0
 11
48.29827299999998
 21
55.90905
 31
0.0
  0
DIMENSION
  5
2BE
330
1E
100
AcDbEntity
  8
CSLAYER1
 62
     4
100
AcDbDimension
  2
*D14
 10
24.214459
 20
115.90905
 30
0.0
 11
23.714458
 21
80.909042
 31
0.0
 70
     1
100
AcDbAlignedDimension
 13
42.29827299999999
 23
45.90905
 33
0.0
 14
42.29827299999999
 24
115.90905
 34
0.0
  0
DIMENSION
  5
2BF
330
1E
100
AcDbEntity
  8
CSLAYER1
 62
     4
100
AcDbDimension
  2
*D15
 10
30.214459
 20
52.90905
 30
0.0
 11
29.714458
 21
49.409046
 31
0.0
100
AcDbAlignedDimension
 13
42.29827299999999
 23
45.90905
 33
0.0
 14
51.29827299999998
 24
52.90905
 34
0.0
 50
90.0
100
AcDbRotatedDimension
  0
DIMENSION
  5
2C0
330
1E
100
AcDbEntity
  8
CSLAYER1
 62
     4
100
AcDbDimension
  2
*D16
 10
30.214459
 20
64.90904999999999
 30
0.0
 11
29.714458
 21
58.90904599999998
 31
0.0
 70
     1
100
AcDbAlignedDimension
 13
51.29827299999998
 23
52.90905
 33
0.0
 14
51.29827299999998
 24
64.90904999999999
 34
0.0
  0
DIMENSION
  5
2C1
330
1E
100
AcDbEntity
  8
CSLAYER1
 62
     4
100
AcDbDimension
  2
*D17
 10
30.214459
 20
96.90905
 30
0.0
 11
29.714458
 21
80.909042
 31
0.0
 70
     1
100
AcDbAlignedDimension
 13
51.29827299999998
 23
64.90904999999999
 33
0.0
 14
51.29827299999998
 24
96.90905
 34
0.0
  0
DIMENSION
  5
2C2
330
1E
100
AcDbEntity
  8
CSLAYER1
 62
     4
100
AcDbDimension
  2
*D18
 10
30.214459
 20
108.9090499999999
 30
0.0
 11
29.714458
 21
102.9090419999999
 31
0.0
 70
     1
100
AcDbAlignedDimension
 13
51.29827299999998
 23
96.90905
 33
0.0
 14
51.29827299999998
 24
108.9090499999999
 34
0.0
  0
DIMENSION
  5
2C3
330
1E
100
AcDbEntity
  8
CSLAYER1
 62
     4
100
AcDbDimension
  2
*D19
 10
30.214459
 20
115.90905
 30
0.0
 11
29.714458
 21
112.4090419999999
 31
0.0
100
AcDbAlignedDimension
 13
51.29827299999998
 23
108.9090499999999
 33
0.0
 14
42.29827299999999
 24
115.90905
 34
0.0
 50
90.0
100
AcDbRotatedDimension
  0
ARC
  5
2C4
330
1E
100
AcDbEntity
  8
CSLAYER1
  6
CONTINUOUS
 62
     3
100
AcDbCircle
 10
51.29827299999998
 20
105.9090499999999
 30
0.0
 40
3.0
100
AcDbArc
 50
0.0
 51
180.0
  0
DIMENSION
  5
2C5
330
1E
100
AcDbEntity
  8
CSLAYER1
 62
     4
100
AcDbDimension
  2
*D20
 10
54.29827299999999
 20
90.6229
 30
0.0
 11
56.768204
 21
91.12291
 31
0.0
 70
     1
 52
270.0
100
AcDbAlignedDimension
 13
48.29827299999998
 23
99.90904999999999
 33
0.0
 14
54.29827299999999
 24
99.90904999999999
 34
0.0
  0
LINE
  5
2C6
330
1E
100
AcDbEntity
  8
CSLAYER1
  6
CENTER
 62
     4
100
AcDbLine
 10
301.265696
 20
52.64238
 30
0.0
 11
301.265696
 21
64.65507399999999
 31
0.0
  0
LINE
  5
2C7
330
1E
100
AcDbEntity
  8
CSLAYER1
  6
CENTER
 62
     4
100
AcDbLine
 10
351.265696
 20
52.070347
 30
0.0
 11
351.265696
 21
62.93655300000001
 31
0.0
  0
LINE
  5
2C8
330
1E
100
AcDbEntity
  8
CSLAYER1
  6
CENTER
 62
     4
100
AcDbLine
 10
307.2656959999998
 20
53.117634
 30
0.0
 11
307.2656959999998
 21
64.721811
 31
0.0
  0
LINE
  5
2C9
330
1E
100
AcDbEntity
  8
CSLAYER1
  6
CENTER
 62
     4
100
AcDbLine
 10
345.265696
 20
52.076233
 30
0.0
 11
345.265696
 21
63.23409599999999
 31
0.0
  0
LINE
  5
2CA
330
1E
100
AcDbEntity
  8
CSLAYER1
  6
CENTER
 62
     4
100
AcDbLine
 10
215.271816
 20
139.438579
 30
0.0
 11
215.271816
 21
151.4512729999998
 31
0.0
  0
LINE
  5
2CB
330
1E
100
AcDbEntity
  8
CSLAYER1
  6
CENTER
 62
     4
100
AcDbLine
 10
265.271816
 20
138.8665449999999
 30
0.0
 11
265.271816
 21
149.7327519999998
 31
0.0
  0
LINE
  5
2CC
330
1E
100
AcDbEntity
  8
CSLAYER1
  6
CENTER
 62
     4
100
AcDbLine
 10
221.271816
 20
139.913833
 30
0.0
 11
221.271816
 21
151.518009
 31
0.0
  0
LINE
  5
2CD
330
1E
100
AcDbEntity
  8
CSLAYER1
  6
CENTER
 62
     4
100
AcDbLine
 10
259.2718159999999
 20
138.872432
 30
0.0
 11
259.2718159999999
 21
150.030295
 31
0.0
  0
LINE
  5
2CE
330
1E
100
AcDbEntity
  8
CSLAYER1
  6
CENTER
 62
     4
100
AcDbLine
 10
157.5810139999999
 20
105.9090499999999
 30
0.0
 11
168.148322
 21
105.9090499999999
 31
0.0
  0
LINE
  5
2CF
330
1E
100
AcDbEntity
  8
CSLAYER1
  6
CENTER
 62
     4
100
AcDbLine
 10
157.5810139999999
 20
99.90904999999999
 30
0.0
 11
168.6902349999999
 21
99.90904999999999
 31
0.0
  0
ARC
  5
2D0
330
1E
100
AcDbEntity
  8
CSLAYER1
  6
CONTINUOUS
 62
     3
100
AcDbCircle
 10
163.2982729999999
 20
99.90904999999999
 30
0.0
 40
3.0
100
AcDbArc
 50
180.0
 51
0.0
  0
LINE
  5
2D1
330
1E
100
AcDbEntity
  8
CSLAYER1
  6
CONTINUOUS
 62
     3
100
AcDbLine
 10
160.2982729999999
 20
105.9090499999999
 30
0.0
 11
160.2982729999999
 21
99.90904999999999
 31
0.0
  0
LINE
  5
2D2
330
1E
100
AcDbEntity
  8
CSLAYER1
  6
CONTINUOUS
 62
     3
100
AcDbLine
 10
166.2982729999999
 20
105.9090499999999
 30
0.0
 11
166.2982729999999
 21
99.90904999999999
 31
0.0
  0
LINE
  5
2D3
330
1E
100
AcDbEntity
  8
CSLAYER1
  6
CENTER
 62
     4
100
AcDbLine
 10
157.5810139999999
 20
61.90905
 30
0.0
 11
168.148322
 21
61.90905
 31
0.0
  0
ARC
  5
2D4
330
1E
100
AcDbEntity
  8
CSLAYER1
  6
CONTINUOUS
 62
     3
100
AcDbCircle
 10
163.2982729999999
 20
61.90905
 30
0.0
 40
3.0
100
AcDbArc
 50
0.0
 51
180.0
  0
LINE
  5
2D5
330
1E
100
AcDbEntity
  8
CSLAYER1
  6
CENTER
 62
     4
100
AcDbLine
 10
157.5810139999999
 20
55.90905
 30
0.0
 11
168.6902349999999
 21
55.90905
 31
0.0
  0
ARC
  5
2D6
330
1E
100
AcDbEntity
  8
CSLAYER1
  6
CONTINUOUS
 62
     3
100
AcDbCircle
 10
163.2982729999999
 20
55.90905
 30
0.0
 40
3.0
100
AcDbArc
 50
180.0
 51
0.0
  0
LINE
  5
2D7
330
1E
100
AcDbEntity
  8
CSLAYER1
  6
CONTINUOUS
 62
     3
100
AcDbLine
 10
160.2982729999999
 20
61.90905
 30
0.0
 11
160.2982729999999
 21
55.90905
 31
0.0
  0
LINE
  5
2D8
330
1E
100
AcDbEntity
  8
CSLAYER1
  6
CONTINUOUS
 62
     3
100
AcDbLine
 10
166.2982729999999
 20
61.90905
 30
0.0
 11
166.2982729999999
 21
55.90905
 31
0.0
  0
ARC
  5
2D9
330
1E
100
AcDbEntity
  8
CSLAYER1
  6
CONTINUOUS
 62
     3
100
AcDbCircle
 10
163.2982729999999
 20
105.9090499999999
 30
0.0
 40
3.0
100
AcDbArc
 50
0.0
 51
180.0
  0
INSERT
  5
2DA
330
1E
100
AcDbEntity
  8
CSLAYER1
100
AcDbBlockReference
  2
FXDIM0000
 10
0.0
 20
0.0
 30
0.0
  0
ARC
  5
2DB
330
1E
100
AcDbEntity
  8
CSLAYER1
  6
CONTINUOUS
 62
     3
100
AcDbCircle
 10
64.29827299999999
 20
145.111995
 30
0.0
 40
3.0
100
AcDbArc
 50
270.0
 51
0.0
  0
ARC
  5
2DC
330
1E
100
AcDbEntity
  8
CSLAYER1
  6
CONTINUOUS
 62
     3
100
AcDbCircle
 10
150.298273
 20
145.111995
 30
0.0
 40
3.0
100
AcDbArc
 50
180.0
 51
270.0
  0
LINE
  5
2DD
330
1E
100
AcDbEntity
  8
CSLAYER1
  6
CONTINUOUS
 62
     3
100
AcDbLine
 10
124.298273
 20
248.8619949999999
 30
0.0
 11
119.5982729999998
 21
248.8619949999999
 31
0.0
  0
LINE
  5
2DE
330
1E
100
AcDbEntity
  8
CSLAYER1
  6
CONTINUOUS
 62
     3
100
AcDbLine
 10
124.5982729999999
 20
248.3423789999999
 30
0.0
 11
124.5982729999999
 21
240.88161
 31
0.0
  0
LINE
  5
2DF
330
1E
100
AcDbEntity
  8
CSLAYER1
  6
CONTINUOUS
 62
     3
100
AcDbLine
 10
124.298273
 20
240.3619949999999
 30
0.0
 11
119.5982729999998
 21
240.3619949999999
 31
0.0
  0
LINE
  5
2E0
330
1E
100
AcDbEntity
  8
CSLAYER1
  6
CONTINUOUS
 62
     3
100
AcDbLine
 10
124.298273
 20
248.8619949999999
 30
0.0
 11
124.298273
 21
240.3619949999999
 31
0.0
  0
LINE
  5
2E1
330
1E
100
AcDbEntity
  8
CSLAYER1
  6
CONTINUOUS
 62
     3
100
AcDbLine
 10
124.298273
 20
240.3619949999999
 30
0.0
 11
124.5982729999999
 21
240.88161
 31
0.0
  0
LINE
  5
2E2
330
1E
100
AcDbEntity
  8
CSLAYER1
  6
CONTINUOUS
 62
     3
100
AcDbLine
 10
124.298273
 20
248.8619949999999
 30
0.0
 11
124.5982729999999
 21
248.3423789999999
 31
0.0
  0
LINE
  5
2E3
330
1E
100
AcDbEntity
  8
CSLAYER1
  6
DASHED
 62
     4
100
AcDbLine
 10
99.598273
 20
247.111995
 30
0.0
 11
99.598273
 21
242.111995
 31
0.0
  0
LINE
  5
2E4
330
1E
100
AcDbEntity
  8
CSLAYER1
  6
CONTINUOUS
 62
     3
100
AcDbLine
 10
119.5982729999998
 20
248.961995
 30
0.0
 11
119.5982729999998
 21
240.261995
 31
0.0
  0
LINE
  5
2E5
330
1E
100
AcDbEntity
  8
CSLAYER1
  6
CONTINUOUS
 62
     3
100
AcDbLine
 10
118.2982729999999
 20
248.961995
 30
0.0
 11
119.5982729999998
 21
248.961995
 31
0.0
  0
LINE
  5
2E6
330
1E
100
AcDbEntity
  8
CSLAYER1
  6
CONTINUOUS
 62
     3
100
AcDbLine
 10
118.2982729999999
 20
240.261995
 30
0.0
 11
119.5982729999998
 21
240.261995
 31
0.0
  0
LINE
  5
2E7
330
1E
100
AcDbEntity
  8
CSLAYER1
  6
CONTINUOUS
 62
     3
100
AcDbLine
 10
155.998273
 20
221.361995
 30
0.0
 11
151.298273
 21
221.361995
 31
0.0
  0
LINE
  5
2E8
330
1E
100
AcDbEntity
  8
CSLAYER1
  6
CONTINUOUS
 62
     3
100
AcDbLine
 10
156.2982729999999
 20
220.8423789999999
 30
0.0
 11
156.2982729999999
 21
213.38161
 31
0.0
  0
LINE
  5
2E9
330
1E
100
AcDbEntity
  8
CSLAYER1
  6
CONTINUOUS
 62
     3
100
AcDbLine
 10
155.998273
 20
212.861995
 30
0.0
 11
151.298273
 21
212.861995
 31
0.0
  0
LINE
  5
2EA
330
1E
100
AcDbEntity
  8
CSLAYER1
  6
CONTINUOUS
 62
     3
100
AcDbLine
 10
155.998273
 20
221.361995
 30
0.0
 11
155.998273
 21
212.861995
 31
0.0
  0
LINE
  5
2EB
330
1E
100
AcDbEntity
  8
CSLAYER1
  6
CONTINUOUS
 62
     3
100
AcDbLine
 10
155.998273
 20
212.861995
 30
0.0
 11
156.2982729999999
 21
213.38161
 31
0.0
  0
LINE
  5
2EC
330
1E
100
AcDbEntity
  8
CSLAYER1
  6
CONTINUOUS
 62
     3
100
AcDbLine
 10
155.998273
 20
221.361995
 30
0.0
 11
156.2982729999999
 21
220.8423789999999
 31
0.0
  0
LINE
  5
2ED
330
1E
100
AcDbEntity
  8
CSLAYER1
  6
CONTINUOUS
 62
     3
100
AcDbLine
 10
151.298273
 20
223.511995
 30
0.0
 11
151.298273
 21
210.711995
 31
0.0
  0
LINE
  5
2EE
330
1E
100
AcDbEntity
  8
CSLAYER1
  6
CONTINUOUS
 62
     3
100
AcDbLine
 10
150.298273
 20
223.511995
 30
0.0
 11
151.298273
 21
223.511995
 31
0.0
  0
LINE
  5
2EF
330
1E
100
AcDbEntity
  8
CSLAYER1
  6
CONTINUOUS
 62
     3
100
AcDbLine
 10
150.298273
 20
210.711995
 30
0.0
 11
151.298273
 21
210.711995
 31
0.0
  0
LINE
  5
2F0
330
1E
100
AcDbEntity
  8
CSLAYER1
  6
CONTINUOUS
 62
     3
100
AcDbLine
 10
155.998273
 20
181.361995
 30
0.0
 11
151.298273
 21
181.361995
 31
0.0
  0
LINE
  5
2F1
330
1E
100
AcDbEntity
  8
CSLAYER1
  6
CONTINUOUS
 62
     3
100
AcDbLine
 10
156.2982729999999
 20
180.8423789999999
 30
0.0
 11
156.2982729999999
 21
173.38161
 31
0.0
  0
LINE
  5
2F2
330
1E
100
AcDbEntity
  8
CSLAYER1
  6
CONTINUOUS
 62
     3
100
AcDbLine
 10
155.998273
 20
172.861995
 30
0.0
 11
151.298273
 21
172.861995
 31
0.0
  0
LINE
  5
2F3
330
1E
100
AcDbEntity
  8
CSLAYER1
  6
CONTINUOUS
 62
     3
100
AcDbLine
 10
155.998273
 20
181.361995
 30
0.0
 11
155.998273
 21
172.861995
 31
0.0
  0
LINE
  5
2F4
330
1E
100
AcDbEntity
  8
CSLAYER1
  6
CONTINUOUS
 62
     3
100
AcDbLine
 10
155.998273
 20
172.861995
 30
0.0
 11
156.2982729999999
 21
173.38161
 31
0.0
  0
LINE
  5
2F5
330
1E
100
AcDbEntity
  8
CSLAYER1
  6
CONTINUOUS
 62
     3
100
AcDbLine
 10
155.998273
 20
181.361995
 30
0.0
 11
156.2982729999999
 21
180.8423789999999
 31
0.0
  0
LINE
  5
2F6
330
1E
100
AcDbEntity
  8
CSLAYER1
  6
CONTINUOUS
 62
     3
100
AcDbLine
 10
151.298273
 20
183.5119949999999
 30
0.0
 11
151.298273
 21
170.711995
 31
0.0
  0
LINE
  5
2F7
330
1E
100
AcDbEntity
  8
CSLAYER1
  6
CONTINUOUS
 62
     3
100
AcDbLine
 10
150.298273
 20
183.5119949999999
 30
0.0
 11
151.298273
 21
183.5119949999999
 31
0.0
  0
LINE
  5
2F8
330
1E
100
AcDbEntity
  8
CSLAYER1
  6
CONTINUOUS
 62
     3
100
AcDbLine
 10
150.298273
 20
170.711995
 30
0.0
 11
151.298273
 21
170.711995
 31
0.0
  0
LINE
  5
2F9
330
1E
100
AcDbEntity
  8
CSLAYER1
  6
CONTINUOUS
 62
     3
100
AcDbLine
 10
58.598273
 20
221.361995
 30
0.0
 11
63.29827299999998
 21
221.361995
 31
0.0
  0
LINE
  5
2FA
330
1E
100
AcDbEntity
  8
CSLAYER1
  6
CONTINUOUS
 62
     3
100
AcDbLine
 10
58.29827299999998
 20
220.8423789999999
 30
0.0
 11
58.29827299999998
 21
213.38161
 31
0.0
  0
LINE
  5
2FB
330
1E
100
AcDbEntity
  8
CSLAYER1
  6
CONTINUOUS
 62
     3
100
AcDbLine
 10
58.598273
 20
212.861995
 30
0.0
 11
63.29827299999998
 21
212.861995
 31
0.0
  0
LINE
  5
2FC
330
1E
100
AcDbEntity
  8
CSLAYER1
  6
CONTINUOUS
 62
     3
100
AcDbLine
 10
58.598273
 20
221.361995
 30
0.0
 11
58.598273
 21
212.861995
 31
0.0
  0
LINE
  5
2FD
330
1E
100
AcDbEntity
  8
CSLAYER1
  6
CONTINUOUS
 62
     3
100
AcDbLine
 10
58.598273
 20
212.861995
 30
0.0
 11
58.29827299999998
 21
213.38161
 31
0.0
  0
LINE
  5
2FE
330
1E
100
AcDbEntity
  8
CSLAYER1
  6
CONTINUOUS
 62
     3
100
AcDbLine
 10
58.598273
 20
221.361995
 30
0.0
 11
58.29827299999998
 21
220.8423789999999
 31
0.0
  0
LINE
  5
2FF
330
1E
100
AcDbEntity
  8
CSLAYER1
  6
CONTINUOUS
 62
     3
100
AcDbLine
 10
63.29827299999998
 20
223.511995
 30
0.0
 11
63.29827299999998
 21
210.711995
 31
0.0
  0
LINE
  5
300
330
1E
100
AcDbEntity
  8
CSLAYER1
  6
CONTINUOUS
 62
     3
100
AcDbLine
 10
64.29827299999999
 20
223.511995
 30
0.0
 11
63.29827299999998
 21
223.511995
 31
0.0
  0
LINE
  5
301
330
1E
100
AcDbEntity
  8
CSLAYER1
  6
CONTINUOUS
 62
     3
100
AcDbLine
 10
64.29827299999999
 20
210.711995
 30
0.0
 11
63.29827299999998
 21
210.711995
 31
0.0
  0
LINE
  5
302
330
1E
100
AcDbEntity
  8
CSLAYER1
  6
CONTINUOUS
 62
     3
100
AcDbLine
 10
58.598273
 20
181.361995
 30
0.0
 11
63.29827299999998
 21
181.361995
 31
0.0
  0
LINE
  5
303
330
1E
100
AcDbEntity
  8
CSLAYER1
  6
CONTINUOUS
 62
     3
100
AcDbLine
 10
58.29827299999998
 20
180.8423789999999
 30
0.0
 11
58.29827299999998
 21
173.38161
 31
0.0
  0
LINE
  5
304
330
1E
100
AcDbEntity
  8
CSLAYER1
  6
CONTINUOUS
 62
     3
100
AcDbLine
 10
58.598273
 20
172.861995
 30
0.0
 11
63.29827299999998
 21
172.861995
 31
0.0
  0
LINE
  5
305
330
1E
100
AcDbEntity
  8
CSLAYER1
  6
CONTINUOUS
 62
     3
100
AcDbLine
 10
58.598273
 20
181.361995
 30
0.0
 11
58.598273
 21
172.861995
 31
0.0
  0
LINE
  5
306
330
1E
100
AcDbEntity
  8
CSLAYER1
  6
CONTINUOUS
 62
     3
100
AcDbLine
 10
58.598273
 20
172.861995
 30
0.0
 11
58.29827299999998
 21
173.38161
 31
0.0
  0
LINE
  5
307
330
1E
100
AcDbEntity
  8
CSLAYER1
  6
CONTINUOUS
 62
     3
100
AcDbLine
 10
58.598273
 20
181.361995
 30
0.0
 11
58.29827299999998
 21
180.8423789999999
 31
0.0
  0
LINE
  5
308
330
1E
100
AcDbEntity
  8
CSLAYER1
  6
CONTINUOUS
 62
     3
100
AcDbLine
 10
63.29827299999998
 20
183.5119949999999
 30
0.0
 11
63.29827299999998
 21
170.711995
 31
0.0
  0
LINE
  5
309
330
1E
100
AcDbEntity
  8
CSLAYER1
  6
CONTINUOUS
 62
     3
100
AcDbLine
 10
64.29827299999999
 20
183.5119949999999
 30
0.0
 11
63.29827299999998
 21
183.5119949999999
 31
0.0
  0
LINE
  5
30A
330
1E
100
AcDbEntity
  8
CSLAYER1
  6
CONTINUOUS
 62
     3
100
AcDbLine
 10
64.29827299999999
 20
170.711995
 30
0.0
 11
63.29827299999998
 21
170.711995
 31
0.0
  0
CIRCLE
  5
30B
330
1E
100
AcDbEntity
  8
CSLAYER1
  6
CONTINUOUS
 62
     3
100
AcDbCircle
 10
223.271816
 20
177.111995
 30
0.0
 40
6.4
  0
CIRCLE
  5
30C
330
1E
100
AcDbEntity
  8
CSLAYER1
  6
CONTINUOUS
 62
     3
100
AcDbCircle
 10
223.271816
 20
217.111995
 30
0.0
 40
6.4
  0
INSERT
  5
30D
330
1E
100
AcDbEntity
  8
CSLAYER1
100
AcDbBlockReference
  2
FXDIM0001
 10
0.0
 20
0.0
 30
0.0
  0
TEXT
  5
30E
330
1E
100
AcDbEntity
  8
CSLAYER1
 62
     4
100
AcDbText
 10
178.1301629999999
 20
222.0543819999999
 30
0.0
 40
3.2
  1
M5X0.8
 41
1.058823584558827
 51
15.0
  7
FX_FONT
 72
     5
 11
197.330164
 21
222.0543819999999
 31
0.0
100
AcDbText
  0
INSERT
  5
30F
330
1E
100
AcDbEntity
  8
CSLAYER1
100
AcDbBlockReference
  2
FXDIM0002
 10
0.0
 20
0.0
 30
0.0
  0
TEXT
  5
310
330
1E
100
AcDbEntity
  8
CSLAYER1
 62
     4
100
AcDbText
 10
178.300482
 20
249.849823
 30
0.0
 40
3.2
  1
M5X0.8
 41
1.058823529411764
 51
15.0
  7
FX_FONT
 72
     5
 11
197.500482
 21
249.849823
 31
0.0
100
AcDbText
  0
CIRCLE
  5
311
330
1E
100
AcDbEntity
  8
CSLAYER1
  6
CONTINUOUS
 62
     3
100
AcDbCircle
 10
223.271816
 20
244.6119949999999
 30
0.0
 40
4.349999999999998
  0
ARC
  5
312
330
1E
100
AcDbEntity
  8
CSLAYER1
  6
CONTINUOUS
 62
     3
100
AcDbCircle
 10
223.271816
 20
217.111995
 30
0.0
 40
37.0
100
AcDbArc
 50
278.427266
 51
330.0
  0
ARC
  5
313
330
1E
100
AcDbEntity
  8
CSLAYER1
  6
CONTINUOUS
 62
     3
100
AcDbCircle
 10
223.271816
 20
217.111995
 30
0.0
 40
43.0
100
AcDbArc
 50
277.8162529999999
 51
330.0
  0
CIRCLE
  5
314
330
1E
100
AcDbEntity
  8
CSLAYER1
  6
CONTINUOUS
 62
     3
100
AcDbCircle
 10
309.2656959999998
 20
130.315796
 30
0.0
 40
6.4
  0
CIRCLE
  5
315
330
1E
100
AcDbEntity
  8
CSLAYER1
  6
CONTINUOUS
 62
     3
100
AcDbCircle
 10
337.5499669999998
 20
102.031525
 30
0.0
 40
6.4
  0
ARC
  5
316
330
1E
100
AcDbEntity
  8
CSLAYER1
  6
CONTINUOUS
 62
     3
100
AcDbCircle
 10
309.2656959999998
 20
130.315796
 30
0.0
 40
37.0
100
AcDbArc
 50
323.427266
 51
330.0
  0
ARC
  5
317
330
1E
100
AcDbEntity
  8
CSLAYER1
  6
DASHED
 62
     4
100
AcDbCircle
 10
309.2656959999998
 20
130.315796
 30
0.0
 40
37.0
100
AcDbArc
 50
306.5727339999999
 51
310.51537
  0
ARC
  5
318
330
1E
100
AcDbEntity
  8
CSLAYER1
  6
DASHED
 62
     4
100
AcDbCircle
 10
309.2656959999998
 20
130.315796
 30
0.0
 40
43.0
100
AcDbArc
 50
307.183747
 51
310.8401489999998
  0
ARC
  5
319
330
1E
100
AcDbEntity
  8
CSLAYER1
  6
CONTINUOUS
 62
     3
100
AcDbCircle
 10
309.2656959999998
 20
130.315796
 30
0.0
 40
43.0
100
AcDbArc
 50
322.8162529999999
 51
330.0
  0
CIRCLE
  5
31A
330
1E
100
AcDbEntity
  8
CSLAYER1
  6
CONTINUOUS
 62
     3
100
AcDbCircle
 10
289.82026
 20
149.7612319999998
 30
0.0
 40
4.349999999999998
  0
LINE
  5
31B
330
1E
100
AcDbEntity
  8
CSLAYER1
  6
DOT
 62
     3
100
AcDbLine
 10
10.0
 20
3.0
 30
0.0
 11
395.0
 21
3.0
 31
0.0
  0
LINE
  5
31C
330
1E
100
AcDbEntity
  8
CSLAYER1
  6
DOT
 62
     3
100
AcDbLine
 10
395.0
 20
3.0
 30
0.0
 11
395.0
 21
275.0
 31
0.0
  0
LINE
  5
31D
330
1E
100
AcDbEntity
  8
CSLAYER1
  6
DOT
 62
     3
100
AcDbLine
 10
395.0
 20
275.0
 30
0.0
 11
10.0
 21
275.0
 31
0.0
  0
LINE
  5
31E
330
1E
100
AcDbEntity
  8
CSLAYER1
  6
DOT
 62
     3
100
AcDbLine
 10
10.0
 20
275.0
 30
0.0
 11
10.0
 21
3.0
 31
0.0
  0
ENDSEC
  0
SECTION
  2
OBJECTS
  0
DICTIONARY
  5
C
330
0
100
AcDbDictionary
  3
ACAD_GROUP
350
D
  3
ACAD_LAYOUT
350
19
  3
ACAD_MLINESTYLE
350
16
  3
ACAD_PLOTSETTINGS
350
18
1001
ACAD
1000
TREAT_AS_HARD
1070
     0
1000
TREAT_AS_HARD
1070
     0
  0
DICTIONARY
  5
328
330
1E
100
AcDbDictionary
  3
ACAD_LAYOUTSELFREF
350
355
1001
ACAD
1000
TREAT_AS_HARD
1070
     0
  0
DICTIONARY
  5
326
330
1A
100
AcDbDictionary
  3
ACAD_LAYOUTSELFREF
350
354
1001
ACAD
1000
TREAT_AS_HARD
1070
     0
  0
DICTIONARY
  5
D
102
{ACAD_REACTORS
330
C
102
}
330
C
100
AcDbDictionary
1001
ACAD
1000
TREAT_AS_HARD
1070
     0
1000
TREAT_AS_HARD
1070
     0
  0
DICTIONARY
  5
19
102
{ACAD_REACTORS
330
C
102
}
330
C
100
AcDbDictionary
1001
ACAD
1000
TREAT_AS_HARD
1070
     0
1000
TREAT_AS_HARD
1070
     0
  0
DICTIONARY
  5
16
102
{ACAD_REACTORS
330
C
102
}
330
C
100
AcDbDictionary
  3
STANDARD
350
17
1001
ACAD
1000
TREAT_AS_HARD
1070
     0
1000
TREAT_AS_HARD
1070
     0
  0
DICTIONARY
  5
18
102
{ACAD_REACTORS
330
C
102
}
330
C
100
AcDbDictionary
1001
ACAD
1000
TREAT_AS_HARD
1070
     0
1000
TREAT_AS_HARD
1070
     0
  0
XRECORD
  5
355
102
{ACAD_REACTORS
330
328
102
}
330
328
100
AcDbXrecord
340
1E
  0
XRECORD
  5
354
102
{ACAD_REACTORS
330
326
102
}
330
326
100
AcDbXrecord
340
1A
  0
MLINESTYLE
  5
17
102
{ACAD_REACTORS
330
16
102
}
330
16
100
AcDbMlineStyle
  2
STANDARD
 70
     0
  3

 62
   256
 51
90.0
 52
90.0
 71
     2
 49
0.5
 62
   256
  6
BYLAYER
 49
-0.5
 62
   256
  6
BYLAYER
  0
ENDSEC
  0
EOF
