  0
SECTION
  2
HEADER
  9
$ACADVER
  1
AC1009
  9
$INSBASE
 10
0.0
 20
0.0
 30
0.0
  9
$EXTMIN
 10
4.9923711002250002
 20
16.9899448235402097
 30
-0.0015258207003583
  9
$EXTMAX
 10
205.0076298776637032
 20
143.5081561626961104
 30
0.0000000349246037
  9
$LIMMIN
 10
0.0
 20
0.0
  9
$LIMMAX
 10
210.0
 20
148.5
  9
$ORTHOMODE
 70
     0
  9
$REGENMODE
 70
     1
  9
$FILLMODE
 70
     1
  9
$QTEXTMODE
 70
     0
  9
$MIRRTEXT
 70
     0
  9
$DRAGMODE
 70
     2
  9
$LTSCALE
 40
0.25
  9
$OSMODE
 70
  4095
  9
$ATTMODE
 70
     1
  9
$TEXTSIZE
 40
1.5
  9
$TRACEWID
 40
1.0
  9
$TEXTSTYLE
  7
GOTHIC
  9
$CLAYER
  8
0
  9
$CELTYPE
  6
BYLAYER
  9
$CECOLOR
 62
   256
  9
$DIMSCALE
 40
1.0
  9
$DIMASZ
 40
1.0
  9
$DIMEXO
 40
0.0
  9
$DIMDLI
 40
1.5
  9
$DIMRND
 40
0.0
  9
$DIMDLE
 40
0.0
  9
$DIMEXE
 40
1.5
  9
$DIMTP
 40
0.0
  9
$DIMTM
 40
0.0
  9
$DIMTXT
 40
1.5
  9
$DIMCEN
 40
0.0
  9
$DIMTSZ
 40
0.0
  9
$DIMTOL
 70
     0
  9
$DIMLIM
 70
     0
  9
$DIMTIH
 70
     0
  9
$DIMTOH
 70
     0
  9
$DIMSE1
 70
     0
  9
$DIMSE2
 70
     0
  9
$DIMTAD
 70
     1
  9
$DIMZIN
 70
     8
  9
$DIMBLK
  1
OPEN30
  9
$DIMASO
 70
     1
  9
$DIMSHO
 70
     1
  9
$DIMPOST
  1

  9
$DIMAPOST
  1

  9
$DIMALT
 70
     0
  9
$DIMALTD
 70
     3
  9
$DIMALTF
 40
0.03937007874016
  9
$DIMLFAC
 40
1.0
  9
$DIMTOFL
 70
     1
  9
$DIMTVP
 40
0.0
  9
$DIMTIX
 70
     0
  9
$DIMSOXD
 70
     0
  9
$DIMSAH
 70
     0
  9
$DIMBLK1
  1

  9
$DIMBLK2
  1

  9
$DIMSTYLE
  2
VESSEL_ENGINEERING_ORIGINA
  9
$DIMCLRD
 70
     3
  9
$DIMCLRE
 70
     3
  9
$DIMCLRT
 70
     3
  9
$DIMTFAC
 40
1.0
  9
$DIMGAP
 40
0.5
  9
$LUNITS
 70
     2
  9
$LUPREC
 70
     4
  9
$SKETCHINC
 40
1.0
  9
$FILLETRAD
 40
1.0
  9
$AUNITS
 70
     0
  9
$AUPREC
 70
     0
  9
$MENU
  1
.
  9
$ELEVATION
 40
0.0
  9
$PELEVATION
 40
0.0
  9
$THICKNESS
 40
0.0
  9
$LIMCHECK
 70
     0
  9
$BLIPMODE
 70
     0
  9
$CHAMFERA
 40
0.3
  9
$CHAMFERB
 40
0.3
  9
$SKPOLY
 70
     0
  9
$TDCREATE
 40
2452948.7573958341963589
  9
$TDUPDATE
 40
2458106.6065624998882413
  9
$TDINDWG
 40
1.8769462616000001
  9
$TDUSRTIMER
 40
1.8769462616000001
  9
$USRTIMER
 70
     1
  9
$ANGBASE
 50
0.0
  9
$ANGDIR
 70
     0
  9
$PDMODE
 70
     0
  9
$PDSIZE
 40
0.0
  9
$PLINEWID
 40
0.0
  9
$COORDS
 70
     1
  9
$SPLFRAME
 70
     0
  9
$SPLINETYPE
 70
     6
  9
$SPLINESEGS
 70
     8
  9
$ATTDIA
 70
     1
  9
$ATTREQ
 70
     1
  9
$HANDLING
 70
     1
  9
$HANDSEED
  5
6285
  9
$SURFTAB1
 70
     6
  9
$SURFTAB2
 70
     6
  9
$SURFTYPE
 70
     6
  9
$SURFU
 70
     6
  9
$SURFV
 70
     6
  9
$UCSNAME
  2

  9
$UCSORG
 10
0.0
 20
0.0
 30
0.0
  9
$UCSXDIR
 10
1.0
 20
0.0
 30
0.0
  9
$UCSYDIR
 10
0.0
 20
1.0
 30
0.0
  9
$PUCSNAME
  2

  9
$PUCSORG
 10
0.0
 20
0.0
 30
0.0
  9
$PUCSXDIR
 10
1.0
 20
0.0
 30
0.0
  9
$PUCSYDIR
 10
0.0
 20
1.0
 30
0.0
  9
$USERI1
 70
     0
  9
$USERI2
 70
     0
  9
$USERI3
 70
     0
  9
$USERI4
 70
     0
  9
$USERI5
 70
     0
  9
$USERR1
 40
0.0
  9
$USERR2
 40
0.0
  9
$USERR3
 40
0.0
  9
$USERR4
 40
0.0
  9
$USERR5
 40
0.0
  9
$WORLDVIEW
 70
     1
  9
$SHADEDGE
 70
     3
  9
$SHADEDIF
 70
    70
  9
$TILEMODE
 70
     1
  9
$MAXACTVP
 70
    64
  9
$PLIMCHECK
 70
     0
  9
$PEXTMIN
 10
9.9775519428583266
 20
9.9988048667865996
 30
-0.0015258207003583
  9
$PEXTMAX
 10
410.0213398945526819
 20
287.0077057001993239
 30
0.0000000349246037
  9
$PLIMMIN
 10
0.0261182819867827
 20
0.0402661916197644
  9
$PLIMMAX
 10
419.9727735554242258
 20
296.9662610646666963
  9
$UNITMODE
 70
     0
  9
$VISRETAIN
 70
     1
  9
$PLINEGEN
 70
     0
  9
$PSLTSCALE
 70
     0
  0
ENDSEC
  0
SECTION
  2
TABLES
  0
TABLE
  2
VPORT
 70
     1
  0
VPORT
  2
*ACTIVE
 70
     0
 10
0.0
 20
0.0
 11
1.0
 21
1.0
 12
105.0
 22
74.25
 13
0.0
 23
0.0
 14
1.5
 24
1.5
 15
1.5
 25
1.5
 16
0.0
 26
0.0
 36
1.0
 17
0.0
 27
0.0
 37
0.0
 40
149.625
 41
2.2680151706700369
 42
50.0
 43
0.0
 44
0.0
 50
0.0
 51
0.0
 71
     0
 72
 20000
 73
     1
 74
     3
 75
     0
 76
     0
 77
     0
 78
     0
  0
ENDTAB
  0
TABLE
  2
LTYPE
 70
    12
  0
LTYPE
  2
CONTINUOUS
 70
     0
  3
Solid line
 72
    65
 73
     0
 40
0.0
  0
LTYPE
  2
CENTER2
 70
     0
  3
Center (.5x) ___ _ ___ _ ___ _ ___ _ ___ _ ___
 72
    65
 73
     4
 40
28.5749999999999993
 49
19.0500000000000007
 49
-3.1749999999999989
 49
3.1749999999999989
 49
-3.1749999999999989
  0
LTYPE
  2
HIDDEN2
 70
     0
  3
Hidden (.5x) _ _ _ _ _ _ _ _ _ _ _ _ _ _ _ _ _
 72
    65
 73
     2
 40
4.7624999999999993
 49
3.1749999999999989
 49
-1.587499999999999
  0
LTYPE
  2
PHANTOM2
 70
     0
  3
Phantom (.5x) ___ _ _ ___ _ _ ___ _ _ ___ _ _
 72
    65
 73
     6
 40
31.75
 49
15.875
 49
-3.1749999999999989
 49
3.1749999999999989
 49
-3.1749999999999989
 49
3.1749999999999989
 49
-3.1749999999999989
  0
LTYPE
  2
DASHED
 70
     0
  3
__ __ __ __ __ __ __ __ __ __ __ __ __ __ __
 72
    65
 73
     2
 40
0.75
 49
0.5
 49
-0.25
  0
LTYPE
  2
HIDDEN
 70
     0
  3
_ _ _ _ _ _ _ _ _ _ _ _ _ _ _ _ _ _ _ _ _ _ _
 72
    65
 73
     2
 40
0.375
 49
0.25
 49
-0.125
  0
LTYPE
  2
CENTER
 70
     0
  3
____ _ ____ _ ____ _ ____ _ ____ _ ____ _ ____
 72
    65
 73
     4
 40
2.0
 49
1.25
 49
-0.25
 49
0.25
 49
-0.25
  0
LTYPE
  2
PHANTOM
 70
     0
  3
_____ _ _ _____ _ _ _____ _ _ _____ _ _ ____
 72
    65
 73
     6
 40
2.5
 49
1.25
 49
-0.25
 49
0.25
 49
-0.25
 49
0.25
 49
-0.25
  0
LTYPE
  2
DOT
 70
     0
  3
...............................................
 72
    65
 73
     2
 40
0.25
 49
0.0
 49
-0.25
  0
LTYPE
  2
DASHDOT
 70
     0
  3
__ . __ . __ . __ . __ . __ . __ . __ . __ . __
 72
    65
 73
     4
 40
1.0
 49
0.5
 49
-0.25
 49
0.0
 49
-0.25
  0
LTYPE
  2
BORDER
 70
     0
  3
__ __ . __ __ . __ __ . __ __ . __ __ . __ __
 72
    65
 73
     6
 40
1.75
 49
0.5
 49
-0.25
 49
0.5
 49
-0.25
 49
0.0
 49
-0.25
  0
LTYPE
  2
DIVIDE
 70
     0
  3
__ . . __ . . __ . . __ . . __ . . __ . . __
 72
    65
 73
     6
 40
1.25
 49
0.5
 49
-0.25
 49
0.0
 49
-0.25
 49
0.0
 49
-0.25
  0
ENDTAB
  0
TABLE
  2
LAYER
 70
    10
  0
LAYER
  2
0
 70
     0
 62
    -7
  6
CONTINUOUS
  0
LAYER
  2
CENTER
 70
     0
 62
     4
  6
CENTER2
  0
LAYER
  2
DIMENSION
 70
     0
 62
     3
  6
CONTINUOUS
  0
LAYER
  2
HIDDEN
 70
     0
 62
     4
  6
HIDDEN2
  0
LAYER
  2
LINE
 70
     0
 62
     2
  6
CONTINUOUS
  0
LAYER
  2
TEXT
 70
     0
 62
     3
  6
CONTINUOUS
  0
LAYER
  2
DEFPOINTS
 70
     0
 62
    -7
  6
CONTINUOUS
  0
LAYER
  2
HATCHING
 70
     0
 62
     7
  6
CONTINUOUS
  0
LAYER
  2
UNDER_LINE
 70
     0
 62
     6
  6
CONTINUOUS
  0
LAYER
  2
SUB_LINE
 70
     0
 62
     4
  6
CONTINUOUS
  0
ENDTAB
  0
TABLE
  2
STYLE
 70
     6
  0
STYLE
  2
STANDARD
 70
     0
 40
0.0
 41
1.0
 50
0.0
 71
     0
 42
2.5
  3
txt
  4

  0
STYLE
  2

 70
     1
 40
0.0
 41
1.0
 50
0.0
 71
     0
 42
2.5
  3
ltypeshp.shx
  4

  0
STYLE
  2
KANJI
 70
     0
 40
0.0
 41
1.0
 50
0.0
 71
     0
 42
2.5
  3
romans.shx
  4
extfont.shx
  0
STYLE
  2
GOTHIC
 70
     0
 40
0.0
 41
1.0
 50
0.0
 71
     0
 42
1.5
  3
txt
  4

  0
STYLE
  2
KANJI1
 70
     0
 40
0.0
 41
1.0
 50
0.0
 71
     0
 42
0.2
  3
txt.shx
  4
BIGFONT
  0
STYLE
  2
KANJI2
 70
     4
 40
0.0
 41
1.0
 50
0.0
 71
     0
 42
0.2
  3
txt.shx
  4
BIGFONT
  0
ENDTAB
  0
TABLE
  2
VIEW
 70
     0
  0
ENDTAB
  0
TABLE
  2
UCS
 70
     0
  0
ENDTAB
  0
TABLE
  2
APPID
 70
    16
  0
APPID
  2
ACAD
 70
     0
  0
APPID
  2
ACAD_DSTYLE_DIMEXT_LENGTH
 70
     0
  0
APPID
  2
ACAD_DSTYLE_DIMEXT_ENABLED
 70
     0
  0
APPID
  2
ACAD_DSTYLE_DIMJOGGED_JOGA
 70
     0
  0
APPID
  2
ACAD_DSTYLE_DIMARC_LENGTH_
 70
     0
  0
APPID
  2
ACAD_DIMASSOC_CALC_DIMLFAC
 70
     0
  0
APPID
  2
ACAD_DIMASSOC_DIMLFAC
 70
     0
  0
APPID
  2
ACAD_DIMASSOC_OVERRIDDEN_D
 70
     0
  0
APPID
  2
ACAD_NAV_VCDISPLAY
 70
     0
  0
APPID
  2
ACAD_EXEMPT_FROM_CAD_STANDARDS
 70
     0
  0
APPID
  2
ACAD_DSTYLE_DIMRADIAL_EXTENSION
 70
     0
  0
APPID
  2
ACAD_MLEADERVER
 70
     0
  0
APPID
  2
GRADIENTCOLOR1ACI
 70
     0
  0
APPID
  2
GRADIENTCOLOR2ACI
 70
     0
  0
APPID
  2
ACAD_PSEXT
 70
     0
  0
APPID
  2
ACADANNOMONITORALERTICONDI
 70
     0
  0
ENDTAB
  0
TABLE
  2
DIMSTYLE
 70
    10
  0
DIMSTYLE
  2
ISO-25
 70
     0
  3

  4

  5

  6

  7

 40
1.0
 41
2.5
 42
0.625
 43
3.75
 44
1.25
 45
0.0
 46
0.0
 47
0.0
 48
0.0
140
2.5
141
2.5
142
0.0
143
0.03937007874016
144
1.0
145
0.0
146
1.0
147
0.625
 71
     0
 72
     0
 73
     0
 74
     0
 75
     0
 76
     0
 77
     1
 78
     8
170
     0
171
     3
172
     1
173
     0
174
     0
175
     0
176
     0
177
     0
178
     0
  0
DIMSTYLE
  2
VESSEL_ENGINEERING_ORIGINA
 70
     0
  3

  4

  5
OPEN30
  6

  7

 40
1.0
 41
1.0
 42
0.0
 43
1.5
 44
1.5
 45
0.0
 46
0.0
 47
0.0
 48
0.0
140
1.5
141
0.0
142
0.0
143
0.03937007874016
144
1.0
145
0.0
146
1.0
147
0.5
 71
     0
 72
     0
 73
     0
 74
     0
 75
     0
 76
     0
 77
     1
 78
     8
170
     0
171
     3
172
     1
173
     0
174
     0
175
     0
176
     3
177
     3
178
     3
  0
DIMSTYLE
  2
VESSEL_ENGINEERING_ORIGIN0
 70
     0
  3

  4

  5
OPEN30
  6

  7

 40
1.0
 41
1.0
 42
0.0
 43
1.5
 44
1.5
 45
0.0
 46
0.0
 47
0.0
 48
0.0
140
1.5
141
0.0
142
0.0
143
0.03937007874016
144
1.0
145
0.0
146
1.0
147
0.5
 71
     0
 72
     0
 73
     0
 74
     0
 75
     0
 76
     0
 77
     1
 78
     8
170
     0
171
     3
172
     1
173
     0
174
     0
175
     0
176
     3
177
     3
178
     3
  0
DIMSTYLE
  2
VESSEL_ENGINEERING_ORIGIN1
 70
     0
  3

  4

  5
OPEN30
  6

  7

 40
1.0
 41
1.0
 42
0.0
 43
1.5
 44
1.5
 45
0.0
 46
0.0
 47
0.0
 48
0.0
140
1.5
141
0.0
142
0.0
143
0.03937007874016
144
1.0
145
0.0
146
1.0
147
0.5
 71
     0
 72
     0
 73
     0
 74
     1
 75
     0
 76
     0
 77
     1
 78
     8
170
     0
171
     3
172
     1
173
     0
174
     1
175
     0
176
     3
177
     3
178
     3
  0
DIMSTYLE
  2
VESSEL_ENGINEERING_ORIGIN2
 70
     0
  3

  4

  5
OPEN30
  6

  7

 40
1.0
 41
1.0
 42
0.0
 43
1.5
 44
1.5
 45
0.0
 46
0.0
 47
0.0
 48
0.0
140
1.5
141
0.0
142
0.0
143
0.03937007874016
144
1.0
145
0.0
146
1.0
147
0.5
 71
     0
 72
     0
 73
     0
 74
     1
 75
     0
 76
     0
 77
     1
 78
     8
170
     0
171
     3
172
     1
173
     0
174
     0
175
     0
176
     3
177
     3
178
     3
  0
DIMSTYLE
  2
VESSEL_ENGINEERING_ORIGIN3
 70
     0
  3

  4

  5
OPEN30
  6

  7

 40
1.0
 41
1.0
 42
0.0
 43
1.5
 44
1.5
 45
0.0
 46
0.0
 47
0.0
 48
0.0
140
1.5
141
0.0
142
0.0
143
0.03937007874016
144
1.0
145
0.0
146
1.0
147
0.5
 71
     0
 72
     0
 73
     0
 74
     1
 75
     0
 76
     0
 77
     1
 78
     8
170
     0
171
     3
172
     1
173
     0
174
     0
175
     0
176
     3
177
     3
178
     3
  0
DIMSTYLE
  2
VESSEL_ENGINEERING_ORIGIN4
 70
     0
  3

  4

  5
OPEN30
  6

  7

 40
1.0
 41
1.0
 42
0.0
 43
1.5
 44
1.5
 45
0.0
 46
0.0
 47
0.0
 48
0.0
140
1.5
141
0.0
142
0.0
143
0.03937007874016
144
1.0
145
0.0
146
1.0
147
0.5
 71
     0
 72
     0
 73
     0
 74
     0
 75
     0
 76
     0
 77
     1
 78
     8
170
     0
171
     3
172
     1
173
     0
174
     0
175
     0
176
     3
177
     3
178
     3
  0
DIMSTYLE
  2
VESSEL_ENGINEERING_ORIGIN5
 70
     0
  3

  4

  5
OPEN30
  6

  7

 40
1.0
 41
1.0
 42
0.0
 43
1.5
 44
1.5
 45
0.0
 46
0.0
 47
0.0
 48
0.0
140
1.5
141
0.0
142
0.0
143
0.03937007874016
144
1.0
145
0.0
146
1.0
147
0.5
 71
     0
 72
     0
 73
     0
 74
     0
 75
     0
 76
     0
 77
     1
 78
     8
170
     0
171
     3
172
     1
173
     0
174
     0
175
     0
176
     3
177
     3
178
     3
  0
DIMSTYLE
  2
STANDARD
 70
     0
  3

  4

  5

  6

  7

 40
1.0
 41
0.18
 42
0.0625
 43
0.38
 44
0.18
 45
0.0
 46
0.0
 47
0.0
 48
0.0
140
0.18
141
0.09
142
0.0
143
25.3999999999999986
144
1.0
145
0.0
146
1.0
147
0.09
 71
     0
 72
     0
 73
     1
 74
     1
 75
     0
 76
     0
 77
     0
 78
     0
170
     0
171
     2
172
     0
173
     0
174
     0
175
     0
176
     0
177
     0
178
     0
  0
DIMSTYLE
  2
VESSEL_ENGINEERING_ORIGIN6
 70
     0
  3

  4

  5
OPEN30
  6

  7

 40
1.0
 41
2.0
 42
0.0
 43
3.0
 44
3.0
 45
0.0
 46
0.0
 47
0.0
 48
0.0
140
3.0
141
0.0
142
0.0
143
25.3999999999999986
144
1.0
145
0.0
146
1.0
147
0.75
 71
     0
 72
     0
 73
     0
 74
     1
 75
     0
 76
     0
 77
     1
 78
     0
170
     0
171
     2
172
     1
173
     0
174
     0
175
     0
176
     3
177
     3
178
     3
  0
ENDTAB
  0
ENDSEC
  0
SECTION
  2
BLOCKS
  0
BLOCK
  8
0
  2
$MODEL_SPACE
 70
     0
 10
0.0
 20
0.0
 30
0.0
  3
$MODEL_SPACE
  1

  0
ENDBLK
  5
21
  8
0
  0
BLOCK
 67
     1
  8
0
  2
$PAPER_SPACE
 70
     0
 10
0.0
 20
0.0
 30
0.0
  3
$PAPER_SPACE
  1

  0
ENDBLK
  5
53
 67
     1
  8
0
  0
BLOCK
  8
0
  2
_OPEN30
 70
     0
 10
0.0
 20
0.0
 30
0.0
  3
_OPEN30
  1

  0
LINE
  5
BC
  8
0
  6
BYBLOCK
 62
     0
 10
-1.0
 20
0.26794919
 30
0.0
 11
0.0
 21
0.0
 31
0.0
  0
LINE
  5
BD
  8
0
  6
BYBLOCK
 62
     0
 10
0.0
 20
0.0
 30
0.0
 11
-1.0
 21
-0.26794919
 31
0.0
  0
LINE
  5
BE
  8
0
  6
BYBLOCK
 62
     0
 10
0.0
 20
0.0
 30
0.0
 11
-1.0
 21
0.0
 31
0.0
  0
ENDBLK
  5
C0
  8
0
  0
BLOCK
  8
0
  2
CW
 70
     0
 10
0.0
 20
0.0
 30
0.0
  3
CW
  1

  0
LINE
  5
5FA1
  8
LINE
 10
10.0
 20
287.0
 30
0.0
 11
410.0
 21
287.0
 31
0.0
  0
LINE
  5
5FA2
  8
LINE
 10
410.0
 20
287.0
 30
0.0
 11
410.0
 21
10.0
 31
0.0
  0
LINE
  5
5FA3
  8
LINE
 10
410.0
 20
10.0
 30
0.0
 11
10.0000000000000195
 21
10.0
 31
0.0
  0
LINE
  5
5FA4
  8
LINE
 10
10.0000099999999996
 20
10.0
 30
0.0
 11
10.0000099999999996
 21
287.0
 31
0.0
  0
LINE
  5
5FA5
  8
SUB_LINE
 10
10.0000000000000195
 20
33.9999999999999929
 30
0.0
 11
410.0
 21
33.9999999999999929
 31
0.0
  0
LINE
  5
5FA6
  8
SUB_LINE
 10
18.0000000000000213
 20
26.0
 30
0.0
 11
237.0000149999999906
 21
26.0
 31
0.0
  0
LINE
  5
5FA7
  8
SUB_LINE
 10
18.0000000000000213
 20
18.0
 30
0.0
 11
237.0000149999999906
 21
18.0
 31
0.0
  0
LINE
  5
5FA8
  8
SUB_LINE
 10
18.0000000000000213
 20
33.9999999999999929
 30
0.0
 11
18.0000000000000213
 21
10.0
 31
0.0
  0
LINE
  5
5FA9
  8
SUB_LINE
 10
205.0000150000001042
 20
33.9999999999999929
 30
0.0
 11
205.0000150000001042
 21
10.0
 31
0.0
  0
LINE
  5
5FAA
  8
SUB_LINE
 10
217.0000149999999906
 20
33.9999999999999929
 30
0.0
 11
217.0000149999999906
 21
10.0
 31
0.0
  0
LINE
  5
5FAB
  8
SUB_LINE
 10
237.0000149999999906
 20
33.9999999999999929
 30
0.0
 11
237.0000149999999906
 21
10.0
 31
0.0
  0
LINE
  5
5FAC
  8
SUB_LINE
 10
237.0000149999999906
 20
22.0
 30
0.0
 11
360.0000309999999786
 21
22.0
 31
0.0
  0
LINE
  5
5FAD
  8
SUB_LINE
 10
245.0000150000001042
 20
33.9999999999999929
 30
0.0
 11
245.0000150000001042
 21
10.0
 31
0.0
  0
LINE
  5
5FAE
  8
SUB_LINE
 10
260.0000309999999786
 20
33.9999999999999929
 30
0.0
 11
260.0000309999999786
 21
10.0
 31
0.0
  0
LINE
  5
5FAF
  8
SUB_LINE
 10
268.0000309999999786
 20
33.9999999999999929
 30
0.0
 11
268.0000309999999786
 21
10.0
 31
0.0
  0
LINE
  5
5FB0
  8
SUB_LINE
 10
283.0000309999999786
 20
33.9999999999999929
 30
0.0
 11
283.0000309999999786
 21
10.0
 31
0.0
  0
LINE
  5
5FB1
  8
SUB_LINE
 10
295.0000309999999786
 20
33.9999999999999929
 30
0.0
 11
295.0000309999999786
 21
10.0
 31
0.0
  0
LINE
  5
5FB2
  8
SUB_LINE
 10
360.0000309999999786
 20
42.0000009999999904
 30
0.0
 11
360.0000309999999786
 21
10.0
 31
0.0
  0
LINE
  5
5FB3
  8
SUB_LINE
 10
368.0000309999999786
 20
33.9999999999999929
 30
0.0
 11
368.0000309999999786
 21
18.0
 31
0.0
  0
LINE
  5
5FB4
  8
SUB_LINE
 10
380.0000310000000923
 20
33.9999999999999929
 30
0.0
 11
380.0000310000000923
 21
18.0
 31
0.0
  0
LINE
  5
5FB5
  8
SUB_LINE
 10
360.0000309999999786
 20
42.0000009999999904
 30
0.0
 11
410.0
 21
42.0000009999999904
 31
0.0
  0
LINE
  5
5FB6
  8
SUB_LINE
 10
380.0000310000000923
 20
26.0
 30
0.0
 11
410.0
 21
26.0
 31
0.0
  0
LINE
  5
5FB7
  8
SUB_LINE
 10
360.0000309999999786
 20
18.0
 30
0.0
 11
410.0
 21
18.0
 31
0.0
  0
LINE
  5
5FB8
  8
SUB_LINE
 10
370.0000000000001137
 20
42.0000009999999904
 30
0.0
 11
370.0000000000001137
 21
33.9999999999999929
 31
0.0
  0
TEXT
  5
5FB9
  8
TEXT
 10
12.0000000000000302
 20
24.5
 30
0.0
 40
3.0
  1
摘
  7
GOTHIC
  0
TEXT
  5
5FBA
  8
TEXT
 10
12.0000000000000302
 20
16.5
 30
0.0
 40
3.0
  1
要
  7
GOTHIC
  0
TEXT
  5
5FBB
  8
TEXT
 10
206.0000149999999906
 20
28.5
 30
0.0
 40
3.0
  1
材
  7
GOTHIC
  0
TEXT
  5
5FBC
  8
TEXT
 10
212.0000149999999906
 20
28.5
 30
0.0
 40
3.0
  1
質
  7
GOTHIC
  0
TEXT
  5
5FBD
  8
TEXT
 10
206.0000149999999906
 20
20.5
 30
0.0
 40
3.0
  1
硬
  7
GOTHIC
  0
TEXT
  5
5FBE
  8
TEXT
 10
212.0000149999999906
 20
20.5
 30
0.0
 40
3.0
  1
度
  7
GOTHIC
  0
TEXT
  5
5FBF
  8
TEXT
 10
206.0000149999999906
 20
12.5
 30
0.0
 40
3.0
  1
個
  7
GOTHIC
  0
TEXT
  5
5FC0
  8
TEXT
 10
212.0000149999999906
 20
12.5
 30
0.0
 40
3.0
  1
数
  7
GOTHIC
  0
TEXT
  5
5FC1
  8
TEXT
 10
239.0000149999999906
 20
28.5
 30
0.0
 40
3.0
  1
設
  7
GOTHIC
  0
TEXT
  5
5FC2
  8
TEXT
 10
239.0000149999999906
 20
24.5
 30
0.0
 40
3.0
  1
計
  7
GOTHIC
  0
TEXT
  5
5FC3
  8
TEXT
 10
239.0000149999999906
 20
16.5
 30
0.0
 40
3.0
  1
検
  7
GOTHIC
  0
TEXT
  5
5FC4
  8
TEXT
 10
239.0000149999999906
 20
12.5
 30
0.0
 40
3.0
  1
図
  7
GOTHIC
  0
TEXT
  5
5FC5
  8
TEXT
 10
262.0000309999999786
 20
28.5
 30
0.0
 40
3.0
  1
製
  7
GOTHIC
  0
TEXT
  5
5FC6
  8
TEXT
 10
262.0000309999999786
 20
24.5
 30
0.0
 40
3.0
  1
図
  7
GOTHIC
  0
TEXT
  5
5FC7
  8
TEXT
 10
262.0000309999999786
 20
16.5
 30
0.0
 40
3.0
  1
承
  7
GOTHIC
  0
TEXT
  5
5FC8
  8
TEXT
 10
262.0000309999999786
 20
12.5
 30
0.0
 40
3.0
  1
認
  7
GOTHIC
  0
TEXT
  5
5FC9
  8
TEXT
 10
286.9999809999999911
 20
28.5
 30
0.0
 40
3.0
  1
機
  7
GOTHIC
  0
TEXT
  5
5FCA
  8
TEXT
 10
286.9999809999999911
 20
24.5
 30
0.0
 40
3.0
  1
種
  7
GOTHIC
  0
TEXT
  5
5FCB
  8
TEXT
 10
286.9999809999999911
 20
16.5
 30
0.0
 40
3.0
  1
品
  7
GOTHIC
  0
TEXT
  5
5FCC
  8
TEXT
 10
286.9999809999999911
 20
12.5
 30
0.0
 40
3.0
  1
名
  7
GOTHIC
  0
TEXT
  5
5FCD
  8
TEXT
 10
362.0
 20
12.5
 30
0.0
 40
3.0
  1
ベツセル技研工業株式会社
  7
GOTHIC
  0
TEXT
  5
5FCE
  8
TEXT
 10
361.5000309999999786
 20
36.5000009999999975
 30
0.0
 40
3.0
  1
図
  7
GOTHIC
  0
TEXT
  5
5FCF
  8
TEXT
 10
365.5000310000000923
 20
36.5000009999999975
 30
0.0
 40
3.0
  1
番
  7
GOTHIC
  0
TEXT
  5
5FD0
  8
TEXT
 10
362.0117809999999849
 20
28.5
 30
0.0
 40
3.0
  1
尺
  7
GOTHIC
  0
TEXT
  5
5FD1
  8
TEXT
 10
362.0117809999999849
 20
20.5
 30
0.0
 40
3.0
  1
度
  7
GOTHIC
  0
TEXT
  5
5FD2
  8
TEXT
 10
371.0
 20
23.5
 30
0.0
 40
5.0
  1
／
  7
GOTHIC
  0
TEXT
  5
5FD3
  8
TEXT
 10
386.0
 20
27.5
 30
0.0
 40
5.0
  1
３角法
  7
GOTHIC
  0
TEXT
  5
5FD4
  8
TEXT
 10
372.4568552918780142
 20
36.0
 30
0.0
 40
4.0
  1
１２２００－２００
 41
0.75
  7
GOTHIC
 72
     1
 11
390.0000024999997095
 21
38.0
 31
0.0
 73
     2
  0
TEXT
  5
5FD5
  8
TEXT
 10
381.0
 20
20.0
 30
0.0
 40
4.0
  1
 "１７／１２／１０
 41
0.6
  7
GOTHIC
 11
381.0
 21
22.0
 31
0.0
 73
     2
  0
TEXT
  5
5FD6
  8
TEXT
 10
369.0
 20
28.0
 30
0.0
 40
4.0
  1
１
  7
GOTHIC
 11
369.0
 21
30.0
 31
0.0
 73
     2
  0
TEXT
  5
5FD7
  8
TEXT
 10
374.0
 20
20.0
 30
0.0
 40
4.0
  1
１
  7
GOTHIC
 11
374.0
 21
22.0
 31
0.0
 73
     2
  0
TEXT
  5
5FD8
  8
TEXT
  6
CONTINUOUS
 10
312.393432015228484
 20
25.7791878172588795
 30
0.0
 40
5.0
  1
ＮＺ２０ＡＪ
 41
0.775
  7
GOTHIC
 72
     4
 11
327.5000309999999786
 21
27.9999999999999893
 31
0.0
  0
TEXT
  5
5FD9
  8
TEXT
  6
CONTINUOUS
 10
317.4289650101522966
 20
13.3604060913705602
 30
0.0
 40
5.0
  1
ブレード
 41
0.775
  7
GOTHIC
 72
     4
 11
327.5000309999999786
 21
16.0
 31
0.0
  0
TEXT
  5
5FDA
  8
TEXT
  6
CONTINUOUS
 10
218.2284413959390861
 20
28.5
 30
0.0
 40
3.0
  1
ＳＵＰ１１Ａ
 41
0.75
  7
GOTHIC
 72
     1
 11
227.0000149999999906
 21
30.0
 31
0.0
 73
     2
  0
TEXT
  5
5FDB
  8
TEXT
  6
CONTINUOUS
 10
225.700522614213213
 20
12.0203045685279193
 30
0.0
 40
4.0
  1
1
  7
GOTHIC
 72
     4
 11
227.0000149999999906
 21
14.0
 31
0.0
  0
TEXT
  5
5FDC
  8
TEXT
 10
20.0000099999999996
 20
28.5
 30
0.0
 40
3.0
  1
"１７／１２／１０
 41
0.5
  7
GOTHIC
  0
TEXT
  5
5FDD
  8
TEXT
 10
37.0000100000000032
 20
28.5
 30
0.0
 40
3.0
  1
ＥＣ－００４３７
 41
0.5
  7
GOTHIC
  0
TEXT
  5
5FDE
  8
TEXT
  6
CONTINUOUS
 10
220.3726038324874139
 20
20.4999999999999893
 30
0.0
 40
3.0
  1
上記記述
 41
0.85
  7
GOTHIC
 72
     1
 11
227.0000149999999906
 21
21.9999999999999893
 31
0.0
 73
     2
  0
ENDBLK
  5
884
  8
0
  0
BLOCK
  8
0
  2
*D3
 70
     1
 10
0.0
 20
0.0
 30
0.0
  3
*D3
  1

  0
LINE
  5
5D70
  8
DIMENSION
 62
     3
 10
65.0000000000000426
 20
113.8750000000000995
 30
0.0
 11
54.5151412488609566
 21
113.8750000000000995
 31
0.0
  0
LINE
  5
5D71
  8
DIMENSION
 62
     3
 10
65.0000000000000284
 20
109.875
 30
0.0
 11
54.5151412488609708
 21
109.875
 31
0.0
  0
LINE
  5
5D72
  8
DIMENSION
 62
     3
 10
56.0151412488609566
 20
112.8750000000000995
 30
0.0
 11
56.0151412488609708
 21
110.875
 31
0.0
  0
INSERT
  5
5D73
  8
DIMENSION
 62
     3
  2
_OPEN30
 10
56.0151412488609566
 20
113.8750000000000995
 30
0.0
 50
90.0
  0
INSERT
  5
5D74
  8
DIMENSION
 62
     3
  2
_OPEN30
 10
56.0151412488609708
 20
109.875
 30
0.0
 50
270.0
  0
INSERT
  5
5D75
  8
0
  2
*U80
 10
0.0
 20
0.0
 30
0.0
  0
POINT
  5
5D76
  8
DEFPOINTS
 62
     0
 10
65.0000000000000426
 20
113.8750000000000995
 30
0.0
  0
POINT
  5
5D77
  8
DEFPOINTS
 62
     0
 10
65.0000000000000284
 20
109.875
 30
0.0
  0
POINT
  5
5D78
  8
DEFPOINTS
 62
     0
 10
56.0151412488609708
 20
109.875
 30
0.0
  0
ENDBLK
  5
30F8
  8
0
  0
BLOCK
  8
0
  2
*D4
 70
     1
 10
0.0
 20
0.0
 30
0.0
  3
*D4
  1

  0
LINE
  5
5D79
  8
DIMENSION
 62
     3
 10
65.0
 20
113.875
 30
0.0
 11
65.0
 21
131.9748927245169057
 31
0.0
  0
LINE
  5
5D7A
  8
DIMENSION
 62
     3
 10
80.0000000000000142
 20
111.875
 30
0.0
 11
80.0000000000000142
 21
131.9748927245169057
 31
0.0
  0
LINE
  5
5D7B
  8
DIMENSION
 62
     3
 10
66.0
 20
130.4748927245169057
 30
0.0
 11
79.0000000000000142
 21
130.4748927245169057
 31
0.0
  0
INSERT
  5
5D7C
  8
DIMENSION
 62
     3
  2
_OPEN30
 10
65.0
 20
130.4748927245169057
 30
0.0
 50
180.0
  0
INSERT
  5
5D7D
  8
DIMENSION
 62
     3
  2
_OPEN30
 10
80.0000000000000142
 20
130.4748927245169057
 30
0.0
  0
INSERT
  5
5D7E
  8
0
  2
*U81
 10
0.0
 20
0.0
 30
0.0
  0
POINT
  5
5D7F
  8
DEFPOINTS
 62
     0
 10
65.0
 20
113.875
 30
0.0
  0
POINT
  5
5D80
  8
DEFPOINTS
 62
     0
 10
80.0000000000000142
 20
111.875
 30
0.0
  0
POINT
  5
5D81
  8
DEFPOINTS
 62
     0
 10
80.0000000000000142
 20
130.4748927245169057
 30
0.0
  0
ENDBLK
  5
3110
  8
0
  0
BLOCK
  8
0
  2
*D5
 70
     1
 10
0.0
 20
0.0
 30
0.0
  3
*D5
  1

  0
LINE
  5
5D89
  8
DIMENSION
 62
     3
 10
80.0000000000000142
 20
111.875
 30
0.0
 11
80.0000000000000142
 21
131.9748927245169057
 31
0.0
  0
LINE
  5
5D8A
  8
DIMENSION
 62
     3
 10
96.0
 20
124.947122682829999
 30
0.0
 11
96.0
 21
131.9748927245169057
 31
0.0
  0
LINE
  5
5D8B
  8
DIMENSION
 62
     3
 10
81.0000000000000142
 20
130.4748927245169057
 30
0.0
 11
95.0
 21
130.4748927245169057
 31
0.0
  0
INSERT
  5
5D8C
  8
DIMENSION
 62
     3
  2
_OPEN30
 10
80.0000000000000142
 20
130.4748927245169057
 30
0.0
 50
180.0
  0
INSERT
  5
5D8D
  8
DIMENSION
 62
     3
  2
_OPEN30
 10
96.0
 20
130.4748927245169057
 30
0.0
  0
INSERT
  5
5D8E
  8
0
  2
*U83
 10
0.0
 20
0.0
 30
0.0
  0
POINT
  5
5D8F
  8
DEFPOINTS
 62
     0
 10
80.0000000000000142
 20
111.875
 30
0.0
  0
POINT
  5
5D90
  8
DEFPOINTS
 62
     0
 10
96.0
 20
124.947122682829999
 30
0.0
  0
POINT
  5
5D91
  8
DEFPOINTS
 62
     0
 10
96.0
 20
130.4748927245169057
 30
0.0
  0
ENDBLK
  5
3128
  8
0
  0
BLOCK
  8
0
  2
*D6
 70
     1
 10
0.0
 20
0.0
 30
0.0
  3
*D6
  1

  0
LINE
  5
5D67
  8
DIMENSION
 62
     3
 10
65.0000000000000142
 20
113.125
 30
0.0
 11
65.0000000000000142
 21
136.4946670143166898
 31
0.0
  0
LINE
  5
5D68
  8
DIMENSION
 62
     3
 10
96.0
 20
124.947122682829999
 30
0.0
 11
96.0
 21
136.4946670143166898
 31
0.0
  0
LINE
  5
5D69
  8
DIMENSION
 62
     3
 10
66.0000000000000142
 20
134.9946670143166898
 30
0.0
 11
95.0
 21
134.9946670143166898
 31
0.0
  0
INSERT
  5
5D6A
  8
DIMENSION
 62
     3
  2
_OPEN30
 10
65.0000000000000142
 20
134.9946670143166898
 30
0.0
 50
180.0
  0
INSERT
  5
5D6B
  8
DIMENSION
 62
     3
  2
_OPEN30
 10
96.0
 20
134.9946670143166898
 30
0.0
  0
INSERT
  5
5D6C
  8
0
  2
*U79
 10
0.0
 20
0.0
 30
0.0
  0
POINT
  5
5D6D
  8
DEFPOINTS
 62
     0
 10
65.0000000000000142
 20
113.125
 30
0.0
  0
POINT
  5
5D6E
  8
DEFPOINTS
 62
     0
 10
96.0
 20
124.947122682829999
 30
0.0
  0
POINT
  5
5D6F
  8
DEFPOINTS
 62
     0
 10
96.0
 20
134.9946670143166898
 30
0.0
  0
ENDBLK
  5
31BB
  8
0
  0
BLOCK
  8
0
  2
*D7
 70
     1
 10
0.0
 20
0.0
 30
0.0
  3
*D7
  1

  0
LINE
  5
5D9B
  8
DIMENSION
 62
     3
 10
65.0000000000000142
 20
113.125
 30
0.0
 11
65.0000000000000142
 21
140.9858918303976907
 31
0.0
  0
LINE
  5
5D9C
  8
DIMENSION
 62
     3
 10
160.9999999999998863
 20
118.875
 30
0.0
 11
160.9999999999998863
 21
140.9858918303976907
 31
0.0
  0
LINE
  5
5D9D
  8
DIMENSION
 62
     3
 10
66.0000000000000142
 20
139.4858918303976907
 30
0.0
 11
159.9999999999998863
 21
139.4858918303976907
 31
0.0
  0
INSERT
  5
5D9E
  8
DIMENSION
 62
     3
  2
_OPEN30
 10
65.0000000000000142
 20
139.4858918303976907
 30
0.0
 50
180.0
  0
INSERT
  5
5D9F
  8
DIMENSION
 62
     3
  2
_OPEN30
 10
160.9999999999998863
 20
139.4858918303976907
 30
0.0
  0
INSERT
  5
5DA0
  8
0
  2
*U85
 10
0.0
 20
0.0
 30
0.0
  0
POINT
  5
5DA1
  8
DEFPOINTS
 62
     0
 10
65.0000000000000142
 20
113.125
 30
0.0
  0
POINT
  5
5DA2
  8
DEFPOINTS
 62
     0
 10
160.9999999999998863
 20
118.875
 30
0.0
  0
POINT
  5
5DA3
  8
DEFPOINTS
 62
     0
 10
160.9999999999998863
 20
139.4858918303976907
 30
0.0
  0
ENDBLK
  5
31C8
  8
0
  0
BLOCK
  8
0
  2
*D8
 70
     1
 10
0.0
 20
0.0
 30
0.0
  3
*D8
  1

  0
LINE
  5
5DA4
  8
DIMENSION
 62
     3
 10
96.0
 20
124.947122682829999
 30
0.0
 11
96.0
 21
131.9748927245169057
 31
0.0
  0
LINE
  5
5DA5
  8
DIMENSION
 62
     3
 10
117.0
 20
123.375
 30
0.0
 11
117.0
 21
131.9748927245169057
 31
0.0
  0
LINE
  5
5DA6
  8
DIMENSION
 62
     3
 10
97.0
 20
130.4748927245169057
 30
0.0
 11
116.0
 21
130.4748927245169057
 31
0.0
  0
INSERT
  5
5DA7
  8
DIMENSION
 62
     3
  2
_OPEN30
 10
96.0
 20
130.4748927245169057
 30
0.0
 50
180.0
  0
INSERT
  5
5DA8
  8
DIMENSION
 62
     3
  2
_OPEN30
 10
117.0
 20
130.4748927245169057
 30
0.0
  0
INSERT
  5
5DA9
  8
0
  2
*U86
 10
0.0
 20
0.0
 30
0.0
  0
POINT
  5
5DAA
  8
DEFPOINTS
 62
     0
 10
96.0
 20
124.947122682829999
 30
0.0
  0
POINT
  5
5DAB
  8
DEFPOINTS
 62
     0
 10
117.0
 20
123.375
 30
0.0
  0
POINT
  5
5DAC
  8
DEFPOINTS
 62
     0
 10
117.0
 20
130.4748927245169057
 30
0.0
  0
ENDBLK
  5
31E0
  8
0
  0
BLOCK
  8
0
  2
*D9
 70
     1
 10
0.0
 20
0.0
 30
0.0
  3
*D9
  1

  0
LINE
  5
5DAD
  8
DIMENSION
 62
     3
 10
96.0
 20
127.9249463622584955
 30
0.0
 11
96.0
 21
136.4946670143166898
 31
0.0
  0
LINE
  5
5DAE
  8
DIMENSION
 62
     3
 10
160.9999999999998863
 20
118.875
 30
0.0
 11
160.9999999999998863
 21
136.4946670143166898
 31
0.0
  0
LINE
  5
5DAF
  8
DIMENSION
 62
     3
 10
97.0
 20
134.9946670143166898
 30
0.0
 11
159.9999999999998863
 21
134.9946670143166898
 31
0.0
  0
INSERT
  5
5DB0
  8
DIMENSION
 62
     3
  2
_OPEN30
 10
96.0
 20
134.9946670143166898
 30
0.0
 50
180.0
  0
INSERT
  5
5DB1
  8
DIMENSION
 62
     3
  2
_OPEN30
 10
160.9999999999998863
 20
134.9946670143166898
 30
0.0
  0
INSERT
  5
5DB2
  8
0
  2
*U87
 10
0.0
 20
0.0
 30
0.0
  0
POINT
  5
5DB3
  8
DEFPOINTS
 62
     0
 10
96.0
 20
127.9249463622584955
 30
0.0
  0
POINT
  5
5DB4
  8
DEFPOINTS
 62
     0
 10
160.9999999999998863
 20
118.875
 30
0.0
  0
POINT
  5
5DB5
  8
DEFPOINTS
 62
     0
 10
160.9999999999998863
 20
134.9946670143166898
 30
0.0
  0
ENDBLK
  5
31F8
  8
0
  0
BLOCK
  8
0
  2
*D10
 70
     1
 10
0.0
 20
0.0
 30
0.0
  3
*D10
  1

  0
LINE
  5
5D92
  8
DIMENSION
 62
     3
 10
117.0
 20
123.375
 30
0.0
 11
117.0
 21
131.9748927245169057
 31
0.0
  0
LINE
  5
5D93
  8
DIMENSION
 62
     3
 10
156.0
 20
111.875
 30
0.0
 11
156.0
 21
131.9748927245169057
 31
0.0
  0
LINE
  5
5D94
  8
DIMENSION
 62
     3
 10
118.0
 20
130.4748927245169057
 30
0.0
 11
155.0
 21
130.4748927245169057
 31
0.0
  0
INSERT
  5
5D95
  8
DIMENSION
 62
     3
  2
_OPEN30
 10
117.0
 20
130.4748927245169057
 30
0.0
 50
180.0
  0
INSERT
  5
5D96
  8
DIMENSION
 62
     3
  2
_OPEN30
 10
156.0
 20
130.4748927245169057
 30
0.0
  0
INSERT
  5
5D97
  8
0
  2
*U84
 10
0.0
 20
0.0
 30
0.0
  0
POINT
  5
5D98
  8
DEFPOINTS
 62
     0
 10
117.0
 20
123.375
 30
0.0
  0
POINT
  5
5D99
  8
DEFPOINTS
 62
     0
 10
156.0
 20
111.875
 30
0.0
  0
POINT
  5
5D9A
  8
DEFPOINTS
 62
     0
 10
156.0
 20
130.4748927245169057
 30
0.0
  0
ENDBLK
  5
3205
  8
0
  0
BLOCK
  8
0
  2
*D11
 70
     1
 10
0.0
 20
0.0
 30
0.0
  3
*D11
  1

  0
LINE
  5
5DB6
  8
DIMENSION
 62
     3
 10
96.0
 20
98.3003669106232962
 30
0.0
 11
96.0
 21
94.5436020605444014
 31
0.0
  0
LINE
  5
5DB7
  8
DIMENSION
 62
     3
 10
114.0
 20
98.8488510130835607
 30
0.0
 11
114.0
 21
94.5436020605444014
 31
0.0
  0
LINE
  5
5DB8
  8
DIMENSION
 62
     3
 10
97.0
 20
96.0436020605444014
 30
0.0
 11
113.0
 21
96.0436020605444014
 31
0.0
  0
INSERT
  5
5DB9
  8
0
  2
*U88
 10
0.0
 20
0.0
 30
0.0
  0
INSERT
  5
5DBA
  8
DIMENSION
 62
     3
  2
_OPEN30
 10
96.0
 20
96.0436020605444014
 30
0.0
 50
180.0
  0
INSERT
  5
5DBB
  8
DIMENSION
 62
     3
  2
_OPEN30
 10
114.0
 20
96.0436020605444014
 30
0.0
  0
POINT
  5
5DBC
  8
DEFPOINTS
 62
     0
 10
96.0
 20
98.3003669106232962
 30
0.0
  0
POINT
  5
5DBD
  8
DEFPOINTS
 62
     0
 10
114.0
 20
98.8488510130835607
 30
0.0
  0
POINT
  5
5DBE
  8
DEFPOINTS
 62
     0
 10
114.0
 20
96.0436020605444014
 30
0.0
  0
ENDBLK
  5
321D
  8
0
  0
BLOCK
  8
0
  2
*D12
 70
     1
 10
0.0
 20
0.0
 30
0.0
  3
*D12
  1

  0
LINE
  5
5DC8
  8
DIMENSION
 62
     3
 10
161.0
 20
118.8750000000000995
 30
0.0
 11
170.9745939026061023
 21
118.8750000000000995
 31
0.0
  0
LINE
  5
5DC9
  8
DIMENSION
 62
     3
 10
161.0
 20
104.875
 30
0.0
 11
170.9745939026061023
 21
104.875
 31
0.0
  0
LINE
  5
5DCA
  8
DIMENSION
 62
     3
 10
169.4745939026061023
 20
117.8750000000000995
 30
0.0
 11
169.4745939026061023
 21
105.875
 31
0.0
  0
INSERT
  5
5DCB
  8
DIMENSION
 62
     3
  2
_OPEN30
 10
169.4745939026061023
 20
118.8750000000000995
 30
0.0
 50
90.0
  0
INSERT
  5
5DCC
  8
DIMENSION
 62
     3
  2
_OPEN30
 10
169.4745939026061023
 20
104.875
 30
0.0
 50
270.0
  0
INSERT
  5
5DCD
  8
0
  2
*U90
 10
0.0
 20
0.0
 30
0.0
  0
POINT
  5
5DCE
  8
DEFPOINTS
 62
     0
 10
161.0
 20
118.8750000000000995
 30
0.0
  0
POINT
  5
5DCF
  8
DEFPOINTS
 62
     0
 10
161.0
 20
104.875
 30
0.0
  0
POINT
  5
5DD0
  8
DEFPOINTS
 62
     0
 10
169.4745939026061023
 20
104.875
 30
0.0
  0
ENDBLK
  5
3257
  8
0
  0
BLOCK
  8
0
  2
*D13
 70
     1
 10
0.0
 20
0.0
 30
0.0
  3
*D13
  1

  0
LINE
  5
5D82
  8
DIMENSION
 62
     3
 10
154.999999999999801
 20
110.3257497938194973
 30
0.0
 11
157.8335961611055893
 21
106.2061948669168032
 31
0.0
  0
LINE
  5
5D83
  8
DIMENSION
 62
     3
 10
158.4003153933267072
 20
105.3822838815361962
 30
0.0
 11
161.7565052917084927
 21
100.5029687478989047
 31
0.0
  0
LINE
  5
5D84
  8
DIMENSION
 62
     3
 10
161.7565052917084927
 20
100.5029687478989047
 30
0.0
 11
164.0077743272416058
 21
100.5029687478989047
 31
0.0
  0
INSERT
  5
5D85
  8
DIMENSION
 62
     3
  2
_OPEN30
 10
158.4003153933267072
 20
105.3822838815361962
 30
0.0
 50
304.5217632339277998
  0
INSERT
  5
5D86
  8
0
  2
*U82
 10
0.0
 20
0.0
 30
0.0
  0
POINT
  5
5D87
  8
DEFPOINTS
 62
     0
 10
158.4003153933267072
 20
105.3822838815361962
 30
0.0
  0
POINT
  5
5D88
  8
DEFPOINTS
 62
     0
 10
154.999999999999801
 20
110.3257497938194973
 30
0.0
  0
ENDBLK
  5
3286
  8
0
  0
BLOCK
  8
0
  2
*D14
 70
     1
 10
0.0
 20
0.0
 30
0.0
  3
*D14
  1

  0
LINE
  5
5DDA
  8
DIMENSION
 62
     3
 10
156.0
 20
111.875
 30
0.0
 11
156.0
 21
131.9789361770799019
 31
0.0
  0
LINE
  5
5DDB
  8
DIMENSION
 62
     3
 10
161.0
 20
111.875
 30
0.0
 11
161.0
 21
131.9789361770799019
 31
0.0
  0
LINE
  5
5DDC
  8
DIMENSION
 62
     3
 10
157.0
 20
130.4789361770799019
 30
0.0
 11
160.0
 21
130.4789361770799019
 31
0.0
  0
INSERT
  5
5DDD
  8
DIMENSION
 62
     3
  2
_OPEN30
 10
156.0
 20
130.4789361770799019
 30
0.0
 50
180.0
  0
INSERT
  5
5DDE
  8
DIMENSION
 62
     3
  2
_OPEN30
 10
161.0
 20
130.4789361770799019
 30
0.0
  0
INSERT
  5
5DDF
  8
0
  2
*U92
 10
0.0
 20
0.0
 30
0.0
  0
POINT
  5
5DE0
  8
DEFPOINTS
 62
     0
 10
156.0
 20
111.875
 30
0.0
  0
POINT
  5
5DE1
  8
DEFPOINTS
 62
     0
 10
161.0
 20
111.875
 30
0.0
  0
POINT
  5
5DE2
  8
DEFPOINTS
 62
     0
 10
161.0
 20
130.4789361770799019
 30
0.0
  0
ENDBLK
  5
32FD
  8
0
  0
BLOCK
  8
0
  2
*D15
 70
     1
 10
0.0
 20
0.0
 30
0.0
  3
*D15
  1

  0
LINE
  5
5DE3
  8
DIMENSION
 62
     3
 10
181.7385321097684994
 20
123.375
 30
0.0
 11
195.0344899801744987
 21
123.375
 31
0.0
  0
LINE
  5
5DE4
  8
DIMENSION
 62
     3
 10
181.7385321097684994
 20
100.375
 30
0.0
 11
195.0344899801744987
 21
100.375
 31
0.0
  0
LINE
  5
5DE5
  8
DIMENSION
 62
     3
 10
193.5344899801744987
 20
122.375
 30
0.0
 11
193.5344899801744987
 21
101.375
 31
0.0
  0
INSERT
  5
5DE6
  8
DIMENSION
 62
     3
  2
_OPEN30
 10
193.5344899801744987
 20
123.375
 30
0.0
 50
90.0
  0
INSERT
  5
5DE7
  8
DIMENSION
 62
     3
  2
_OPEN30
 10
193.5344899801744987
 20
100.375
 30
0.0
 50
270.0
  0
INSERT
  5
5DE8
  8
0
  2
*U93
 10
0.0
 20
0.0
 30
0.0
  0
POINT
  5
5DE9
  8
DEFPOINTS
 62
     0
 10
181.7385321097684994
 20
123.375
 30
0.0
  0
POINT
  5
5DEA
  8
DEFPOINTS
 62
     0
 10
181.7385321097684994
 20
100.375
 30
0.0
  0
POINT
  5
5DEB
  8
DEFPOINTS
 62
     0
 10
193.5344899801744987
 20
100.375
 30
0.0
  0
ENDBLK
  5
3315
  8
0
  0
BLOCK
  8
0
  2
*D16
 70
     1
 10
0.0
 20
0.0
 30
0.0
  3
*D16
  1

  0
LINE
  5
5DEC
  8
DIMENSION
 62
     3
 10
21.5917473579155583
 20
113.875
 30
0.0
 11
16.5221932587236502
 21
113.875
 31
0.0
  0
LINE
  5
5DED
  8
DIMENSION
 62
     3
 10
21.5917473579155583
 20
109.875
 30
0.0
 11
16.5221932587236502
 21
109.875
 31
0.0
  0
LINE
  5
5DEE
  8
DIMENSION
 62
     3
 10
18.0221932587236395
 20
112.875
 30
0.0
 11
18.0221932587236395
 21
110.8750000000000995
 31
0.0
  0
INSERT
  5
5DEF
  8
DIMENSION
 62
     3
  2
_OPEN30
 10
18.0221932587236395
 20
113.875
 30
0.0
 50
90.0
  0
INSERT
  5
5DF0
  8
DIMENSION
 62
     3
  2
_OPEN30
 10
18.0221932587236395
 20
109.875
 30
0.0
 50
270.0
  0
INSERT
  5
5DF1
  8
0
  2
*U94
 10
0.0
 20
0.0
 30
0.0
  0
POINT
  5
5DF2
  8
DEFPOINTS
 62
     0
 10
21.5917473579155583
 20
113.875
 30
0.0
  0
POINT
  5
5DF3
  8
DEFPOINTS
 62
     0
 10
21.5917473579155583
 20
109.875
 30
0.0
  0
POINT
  5
5DF4
  8
DEFPOINTS
 62
     0
 10
18.0221932587236395
 20
109.875
 30
0.0
  0
ENDBLK
  5
3351
  8
0
  0
BLOCK
  8
0
  2
*D17
 70
     1
 10
0.0
 20
0.0
 30
0.0
  3
*D17
  1

  0
LINE
  5
5DF5
  8
DIMENSION
 62
     3
 10
21.5917473579155583
 20
123.375
 30
0.0
 11
12.0047050391174803
 21
123.375
 31
0.0
  0
LINE
  5
5DF6
  8
DIMENSION
 62
     3
 10
21.5917473579155583
 20
100.375
 30
0.0
 11
12.0047050391174892
 21
100.375
 31
0.0
  0
LINE
  5
5DF7
  8
DIMENSION
 62
     3
 10
13.5047050391174803
 20
122.375
 30
0.0
 11
13.5047050391174892
 21
101.375
 31
0.0
  0
INSERT
  5
5DF8
  8
DIMENSION
 62
     3
  2
_OPEN30
 10
13.5047050391174803
 20
123.375
 30
0.0
 50
90.0
  0
INSERT
  5
5DF9
  8
DIMENSION
 62
     3
  2
_OPEN30
 10
13.5047050391174892
 20
100.375
 30
0.0
 50
270.0
  0
INSERT
  5
5DFA
  8
0
  2
*U95
 10
0.0
 20
0.0
 30
0.0
  0
POINT
  5
5DFB
  8
DEFPOINTS
 62
     0
 10
21.5917473579155583
 20
123.375
 30
0.0
  0
POINT
  5
5DFC
  8
DEFPOINTS
 62
     0
 10
21.5917473579155583
 20
100.375
 30
0.0
  0
POINT
  5
5DFD
  8
DEFPOINTS
 62
     0
 10
13.5047050391174892
 20
100.375
 30
0.0
  0
ENDBLK
  5
3369
  8
0
  0
BLOCK
  8
0
  2
*D18
 70
     1
 10
0.0
 20
0.0
 30
0.0
  3
*D18
  1

  0
LINE
  5
5DFE
  8
DIMENSION
 62
     3
 10
21.5917473579155512
 20
99.8750000000000142
 30
0.0
 11
21.5917473579155512
 21
95.9371744652319478
 31
0.0
  0
LINE
  5
5DFF
  8
DIMENSION
 62
     3
 10
27.091747357915569
 20
100.375
 30
0.0
 11
27.091747357915569
 21
95.9371744652319478
 31
0.0
  0
LINE
  5
5E00
  8
DIMENSION
 62
     3
 10
22.5917473579155512
 20
97.4371744652319478
 30
0.0
 11
26.091747357915569
 21
97.4371744652319478
 31
0.0
  0
INSERT
  5
5E01
  8
DIMENSION
 62
     3
  2
_OPEN30
 10
21.5917473579155512
 20
97.4371744652319478
 30
0.0
 50
180.0
  0
INSERT
  5
5E02
  8
DIMENSION
 62
     3
  2
_OPEN30
 10
27.091747357915569
 20
97.4371744652319478
 30
0.0
  0
INSERT
  5
5E03
  8
0
  2
*U96
 10
0.0
 20
0.0
 30
0.0
  0
POINT
  5
5E04
  8
DEFPOINTS
 62
     0
 10
21.5917473579155512
 20
99.8750000000000142
 30
0.0
  0
POINT
  5
5E05
  8
DEFPOINTS
 62
     0
 10
27.091747357915569
 20
100.375
 30
0.0
  0
POINT
  5
5E06
  8
DEFPOINTS
 62
     0
 10
27.091747357915569
 20
97.4371744652319478
 30
0.0
  0
ENDBLK
  5
33E1
  8
0
  0
BLOCK
  8
0
  2
*D19
 70
     1
 10
0.0
 20
0.0
 30
0.0
  3
*D19
  1

  0
LINE
  5
5E07
  8
DIMENSION
 62
     3
 10
27.0917473579155512
 20
100.375
 30
0.0
 11
27.0917473579155512
 21
95.9371744652319478
 31
0.0
  0
LINE
  5
5E08
  8
DIMENSION
 62
     3
 10
30.591747357915569
 20
100.375
 30
0.0
 11
30.591747357915569
 21
95.9371744652319478
 31
0.0
  0
LINE
  5
5E09
  8
DIMENSION
 62
     3
 10
28.0917473579155512
 20
97.4371744652319478
 30
0.0
 11
29.591747357915569
 21
97.4371744652319478
 31
0.0
  0
LINE
  5
5E0A
  8
DIMENSION
 62
     3
 10
35.9126937995433977
 20
97.4371744652319478
 30
0.0
 11
30.591747357915569
 21
97.4371744652319478
 31
0.0
  0
INSERT
  5
5E0B
  8
0
  2
*U97
 10
0.0
 20
0.0
 30
0.0
  0
INSERT
  5
5E0C
  8
DIMENSION
 62
     3
  2
_OPEN30
 10
27.0917473579155512
 20
97.4371744652319478
 30
0.0
 50
180.0
  0
INSERT
  5
5E0D
  8
DIMENSION
 62
     3
  2
_OPEN30
 10
30.591747357915569
 20
97.4371744652319478
 30
0.0
  0
POINT
  5
5E0E
  8
DEFPOINTS
 62
     0
 10
27.0917473579155512
 20
100.375
 30
0.0
  0
POINT
  5
5E0F
  8
DEFPOINTS
 62
     0
 10
30.591747357915569
 20
100.375
 30
0.0
  0
POINT
  5
5E10
  8
DEFPOINTS
 62
     0
 10
30.591747357915569
 20
97.4371744652319478
 30
0.0
  0
ENDBLK
  5
33F9
  8
0
  0
BLOCK
  8
0
  2
*D20
 70
     1
 10
0.0
 20
0.0
 30
0.0
  3
*D20
  1

  0
LINE
  5
5E11
  8
DIMENSION
 62
     3
 10
21.5917473579155512
 20
100.375
 30
0.0
 11
21.5917473579155512
 21
91.4901674063047494
 31
0.0
  0
LINE
  5
5E12
  8
DIMENSION
 62
     3
 10
30.5917473579155512
 20
100.375
 30
0.0
 11
30.5917473579155512
 21
91.4901674063047494
 31
0.0
  0
LINE
  5
5E13
  8
DIMENSION
 62
     3
 10
22.5917473579155512
 20
92.9901674063047636
 30
0.0
 11
29.5917473579155512
 21
92.9901674063047636
 31
0.0
  0
INSERT
  5
5E14
  8
DIMENSION
 62
     3
  2
_OPEN30
 10
21.5917473579155512
 20
92.9901674063047636
 30
0.0
 50
180.0
  0
INSERT
  5
5E15
  8
DIMENSION
 62
     3
  2
_OPEN30
 10
30.5917473579155512
 20
92.9901674063047636
 30
0.0
  0
INSERT
  5
5E16
  8
0
  2
*U98
 10
0.0
 20
0.0
 30
0.0
  0
POINT
  5
5E17
  8
DEFPOINTS
 62
     0
 10
21.5917473579155512
 20
100.375
 30
0.0
  0
POINT
  5
5E18
  8
DEFPOINTS
 62
     0
 10
30.5917473579155512
 20
100.375
 30
0.0
  0
POINT
  5
5E19
  8
DEFPOINTS
 62
     0
 10
30.5917473579155512
 20
92.9901674063047636
 30
0.0
  0
ENDBLK
  5
341F
  8
0
  0
BLOCK
  8
0
  2
*D21
 70
     1
 10
0.0
 20
0.0
 30
0.0
  3
*D21
  1

  0
LINE
  5
5E1A
  8
DIMENSION
 62
     3
 10
30.591747357915569
 20
113.125
 30
0.0
 11
40.449079804557087
 21
113.125
 31
0.0
  0
LINE
  5
5E1B
  8
DIMENSION
 62
     3
 10
30.591747357915569
 20
110.6250000000000995
 30
0.0
 11
40.4490798045571012
 21
110.6250000000000995
 31
0.0
  0
LINE
  5
5E1C
  8
DIMENSION
 62
     3
 10
38.949079804557087
 20
114.125
 30
0.0
 11
38.949079804557087
 21
115.125
 31
0.0
  0
LINE
  5
5E1D
  8
DIMENSION
 62
     3
 10
38.9490798045571012
 20
109.6250000000000995
 30
0.0
 11
38.9490798045571012
 21
108.6250000000000995
 31
0.0
  0
LINE
  5
5E1E
  8
DIMENSION
 62
     3
 10
38.949079804557087
 20
119.281875525106301
 30
0.0
 11
38.949079804557087
 21
113.125
 31
0.0
  0
INSERT
  5
5E1F
  8
0
  2
*U99
 10
0.0
 20
0.0
 30
0.0
  0
LINE
  5
5E20
  8
DIMENSION
 62
     3
 10
38.949079804557087
 20
113.125
 30
0.0
 11
38.9490798045571012
 21
110.6250000000000995
 31
0.0
  0
LINE
  5
5E21
  8
DIMENSION
 62
     3
 10
38.949079804557087
 20
113.125
 30
0.0
 11
38.9490798045571012
 21
110.6250000000000995
 31
0.0
  0
INSERT
  5
5E22
  8
DIMENSION
 62
     3
  2
_OPEN30
 10
38.949079804557087
 20
113.125
 30
0.0
 50
270.0
  0
INSERT
  5
5E23
  8
DIMENSION
 62
     3
  2
_OPEN30
 10
38.9490798045571012
 20
110.6250000000000995
 30
0.0
 50
90.0
  0
POINT
  5
5E24
  8
DEFPOINTS
 62
     0
 10
30.591747357915569
 20
113.125
 30
0.0
  0
POINT
  5
5E25
  8
DEFPOINTS
 62
     0
 10
30.591747357915569
 20
110.6250000000000995
 30
0.0
  0
POINT
  5
5E26
  8
DEFPOINTS
 62
     0
 10
38.9490798045571012
 20
110.6250000000000995
 30
0.0
  0
ENDBLK
  5
3448
  8
0
  0
BLOCK
  8
0
  2
*D22
 70
     1
 10
0.0
 20
0.0
 30
0.0
  3
*D22
  1

  0
LINE
  5
5E27
  8
DIMENSION
 62
     3
 10
149.0
 20
83.2500000000000142
 30
0.0
 11
149.0
 21
89.9828679665341156
 31
0.0
  0
LINE
  5
5E28
  8
DIMENSION
 62
     3
 10
161.0
 20
77.1639110926865897
 30
0.0
 11
161.0
 21
89.9828679665341156
 31
0.0
  0
LINE
  5
5E29
  8
DIMENSION
 62
     3
 10
150.0
 20
88.4828679665341156
 30
0.0
 11
160.0
 21
88.4828679665341156
 31
0.0
  0
INSERT
  5
5E2A
  8
DIMENSION
 62
     3
  2
_OPEN30
 10
149.0
 20
88.4828679665341156
 30
0.0
 50
180.0
  0
INSERT
  5
5E2B
  8
DIMENSION
 62
     3
  2
_OPEN30
 10
161.0
 20
88.4828679665341156
 30
0.0
  0
INSERT
  5
5E2C
  8
0
  2
*U100
 10
0.0
 20
0.0
 30
0.0
  0
POINT
  5
5E2D
  8
DEFPOINTS
 62
     0
 10
149.0
 20
83.2500000000000142
 30
0.0
  0
POINT
  5
5E2E
  8
DEFPOINTS
 62
     0
 10
161.0
 20
77.1639110926865897
 30
0.0
  0
POINT
  5
5E2F
  8
DEFPOINTS
 62
     0
 10
161.0
 20
88.4828679665341156
 30
0.0
  0
ENDBLK
  5
34E7
  8
0
  0
BLOCK
  8
0
  2
*D23
 70
     1
 10
0.0
 20
0.0
 30
0.0
  3
*D23
  1

  0
LINE
  5
5E30
  8
DIMENSION
 62
     3
 10
161.0
 20
81.7500000000000142
 30
0.0
 11
170.9408906918683897
 21
81.7500000000000142
 31
0.0
  0
LINE
  5
5E31
  8
DIMENSION
 62
     3
 10
161.0
 20
72.7500000000000426
 30
0.0
 11
170.9408906918683897
 21
72.7500000000000426
 31
0.0
  0
LINE
  5
5E32
  8
DIMENSION
 62
     3
 10
169.4408906918683897
 20
80.7500000000000142
 30
0.0
 11
169.4408906918683897
 21
73.7500000000000426
 31
0.0
  0
INSERT
  5
5E33
  8
DIMENSION
 62
     3
  2
_OPEN30
 10
169.4408906918683897
 20
81.7500000000000142
 30
0.0
 50
90.0
  0
INSERT
  5
5E34
  8
DIMENSION
 62
     3
  2
_OPEN30
 10
169.4408906918683897
 20
72.7500000000000426
 30
0.0
 50
270.0
  0
INSERT
  5
5E35
  8
0
  2
*U101
 10
0.0
 20
0.0
 30
0.0
  0
POINT
  5
5E36
  8
DEFPOINTS
 62
     0
 10
161.0
 20
81.7500000000000142
 30
0.0
  0
POINT
  5
5E37
  8
DEFPOINTS
 62
     0
 10
161.0
 20
72.7500000000000426
 30
0.0
  0
POINT
  5
5E38
  8
DEFPOINTS
 62
     0
 10
169.4408906918683897
 20
72.7500000000000426
 30
0.0
  0
ENDBLK
  5
34FF
  8
0
  0
BLOCK
  8
0
  2
*D24
 70
     1
 10
0.0
 20
0.0
 30
0.0
  3
*D24
  1

  0
LINE
  5
5E39
  8
DIMENSION
 62
     3
 10
149.0
 20
83.2500000000000142
 30
0.0
 11
177.0099816540351867
 21
83.2500000000000426
 31
0.0
  0
LINE
  5
5E3A
  8
DIMENSION
 62
     3
 10
149.0
 20
71.2500000000000284
 30
0.0
 11
177.0099816540351867
 21
71.2500000000000426
 31
0.0
  0
LINE
  5
5E3B
  8
DIMENSION
 62
     3
 10
175.5099816540351867
 20
82.2500000000000426
 30
0.0
 11
175.5099816540351867
 21
72.2500000000000426
 31
0.0
  0
INSERT
  5
5E3C
  8
DIMENSION
 62
     3
  2
_OPEN30
 10
175.5099816540351867
 20
83.2500000000000426
 30
0.0
 50
90.0
  0
INSERT
  5
5E3D
  8
DIMENSION
 62
     3
  2
_OPEN30
 10
175.5099816540351867
 20
71.2500000000000426
 30
0.0
 50
270.0
  0
INSERT
  5
5E3E
  8
0
  2
*U102
 10
0.0
 20
0.0
 30
0.0
  0
POINT
  5
5E3F
  8
DEFPOINTS
 62
     0
 10
149.0
 20
83.2500000000000142
 30
0.0
  0
POINT
  5
5E40
  8
DEFPOINTS
 62
     0
 10
149.0
 20
71.2500000000000284
 30
0.0
  0
POINT
  5
5E41
  8
DEFPOINTS
 62
     0
 10
175.5099816540351867
 20
71.2500000000000426
 30
0.0
  0
ENDBLK
  5
3517
  8
0
  0
BLOCK
  8
0
  2
*D25
 70
     1
 10
0.0
 20
0.0
 30
0.0
  3
*D25
  1

  0
LINE
  5
5E42
  8
DIMENSION
 62
     3
 10
64.9999999999999858
 20
44.6249999999998934
 30
0.0
 11
64.9999999999999858
 21
60.0007849860636497
 31
0.0
  0
LINE
  5
5E43
  8
DIMENSION
 62
     3
 10
71.4999999999999289
 20
53.1249999999998366
 30
0.0
 11
71.4999999999999289
 21
60.0007849860636497
 31
0.0
  0
LINE
  5
5E44
  8
DIMENSION
 62
     3
 10
65.9999999999999858
 20
58.5007849860636426
 30
0.0
 11
70.4999999999999289
 21
58.5007849860636426
 31
0.0
  0
INSERT
  5
5E45
  8
DIMENSION
 62
     3
  2
_OPEN30
 10
64.9999999999999858
 20
58.5007849860636426
 30
0.0
 50
180.0
  0
INSERT
  5
5E46
  8
DIMENSION
 62
     3
  2
_OPEN30
 10
71.4999999999999289
 20
58.5007849860636426
 30
0.0
  0
INSERT
  5
5E47
  8
0
  2
*U103
 10
0.0
 20
0.0
 30
0.0
  0
POINT
  5
5E48
  8
DEFPOINTS
 62
     0
 10
64.9999999999999858
 20
44.6249999999998934
 30
0.0
  0
POINT
  5
5E49
  8
DEFPOINTS
 62
     0
 10
71.4999999999999289
 20
53.1249999999998366
 30
0.0
  0
POINT
  5
5E4A
  8
DEFPOINTS
 62
     0
 10
71.4999999999999289
 20
58.5007849860636426
 30
0.0
  0
ENDBLK
  5
3547
  8
0
  0
BLOCK
  8
0
  2
*D26
 70
     1
 10
0.0
 20
0.0
 30
0.0
  3
*D26
  1

  0
LINE
  5
5E4B
  8
DIMENSION
 62
     3
 10
71.4999999999999858
 20
52.6250000000000426
 30
0.0
 11
71.4999999999999858
 21
60.0007849860636497
 31
0.0
  0
LINE
  5
5E4C
  8
DIMENSION
 62
     3
 10
76.9999999999999858
 20
52.6250000000000426
 30
0.0
 11
76.9999999999999858
 21
60.0007849860636497
 31
0.0
  0
LINE
  5
5E4D
  8
DIMENSION
 62
     3
 10
72.4999999999999858
 20
58.5007849860636426
 30
0.0
 11
75.9999999999999858
 21
58.5007849860636426
 31
0.0
  0
INSERT
  5
5E4E
  8
DIMENSION
 62
     3
  2
_OPEN30
 10
71.4999999999999858
 20
58.5007849860636426
 30
0.0
 50
180.0
  0
INSERT
  5
5E4F
  8
DIMENSION
 62
     3
  2
_OPEN30
 10
76.9999999999999858
 20
58.5007849860636426
 30
0.0
  0
INSERT
  5
5E50
  8
0
  2
*U104
 10
0.0
 20
0.0
 30
0.0
  0
POINT
  5
5E51
  8
DEFPOINTS
 62
     0
 10
71.4999999999999858
 20
52.6250000000000426
 30
0.0
  0
POINT
  5
5E52
  8
DEFPOINTS
 62
     0
 10
76.9999999999999858
 20
52.6250000000000426
 30
0.0
  0
POINT
  5
5E53
  8
DEFPOINTS
 62
     0
 10
76.9999999999999858
 20
58.5007849860636426
 30
0.0
  0
ENDBLK
  5
355F
  8
0
  0
BLOCK
  8
0
  2
*D27
 70
     1
 10
0.0
 20
0.0
 30
0.0
  3
*D27
  1

  0
LINE
  5
5DBF
  8
DIMENSION
 62
     3
 10
76.9999999999999289
 20
53.1249999999998792
 30
0.0
 11
76.9999999999999289
 21
60.0007849860636497
 31
0.0
  0
LINE
  5
5DC0
  8
DIMENSION
 62
     3
 10
95.9999999999999005
 20
55.6971226828300487
 30
0.0
 11
95.9999999999999005
 21
60.0007849860636497
 31
0.0
  0
LINE
  5
5DC1
  8
DIMENSION
 62
     3
 10
77.9999999999999289
 20
58.5007849860636426
 30
0.0
 11
94.9999999999999147
 21
58.5007849860636426
 31
0.0
  0
INSERT
  5
5DC2
  8
DIMENSION
 62
     3
  2
_OPEN30
 10
76.9999999999999289
 20
58.5007849860636426
 30
0.0
 50
180.0
  0
INSERT
  5
5DC3
  8
DIMENSION
 62
     3
  2
_OPEN30
 10
95.9999999999999005
 20
58.5007849860636426
 30
0.0
  0
INSERT
  5
5DC4
  8
0
  2
*U89
 10
0.0
 20
0.0
 30
0.0
  0
POINT
  5
5DC5
  8
DEFPOINTS
 62
     0
 10
76.9999999999999289
 20
53.1249999999998792
 30
0.0
  0
POINT
  5
5DC6
  8
DEFPOINTS
 62
     0
 10
95.9999999999999005
 20
55.6971226828300487
 30
0.0
  0
POINT
  5
5DC7
  8
DEFPOINTS
 62
     0
 10
95.9999999999999005
 20
58.5007849860636426
 30
0.0
  0
ENDBLK
  5
3577
  8
0
  0
BLOCK
  8
0
  2
*D28
 70
     1
 10
0.0
 20
0.0
 30
0.0
  3
*D28
  1

  0
LINE
  5
5E54
  8
DIMENSION
 62
     3
 10
65.0000000000000284
 20
44.6249999999999005
 30
0.0
 11
58.4963102680709994
 21
44.6249999999999005
 31
0.0
  0
LINE
  5
5E55
  8
DIMENSION
 62
     3
 10
65.0000000000000568
 20
40.6249999999998082
 30
0.0
 11
58.4963102680709994
 21
40.6249999999998082
 31
0.0
  0
LINE
  5
5E56
  8
DIMENSION
 62
     3
 10
59.9963102680709994
 20
43.6249999999999005
 30
0.0
 11
59.9963102680709994
 21
41.624999999999801
 31
0.0
  0
INSERT
  5
5E57
  8
DIMENSION
 62
     3
  2
_OPEN30
 10
59.9963102680709994
 20
44.6249999999999005
 30
0.0
 50
90.0
  0
INSERT
  5
5E58
  8
DIMENSION
 62
     3
  2
_OPEN30
 10
59.9963102680709994
 20
40.6249999999998082
 30
0.0
 50
270.0
  0
INSERT
  5
5E59
  8
0
  2
*U105
 10
0.0
 20
0.0
 30
0.0
  0
POINT
  5
5E5A
  8
DEFPOINTS
 62
     0
 10
65.0000000000000284
 20
44.6249999999999005
 30
0.0
  0
POINT
  5
5E5B
  8
DEFPOINTS
 62
     0
 10
65.0000000000000568
 20
40.6249999999998082
 30
0.0
  0
POINT
  5
5E5C
  8
DEFPOINTS
 62
     0
 10
59.9963102680709994
 20
40.6249999999998082
 30
0.0
  0
ENDBLK
  5
3598
  8
0
  0
BLOCK
  8
0
  2
*D29
 70
     1
 10
0.0
 20
0.0
 30
0.0
  3
*D29
  1

  0
LINE
  5
5DD1
  8
DIMENSION
 62
     3
 10
79.5000000000000142
 20
42.6249999999999005
 30
0.0
 11
79.5000000000000142
 21
22.7256961444848606
 31
0.0
  0
LINE
  5
5DD2
  8
DIMENSION
 62
     3
 10
83.9999548168504617
 20
42.6317216893720428
 30
0.0
 11
83.9999548168504617
 21
22.7256961444848606
 31
0.0
  0
LINE
  5
5DD3
  8
DIMENSION
 62
     3
 10
80.5000000000000142
 20
24.2256961444848606
 30
0.0
 11
82.9999548168504617
 21
24.2256961444848606
 31
0.0
  0
INSERT
  5
5DD4
  8
DIMENSION
 62
     3
  2
_OPEN30
 10
79.5000000000000142
 20
24.2256961444848606
 30
0.0
 50
180.0
  0
INSERT
  5
5DD5
  8
DIMENSION
 62
     3
  2
_OPEN30
 10
83.9999548168504617
 20
24.2256961444848606
 30
0.0
  0
INSERT
  5
5DD6
  8
0
  2
*U91
 10
0.0
 20
0.0
 30
0.0
  0
POINT
  5
5DD7
  8
DEFPOINTS
 62
     0
 10
79.5000000000000142
 20
42.6249999999999005
 30
0.0
  0
POINT
  5
5DD8
  8
DEFPOINTS
 62
     0
 10
83.9999548168504617
 20
42.6317216893720428
 30
0.0
  0
POINT
  5
5DD9
  8
DEFPOINTS
 62
     0
 10
83.9999548168504617
 20
24.2256961444848606
 30
0.0
  0
ENDBLK
  5
35B0
  8
0
  0
BLOCK
  8
0
  2
*D30
 70
     1
 10
0.0
 20
0.0
 30
0.0
  3
*D30
  1

  0
LINE
  5
5E5D
  8
DIMENSION
 62
     3
 10
83.2598076937591145
 20
43.1249999999999432
 30
0.0
 11
88.4808769797288619
 21
43.1249999999999432
 31
0.0
  0
LINE
  5
5E5E
  8
DIMENSION
 62
     3
 10
83.2598076937591145
 20
42.1249999999999432
 30
0.0
 11
88.4808769797288619
 21
42.1249999999999432
 31
0.0
  0
LINE
  5
5E5F
  8
DIMENSION
 62
     3
 10
86.9808769797288477
 20
44.1249999999999432
 30
0.0
 11
86.9808769797288477
 21
45.1249999999999432
 31
0.0
  0
LINE
  5
5E60
  8
DIMENSION
 62
     3
 10
86.9808769797288477
 20
41.1249999999999432
 30
0.0
 11
86.9808769797288477
 21
40.1249999999999432
 31
0.0
  0
INSERT
  5
5E61
  8
0
  2
*U106
 10
0.0
 20
0.0
 30
0.0
  0
LINE
  5
5E62
  8
DIMENSION
 62
     3
 10
86.9808769797288477
 20
43.1249999999999432
 30
0.0
 11
86.9808769797288477
 21
42.1249999999999432
 31
0.0
  0
INSERT
  5
5E63
  8
DIMENSION
 62
     3
  2
_OPEN30
 10
86.9808769797288477
 20
43.1249999999999432
 30
0.0
 50
270.0
  0
INSERT
  5
5E64
  8
DIMENSION
 62
     3
  2
_OPEN30
 10
86.9808769797288477
 20
42.1249999999999432
 30
0.0
 50
90.0
  0
POINT
  5
5E65
  8
DEFPOINTS
 62
     0
 10
83.2598076937591145
 20
43.1249999999999432
 30
0.0
  0
POINT
  5
5E66
  8
DEFPOINTS
 62
     0
 10
83.2598076937591145
 20
42.1249999999999432
 30
0.0
  0
POINT
  5
5E67
  8
DEFPOINTS
 62
     0
 10
86.9808769797288477
 20
42.1249999999999432
 30
0.0
  0
ENDBLK
  5
367F
  8
0
  0
BLOCK
  8
0
  2
*D31
 70
     1
 10
0.0
 20
0.0
 30
0.0
  3
*D31
  1

  0
LINE
  5
5E68
  8
DIMENSION
 62
     3
 10
65.0000000000000426
 20
113.125
 30
0.0
 11
58.5005808025314806
 21
113.125
 31
0.0
  0
LINE
  5
5E69
  8
DIMENSION
 62
     3
 10
66.0000000000000142
 20
110.625
 30
0.0
 11
58.5005808025314806
 21
110.625
 31
0.0
  0
LINE
  5
5E6A
  8
DIMENSION
 62
     3
 10
60.0005808025314806
 20
114.125
 30
0.0
 11
60.0005808025314806
 21
115.125
 31
0.0
  0
LINE
  5
5E6B
  8
DIMENSION
 62
     3
 10
60.0005808025314877
 20
109.625
 30
0.0
 11
60.0005808025314877
 21
108.625
 31
0.0
  0
LINE
  5
5E6C
  8
DIMENSION
 62
     3
 10
60.0005808025314806
 20
118.9890563331583024
 30
0.0
 11
60.0005808025314806
 21
113.125
 31
0.0
  0
INSERT
  5
5E6D
  8
0
  2
*U107
 10
0.0
 20
0.0
 30
0.0
  0
LINE
  5
5E6E
  8
DIMENSION
 62
     3
 10
60.0005808025314806
 20
113.125
 30
0.0
 11
60.0005808025314877
 21
110.625
 31
0.0
  0
LINE
  5
5E6F
  8
DIMENSION
 62
     3
 10
60.0005808025314806
 20
113.125
 30
0.0
 11
60.0005808025314877
 21
110.625
 31
0.0
  0
INSERT
  5
5E70
  8
DIMENSION
 62
     3
  2
_OPEN30
 10
60.0005808025314806
 20
113.125
 30
0.0
 50
270.0
  0
INSERT
  5
5E71
  8
DIMENSION
 62
     3
  2
_OPEN30
 10
60.0005808025314877
 20
110.625
 30
0.0
 50
90.0
  0
POINT
  5
5E72
  8
DEFPOINTS
 62
     0
 10
65.0000000000000426
 20
113.125
 30
0.0
  0
POINT
  5
5E73
  8
DEFPOINTS
 62
     0
 10
66.0000000000000142
 20
110.625
 30
0.0
  0
POINT
  5
5E74
  8
DEFPOINTS
 62
     0
 10
60.0005808025314877
 20
110.625
 30
0.0
  0
ENDBLK
  5
3710
  8
0
  0
BLOCK
  8
0
  2
CW-2
 70
     0
 10
0.0
 20
0.0
 30
0.0
  3
CW-2
  1

  0
LINE
  5
3969
  8
LINE
 10
10.0
 20
287.0
 30
0.0
 11
410.0
 21
287.0
 31
0.0
  0
LINE
  5
396A
  8
LINE
 10
410.0
 20
287.0
 30
0.0
 11
410.0
 21
10.0
 31
0.0
  0
LINE
  5
396B
  8
LINE
 10
410.0
 20
10.0
 30
0.0
 11
10.0000000000000195
 21
10.0
 31
0.0
  0
LINE
  5
396C
  8
LINE
 10
10.0000099999999996
 20
10.0
 30
0.0
 11
10.0000099999999996
 21
287.0
 31
0.0
  0
LINE
  5
396D
  8
SUB_LINE
 10
10.0000000000000195
 20
33.9999999999999929
 30
0.0
 11
410.0
 21
33.9999999999999929
 31
0.0
  0
LINE
  5
396E
  8
SUB_LINE
 10
18.0000000000000213
 20
26.0
 30
0.0
 11
237.0000149999999906
 21
26.0
 31
0.0
  0
LINE
  5
396F
  8
SUB_LINE
 10
18.0000000000000213
 20
18.0
 30
0.0
 11
237.0000149999999906
 21
18.0
 31
0.0
  0
LINE
  5
3970
  8
SUB_LINE
 10
18.0000000000000213
 20
33.9999999999999929
 30
0.0
 11
18.0000000000000213
 21
10.0
 31
0.0
  0
LINE
  5
3971
  8
SUB_LINE
 10
205.0000150000001042
 20
33.9999999999999929
 30
0.0
 11
205.0000150000001042
 21
10.0
 31
0.0
  0
LINE
  5
3972
  8
SUB_LINE
 10
217.0000149999999906
 20
33.9999999999999929
 30
0.0
 11
217.0000149999999906
 21
10.0
 31
0.0
  0
LINE
  5
3973
  8
SUB_LINE
 10
237.0000149999999906
 20
33.9999999999999929
 30
0.0
 11
237.0000149999999906
 21
10.0
 31
0.0
  0
LINE
  5
3974
  8
SUB_LINE
 10
237.0000149999999906
 20
22.0
 30
0.0
 11
360.0000309999999786
 21
22.0
 31
0.0
  0
LINE
  5
3975
  8
SUB_LINE
 10
245.0000150000001042
 20
33.9999999999999929
 30
0.0
 11
245.0000150000001042
 21
10.0
 31
0.0
  0
LINE
  5
3976
  8
SUB_LINE
 10
260.0000309999999786
 20
33.9999999999999929
 30
0.0
 11
260.0000309999999786
 21
10.0
 31
0.0
  0
LINE
  5
3977
  8
SUB_LINE
 10
268.0000309999999786
 20
33.9999999999999929
 30
0.0
 11
268.0000309999999786
 21
10.0
 31
0.0
  0
LINE
  5
3978
  8
SUB_LINE
 10
283.0000309999999786
 20
33.9999999999999929
 30
0.0
 11
283.0000309999999786
 21
10.0
 31
0.0
  0
LINE
  5
3979
  8
SUB_LINE
 10
295.0000309999999786
 20
33.9999999999999929
 30
0.0
 11
295.0000309999999786
 21
10.0
 31
0.0
  0
LINE
  5
397A
  8
SUB_LINE
 10
360.0000309999999786
 20
42.0000009999999904
 30
0.0
 11
360.0000309999999786
 21
10.0
 31
0.0
  0
LINE
  5
397B
  8
SUB_LINE
 10
368.0000309999999786
 20
33.9999999999999929
 30
0.0
 11
368.0000309999999786
 21
18.0
 31
0.0
  0
LINE
  5
397C
  8
SUB_LINE
 10
380.0000310000000923
 20
33.9999999999999929
 30
0.0
 11
380.0000310000000923
 21
18.0
 31
0.0
  0
LINE
  5
397D
  8
SUB_LINE
 10
360.0000309999999786
 20
42.0000009999999904
 30
0.0
 11
410.0
 21
42.0000009999999904
 31
0.0
  0
LINE
  5
397E
  8
SUB_LINE
 10
380.0000310000000923
 20
26.0
 30
0.0
 11
410.0
 21
26.0
 31
0.0
  0
LINE
  5
397F
  8
SUB_LINE
 10
360.0000309999999786
 20
18.0
 30
0.0
 11
410.0
 21
18.0
 31
0.0
  0
LINE
  5
3980
  8
SUB_LINE
 10
370.0000000000001137
 20
42.0000009999999904
 30
0.0
 11
370.0000000000001137
 21
33.9999999999999929
 31
0.0
  0
TEXT
  5
3981
  8
TEXT
 10
12.0000000000000302
 20
24.5
 30
0.0
 40
3.0
  1
摘
  7
GOTHIC
  0
TEXT
  5
3982
  8
TEXT
 10
12.0000000000000302
 20
16.5
 30
0.0
 40
3.0
  1
要
  7
GOTHIC
  0
TEXT
  5
3983
  8
TEXT
 10
206.0000149999999906
 20
28.5
 30
0.0
 40
3.0
  1
材
  7
GOTHIC
  0
TEXT
  5
3984
  8
TEXT
 10
212.0000149999999906
 20
28.5
 30
0.0
 40
3.0
  1
質
  7
GOTHIC
  0
TEXT
  5
3985
  8
TEXT
 10
206.0000149999999906
 20
20.5
 30
0.0
 40
3.0
  1
硬
  7
GOTHIC
  0
TEXT
  5
3986
  8
TEXT
 10
212.0000149999999906
 20
20.5
 30
0.0
 40
3.0
  1
度
  7
GOTHIC
  0
TEXT
  5
3987
  8
TEXT
 10
206.0000149999999906
 20
12.5
 30
0.0
 40
3.0
  1
個
  7
GOTHIC
  0
TEXT
  5
3988
  8
TEXT
 10
212.0000149999999906
 20
12.5
 30
0.0
 40
3.0
  1
数
  7
GOTHIC
  0
TEXT
  5
3989
  8
TEXT
 10
239.0000149999999906
 20
28.5
 30
0.0
 40
3.0
  1
設
  7
GOTHIC
  0
TEXT
  5
398A
  8
TEXT
 10
239.0000149999999906
 20
24.5
 30
0.0
 40
3.0
  1
計
  7
GOTHIC
  0
TEXT
  5
398B
  8
TEXT
 10
239.0000149999999906
 20
16.5
 30
0.0
 40
3.0
  1
検
  7
GOTHIC
  0
TEXT
  5
398C
  8
TEXT
 10
239.0000149999999906
 20
12.5
 30
0.0
 40
3.0
  1
図
  7
GOTHIC
  0
TEXT
  5
398D
  8
TEXT
 10
262.0000309999999786
 20
28.5
 30
0.0
 40
3.0
  1
製
  7
GOTHIC
  0
TEXT
  5
398E
  8
TEXT
 10
262.0000309999999786
 20
24.5
 30
0.0
 40
3.0
  1
図
  7
GOTHIC
  0
TEXT
  5
398F
  8
TEXT
 10
262.0000309999999786
 20
16.5
 30
0.0
 40
3.0
  1
承
  7
GOTHIC
  0
TEXT
  5
3990
  8
TEXT
 10
262.0000309999999786
 20
12.5
 30
0.0
 40
3.0
  1
認
  7
GOTHIC
  0
TEXT
  5
3991
  8
TEXT
 10
286.9999809999999911
 20
28.5
 30
0.0
 40
3.0
  1
機
  7
GOTHIC
  0
TEXT
  5
3992
  8
TEXT
 10
286.9999809999999911
 20
24.5
 30
0.0
 40
3.0
  1
種
  7
GOTHIC
  0
TEXT
  5
3993
  8
TEXT
 10
286.9999809999999911
 20
16.5
 30
0.0
 40
3.0
  1
品
  7
GOTHIC
  0
TEXT
  5
3994
  8
TEXT
 10
286.9999809999999911
 20
12.5
 30
0.0
 40
3.0
  1
名
  7
GOTHIC
  0
TEXT
  5
3995
  8
TEXT
 10
362.0
 20
12.5
 30
0.0
 40
3.0
  1
ベツセル技研工業株式会社
  7
GOTHIC
  0
TEXT
  5
3996
  8
TEXT
 10
361.5000309999999786
 20
36.5000009999999975
 30
0.0
 40
3.0
  1
図
  7
GOTHIC
  0
TEXT
  5
3997
  8
TEXT
 10
365.5000310000000923
 20
36.5000009999999975
 30
0.0
 40
3.0
  1
番
  7
GOTHIC
  0
TEXT
  5
3998
  8
TEXT
 10
362.0117809999999849
 20
28.5
 30
0.0
 40
3.0
  1
尺
  7
GOTHIC
  0
TEXT
  5
3999
  8
TEXT
 10
362.0117809999999849
 20
20.5
 30
0.0
 40
3.0
  1
度
  7
GOTHIC
  0
TEXT
  5
399A
  8
TEXT
 10
371.0
 20
23.5
 30
0.0
 40
5.0
  1
／
  7
GOTHIC
  0
TEXT
  5
399B
  8
TEXT
 10
386.0
 20
27.5
 30
0.0
 40
5.0
  1
３角法
  7
GOTHIC
  0
TEXT
  5
399C
  8
TEXT
 10
370.0
 20
36.0
 30
0.0
 40
4.0
  1

 41
0.85
  7
GOTHIC
 11
370.0
 21
38.0
 31
0.0
 73
     2
  0
TEXT
  5
399D
  8
TEXT
 10
381.0
 20
20.0
 30
0.0
 40
4.0
  1
 "１６／０９／０６
 41
0.6
  7
GOTHIC
 11
381.0
 21
22.0
 31
0.0
 73
     2
  0
TEXT
  5
399E
  8
TEXT
 10
369.0
 20
28.0
 30
0.0
 40
4.0
  1
２
  7
GOTHIC
 11
369.0
 21
30.0
 31
0.0
 73
     2
  0
TEXT
  5
399F
  8
TEXT
 10
374.0
 20
20.0
 30
0.0
 40
4.0
  1
１
  7
GOTHIC
 11
374.0
 21
22.0
 31
0.0
 73
     2
  0
TEXT
  5
39A0
  8
TEXT
  6
CONTINUOUS
 10
312.393432015228484
 20
25.5
 30
0.0
 40
5.0
  1
ＮＺ１５ＡＪ
 41
0.775
  7
GOTHIC
 72
     1
 11
327.5000309999999786
 21
28.0
 31
0.0
 73
     2
  0
TEXT
  5
39A1
  8
TEXT
  6
CONTINUOUS
 10
227.0000149999999906
 20
28.5
 30
0.0
 40
3.0
  1

 41
0.85
  7
GOTHIC
 72
     1
 11
227.0000149999999906
 21
30.0
 31
0.0
 73
     2
  0
TEXT
  5
39A2
  8
TEXT
  6
CONTINUOUS
 10
225.7000150000000076
 20
12.0
 30
0.0
 40
4.0
  1

  7
GOTHIC
 11
225.7000150000000076
 21
14.0
 31
0.0
 73
     2
  0
TEXT
  5
39A3
  8
TEXT
  6
CONTINUOUS
 10
312.393432015228484
 20
13.5
 30
0.0
 40
5.0
  1
試作ブレード
 41
0.775
  7
GOTHIC
 72
     1
 11
327.5000309999999786
 21
16.0
 31
0.0
 73
     2
  0
TEXT
  5
39A4
  8
TEXT
 10
38.0
 20
28.5
 30
0.0
 40
3.0
  1

 41
0.5
  7
GOTHIC
 11
38.0
 21
30.0
 31
0.0
 73
     2
  0
ENDBLK
  5
39A6
  8
0
  0
BLOCK
  8
0
  2
*D33
 70
     1
 10
0.0
 20
0.0
 30
0.0
  3
*D33
  1

  0
LINE
  5
5F70
  8
DIMENSION
 62
     3
 10
156.0
 20
77.1639110926866039
 30
0.0
 11
158.5074971286917105
 21
74.047429398595483
 31
0.0
  0
LINE
  5
5F71
  8
DIMENSION
 62
     3
 10
159.1343714108645031
 20
73.2683089750727277
 30
0.0
 11
165.1491811477779095
 21
65.7927094124475218
 31
0.0
  0
LINE
  5
5F72
  8
DIMENSION
 62
     3
 10
165.1491811477779095
 20
65.7927094124475218
 30
0.0
 11
167.3928359701129125
 21
65.7927094124475218
 31
0.0
  0
INSERT
  5
5F73
  8
DIMENSION
 62
     3
  2
_OPEN30
 10
159.1343714108645031
 20
73.2683089750727277
 30
0.0
 50
308.8198873909797157
  0
INSERT
  5
5F74
  8
0
  2
*U131
 10
0.0
 20
0.0
 30
0.0
  0
POINT
  5
5F75
  8
DEFPOINTS
 62
     0
 10
159.1343714108645031
 20
73.2683089750727277
 30
0.0
  0
POINT
  5
5F76
  8
DEFPOINTS
 62
     0
 10
156.0
 20
77.1639110926866039
 30
0.0
  0
ENDBLK
  5
3BC7
  8
0
  0
BLOCK
  8
0
  2
*D34
 70
     1
 10
0.0
 20
0.0
 30
0.0
  3
*D34
  1

  0
LINE
  5
5E7C
  8
DIMENSION
 62
     3
 10
65.0000000000000142
 20
80.2500000000000142
 30
0.0
 11
65.0000000000000142
 21
88.5363028848116755
 31
0.0
  0
LINE
  5
5E7D
  8
DIMENSION
 62
     3
 10
79.9999999999999858
 20
83.2500000000000142
 30
0.0
 11
79.9999999999999858
 21
88.5363028848116755
 31
0.0
  0
LINE
  5
5E7E
  8
DIMENSION
 62
     3
 10
66.0000000000000142
 20
87.0363028848116755
 30
0.0
 11
78.9999999999999858
 21
87.0363028848116755
 31
0.0
  0
INSERT
  5
5E7F
  8
DIMENSION
 62
     3
  2
_OPEN30
 10
65.0000000000000142
 20
87.0363028848116755
 30
0.0
 50
180.0
  0
INSERT
  5
5E80
  8
DIMENSION
 62
     3
  2
_OPEN30
 10
79.9999999999999858
 20
87.0363028848116755
 30
0.0
  0
INSERT
  5
5E81
  8
0
  2
*U108
 10
0.0
 20
0.0
 30
0.0
  0
POINT
  5
5E82
  8
DEFPOINTS
 62
     0
 10
65.0000000000000142
 20
80.2500000000000142
 30
0.0
  0
POINT
  5
5E83
  8
DEFPOINTS
 62
     0
 10
79.9999999999999858
 20
83.2500000000000142
 30
0.0
  0
POINT
  5
5E84
  8
DEFPOINTS
 62
     0
 10
79.9999999999999858
 20
87.0363028848116755
 30
0.0
  0
ENDBLK
  5
3ECF
  8
0
  0
BLOCK
  8
0
  2
*D35
 70
     1
 10
0.0
 20
0.0
 30
0.0
  3
*D35
  1

  0
LINE
  5
5E85
  8
DIMENSION
 62
     3
 10
27.0917473579155583
 20
118.0093681338069018
 30
0.0
 11
37.7494314608790731
 21
130.7107014522478892
 31
0.0
  0
LINE
  5
5E86
  8
DIMENSION
 62
     3
 10
21.5917473579155583
 20
123.375
 30
0.0
 11
21.5917473579155583
 21
136.5916175204027923
 31
0.0
  0
ARC
  5
5E87
  8
DIMENSION
 62
     3
 10
21.5917473579155512
 20
111.4547233745388013
 30
0.0
 40
23.63689414586403
 50
52.4241786165839798
 51
87.5758213834160131
  0
INSERT
  5
5E88
  8
DIMENSION
 62
     3
  2
_OPEN30
 10
36.7852500463492476
 20
129.5616347875694032
 30
0.0
 50
321.2120893082919793
  0
INSERT
  5
5E89
  8
DIMENSION
 62
     3
  2
_OPEN30
 10
21.5917473579155512
 20
135.0916175204027923
 30
0.0
 50
178.7879106917079923
  0
INSERT
  5
5E8A
  8
0
  2
*U109
 10
0.0
 20
0.0
 30
0.0
  0
POINT
  5
5E8B
  8
DEFPOINTS
 62
     0
 10
32.1999660730644308
 20
132.5774234991521894
 30
0.0
  0
POINT
  5
5E8C
  8
DEFPOINTS
 62
     0
 10
21.5917473579155583
 20
111.875
 30
0.0
  0
POINT
  5
5E8D
  8
DEFPOINTS
 62
     0
 10
27.0917473579155583
 20
118.0093681338069018
 30
0.0
  0
POINT
  5
5E8E
  8
DEFPOINTS
 62
     0
 10
21.9444013193324814
 20
111.875
 30
0.0
  0
POINT
  5
5E8F
  8
DEFPOINTS
 62
     0
 10
21.5917473579155583
 20
123.375
 30
0.0
  0
ENDBLK
  5
4440
  8
0
  0
BLOCK
  8
0
  2
*D36
 70
     1
 10
0.0
 20
0.0
 30
0.0
  3
*D36
  1

  0
LINE
  5
5E90
  8
DIMENSION
 62
     3
 10
21.5917473579155512
 20
123.375
 30
0.0
 11
21.5917473579155583
 21
136.5940280290284932
 31
0.0
  0
LINE
  5
5E91
  8
DIMENSION
 62
     3
 10
21.5917473579155512
 20
113.875
 30
0.0
 11
17.6466295423108797
 21
136.2488749438890068
 31
0.0
  0
ARC
  5
5E92
  8
DIMENSION
 62
     3
 10
21.5917473579155512
 20
113.875
 30
0.0
 40
21.2190280290285891
 50
92.7004574862059911
 51
97.2995425137938668
  0
INSERT
  5
5E93
  8
DIMENSION
 62
     3
  2
_OPEN30
 10
21.5917473579155583
 20
135.0940280290284932
 30
0.0
 50
1.350228743102992
  0
INSERT
  5
5E94
  8
DIMENSION
 62
     3
  2
_OPEN30
 10
17.9071018088112694
 20
134.7716633143706986
 30
0.0
 50
188.6497712568967984
  0
INSERT
  5
5E95
  8
0
  2
*U110
 10
0.0
 20
0.0
 30
0.0
  0
POINT
  5
5E96
  8
DEFPOINTS
 62
     0
 10
20.3579706035211103
 20
135.0581287919659133
 30
0.0
  0
POINT
  5
5E97
  8
DEFPOINTS
 62
     0
 10
21.5917473579155512
 20
111.875
 30
0.0
  0
POINT
  5
5E98
  8
DEFPOINTS
 62
     0
 10
21.5917473579155512
 20
113.875
 30
0.0
  0
POINT
  5
5E99
  8
DEFPOINTS
 62
     0
 10
21.9444013193324814
 20
111.875
 30
0.0
  0
POINT
  5
5E9A
  8
DEFPOINTS
 62
     0
 10
21.5917473579155512
 20
123.375
 30
0.0
  0
ENDBLK
  5
445C
  8
0
  0
BLOCK
  8
0
  2
*D38
 70
     1
 10
0.0
 20
0.0
 30
0.0
  3
*D38
  1

  0
LINE
  5
5E9B
  8
DIMENSION
 62
     3
 10
84.5922375127743464
 20
116.9850836622355956
 30
0.0
 11
76.2884073958977353
 21
98.4475942650159368
 31
0.0
  0
LINE
  5
5E9C
  8
DIMENSION
 62
     3
 10
107.4077624872255967
 20
106.7649163377643049
 30
0.0
 11
99.1039323703489856
 21
88.2274269405445892
 31
0.0
  0
LINE
  5
5E9D
  8
DIMENSION
 62
     3
 10
77.8142384343440767
 20
99.4077190705041431
 30
0.0
 11
98.8045214108392287
 21
90.0051651319904948
 31
0.0
  0
INSERT
  5
5E9E
  8
DIMENSION
 62
     3
  2
_OPEN30
 10
76.9016174353660347
 20
99.8165257634829857
 30
0.0
 50
155.8701048619126937
  0
INSERT
  5
5E9F
  8
DIMENSION
 62
     3
  2
_OPEN30
 10
99.7171424098172849
 20
89.5963584390116665
 30
0.0
 50
335.8701048619128073
  0
INSERT
  5
5EA0
  8
0
  2
*U111
 10
0.0
 20
0.0
 30
0.0
  0
POINT
  5
5EA1
  8
DEFPOINTS
 62
     0
 10
84.5922375127743464
 20
116.9850836622355956
 30
0.0
  0
POINT
  5
5EA2
  8
DEFPOINTS
 62
     0
 10
107.4077624872255967
 20
106.7649163377643049
 30
0.0
  0
POINT
  5
5EA3
  8
DEFPOINTS
 62
     0
 10
99.7171424098172849
 20
89.5963584390116665
 30
0.0
  0
ENDBLK
  5
4519
  8
0
  0
BLOCK
  8
0
  2
*D39
 70
     1
 10
0.0
 20
0.0
 30
0.0
  3
*D39
  1

  0
LINE
  5
5EA4
  8
DIMENSION
 62
     3
 10
65.0000000000000426
 20
71.2500000000000284
 30
0.0
 11
58.5045698954606408
 21
71.2500000000000284
 31
0.0
  0
LINE
  5
5EA5
  8
DIMENSION
 62
     3
 10
65.0000000000000426
 20
76.7500000000000284
 30
0.0
 11
58.5045698954606408
 21
76.7500000000000284
 31
0.0
  0
LINE
  5
5EA6
  8
DIMENSION
 62
     3
 10
60.0045698954606266
 20
72.2500000000000284
 30
0.0
 11
60.0045698954606266
 21
75.7500000000000142
 31
0.0
  0
INSERT
  5
5EA7
  8
DIMENSION
 62
     3
  2
_OPEN30
 10
60.0045698954606266
 20
71.2500000000000284
 30
0.0
 50
270.0
  0
INSERT
  5
5EA8
  8
DIMENSION
 62
     3
  2
_OPEN30
 10
60.0045698954606266
 20
76.7500000000000284
 30
0.0
 50
90.0
  0
INSERT
  5
5EA9
  8
0
  2
*U112
 10
0.0
 20
0.0
 30
0.0
  0
POINT
  5
5EAA
  8
DEFPOINTS
 62
     0
 10
65.0000000000000426
 20
71.2500000000000284
 30
0.0
  0
POINT
  5
5EAB
  8
DEFPOINTS
 62
     0
 10
65.0000000000000426
 20
76.7500000000000284
 30
0.0
  0
POINT
  5
5EAC
  8
DEFPOINTS
 62
     0
 10
60.0045698954606266
 20
76.7500000000000284
 30
0.0
  0
ENDBLK
  5
45D7
  8
0
  0
BLOCK
  8
0
  2
*D40
 70
     1
 10
0.0
 20
0.0
 30
0.0
  3
*D40
  1

  0
LINE
  5
5EAD
  8
DIMENSION
 62
     3
 10
65.0000000000000426
 20
76.7500000000000284
 30
0.0
 11
58.5045698954606408
 21
76.7500000000000284
 31
0.0
  0
LINE
  5
5EAE
  8
DIMENSION
 62
     3
 10
65.0000000000000426
 20
80.2500000000000284
 30
0.0
 11
58.5045698954606408
 21
80.2500000000000284
 31
0.0
  0
LINE
  5
5EAF
  8
DIMENSION
 62
     3
 10
60.0045698954606408
 20
77.7500000000000284
 30
0.0
 11
60.0045698954606408
 21
79.2500000000000284
 31
0.0
  0
LINE
  5
5EB0
  8
DIMENSION
 62
     3
 10
60.0045698954606408
 20
78.5000000000000284
 30
0.0
 11
57.0045698954606408
 21
79.4000000000000341
 31
0.0
  0
LINE
  5
5EB1
  8
DIMENSION
 62
     3
 10
57.0045698954606408
 20
79.4000000000000341
 30
0.0
 11
57.0045698954606266
 21
83.1258883248731166
 31
0.0
  0
INSERT
  5
5EB2
  8
0
  2
*U113
 10
0.0
 20
0.0
 30
0.0
  0
INSERT
  5
5EB3
  8
DIMENSION
 62
     3
  2
_OPEN30
 10
60.0045698954606408
 20
76.7500000000000284
 30
0.0
 50
270.0
  0
INSERT
  5
5EB4
  8
DIMENSION
 62
     3
  2
_OPEN30
 10
60.0045698954606266
 20
80.2500000000000284
 30
0.0
 50
90.0
  0
POINT
  5
5EB5
  8
DEFPOINTS
 62
     0
 10
65.0000000000000426
 20
76.7500000000000284
 30
0.0
  0
POINT
  5
5EB6
  8
DEFPOINTS
 62
     0
 10
65.0000000000000426
 20
80.2500000000000284
 30
0.0
  0
POINT
  5
5EB7
  8
DEFPOINTS
 62
     0
 10
60.0045698954606266
 20
80.2500000000000284
 30
0.0
  0
ENDBLK
  5
45EF
  8
0
  0
BLOCK
  8
0
  2
*D41
 70
     1
 10
0.0
 20
0.0
 30
0.0
  3
*D41
  1

  0
LINE
  5
5EB8
  8
DIMENSION
 62
     3
 10
65.0000000000000426
 20
80.2500000000000284
 30
0.0
 11
58.5045698954606408
 21
80.2500000000000284
 31
0.0
  0
LINE
  5
5EB9
  8
DIMENSION
 62
     3
 10
80.0000000000000142
 20
83.2500000000000142
 30
0.0
 11
58.5045698954606408
 21
83.2500000000000142
 31
0.0
  0
LINE
  5
5EBA
  8
DIMENSION
 62
     3
 10
60.0045698954606408
 20
79.2500000000000284
 30
0.0
 11
60.0045698954606408
 21
78.2500000000000142
 31
0.0
  0
LINE
  5
5EBB
  8
DIMENSION
 62
     3
 10
60.0045698954606266
 20
84.2500000000000142
 30
0.0
 11
60.0045698954606266
 21
85.2500000000000284
 31
0.0
  0
LINE
  5
5EBC
  8
DIMENSION
 62
     3
 10
60.0045698954606266
 20
80.2500000000000284
 30
0.0
 11
60.0045698954606266
 21
83.2500000000000142
 31
0.0
  0
INSERT
  5
5EBD
  8
DIMENSION
 62
     3
  2
_OPEN30
 10
60.0045698954606266
 20
80.2500000000000284
 30
0.0
 50
90.0
  0
INSERT
  5
5EBE
  8
DIMENSION
 62
     3
  2
_OPEN30
 10
60.0045698954606266
 20
83.2500000000000142
 30
0.0
 50
270.0
  0
INSERT
  5
5EBF
  8
0
  2
*U114
 10
0.0
 20
0.0
 30
0.0
  0
POINT
  5
5EC0
  8
DEFPOINTS
 62
     0
 10
65.0000000000000426
 20
80.2500000000000284
 30
0.0
  0
POINT
  5
5EC1
  8
DEFPOINTS
 62
     0
 10
80.0000000000000142
 20
83.2500000000000142
 30
0.0
  0
POINT
  5
5EC2
  8
DEFPOINTS
 62
     0
 10
60.0045698954606266
 20
83.2500000000000142
 30
0.0
  0
ENDBLK
  5
460B
  8
0
  0
BLOCK
  8
0
  2
*D42
 70
     1
 10
0.0
 20
0.0
 30
0.0
  3
*D42
  1

  0
LINE
  5
5EC3
  8
DIMENSION
 62
     3
 10
68.4999999999999716
 20
49.6250000000000284
 30
0.0
 11
53.9920734953965891
 21
49.6250000000000284
 31
0.0
  0
LINE
  5
5EC4
  8
DIMENSION
 62
     3
 10
68.4999999999999716
 20
35.6250000000000995
 30
0.0
 11
53.9920734953965891
 21
35.6250000000000995
 31
0.0
  0
LINE
  5
5EC5
  8
DIMENSION
 62
     3
 10
55.4920734953965891
 20
48.6250000000000284
 30
0.0
 11
55.4920734953966033
 21
36.6250000000000995
 31
0.0
  0
INSERT
  5
5EC6
  8
DIMENSION
 62
     3
  2
_OPEN30
 10
55.4920734953965891
 20
49.6250000000000284
 30
0.0
 50
90.0
  0
INSERT
  5
5EC7
  8
DIMENSION
 62
     3
  2
_OPEN30
 10
55.4920734953966033
 20
35.6250000000000995
 30
0.0
 50
270.0
  0
INSERT
  5
5EC8
  8
0
  2
*U115
 10
0.0
 20
0.0
 30
0.0
  0
POINT
  5
5EC9
  8
DEFPOINTS
 62
     0
 10
68.4999999999999716
 20
49.6250000000000284
 30
0.0
  0
POINT
  5
5ECA
  8
DEFPOINTS
 62
     0
 10
68.4999999999999716
 20
35.6250000000000995
 30
0.0
  0
POINT
  5
5ECB
  8
DEFPOINTS
 62
     0
 10
55.4920734953966033
 20
35.6250000000000995
 30
0.0
  0
ENDBLK
  5
46AE
  8
0
  0
BLOCK
  8
0
  2
*D43
 70
     1
 10
0.0
 20
0.0
 30
0.0
  3
*D43
  1

  0
LINE
  5
5ECC
  8
DIMENSION
 62
     3
 10
116.9999999999999005
 20
48.8749999999999432
 30
0.0
 11
124.4917538944660009
 21
48.8749999999999432
 31
0.0
  0
LINE
  5
5ECD
  8
DIMENSION
 62
     3
 10
117.2999999999999972
 20
43.8749999999999289
 30
0.0
 11
124.4917538944660009
 21
43.8749999999999289
 31
0.0
  0
LINE
  5
5ECE
  8
DIMENSION
 62
     3
 10
122.9917538944660009
 20
47.8749999999999289
 30
0.0
 11
122.9917538944660009
 21
44.8749999999999218
 31
0.0
  0
INSERT
  5
5ECF
  8
DIMENSION
 62
     3
  2
_OPEN30
 10
122.9917538944660009
 20
48.8749999999999432
 30
0.0
 50
90.0
  0
INSERT
  5
5ED0
  8
DIMENSION
 62
     3
  2
_OPEN30
 10
122.9917538944660009
 20
43.8749999999999289
 30
0.0
 50
270.0
  0
INSERT
  5
5ED1
  8
0
  2
*U116
 10
0.0
 20
0.0
 30
0.0
  0
POINT
  5
5ED2
  8
DEFPOINTS
 62
     0
 10
116.9999999999999005
 20
48.8749999999999432
 30
0.0
  0
POINT
  5
5ED3
  8
DEFPOINTS
 62
     0
 10
117.2999999999999972
 20
43.8749999999999289
 30
0.0
  0
POINT
  5
5ED4
  8
DEFPOINTS
 62
     0
 10
122.9917538944660009
 20
43.8749999999999289
 30
0.0
  0
ENDBLK
  5
4750
  8
0
  0
BLOCK
  8
0
  2
*D44
 70
     1
 10
0.0
 20
0.0
 30
0.0
  3
*D44
  1

  0
LINE
  5
5ED5
  8
DIMENSION
 62
     3
 10
111.0
 20
48.6250000000000071
 30
0.0
 11
111.0
 21
44.4498664437619482
 31
0.0
  0
LINE
  5
5ED6
  8
DIMENSION
 62
     3
 10
116.9999999999999005
 20
48.625
 30
0.0
 11
116.9999999999999005
 21
44.4498664437619482
 31
0.0
  0
LINE
  5
5ED7
  8
DIMENSION
 62
     3
 10
112.0
 20
45.9498664437619411
 30
0.0
 11
115.9999999999999005
 21
45.9498664437619411
 31
0.0
  0
INSERT
  5
5ED8
  8
DIMENSION
 62
     3
  2
_OPEN30
 10
111.0
 20
45.9498664437619411
 30
0.0
 50
180.0
  0
INSERT
  5
5ED9
  8
DIMENSION
 62
     3
  2
_OPEN30
 10
116.9999999999999005
 20
45.9498664437619411
 30
0.0
  0
INSERT
  5
5EDA
  8
0
  2
*U117
 10
0.0
 20
0.0
 30
0.0
  0
POINT
  5
5EDB
  8
DEFPOINTS
 62
     0
 10
111.0
 20
48.6250000000000071
 30
0.0
  0
POINT
  5
5EDC
  8
DEFPOINTS
 62
     0
 10
116.9999999999999005
 20
48.625
 30
0.0
  0
POINT
  5
5EDD
  8
DEFPOINTS
 62
     0
 10
116.9999999999999005
 20
45.9498664437619411
 30
0.0
  0
ENDBLK
  5
477A
  8
0
  0
BLOCK
  8
0
  2
CW-3
 70
     0
 10
0.0
 20
0.0
 30
0.0
  3
CW-3
  1

  0
LINE
  5
47B7
  8
LINE
 10
10.0
 20
287.0
 30
0.0
 11
410.0
 21
287.0
 31
0.0
  0
LINE
  5
47B8
  8
LINE
 10
410.0
 20
287.0
 30
0.0
 11
410.0
 21
10.0
 31
0.0
  0
LINE
  5
47B9
  8
LINE
 10
410.0
 20
10.0
 30
0.0
 11
10.0000000000000195
 21
10.0
 31
0.0
  0
LINE
  5
47BA
  8
LINE
 10
10.0000099999999996
 20
10.0
 30
0.0
 11
10.0000099999999996
 21
287.0
 31
0.0
  0
LINE
  5
47BB
  8
SUB_LINE
 10
10.0000000000000195
 20
33.9999999999999929
 30
0.0
 11
410.0
 21
33.9999999999999929
 31
0.0
  0
LINE
  5
47BC
  8
SUB_LINE
 10
18.0000000000000213
 20
26.0
 30
0.0
 11
237.0000149999999906
 21
26.0
 31
0.0
  0
LINE
  5
47BD
  8
SUB_LINE
 10
18.0000000000000213
 20
18.0
 30
0.0
 11
237.0000149999999906
 21
18.0
 31
0.0
  0
LINE
  5
47BE
  8
SUB_LINE
 10
18.0000000000000213
 20
33.9999999999999929
 30
0.0
 11
18.0000000000000213
 21
10.0
 31
0.0
  0
LINE
  5
47BF
  8
SUB_LINE
 10
205.0000150000001042
 20
33.9999999999999929
 30
0.0
 11
205.0000150000001042
 21
10.0
 31
0.0
  0
LINE
  5
47C0
  8
SUB_LINE
 10
217.0000149999999906
 20
33.9999999999999929
 30
0.0
 11
217.0000149999999906
 21
10.0
 31
0.0
  0
LINE
  5
47C1
  8
SUB_LINE
 10
237.0000149999999906
 20
33.9999999999999929
 30
0.0
 11
237.0000149999999906
 21
10.0
 31
0.0
  0
LINE
  5
47C2
  8
SUB_LINE
 10
237.0000149999999906
 20
22.0
 30
0.0
 11
360.0000309999999786
 21
22.0
 31
0.0
  0
LINE
  5
47C3
  8
SUB_LINE
 10
245.0000150000001042
 20
33.9999999999999929
 30
0.0
 11
245.0000150000001042
 21
10.0
 31
0.0
  0
LINE
  5
47C4
  8
SUB_LINE
 10
260.0000309999999786
 20
33.9999999999999929
 30
0.0
 11
260.0000309999999786
 21
10.0
 31
0.0
  0
LINE
  5
47C5
  8
SUB_LINE
 10
268.0000309999999786
 20
33.9999999999999929
 30
0.0
 11
268.0000309999999786
 21
10.0
 31
0.0
  0
LINE
  5
47C6
  8
SUB_LINE
 10
283.0000309999999786
 20
33.9999999999999929
 30
0.0
 11
283.0000309999999786
 21
10.0
 31
0.0
  0
LINE
  5
47C7
  8
SUB_LINE
 10
295.0000309999999786
 20
33.9999999999999929
 30
0.0
 11
295.0000309999999786
 21
10.0
 31
0.0
  0
LINE
  5
47C8
  8
SUB_LINE
 10
360.0000309999999786
 20
42.0000009999999904
 30
0.0
 11
360.0000309999999786
 21
10.0
 31
0.0
  0
LINE
  5
47C9
  8
SUB_LINE
 10
368.0000309999999786
 20
33.9999999999999929
 30
0.0
 11
368.0000309999999786
 21
18.0
 31
0.0
  0
LINE
  5
47CA
  8
SUB_LINE
 10
380.0000310000000923
 20
33.9999999999999929
 30
0.0
 11
380.0000310000000923
 21
18.0
 31
0.0
  0
LINE
  5
47CB
  8
SUB_LINE
 10
360.0000309999999786
 20
42.0000009999999904
 30
0.0
 11
410.0
 21
42.0000009999999904
 31
0.0
  0
LINE
  5
47CC
  8
SUB_LINE
 10
380.0000310000000923
 20
26.0
 30
0.0
 11
410.0
 21
26.0
 31
0.0
  0
LINE
  5
47CD
  8
SUB_LINE
 10
360.0000309999999786
 20
18.0
 30
0.0
 11
410.0
 21
18.0
 31
0.0
  0
LINE
  5
47CE
  8
SUB_LINE
 10
370.0000000000001137
 20
42.0000009999999904
 30
0.0
 11
370.0000000000001137
 21
33.9999999999999929
 31
0.0
  0
TEXT
  5
47CF
  8
TEXT
 10
12.0000000000000302
 20
24.5
 30
0.0
 40
3.0
  1
摘
  7
GOTHIC
  0
TEXT
  5
47D0
  8
TEXT
 10
12.0000000000000302
 20
16.5
 30
0.0
 40
3.0
  1
要
  7
GOTHIC
  0
TEXT
  5
47D1
  8
TEXT
 10
206.0000149999999906
 20
28.5
 30
0.0
 40
3.0
  1
材
  7
GOTHIC
  0
TEXT
  5
47D2
  8
TEXT
 10
212.0000149999999906
 20
28.5
 30
0.0
 40
3.0
  1
質
  7
GOTHIC
  0
TEXT
  5
47D3
  8
TEXT
 10
206.0000149999999906
 20
20.5
 30
0.0
 40
3.0
  1
硬
  7
GOTHIC
  0
TEXT
  5
47D4
  8
TEXT
 10
212.0000149999999906
 20
20.5
 30
0.0
 40
3.0
  1
度
  7
GOTHIC
  0
TEXT
  5
47D5
  8
TEXT
 10
206.0000149999999906
 20
12.5
 30
0.0
 40
3.0
  1
個
  7
GOTHIC
  0
TEXT
  5
47D6
  8
TEXT
 10
212.0000149999999906
 20
12.5
 30
0.0
 40
3.0
  1
数
  7
GOTHIC
  0
TEXT
  5
47D7
  8
TEXT
 10
239.0000149999999906
 20
28.5
 30
0.0
 40
3.0
  1
設
  7
GOTHIC
  0
TEXT
  5
47D8
  8
TEXT
 10
239.0000149999999906
 20
24.5
 30
0.0
 40
3.0
  1
計
  7
GOTHIC
  0
TEXT
  5
47D9
  8
TEXT
 10
239.0000149999999906
 20
16.5
 30
0.0
 40
3.0
  1
検
  7
GOTHIC
  0
TEXT
  5
47DA
  8
TEXT
 10
239.0000149999999906
 20
12.5
 30
0.0
 40
3.0
  1
図
  7
GOTHIC
  0
TEXT
  5
47DB
  8
TEXT
 10
262.0000309999999786
 20
28.5
 30
0.0
 40
3.0
  1
製
  7
GOTHIC
  0
TEXT
  5
47DC
  8
TEXT
 10
262.0000309999999786
 20
24.5
 30
0.0
 40
3.0
  1
図
  7
GOTHIC
  0
TEXT
  5
47DD
  8
TEXT
 10
262.0000309999999786
 20
16.5
 30
0.0
 40
3.0
  1
承
  7
GOTHIC
  0
TEXT
  5
47DE
  8
TEXT
 10
262.0000309999999786
 20
12.5
 30
0.0
 40
3.0
  1
認
  7
GOTHIC
  0
TEXT
  5
47DF
  8
TEXT
 10
286.9999809999999911
 20
28.5
 30
0.0
 40
3.0
  1
機
  7
GOTHIC
  0
TEXT
  5
47E0
  8
TEXT
 10
286.9999809999999911
 20
24.5
 30
0.0
 40
3.0
  1
種
  7
GOTHIC
  0
TEXT
  5
47E1
  8
TEXT
 10
286.9999809999999911
 20
16.5
 30
0.0
 40
3.0
  1
品
  7
GOTHIC
  0
TEXT
  5
47E2
  8
TEXT
 10
286.9999809999999911
 20
12.5
 30
0.0
 40
3.0
  1
名
  7
GOTHIC
  0
TEXT
  5
47E3
  8
TEXT
 10
362.0
 20
12.5
 30
0.0
 40
3.0
  1
ベツセル技研工業株式会社
  7
GOTHIC
  0
TEXT
  5
47E4
  8
TEXT
 10
361.5000309999999786
 20
36.5000009999999975
 30
0.0
 40
3.0
  1
図
  7
GOTHIC
  0
TEXT
  5
47E5
  8
TEXT
 10
365.5000310000000923
 20
36.5000009999999975
 30
0.0
 40
3.0
  1
番
  7
GOTHIC
  0
TEXT
  5
47E6
  8
TEXT
 10
362.0117809999999849
 20
28.5
 30
0.0
 40
3.0
  1
尺
  7
GOTHIC
  0
TEXT
  5
47E7
  8
TEXT
 10
362.0117809999999849
 20
20.5
 30
0.0
 40
3.0
  1
度
  7
GOTHIC
  0
TEXT
  5
47E8
  8
TEXT
 10
371.0
 20
23.5
 30
0.0
 40
5.0
  1
／
  7
GOTHIC
  0
TEXT
  5
47E9
  8
TEXT
 10
386.0
 20
27.5
 30
0.0
 40
5.0
  1
３角法
  7
GOTHIC
  0
TEXT
  5
47EA
  8
TEXT
 10
370.0
 20
36.0
 30
0.0
 40
4.0
  1

 41
0.85
  7
GOTHIC
 11
370.0
 21
38.0
 31
0.0
 73
     2
  0
TEXT
  5
47EB
  8
TEXT
 10
381.0
 20
20.0
 30
0.0
 40
4.0
  1
 "１６／１１／１５
 41
0.6
  7
GOTHIC
 11
381.0
 21
22.0
 31
0.0
 73
     2
  0
TEXT
  5
47EC
  8
TEXT
 10
369.0
 20
28.0
 30
0.0
 40
4.0
  1
２
  7
GOTHIC
 11
369.0
 21
30.0
 31
0.0
 73
     2
  0
TEXT
  5
47ED
  8
TEXT
 10
374.0
 20
20.0
 30
0.0
 40
4.0
  1
１
  7
GOTHIC
 11
374.0
 21
22.0
 31
0.0
 73
     2
  0
TEXT
  5
47EE
  8
TEXT
  6
CONTINUOUS
 10
312.393432015228484
 20
25.5
 30
0.0
 40
5.0
  1
ＮＺ１５ＡＪ
 41
0.775
  7
GOTHIC
 72
     1
 11
327.5000309999999786
 21
28.0
 31
0.0
 73
     2
  0
TEXT
  5
47EF
  8
TEXT
  6
CONTINUOUS
 10
227.0000149999999906
 20
28.5
 30
0.0
 40
3.0
  1

 41
0.85
  7
GOTHIC
 72
     1
 11
227.0000149999999906
 21
30.0
 31
0.0
 73
     2
  0
TEXT
  5
47F0
  8
TEXT
  6
CONTINUOUS
 10
225.7000150000000076
 20
12.0
 30
0.0
 40
4.0
  1

  7
GOTHIC
 11
225.7000150000000076
 21
14.0
 31
0.0
 73
     2
  0
TEXT
  5
47F1
  8
TEXT
  6
CONTINUOUS
 10
312.393432015228484
 20
13.5
 30
0.0
 40
5.0
  1
試作ブレード
 41
0.775
  7
GOTHIC
 72
     1
 11
327.5000309999999786
 21
16.0
 31
0.0
 73
     2
  0
TEXT
  5
47F2
  8
TEXT
 10
38.0
 20
28.5
 30
0.0
 40
3.0
  1

 41
0.5
  7
GOTHIC
 11
38.0
 21
30.0
 31
0.0
 73
     2
  0
ENDBLK
  5
47F4
  8
0
  0
BLOCK
  8
0
  2
*D46
 70
     1
 10
0.0
 20
0.0
 30
0.0
  3
*D46
  1

  0
LINE
  5
5EDE
  8
DIMENSION
 62
     3
 10
69.5999999999999943
 20
71.7500000000000284
 30
0.0
 11
61.4546680903480933
 21
71.7500000000000284
 31
0.0
  0
LINE
  5
5EDF
  8
DIMENSION
 62
     3
 10
69.4660254037844567
 20
71.2500000000000284
 30
0.0
 11
61.4546680903480933
 21
71.2500000000000284
 31
0.0
  0
LINE
  5
5EE0
  8
DIMENSION
 62
     3
 10
62.9546680903481004
 20
72.7500000000000284
 30
0.0
 11
62.9546680903481004
 21
73.7500000000000284
 31
0.0
  0
LINE
  5
5EE1
  8
DIMENSION
 62
     3
 10
62.9546680903481004
 20
70.2500000000000284
 30
0.0
 11
62.9546680903481004
 21
69.2500000000000284
 31
0.0
  0
LINE
  5
5EE2
  8
DIMENSION
 62
     3
 10
62.9546680903481004
 20
65.4454008527372508
 30
0.0
 11
62.9546680903481004
 21
71.2500000000000284
 31
0.0
  0
INSERT
  5
5EE3
  8
0
  2
*U118
 10
0.0
 20
0.0
 30
0.0
  0
LINE
  5
5EE4
  8
DIMENSION
 62
     3
 10
62.9546680903481004
 20
71.7500000000000284
 30
0.0
 11
62.9546680903481004
 21
71.2500000000000284
 31
0.0
  0
LINE
  5
5EE5
  8
DIMENSION
 62
     3
 10
62.9546680903481004
 20
71.7500000000000284
 30
0.0
 11
62.9546680903481004
 21
71.2500000000000284
 31
0.0
  0
INSERT
  5
5EE6
  8
DIMENSION
 62
     3
  2
_OPEN30
 10
62.9546680903481004
 20
71.7500000000000284
 30
0.0
 50
270.0
  0
INSERT
  5
5EE7
  8
DIMENSION
 62
     3
  2
_OPEN30
 10
62.9546680903481004
 20
71.2500000000000284
 30
0.0
 50
90.0
  0
POINT
  5
5EE8
  8
DEFPOINTS
 62
     0
 10
69.5999999999999943
 20
71.7500000000000284
 30
0.0
  0
POINT
  5
5EE9
  8
DEFPOINTS
 62
     0
 10
69.4660254037844567
 20
71.2500000000000284
 30
0.0
  0
POINT
  5
5EEA
  8
DEFPOINTS
 62
     0
 10
62.9546680903481004
 20
71.2500000000000284
 30
0.0
  0
ENDBLK
  5
4CD3
  8
0
  0
BLOCK
  8
0
  2
*D47
 70
     1
 10
0.0
 20
0.0
 30
0.0
  3
*D47
  1

  0
LINE
  5
5EEB
  8
DIMENSION
 62
     3
 10
69.5999999999999801
 20
71.25
 30
0.0
 11
69.5999999999999801
 21
66.0082227533330297
 31
0.0
  0
LINE
  5
5EEC
  8
DIMENSION
 62
     3
 10
73.4000000000000767
 20
71.25
 30
0.0
 11
73.4000000000000767
 21
66.0082227533330297
 31
0.0
  0
LINE
  5
5EED
  8
DIMENSION
 62
     3
 10
70.5999999999999801
 20
67.5082227533330297
 30
0.0
 11
72.4000000000000767
 21
67.5082227533330297
 31
0.0
  0
INSERT
  5
5EEE
  8
DIMENSION
 62
     3
  2
_OPEN30
 10
69.5999999999999801
 20
67.5082227533330297
 30
0.0
 50
180.0
  0
INSERT
  5
5EEF
  8
DIMENSION
 62
     3
  2
_OPEN30
 10
73.4000000000000767
 20
67.5082227533330297
 30
0.0
  0
INSERT
  5
5EF0
  8
0
  2
*U119
 10
0.0
 20
0.0
 30
0.0
  0
POINT
  5
5EF1
  8
DEFPOINTS
 62
     0
 10
69.5999999999999801
 20
71.25
 30
0.0
  0
POINT
  5
5EF2
  8
DEFPOINTS
 62
     0
 10
73.4000000000000767
 20
71.25
 30
0.0
  0
POINT
  5
5EF3
  8
DEFPOINTS
 62
     0
 10
73.4000000000000767
 20
67.5082227533330297
 30
0.0
  0
ENDBLK
  5
4D02
  8
0
  0
BLOCK
  8
0
  2
*D48
 70
     1
 10
0.0
 20
0.0
 30
0.0
  3
*D48
  1

  0
LINE
  5
5EF4
  8
DIMENSION
 62
     3
 10
69.747527506725433
 20
71.75
 30
0.0
 11
63.9981161020145706
 21
66.0005885952890594
 31
0.0
  0
LINE
  5
5EF5
  8
DIMENSION
 62
     3
 10
73.2524724932746238
 20
71.75
 30
0.0
 11
79.0018838979854792
 21
66.0005885952890452
 31
0.0
  0
ARC
  5
5EF6
  8
DIMENSION
 62
     3
 10
71.5000000000000284
 20
73.5024724932746238
 30
0.0
 40
9.1092659518794559
 50
231.2929976144712043
 51
308.7070023855288241
  0
INSERT
  5
5EF7
  8
DIMENSION
 62
     3
  2
_OPEN30
 10
65.0587762737943791
 20
67.0612487670688893
 30
0.0
 50
138.1464988072357869
  0
INSERT
  5
5EF8
  8
DIMENSION
 62
     3
  2
_OPEN30
 10
77.9412237262056635
 20
67.0612487670688751
 30
0.0
 50
41.8535011927641705
  0
INSERT
  5
5EF9
  8
0
  2
*U120
 10
0.0
 20
0.0
 30
0.0
  0
POINT
  5
5EFA
  8
DEFPOINTS
 62
     0
 10
69.1423484847497036
 20
64.7035972518185645
 30
0.0
  0
POINT
  5
5EFB
  8
DEFPOINTS
 62
     0
 10
69.747527506725433
 20
71.75
 30
0.0
  0
POINT
  5
5EFC
  8
DEFPOINTS
 62
     0
 10
73.2524724932746238
 20
71.75
 30
0.0
  0
POINT
  5
5EFD
  8
DEFPOINTS
 62
     0
 10
72.5000000000000284
 20
72.5024724932746096
 30
0.0
  0
POINT
  5
5EFE
  8
DEFPOINTS
 62
     0
 10
70.5000000000000284
 20
72.5024724932746096
 30
0.0
  0
ENDBLK
  5
4D1A
  8
0
  0
BLOCK
  8
0
  2
*D49
 70
     1
 10
0.0
 20
0.0
 30
0.0
  3
*D49
  1

  0
LINE
  5
5EFF
  8
DIMENSION
 62
     3
 10
132.0
 20
113.125
 30
0.0
 11
128.3128766879206069
 21
113.125
 31
0.0
  0
LINE
  5
5F00
  8
DIMENSION
 62
     3
 10
132.0
 20
110.625
 30
0.0
 11
128.3128766879206069
 21
110.625
 31
0.0
  0
LINE
  5
5F01
  8
DIMENSION
 62
     3
 10
129.8128766879206069
 20
114.125
 30
0.0
 11
129.8128766879206069
 21
115.125
 31
0.0
  0
LINE
  5
5F02
  8
DIMENSION
 62
     3
 10
129.8128766879206069
 20
109.625
 30
0.0
 11
129.8128766879206069
 21
108.625
 31
0.0
  0
LINE
  5
5F03
  8
DIMENSION
 62
     3
 10
129.8128766879206069
 20
119.0011771182414009
 30
0.0
 11
129.8128766879206069
 21
113.125
 31
0.0
  0
INSERT
  5
5F04
  8
0
  2
*U121
 10
0.0
 20
0.0
 30
0.0
  0
LINE
  5
5F05
  8
DIMENSION
 62
     3
 10
129.8128766879206069
 20
113.125
 30
0.0
 11
129.8128766879206069
 21
110.625
 31
0.0
  0
LINE
  5
5F06
  8
DIMENSION
 62
     3
 10
129.8128766879206069
 20
113.125
 30
0.0
 11
129.8128766879206069
 21
110.625
 31
0.0
  0
INSERT
  5
5F07
  8
DIMENSION
 62
     3
  2
_OPEN30
 10
129.8128766879206069
 20
113.125
 30
0.0
 50
270.0
  0
INSERT
  5
5F08
  8
DIMENSION
 62
     3
  2
_OPEN30
 10
129.8128766879206069
 20
110.625
 30
0.0
 50
90.0
  0
POINT
  5
5F09
  8
DEFPOINTS
 62
     0
 10
132.0
 20
113.125
 30
0.0
  0
POINT
  5
5F0A
  8
DEFPOINTS
 62
     0
 10
132.0
 20
110.625
 30
0.0
  0
POINT
  5
5F0B
  8
DEFPOINTS
 62
     0
 10
129.8128766879206069
 20
110.625
 30
0.0
  0
ENDBLK
  5
5353
  8
0
  0
BLOCK
  8
0
  2
*D50
 70
     1
 10
0.0
 20
0.0
 30
0.0
  3
*D50
  1

  0
LINE
  5
5F0C
  8
DIMENSION
 62
     3
 10
175.7385321097686131
 20
102.375
 30
0.0
 11
172.4963810805134017
 21
102.375
 31
0.0
  0
LINE
  5
5F0D
  8
DIMENSION
 62
     3
 10
181.7385321097684994
 20
100.375
 30
0.0
 11
172.4963810805134017
 21
100.375
 31
0.0
  0
LINE
  5
5F0E
  8
DIMENSION
 62
     3
 10
173.9963810805134017
 20
103.375
 30
0.0
 11
173.9963810805134017
 21
104.375
 31
0.0
  0
LINE
  5
5F0F
  8
DIMENSION
 62
     3
 10
173.9963810805134017
 20
99.3750000000000711
 30
0.0
 11
173.9963810805134017
 21
98.3750000000000568
 31
0.0
  0
LINE
  5
5F10
  8
DIMENSION
 62
     3
 10
173.9963810805134017
 20
102.375
 30
0.0
 11
173.9963810805134017
 21
100.375
 31
0.0
  0
INSERT
  5
5F11
  8
DIMENSION
 62
     3
  2
_OPEN30
 10
173.9963810805134017
 20
102.375
 30
0.0
 50
270.0
  0
INSERT
  5
5F12
  8
DIMENSION
 62
     3
  2
_OPEN30
 10
173.9963810805134017
 20
100.375
 30
0.0
 50
90.0
  0
INSERT
  5
5F13
  8
0
  2
*U122
 10
0.0
 20
0.0
 30
0.0
  0
POINT
  5
5F14
  8
DEFPOINTS
 62
     0
 10
175.7385321097686131
 20
102.375
 30
0.0
  0
POINT
  5
5F15
  8
DEFPOINTS
 62
     0
 10
181.7385321097684994
 20
100.375
 30
0.0
  0
POINT
  5
5F16
  8
DEFPOINTS
 62
     0
 10
173.9963810805134017
 20
100.375
 30
0.0
  0
ENDBLK
  5
53ED
  8
0
  0
BLOCK
  8
0
  2
*D51
 70
     1
 10
0.0
 20
0.0
 30
0.0
  3
*D51
  1

  0
LINE
  5
5F17
  8
DIMENSION
 62
     3
 10
177.2385321097684994
 20
118.3467819796342013
 30
0.0
 11
177.2385321097684994
 21
131.0272118233700951
 31
0.0
  0
LINE
  5
5F18
  8
DIMENSION
 62
     3
 10
186.2385321097684141
 20
118.3467819796342013
 30
0.0
 11
186.2385321097684141
 21
131.0272118233700951
 31
0.0
  0
LINE
  5
5F19
  8
DIMENSION
 62
     3
 10
178.2385321097684141
 20
129.5272118233700951
 30
0.0
 11
185.2385321097684141
 21
129.5272118233700951
 31
0.0
  0
INSERT
  5
5F1A
  8
DIMENSION
 62
     3
  2
_OPEN30
 10
177.2385321097684994
 20
129.5272118233700951
 30
0.0
 50
180.0
  0
INSERT
  5
5F1B
  8
DIMENSION
 62
     3
  2
_OPEN30
 10
186.2385321097684141
 20
129.5272118233700951
 30
0.0
  0
INSERT
  5
5F1C
  8
0
  2
*U123
 10
0.0
 20
0.0
 30
0.0
  0
POINT
  5
5F1D
  8
DEFPOINTS
 62
     0
 10
177.2385321097684994
 20
118.3467819796342013
 30
0.0
  0
POINT
  5
5F1E
  8
DEFPOINTS
 62
     0
 10
186.2385321097684141
 20
118.3467819796342013
 30
0.0
  0
POINT
  5
5F1F
  8
DEFPOINTS
 62
     0
 10
186.2385321097684141
 20
129.5272118233700951
 30
0.0
  0
ENDBLK
  5
5409
  8
0
  0
BLOCK
  8
0
  2
*D52
 70
     1
 10
0.0
 20
0.0
 30
0.0
  3
*D52
  1

  0
LINE
  5
5F20
  8
DIMENSION
 62
     3
 10
25.5417473579155505
 20
83.2500000000000142
 30
0.0
 11
25.5417473579155505
 21
87.0
 31
0.0
  0
LINE
  5
5F21
  8
DIMENSION
 62
     3
 10
29.6417473579155484
 20
83.2500000000000142
 30
0.0
 11
29.6417473579155484
 21
87.0
 31
0.0
  0
LINE
  5
5F22
  8
DIMENSION
 62
     3
 10
26.5417473579155505
 20
85.5
 30
0.0
 11
28.6417473579155484
 21
85.5
 31
0.0
  0
LINE
  5
5F23
  8
DIMENSION
 62
     3
 10
43.8274419105311495
 20
85.5
 30
0.0
 11
29.6417473579155484
 21
85.5
 31
0.0
  0
INSERT
  5
5F24
  8
0
  2
*U124
 10
0.0
 20
0.0
 30
0.0
  0
INSERT
  5
5F25
  8
DIMENSION
 62
     3
  2
_OPEN30
 10
25.5417473579155505
 20
85.5
 30
0.0
 50
180.0
  0
INSERT
  5
5F26
  8
DIMENSION
 62
     3
  2
_OPEN30
 10
29.6417473579155484
 20
85.5
 30
0.0
  0
POINT
  5
5F27
  8
DEFPOINTS
 62
     0
 10
25.5417473579155505
 20
83.2500000000000142
 30
0.0
  0
POINT
  5
5F28
  8
DEFPOINTS
 62
     0
 10
29.6417473579155484
 20
83.2500000000000142
 30
0.0
  0
POINT
  5
5F29
  8
DEFPOINTS
 62
     0
 10
29.6417473579155484
 20
85.5
 30
0.0
  0
ENDBLK
  5
5AE7
  8
0
  0
BLOCK
  8
0
  2
*D53
 70
     1
 10
0.0
 20
0.0
 30
0.0
  3
*D53
  1

  0
LINE
  5
5F2A
  8
DIMENSION
 62
     3
 10
23.0917473579155512
 20
81.25
 30
0.0
 11
23.0917473579155512
 21
90.0
 31
0.0
  0
LINE
  5
5F2B
  8
DIMENSION
 62
     3
 10
32.0917473579155512
 20
81.25
 30
0.0
 11
32.0917473579155512
 21
90.0
 31
0.0
  0
LINE
  5
5F2C
  8
DIMENSION
 62
     3
 10
24.0917473579155512
 20
88.4999999999999858
 30
0.0
 11
31.0917473579155512
 21
88.4999999999999858
 31
0.0
  0
INSERT
  5
5F2D
  8
DIMENSION
 62
     3
  2
_OPEN30
 10
23.0917473579155512
 20
88.4999999999999858
 30
0.0
 50
180.0
  0
INSERT
  5
5F2E
  8
DIMENSION
 62
     3
  2
_OPEN30
 10
32.0917473579155512
 20
88.4999999999999858
 30
0.0
  0
INSERT
  5
5F2F
  8
0
  2
*U125
 10
0.0
 20
0.0
 30
0.0
  0
POINT
  5
5F30
  8
DEFPOINTS
 62
     0
 10
23.0917473579155512
 20
81.25
 30
0.0
  0
POINT
  5
5F31
  8
DEFPOINTS
 62
     0
 10
32.0917473579155512
 20
81.25
 30
0.0
  0
POINT
  5
5F32
  8
DEFPOINTS
 62
     0
 10
32.0917473579155512
 20
88.4999999999999858
 30
0.0
  0
ENDBLK
  5
5B24
  8
0
  0
BLOCK
  8
0
  2
*D54
 70
     1
 10
0.0
 20
0.0
 30
0.0
  3
*D54
  1

  0
LINE
  5
5F33
  8
DIMENSION
 62
     3
 10
23.0917473579155512
 20
74.7141016151377642
 30
0.0
 11
23.0917473579155512
 21
64.5
 31
0.0
  0
LINE
  5
5F34
  8
DIMENSION
 62
     3
 10
32.0917473579155512
 20
74.7141016151377642
 30
0.0
 11
32.0917473579155512
 21
64.5
 31
0.0
  0
LINE
  5
5F35
  8
DIMENSION
 62
     3
 10
24.0917473579155512
 20
66.0
 30
0.0
 11
31.0917473579155512
 21
66.0
 31
0.0
  0
INSERT
  5
5F36
  8
DIMENSION
 62
     3
  2
_OPEN30
 10
23.0917473579155512
 20
66.0
 30
0.0
 50
180.0
  0
INSERT
  5
5F37
  8
DIMENSION
 62
     3
  2
_OPEN30
 10
32.0917473579155512
 20
66.0
 30
0.0
  0
INSERT
  5
5F38
  8
0
  2
*U126
 10
0.0
 20
0.0
 30
0.0
  0
POINT
  5
5F39
  8
DEFPOINTS
 62
     0
 10
23.0917473579155512
 20
74.7141016151377642
 30
0.0
  0
POINT
  5
5F3A
  8
DEFPOINTS
 62
     0
 10
32.0917473579155512
 20
74.7141016151377642
 30
0.0
  0
POINT
  5
5F3B
  8
DEFPOINTS
 62
     0
 10
32.0917473579155512
 20
66.0
 30
0.0
  0
ENDBLK
  5
5B7B
  8
0
  0
BLOCK
  8
0
  2
*D55
 70
     1
 10
0.0
 20
0.0
 30
0.0
  3
*D55
  1

  0
LINE
  5
5F3C
  8
DIMENSION
 62
     3
 10
21.0917473579155512
 20
83.2500000000000142
 30
0.0
 11
16.9128353907410087
 21
87.4289119671745425
 31
0.0
  0
ARC
  5
5F3D
  8
DIMENSION
 62
     3
 10
23.0917473579155512
 20
81.2499999999999858
 30
0.0
 40
7.238301104687646
 50
97.9219477759185253
 51
127.0780522240815031
  0
INSERT
  5
5F3E
  8
DIMENSION
 62
     3
  2
_OPEN30
 10
23.0917473579155512
 20
88.4883011046876646
 30
0.0
 50
3.9609738879592529
  0
INSERT
  5
5F3F
  8
DIMENSION
 62
     3
  2
_OPEN30
 10
17.9734955625208315
 20
86.3682517953947126
 30
0.0
 50
221.0390261120408013
  0
INSERT
  5
5F40
  8
0
  2
*U127
 10
0.0
 20
0.0
 30
0.0
  0
POINT
  5
5F41
  8
DEFPOINTS
 62
     0
 10
21.218337177835771
 20
88.2416619754744573
 30
0.0
  0
POINT
  5
5F42
  8
DEFPOINTS
 62
     0
 10
21.0917473579155512
 20
83.2500000000000142
 30
0.0
  0
POINT
  5
5F43
  8
DEFPOINTS
 62
     0
 10
23.0917473579155512
 20
74.7141016151377642
 30
0.0
  0
POINT
  5
5F44
  8
DEFPOINTS
 62
     0
 10
23.0917473579155512
 20
81.2499999999999858
 30
0.0
  0
POINT
  5
5F45
  8
DEFPOINTS
 62
     0
 10
23.0917473579155512
 20
81.2499999999999858
 30
0.0
  0
ENDBLK
  5
5BD2
  8
0
  0
BLOCK
  8
0
  2
*D56
 70
     1
 10
0.0
 20
0.0
 30
0.0
  3
*D56
  1

  0
LINE
  5
5F46
  8
DIMENSION
 62
     3
 10
21.0917473579155583
 20
71.25
 30
0.0
 11
17.9781307483546087
 21
65.857057836950105
 31
0.0
  0
LINE
  5
5F47
  8
DIMENSION
 62
     3
 10
23.0917473579155583
 20
74.7141016151377642
 30
0.0
 11
23.0917473579155583
 21
64.4868683960158933
 31
0.0
  0
ARC
  5
5F48
  8
DIMENSION
 62
     3
 10
23.0917473579155583
 20
74.7141016151377642
 30
0.0
 40
8.7272332191218691
 50
246.5687679859979085
 51
263.4312320140019779
  0
INSERT
  5
5F49
  8
DIMENSION
 62
     3
  2
_OPEN30
 10
18.7281307483546087
 20
67.156095942626763
 30
0.0
 50
153.2843839929988974
  0
INSERT
  5
5F4A
  8
DIMENSION
 62
     3
  2
_OPEN30
 10
23.0917473579155512
 20
65.9868683960158933
 30
0.0
 50
356.7156160070010742
  0
INSERT
  5
5F4B
  8
0
  2
*U128
 10
0.0
 20
0.0
 30
0.0
  0
POINT
  5
5F4C
  8
DEFPOINTS
 62
     0
 10
20.1068578014749484
 20
66.5131849592512907
 30
0.0
  0
POINT
  5
5F4D
  8
DEFPOINTS
 62
     0
 10
21.0917473579155583
 20
71.25
 30
0.0
  0
POINT
  5
5F4E
  8
DEFPOINTS
 62
     0
 10
23.0917473579155583
 20
74.7141016151377642
 30
0.0
  0
POINT
  5
5F4F
  8
DEFPOINTS
 62
     0
 10
23.0917473579155583
 20
81.2499999999999858
 30
0.0
  0
POINT
  5
5F50
  8
DEFPOINTS
 62
     0
 10
23.0917473579155583
 20
74.7141016151377642
 30
0.0
  0
ENDBLK
  5
5C02
  8
0
  0
BLOCK
  8
0
  2
*D57
 70
     1
 10
0.0
 20
0.0
 30
0.0
  3
*D57
  1

  0
LINE
  5
5F6A
  8
DIMENSION
 62
     3
 10
105.5262794416288017
 20
106.375
 30
0.0
 11
86.4737205583711557
 21
117.3749999999999005
 31
0.0
  0
INSERT
  5
5F6B
  8
DIMENSION
 62
     3
  2
_OPEN30
 10
106.3923048454133067
 20
105.875
 30
0.0
 50
330.0000000000005116
  0
INSERT
  5
5F6C
  8
DIMENSION
 62
     3
  2
_OPEN30
 10
85.6076951545867075
 20
117.8749999999999005
 30
0.0
 50
150.0000000000003979
  0
INSERT
  5
5F6D
  8
0
  2
*U130
 10
0.0
 20
0.0
 30
0.0
  0
POINT
  5
5F6E
  8
DEFPOINTS
 62
     0
 10
85.6076951545867075
 20
117.8749999999999005
 30
0.0
  0
POINT
  5
5F6F
  8
DEFPOINTS
 62
     0
 10
106.3923048454133067
 20
105.875
 30
0.0
  0
ENDBLK
  5
5C35
  8
0
  0
BLOCK
  8
0
  2
*D58
 70
     1
 10
0.0
 20
0.0
 30
0.0
  3
*D58
  1

  0
LINE
  5
5F77
  8
DIMENSION
 62
     3
 10
174.4057572026221976
 20
41.3261150095496106
 30
0.0
 11
189.0713070169148011
 21
49.9238849904513629
 31
0.0
  0
LINE
  5
5F78
  8
DIMENSION
 62
     3
 10
189.933986417755591
 20
50.4296361657985202
 30
0.0
 11
190.9188965447617932
 21
51.0070458661567869
 31
0.0
  0
LINE
  5
5F79
  8
DIMENSION
 62
     3
 10
190.9188965447617932
 20
51.0070458661567869
 30
0.0
 11
194.807221417858301
 21
51.0070458661567869
 31
0.0
  0
INSERT
  5
5F7A
  8
DIMENSION
 62
     3
  2
_OPEN30
 10
173.543077801781493
 20
40.8203638342024604
 30
0.0
 50
210.3812297600493082
  0
INSERT
  5
5F7B
  8
DIMENSION
 62
     3
  2
_OPEN30
 10
189.933986417755591
 20
50.4296361657985202
 30
0.0
 50
30.3812297600493117
  0
INSERT
  5
5F7C
  8
0
  2
*U132
 10
0.0
 20
0.0
 30
0.0
  0
POINT
  5
5F7D
  8
DEFPOINTS
 62
     0
 10
189.933986417755591
 20
50.4296361657985202
 30
0.0
  0
POINT
  5
5F7E
  8
DEFPOINTS
 62
     0
 10
173.543077801781493
 20
40.8203638342024604
 30
0.0
  0
ENDBLK
  5
5CA8
  8
0
  0
BLOCK
  8
0
  2
*D59
 70
     1
 10
0.0
 20
0.0
 30
0.0
  3
*D59
  1

  0
LINE
  5
5F5F
  8
DIMENSION
 62
     3
 10
188.1305271143598077
 20
53.9552100730585877
 30
0.0
 11
190.8751392759334919
 21
57.5320582806300891
 31
0.0
  0
LINE
  5
5F60
  8
DIMENSION
 62
     3
 10
185.7567081496021046
 20
55.3257350913688768
 30
0.0
 11
187.4820434820530863
 21
59.491063050613171
 31
0.0
  0
ARC
  5
5F61
  8
DIMENSION
 62
     3
 10
181.7385321097684141
 20
45.6250000000004476
 30
0.0
 40
13.5085184947458892
 50
56.7424245311775977
 51
63.2575754688224308
  0
INSERT
  5
5F62
  8
DIMENSION
 62
     3
  2
_OPEN30
 10
189.9619971324204073
 20
56.342028270193218
 30
0.0
 50
324.62121226558952
  0
INSERT
  5
5F63
  8
DIMENSION
 62
     3
  2
_OPEN30
 10
186.908018333505396
 20
58.1052437518462384
 30
0.0
 50
155.3787877344105084
  0
INSERT
  5
5F64
  8
0
  2
*U129
 10
0.0
 20
0.0
 30
0.0
  0
POINT
  5
5F65
  8
DEFPOINTS
 62
     0
 10
188.9966538063411008
 20
57.0179689440743473
 30
0.0
  0
POINT
  5
5F66
  8
DEFPOINTS
 62
     0
 10
185.7567081496021046
 20
55.3257350913688768
 30
0.0
  0
POINT
  5
5F67
  8
DEFPOINTS
 62
     0
 10
188.1305271143598077
 20
53.9552100730585877
 30
0.0
  0
POINT
  5
5F68
  8
DEFPOINTS
 62
     0
 10
175.3465371051771058
 20
37.2947899269423075
 30
0.0
  0
POINT
  5
5F69
  8
DEFPOINTS
 62
     0
 10
177.7203560699346951
 20
35.9242649086320327
 30
0.0
  0
ENDBLK
  5
5CCE
  8
0
  0
BLOCK
  8
0
  2
*U60
 70
     1
 10
0.0
 20
0.0
 30
0.0
  3
*U60
  1

  0
INSERT
  5
6072
  8
DIMENSION
  2
_OPEN30
 10
66.1718701453781648
 20
115.721039967251798
 30
0.0
 50
315.0
  0
POLYLINE
  5
6073
  8
DIMENSION
 66
     1
 10
0.0
 20
0.0
 30
0.0
  0
VERTEX
  5
6074
  8
DIMENSION
 10
65.4647633641916116
 20
116.4281467484382944
 30
0.0
  0
VERTEX
  5
6075
  8
DIMENSION
 10
54.4611911854366468
 20
127.4317189271933017
 30
0.0
  0
SEQEND
  5
6076
  8
DIMENSION
  0
ENDBLK
  5
6078
  8
0
  0
BLOCK
  8
0
  2
*U61
 70
     1
 10
0.0
 20
0.0
 30
0.0
  3
*U61
  1

  0
INSERT
  5
607A
  8
DIMENSION
  2
_OPEN30
 10
73.5005144018346783
 20
80.25
 30
0.0
 50
296.0681313170708222
  0
POLYLINE
  5
607B
  8
DIMENSION
 66
     1
 10
0.0
 20
0.0
 30
0.0
  0
VERTEX
  5
607C
  8
DIMENSION
 10
73.0610747950177171
 20
81.1482721369165034
 30
0.0
  0
VERTEX
  5
607D
  8
DIMENSION
 10
68.7531618290645383
 20
89.9542107131106263
 30
0.0
  0
VERTEX
  5
607E
  8
DIMENSION
 10
68.6530428080346979
 20
89.9542107131106263
 30
0.0
  0
VERTEX
  5
607F
  8
DIMENSION
 10
60.7596417928062706
 20
89.9542107131106263
 30
0.0
  0
SEQEND
  5
6080
  8
DIMENSION
  0
ENDBLK
  5
6082
  8
0
  0
BLOCK
  8
0
  2
*U62
 70
     1
 10
0.0
 20
0.0
 30
0.0
  3
*U62
  1

  0
TEXT
  5
6084
  8
DIMENSION
 62
     3
 10
60.4931443308773424
 20
90.6064949770699997
 30
0.0
 40
1.5
  1
ウレタン
  7
GOTHIC
  0
ENDBLK
  5
6086
  8
0
  0
BLOCK
  8
0
  2
*U63
 70
     1
 10
0.0
 20
0.0
 30
0.0
  3
*U63
  1

  0
INSERT
  5
6088
  8
DIMENSION
  2
_OPEN30
 10
69.6618672027980921
 20
103.0188424113958945
 30
0.0
 50
60.0
  0
POLYLINE
  5
6089
  8
DIMENSION
 66
     1
 10
0.0
 20
0.0
 30
0.0
  0
VERTEX
  5
608A
  8
DIMENSION
 10
69.1618672027980921
 20
102.1528170076115032
 30
0.0
  0
VERTEX
  5
608B
  8
DIMENSION
 10
67.3201314236959689
 20
98.9628370640891859
 30
0.0
  0
VERTEX
  5
608C
  8
DIMENSION
 10
67.2469553351339755
 20
98.9628370640891859
 30
0.0
  0
VERTEX
  5
608D
  8
DIMENSION
 10
64.0286812234588467
 20
98.9628370640891859
 30
0.0
  0
SEQEND
  5
608E
  8
DIMENSION
  0
ENDBLK
  5
6090
  8
0
  0
BLOCK
  8
0
  2
*U64
 70
     1
 10
0.0
 20
0.0
 30
0.0
  3
*U64
  1

  0
TEXT
  5
6092
  8
DIMENSION
 62
     3
 10
63.9373106650832099
 20
99.4628370640892001
 30
0.0
 40
1.5
  1
R13
  7
GOTHIC
  0
ENDBLK
  5
6094
  8
0
  0
BLOCK
  8
0
  2
*X65
 70
     1
 10
0.0
 20
0.0
 30
0.0
  3
*X65
  1

  0
LINE
  5
6096
  8
0
 62
     0
 10
79.2733733758409613
 20
76.7880920016023651
 30
0.0
 11
79.9619079983976491
 21
77.4766266241590671
 31
0.0
  0
LINE
  5
6097
  8
0
 62
     0
 10
78.5281745930520287
 20
76.75
 30
0.0
 11
80.0000000000000284
 21
78.2218254069479997
 31
0.0
  0
LINE
  5
6098
  8
0
 62
     0
 10
78.0000000000000426
 20
76.9289321881345529
 30
0.0
 11
80.0000000000000142
 21
78.9289321881345387
 31
0.0
  0
LINE
  5
6099
  8
0
 62
     0
 10
77.8210678118654755
 20
76.75
 30
0.0
 11
78.0000000000000426
 21
76.9289321881345529
 31
0.0
  0
LINE
  5
609A
  8
0
 62
     0
 10
78.0000000000000426
 20
77.6360389693211204
 30
0.0
 11
80.0000000000000142
 21
79.6360389693210919
 31
0.0
  0
LINE
  5
609B
  8
0
 62
     0
 10
77.1139610306789365
 20
76.7500000000000142
 30
0.0
 11
78.0000000000000426
 21
77.6360389693211204
 31
0.0
  0
LINE
  5
609C
  8
0
 62
     0
 10
77.0000000000000142
 20
77.3431457505076594
 30
0.0
 11
78.0000000000000426
 21
78.3431457505076736
 31
0.0
  0
LINE
  5
609D
  8
0
 62
     0
 10
78.0000000000000426
 20
78.3431457505076736
 30
0.0
 11
79.9068542494923832
 21
80.2500000000000142
 31
0.0
  0
LINE
  5
609E
  8
0
 62
     0
 10
76.4068542494923832
 20
76.7500000000000142
 30
0.0
 11
77.0000000000000142
 21
77.3431457505076594
 31
0.0
  0
LINE
  5
609F
  8
0
 62
     0
 10
77.0000000000000426
 20
78.0502525316941984
 30
0.0
 11
78.0000000000000284
 21
79.0502525316941842
 31
0.0
  0
LINE
  5
60A0
  8
0
 62
     0
 10
76.0000000000000426
 20
77.0502525316941984
 30
0.0
 11
77.0000000000000426
 21
78.0502525316941984
 31
0.0
  0
LINE
  5
60A1
  8
0
 62
     0
 10
78.0000000000000284
 20
79.0502525316941842
 30
0.0
 11
79.1997474683058584
 21
80.2500000000000142
 31
0.0
  0
LINE
  5
60A2
  8
0
 62
     0
 10
75.6997474683058442
 20
76.75
 30
0.0
 11
76.0000000000000426
 21
77.0502525316941984
 31
0.0
  0
LINE
  5
60A3
  8
0
 62
     0
 10
77.0000000000000426
 20
78.7573593128807516
 30
0.0
 11
78.0000000000000284
 21
79.7573593128807374
 31
0.0
  0
LINE
  5
60A4
  8
0
 62
     0
 10
76.0000000000000284
 20
77.7573593128807374
 30
0.0
 11
77.0000000000000426
 21
78.7573593128807516
 31
0.0
  0
LINE
  5
60A5
  8
0
 62
     0
 10
78.0000000000000284
 20
79.7573593128807374
 30
0.0
 11
78.4926406871193052
 21
80.2500000000000142
 31
0.0
  0
LINE
  5
60A6
  8
0
 62
     0
 10
74.992640687119291
 20
76.75
 30
0.0
 11
76.0000000000000284
 21
77.7573593128807374
 31
0.0
  0
LINE
  5
60A7
  8
0
 62
     0
 10
76.0000000000000426
 20
78.4644660940673049
 30
0.0
 11
77.0000000000000426
 21
79.4644660940673049
 31
0.0
  0
LINE
  5
60A8
  8
0
 62
     0
 10
77.0000000000000426
 20
79.4644660940673049
 30
0.0
 11
77.785533905932752
 21
80.2500000000000142
 31
0.0
  0
LINE
  5
60A9
  8
0
 62
     0
 10
74.2855339059327378
 20
76.75
 30
0.0
 11
76.0000000000000426
 21
78.4644660940673049
 31
0.0
  0
LINE
  5
60AA
  8
0
 62
     0
 10
76.0000000000000284
 20
79.1715728752538439
 30
0.0
 11
77.0000000000000142
 21
80.1715728752538439
 31
0.0
  0
LINE
  5
60AB
  8
0
 62
     0
 10
77.0000000000000142
 20
80.1715728752538439
 30
0.0
 11
77.0784271247461987
 21
80.2500000000000142
 31
0.0
  0
LINE
  5
60AC
  8
0
 62
     0
 10
73.5784271247461987
 20
76.7500000000000142
 30
0.0
 11
76.0000000000000284
 21
79.1715728752538439
 31
0.0
  0
LINE
  5
60AD
  8
0
 62
     0
 10
76.0000000000000284
 20
79.8786796564403829
 30
0.0
 11
76.3713203435596455
 21
80.2500000000000142
 31
0.0
  0
LINE
  5
60AE
  8
0
 62
     0
 10
72.8713203435596455
 20
76.7500000000000142
 30
0.0
 11
76.0000000000000284
 21
79.8786796564403829
 31
0.0
  0
LINE
  5
60AF
  8
0
 62
     0
 10
72.5000000000000142
 20
77.0857864376269077
 30
0.0
 11
75.6642135623731207
 21
80.2500000000000142
 31
0.0
  0
LINE
  5
60B0
  8
0
 62
     0
 10
72.1642135623731065
 20
76.75
 30
0.0
 11
72.5000000000000142
 21
77.0857864376269077
 31
0.0
  0
LINE
  5
60B1
  8
0
 62
     0
 10
71.5000000000000284
 20
76.7928932188134752
 30
0.0
 11
72.5
 21
77.7928932188134468
 31
0.0
  0
LINE
  5
60B2
  8
0
 62
     0
 10
72.5
 20
77.7928932188134468
 30
0.0
 11
74.9571067811865674
 21
80.2500000000000142
 31
0.0
  0
LINE
  5
60B3
  8
0
 62
     0
 10
71.4571067811865532
 20
76.75
 30
0.0
 11
71.5000000000000284
 21
76.7928932188134752
 31
0.0
  0
LINE
  5
60B4
  8
0
 62
     0
 10
71.5000000000000426
 20
77.5000000000000426
 30
0.0
 11
72.5000000000000142
 21
78.5000000000000142
 31
0.0
  0
LINE
  5
60B5
  8
0
 62
     0
 10
72.5000000000000142
 20
78.5000000000000142
 30
0.0
 11
74.2500000000000142
 21
80.2500000000000142
 31
0.0
  0
LINE
  5
60B6
  8
0
 62
     0
 10
70.75
 20
76.75
 30
0.0
 11
71.5000000000000426
 21
77.5000000000000426
 31
0.0
  0
LINE
  5
60B7
  8
0
 62
     0
 10
71.5000000000000426
 20
78.2071067811865959
 30
0.0
 11
72.5
 21
79.2071067811865532
 31
0.0
  0
LINE
  5
60B8
  8
0
 62
     0
 10
70.5000000000000426
 20
77.2071067811865959
 30
0.0
 11
71.5000000000000426
 21
78.2071067811865959
 31
0.0
  0
LINE
  5
60B9
  8
0
 62
     0
 10
72.5
 20
79.2071067811865532
 30
0.0
 11
73.542893218813461
 21
80.2500000000000142
 31
0.0
  0
LINE
  5
60BA
  8
0
 62
     0
 10
70.042893218813461
 20
76.7500000000000142
 30
0.0
 11
70.5000000000000426
 21
77.2071067811865959
 31
0.0
  0
LINE
  5
60BB
  8
0
 62
     0
 10
71.5000000000000284
 20
78.9142135623731349
 30
0.0
 11
72.5
 21
79.9142135623731065
 31
0.0
  0
LINE
  5
60BC
  8
0
 62
     0
 10
70.5000000000000284
 20
77.9142135623731349
 30
0.0
 11
71.5000000000000284
 21
78.9142135623731349
 31
0.0
  0
LINE
  5
60BD
  8
0
 62
     0
 10
72.5
 20
79.9142135623731065
 30
0.0
 11
72.8357864376269077
 21
80.2500000000000142
 31
0.0
  0
LINE
  5
60BE
  8
0
 62
     0
 10
69.3357864376268935
 20
76.7500000000000142
 30
0.0
 11
70.5000000000000284
 21
77.9142135623731349
 31
0.0
  0
LINE
  5
60BF
  8
0
 62
     0
 10
70.5000000000000568
 20
78.6213203435596881
 30
0.0
 11
71.5000000000000426
 21
79.6213203435596739
 31
0.0
  0
LINE
  5
60C0
  8
0
 62
     0
 10
71.5000000000000426
 20
79.6213203435596739
 30
0.0
 11
72.1286796564403829
 21
80.2500000000000142
 31
0.0
  0
LINE
  5
60C1
  8
0
 62
     0
 10
68.6286796564403687
 20
76.75
 30
0.0
 11
70.5000000000000568
 21
78.6213203435596881
 31
0.0
  0
LINE
  5
60C2
  8
0
 62
     0
 10
70.5000000000000426
 20
79.3284271247462272
 30
0.0
 11
71.4215728752538297
 21
80.2500000000000142
 31
0.0
  0
LINE
  5
60C3
  8
0
 62
     0
 10
67.9215728752538155
 20
76.75
 30
0.0
 11
70.5000000000000426
 21
79.3284271247462272
 31
0.0
  0
LINE
  5
60C4
  8
0
 62
     0
 10
70.5000000000000426
 20
80.0355339059327804
 30
0.0
 11
70.7144660940672765
 21
80.2500000000000142
 31
0.0
  0
LINE
  5
60C5
  8
0
 62
     0
 10
67.2144660940672622
 20
76.75
 30
0.0
 11
70.5000000000000426
 21
80.0355339059327804
 31
0.0
  0
LINE
  5
60C6
  8
0
 62
     0
 10
66.5073593128807232
 20
76.7500000000000142
 30
0.0
 11
70.0073593128807232
 21
80.2500000000000142
 31
0.0
  0
LINE
  5
60C7
  8
0
 62
     0
 10
65.8002525316941558
 20
76.7500000000000142
 30
0.0
 11
69.30025253169417
 21
80.2500000000000142
 31
0.0
  0
LINE
  5
60C8
  8
0
 62
     0
 10
65.093145750507631
 20
76.75
 30
0.0
 11
68.5931457505076452
 21
80.2500000000000142
 31
0.0
  0
LINE
  5
60C9
  8
0
 62
     0
 10
65.0000000000000284
 20
77.3639610306789507
 30
0.0
 11
67.8860389693210919
 21
80.2500000000000142
 31
0.0
  0
LINE
  5
60CA
  8
0
 62
     0
 10
65.0000000000000142
 20
78.0710678118654897
 30
0.0
 11
67.1789321881345387
 21
80.2500000000000142
 31
0.0
  0
LINE
  5
60CB
  8
0
 62
     0
 10
65.0000000000000142
 20
78.778174593052043
 30
0.0
 11
66.4718254069479855
 21
80.2500000000000142
 31
0.0
  0
LINE
  5
60CC
  8
0
 62
     0
 10
65.0000000000000284
 20
79.4852813742386104
 30
0.0
 11
65.7647186257614322
 21
80.2500000000000142
 31
0.0
  0
LINE
  5
60CD
  8
0
 62
     0
 10
65.0000000000000284
 20
80.1923881554251352
 30
0.0
 11
65.0576118445748932
 21
80.2500000000000142
 31
0.0
  0
ENDBLK
  5
60CF
  8
0
  0
BLOCK
  8
0
  2
*U66
 70
     1
 10
0.0
 20
0.0
 30
0.0
  3
*U66
  1

  0
INSERT
  5
60D1
  8
DIMENSION
  2
_OPEN30
 10
79.7071067811865532
 20
77.0428932188134468
 30
0.0
 50
119.9999999999999005
  0
POLYLINE
  5
60D2
  8
DIMENSION
 66
     1
 10
0.0
 20
0.0
 30
0.0
  0
VERTEX
  5
60D3
  8
DIMENSION
 10
80.2071067811865532
 20
76.1768678150290128
 30
0.0
  0
VERTEX
  5
60D4
  8
DIMENSION
 10
85.296920042594337
 20
67.3610526452328457
 30
0.0
  0
VERTEX
  5
60D5
  8
DIMENSION
 10
85.8147660908096981
 20
67.3610526452328457
 30
0.0
  0
VERTEX
  5
60D6
  8
DIMENSION
 10
87.7919234512158084
 20
67.3610526452328457
 30
0.0
  0
SEQEND
  5
60D7
  8
DIMENSION
  0
ENDBLK
  5
60D9
  8
0
  0
BLOCK
  8
0
  2
*U67
 70
     1
 10
0.0
 20
0.0
 30
0.0
  3
*U67
  1

  0
TEXT
  5
60DB
  8
DIMENSION
 62
     3
 10
86.2233955324340826
 20
67.8610526452328457
 30
0.0
 40
1.5
  1
R1
  7
GOTHIC
  0
ENDBLK
  5
60DD
  8
0
  0
BLOCK
  8
0
  2
*U68
 70
     1
 10
0.0
 20
0.0
 30
0.0
  3
*U68
  1

  0
INSERT
  5
60DF
  8
DIMENSION
  2
_OPEN30
 10
117.0
 20
105.875
 30
0.0
 50
119.9999999999999005
  0
POLYLINE
  5
60E0
  8
DIMENSION
 66
     1
 10
0.0
 20
0.0
 30
0.0
  0
VERTEX
  5
60E1
  8
DIMENSION
 10
117.5
 20
105.008974596215495
 30
0.0
  0
VERTEX
  5
60E2
  8
DIMENSION
 10
122.7197495977110009
 20
95.9681030901927699
 30
0.0
  0
VERTEX
  5
60E3
  8
DIMENSION
 10
123.1839330080426009
 20
95.9681030901927699
 30
0.0
  0
VERTEX
  5
60E4
  8
DIMENSION
 10
129.9961157491592871
 20
95.9681030901927699
 30
0.0
  0
SEQEND
  5
60E5
  8
DIMENSION
  0
ENDBLK
  5
60E7
  8
0
  0
BLOCK
  8
0
  2
*U69
 70
     1
 10
0.0
 20
0.0
 30
0.0
  3
*U69
  1

  0
TEXT
  5
60E9
  8
DIMENSION
 62
     3
 10
123.2879939217481962
 20
96.7117579125278013
 30
0.0
 40
1.5
  1
φ6 深5
  7
GOTHIC
  0
ENDBLK
  5
60EB
  8
0
  0
BLOCK
  8
0
  2
*U70
 70
     1
 10
0.0
 20
0.0
 30
0.0
  3
*U70
  1

  0
INSERT
  5
60ED
  8
DIMENSION
  2
_OPEN30
 10
76.4960547512015552
 20
119.7387355997141043
 30
0.0
 50
300.0
  0
POLYLINE
  5
60EE
  8
DIMENSION
 66
     1
 10
0.0
 20
0.0
 30
0.0
  0
VERTEX
  5
60EF
  8
DIMENSION
 10
75.9960547512015552
 20
120.6047610034984956
 30
0.0
  0
VERTEX
  5
60F0
  8
DIMENSION
 10
73.768854138624917
 20
124.4623856231298049
 30
0.0
  0
VERTEX
  5
60F1
  8
DIMENSION
 10
73.2942112625688793
 20
124.4623856231298049
 30
0.0
  0
VERTEX
  5
60F2
  8
DIMENSION
 10
68.0886275062237019
 20
124.4623856231298049
 30
0.0
  0
SEQEND
  5
60F3
  8
DIMENSION
  0
ENDBLK
  5
60F5
  8
0
  0
BLOCK
  8
0
  2
*U71
 70
     1
 10
0.0
 20
0.0
 30
0.0
  3
*U71
  1

  0
TEXT
  5
60F7
  8
DIMENSION
 62
     3
 10
68.027713800639944
 20
125.2060404454647937
 30
0.0
 40
1.5
  1
4-φ2
  7
GOTHIC
  0
ENDBLK
  5
60F9
  8
0
  0
BLOCK
  8
0
  2
*U72
 70
     1
 10
0.0
 20
0.0
 30
0.0
  3
*U72
  1

  0
INSERT
  5
60FB
  8
DIMENSION
  2
_OPEN30
 10
30.0865332922651305
 20
115.8648839340762038
 30
0.0
 50
226.9778746058516106
  0
POLYLINE
  5
60FC
  8
DIMENSION
 66
     1
 10
0.0
 20
0.0
 30
0.0
  0
VERTEX
  5
60FD
  8
DIMENSION
 10
30.7688140217300692
 20
116.595974220019599
 30
0.0
  0
VERTEX
  5
60FE
  8
DIMENSION
 10
40.8811352291803374
 20
127.4317189271932023
 30
0.0
  0
SEQEND
  5
60FF
  8
DIMENSION
  0
ENDBLK
  5
6101
  8
0
  0
BLOCK
  8
0
  2
*X73
 70
     1
 10
0.0
 20
0.0
 30
0.0
  3
*X73
  1

  0
LINE
  5
6103
  8
0
 62
     0
 10
79.9117965644035735
 20
113.125
 30
0.0
 11
79.9999999999999858
 21
113.2132034355963981
 31
0.0
  0
LINE
  5
6104
  8
0
 62
     0
 10
79.2046897832170345
 20
113.125
 30
0.0
 11
79.9999999999999858
 21
113.9203102167828945
 31
0.0
  0
LINE
  5
6105
  8
0
 62
     0
 10
78.4975830020305239
 20
113.125
 30
0.0
 11
79.9999999999999716
 21
114.6274169979695046
 31
0.0
  0
LINE
  5
6106
  8
0
 62
     0
 10
77.7904762208439422
 20
113.125
 30
0.0
 11
79.9999999999999716
 21
115.334523779156001
 31
0.0
  0
LINE
  5
6107
  8
0
 62
     0
 10
77.0833694396574032
 20
113.125
 30
0.0
 11
79.9999999999999858
 21
116.0416305603425968
 31
0.0
  0
LINE
  5
6108
  8
0
 62
     0
 10
76.3762626584708499
 20
113.125
 30
0.0
 11
79.9999999999999858
 21
116.7487373415290932
 31
0.0
  0
LINE
  5
6109
  8
0
 62
     0
 10
75.6691558772842967
 20
113.125
 30
0.0
 11
79.9999999999999858
 21
117.4558441227157033
 31
0.0
  0
LINE
  5
610A
  8
0
 62
     0
 10
74.9620490960977151
 20
113.125
 30
0.0
 11
79.9999999999999716
 21
118.1629509039021997
 31
0.0
  0
LINE
  5
610B
  8
0
 62
     0
 10
74.254942314911176
 20
113.125
 30
0.0
 11
79.9999999999999716
 21
118.8700576850887956
 31
0.0
  0
LINE
  5
610C
  8
0
 62
     0
 10
73.547835533724637
 20
113.125
 30
0.0
 11
79.9999999999999858
 21
119.5771644662753062
 31
0.0
  0
LINE
  5
610D
  8
0
 62
     0
 10
72.8407287525380838
 20
113.125
 30
0.0
 11
79.9999999999999858
 21
120.284271247461902
 31
0.0
  0
LINE
  5
610E
  8
0
 62
     0
 10
77.9939007002477922
 20
118.9852787288962048
 30
0.0
 11
79.9999999999999858
 21
120.9913780286483984
 31
0.0
  0
LINE
  5
610F
  8
0
 62
     0
 10
72.1336219713515447
 20
113.125
 30
0.0
 11
76.8897212711037668
 21
117.8810992997521936
 31
0.0
  0
LINE
  5
6110
  8
0
 62
     0
 10
77.7898348159999671
 20
119.4883196258349045
 30
0.0
 11
79.9999999999999716
 21
121.6984848098348948
 31
0.0
  0
LINE
  5
6111
  8
0
 62
     0
 10
71.4265151901649915
 20
113.125
 30
0.0
 11
76.3866803741650529
 21
118.0851651840000045
 31
0.0
  0
LINE
  5
6112
  8
0
 62
     0
 10
77.3901568274028193
 20
119.7957484184242958
 30
0.0
 11
79.9999999999999716
 21
122.4055915910215049
 31
0.0
  0
LINE
  5
6113
  8
0
 62
     0
 10
70.7194084089784383
 20
113.125
 30
0.0
 11
76.0792515815756474
 21
118.4848431725970954
 31
0.0
  0
LINE
  5
6114
  8
0
 62
     0
 10
76.723240984550344
 20
119.8359393567584021
 30
0.0
 11
79.9999999999999858
 21
123.1126983722081007
 31
0.0
  0
LINE
  5
6115
  8
0
 62
     0
 10
70.0123016277918993
 20
113.125
 30
0.0
 11
76.0390606432415552
 21
119.1517590154495991
 31
0.0
  0
LINE
  5
6116
  8
0
 62
     0
 10
69.305194846605346
 20
113.125
 30
0.0
 11
79.5551948466053744
 21
123.375
 31
0.0
  0
LINE
  5
6117
  8
0
 62
     0
 10
68.598088065418807
 20
113.125
 30
0.0
 11
78.8480880654188496
 21
123.375
 31
0.0
  0
LINE
  5
6118
  8
0
 62
     0
 10
67.8909812842322538
 20
113.125
 30
0.0
 11
78.1409812842322964
 21
123.375
 31
0.0
  0
LINE
  5
6119
  8
0
 62
     0
 10
67.1838745030457005
 20
113.125
 30
0.0
 11
77.43358740851275
 21
123.3747129054670069
 31
0.0
  0
LINE
  5
611A
  8
0
 62
     0
 10
72.4699744721460064
 20
119.1182067502868023
 30
0.0
 11
76.7009408466111751
 21
123.3491731247519994
 31
0.0
  0
LINE
  5
611B
  8
0
 62
     0
 10
66.4767677218591615
 20
113.125
 30
0.0
 11
71.2567932497131693
 21
117.9050255278539936
 31
0.0
  0
LINE
  5
611C
  8
0
 62
     0
 10
72.2168689147316485
 20
119.5722079740589976
 30
0.0
 11
75.9209425144454144
 21
123.2762815737728062
 31
0.0
  0
LINE
  5
611D
  8
0
 62
     0
 10
65.7696609406726083
 20
113.125
 30
0.0
 11
70.802792025940974
 21
118.1581310852682947
 31
0.0
  0
LINE
  5
611E
  8
0
 62
     0
 10
71.7742208911773929
 20
119.8366667316912952
 30
0.0
 11
75.0818783709275124
 21
123.1443242114414005
 31
0.0
  0
LINE
  5
611F
  8
0
 62
     0
 10
65.0625541594860692
 20
113.125
 30
0.0
 11
70.5383332683086763
 21
118.6007791088226071
 31
0.0
  0
LINE
  5
6120
  8
0
 62
     0
 10
70.9202215458411729
 20
119.6897741675416
 30
0.0
 11
74.1650934380340914
 21
122.9346460597346038
 31
0.0
  0
LINE
  5
6121
  8
0
 62
     0
 10
65.0000000000000142
 20
113.7695526217004982
 30
0.0
 11
70.6852258324583431
 21
119.4547784541587987
 31
0.0
  0
LINE
  5
6122
  8
0
 62
     0
 10
65.2810275842011265
 20
114.7576869870881069
 30
0.0
 11
73.1372970384608436
 21
122.6139564413478951
 31
0.0
  0
LINE
  5
6123
  8
0
 62
     0
 10
65.7850057156446724
 20
115.968771899718206
 30
0.0
 11
71.9262121258307587
 21
122.1099783099043066
 31
0.0
  0
LINE
  5
6124
  8
0
 62
     0
 10
66.7196510721799143
 20
117.6105240374400012
 30
0.0
 11
70.2844599881089351
 21
121.1753329533689936
 31
0.0
  0
LINE
  5
6125
  8
0
 62
     0
 10
30.4143218813452307
 20
113.125
 30
0.0
 11
30.5917473579155512
 21
113.3024254765703063
 31
0.0
  0
LINE
  5
6126
  8
0
 62
     0
 10
29.7072151001586917
 20
113.125
 30
0.0
 11
30.591747357915569
 21
114.0095322577568027
 31
0.0
  0
LINE
  5
6127
  8
0
 62
     0
 10
29.0001083189721491
 20
113.125
 30
0.0
 11
30.5917473579155583
 21
114.7166390389433985
 31
0.0
  0
LINE
  5
6128
  8
0
 62
     0
 10
28.2930015377855888
 20
113.125
 30
0.0
 11
30.5917473579155583
 21
115.4237458201298949
 31
0.0
  0
LINE
  5
6129
  8
0
 62
     0
 10
27.5858947565990391
 20
113.125
 30
0.0
 11
30.5917473579155583
 21
116.130852601316505
 31
0.0
  0
LINE
  5
612A
  8
0
 62
     0
 10
27.0917473579155512
 20
113.3379593825030014
 30
0.0
 11
30.5917473579155512
 21
116.8379593825030014
 31
0.0
  0
LINE
  5
612B
  8
0
 62
     0
 10
27.0917473579155512
 20
114.0450661636895973
 30
0.0
 11
30.591747357915569
 21
117.5450661636895973
 31
0.0
  0
LINE
  5
612C
  8
0
 62
     0
 10
30.2145744130394114
 20
117.875
 30
0.0
 11
30.5917473579155583
 21
118.2521729448760937
 31
0.0
  0
LINE
  5
612D
  8
0
 62
     0
 10
27.091747357915569
 20
114.7521729448760937
 30
0.0
 11
30.2145744130394114
 21
117.875
 31
0.0
  0
LINE
  5
612E
  8
0
 62
     0
 10
29.5074676318528688
 20
117.875
 30
0.0
 11
30.5074676318528617
 21
118.875
 31
0.0
  0
LINE
  5
612F
  8
0
 62
     0
 10
30.5074676318528617
 20
118.875
 30
0.0
 11
30.5917473579155583
 21
118.9592797260627037
 31
0.0
  0
LINE
  5
6130
  8
0
 62
     0
 10
27.0917473579155512
 20
115.4592797260626043
 30
0.0
 11
29.5074676318528688
 21
117.875
 31
0.0
  0
LINE
  5
6131
  8
0
 62
     0
 10
28.8003608506663085
 20
117.875
 30
0.0
 11
29.8003608506663191
 21
118.875
 31
0.0
  0
LINE
  5
6132
  8
0
 62
     0
 10
29.8003608506663191
 20
118.875
 30
0.0
 11
30.5917473579155406
 21
119.6663865072492001
 31
0.0
  0
LINE
  5
6133
  8
0
 62
     0
 10
27.0917473579155583
 20
116.1663865072492001
 30
0.0
 11
28.8003608506663085
 21
117.875
 31
0.0
  0
LINE
  5
6134
  8
0
 62
     0
 10
29.0932540694797694
 20
118.875
 30
0.0
 11
30.0932540694797694
 21
119.875
 31
0.0
  0
LINE
  5
6135
  8
0
 62
     0
 10
28.0932540694797694
 20
117.875
 30
0.0
 11
29.0932540694797694
 21
118.875
 31
0.0
  0
LINE
  5
6136
  8
0
 62
     0
 10
30.0932540694797694
 20
119.875
 30
0.0
 11
30.5917473579155512
 21
120.373493288435796
 31
0.0
  0
LINE
  5
6137
  8
0
 62
     0
 10
27.0917473579155583
 20
116.873493288435796
 30
0.0
 11
28.0932540694797694
 21
117.875
 31
0.0
  0
LINE
  5
6138
  8
0
 62
     0
 10
28.3861472882932198
 20
118.875
 30
0.0
 11
29.3861472882932304
 21
119.875
 31
0.0
  0
LINE
  5
6139
  8
0
 62
     0
 10
27.3861472882932304
 20
117.875
 30
0.0
 11
28.3861472882932198
 21
118.875
 31
0.0
  0
LINE
  5
613A
  8
0
 62
     0
 10
29.3861472882932304
 20
119.875
 30
0.0
 11
30.5917473579155512
 21
121.0806000696223066
 31
0.0
  0
LINE
  5
613B
  8
0
 62
     0
 10
27.0917473579155512
 20
117.5806000696223066
 30
0.0
 11
27.3861472882932304
 21
117.875
 31
0.0
  0
LINE
  5
613C
  8
0
 62
     0
 10
27.6790405071066701
 20
118.875
 30
0.0
 11
28.6790405071066914
 21
119.875
 31
0.0
  0
LINE
  5
613D
  8
0
 62
     0
 10
28.6790405071066914
 20
119.875
 30
0.0
 11
30.5917473579155583
 21
121.7877068508089025
 31
0.0
  0
LINE
  5
613E
  8
0
 62
     0
 10
27.0917473579155512
 20
118.287706850808803
 30
0.0
 11
27.6790405071066701
 21
118.875
 31
0.0
  0
LINE
  5
613F
  8
0
 62
     0
 10
27.9719337259201311
 20
119.875
 30
0.0
 11
30.5917473579155583
 21
122.4948136319953989
 31
0.0
  0
LINE
  5
6140
  8
0
 62
     0
 10
27.0917473579155512
 20
118.9948136319953989
 30
0.0
 11
27.9719337259201311
 21
119.875
 31
0.0
  0
LINE
  5
6141
  8
0
 62
     0
 10
27.2648269447335814
 20
119.875
 30
0.0
 11
30.5917473579155583
 21
123.2019204131819947
 31
0.0
  0
LINE
  5
6142
  8
0
 62
     0
 10
27.0917473579155512
 20
119.7019204131818952
 30
0.0
 11
27.2648269447335814
 21
119.875
 31
0.0
  0
LINE
  5
6143
  8
0
 62
     0
 10
27.0917473579155512
 20
120.4090271943685053
 30
0.0
 11
30.0577201635470495
 21
123.375
 31
0.0
  0
LINE
  5
6144
  8
0
 62
     0
 10
27.0917473579155512
 20
121.1161339755550017
 30
0.0
 11
29.3506133823604891
 21
123.375
 31
0.0
  0
LINE
  5
6145
  8
0
 62
     0
 10
27.0917473579155512
 20
121.8232407567415976
 30
0.0
 11
28.6435066011739501
 21
123.375
 31
0.0
  0
LINE
  5
6146
  8
0
 62
     0
 10
27.0917473579155512
 20
122.530347537928094
 30
0.0
 11
27.9363998199874111
 21
123.375
 31
0.0
  0
LINE
  5
6147
  8
0
 62
     0
 10
27.0917473579155512
 20
123.237454319114704
 30
0.0
 11
27.2292930388008614
 21
123.375
 31
0.0
  0
ENDBLK
  5
6149
  8
0
  0
BLOCK
  8
0
  2
*X74
 70
     1
 10
0.0
 20
0.0
 30
0.0
  3
*X74
  1

  0
LINE
  5
614B
  8
0
 62
     0
 10
80.0000000000000142
 20
110.5756851698601935
 30
0.0
 11
79.9506851698601935
 21
110.625
 31
0.0
  0
LINE
  5
614C
  8
0
 62
     0
 10
80.0
 20
109.8685783886735976
 30
0.0
 11
79.2435783886736687
 21
110.625
 31
0.0
  0
LINE
  5
614D
  8
0
 62
     0
 10
80.0
 20
109.1614716074871012
 30
0.0
 11
78.5364716074871154
 21
110.625
 31
0.0
  0
LINE
  5
614E
  8
0
 62
     0
 10
80.0
 20
108.4543648263005053
 30
0.0
 11
77.8293648263005622
 21
110.625
 31
0.0
  0
LINE
  5
614F
  8
0
 62
     0
 10
79.9999999999999716
 20
107.7472580451139947
 30
0.0
 11
77.1222580451140232
 21
110.625
 31
0.0
  0
LINE
  5
6150
  8
0
 62
     0
 10
79.9999999999999858
 20
107.0401512639274983
 30
0.0
 11
76.4151512639274557
 21
110.625
 31
0.0
  0
LINE
  5
6151
  8
0
 62
     0
 10
79.9999999999999858
 20
106.3330444827409025
 30
0.0
 11
75.7080444827409167
 21
110.625
 31
0.0
  0
LINE
  5
6152
  8
0
 62
     0
 10
79.9999999999999858
 20
105.6259377015544061
 30
0.0
 11
75.0009377015543635
 21
110.625
 31
0.0
  0
LINE
  5
6153
  8
0
 62
     0
 10
79.9999999999999858
 20
104.918830920367796
 30
0.0
 11
74.2938309203678244
 21
110.625
 31
0.0
  0
LINE
  5
6154
  8
0
 62
     0
 10
79.9999999999999716
 20
104.2117241391812996
 30
0.0
 11
73.5867241391812712
 21
110.625
 31
0.0
  0
LINE
  5
6155
  8
0
 62
     0
 10
79.9999999999999858
 20
103.5046173579947038
 30
0.0
 11
72.8796173579947322
 21
110.625
 31
0.0
  0
LINE
  5
6156
  8
0
 62
     0
 10
76.9253042095549517
 20
105.8722063672531988
 30
0.0
 11
72.1725105768081789
 21
110.625
 31
0.0
  0
LINE
  5
6157
  8
0
 62
     0
 10
79.9999999999999716
 20
102.7975105768081932
 30
0.0
 11
77.9972063672530282
 21
104.8003042095550938
 31
0.0
  0
LINE
  5
6158
  8
0
 62
     0
 10
76.4088454739238045
 20
105.6815583216978069
 30
0.0
 11
71.4654037956216399
 21
110.625
 31
0.0
  0
LINE
  5
6159
  8
0
 62
     0
 10
79.9999999999999716
 20
102.0904037956215973
 30
0.0
 11
77.8065583216976222
 21
104.2838454739240035
 31
0.0
  0
LINE
  5
615A
  8
0
 62
     0
 10
76.0911575242496951
 20
105.2921394901854057
 30
0.0
 11
70.7582970144350725
 21
110.625
 31
0.0
  0
LINE
  5
615B
  8
0
 62
     0
 10
79.9999999999999574
 20
101.3832970144351009
 30
0.0
 11
77.4171394901851926
 21
103.9661575242498941
 31
0.0
  0
LINE
  5
615C
  8
0
 62
     0
 10
76.0254767542569141
 20
104.6507134789916051
 30
0.0
 11
70.0511902332485334
 21
110.625
 31
0.0
  0
LINE
  5
615D
  8
0
 62
     0
 10
79.9999999999999574
 20
100.6761902332486045
 30
0.0
 11
76.7757134789914062
 21
103.9004767542570988
 31
0.0
  0
LINE
  5
615E
  8
0
 62
     0
 10
79.5940834520620513
 20
100.3749999999999005
 30
0.0
 11
69.3440834520619944
 21
110.625
 31
0.0
  0
LINE
  5
615F
  8
0
 62
     0
 10
78.886976670875498
 20
100.3749999999999005
 30
0.0
 11
68.636976670875427
 21
110.625
 31
0.0
  0
LINE
  5
6160
  8
0
 62
     0
 10
78.179869889688959
 20
100.3749999999999005
 30
0.0
 11
67.9298698896888737
 21
110.625
 31
0.0
  0
LINE
  5
6161
  8
0
 62
     0
 10
77.4726770331586465
 20
100.3750860753437024
 30
0.0
 11
67.2227631085023347
 21
110.625
 31
0.0
  0
LINE
  5
6162
  8
0
 62
     0
 10
71.2883177792990494
 20
105.8523385480167036
 30
0.0
 11
66.5156563273157815
 21
110.625
 31
0.0
  0
LINE
  5
6163
  8
0
 62
     0
 10
76.7423789631320261
 20
100.3982773641836985
 30
0.0
 11
72.4773385480166468
 21
104.6633177792991063
 31
0.0
  0
LINE
  5
6164
  8
0
 62
     0
 10
70.8227742510109834
 20
105.6107752951183016
 30
0.0
 11
65.8085495461292425
 21
110.625
 31
0.0
  0
LINE
  5
6165
  8
0
 62
     0
 10
75.9652449569884425
 20
100.4683045891408
 30
0.0
 11
72.2357752951182022
 21
104.1977742510109977
 31
0.0
  0
LINE
  5
6166
  8
0
 62
     0
 10
70.5473557419294366
 20
105.1790870230132953
 30
0.0
 11
65.1014427649426892
 21
110.625
 31
0.0
  0
LINE
  5
6167
  8
0
 62
     0
 10
75.1298292012634903
 20
100.5966135636791989
 30
0.0
 11
71.8040870230131958
 21
103.9223557419294934
 31
0.0
  0
LINE
  5
6168
  8
0
 62
     0
 10
70.6208131588960839
 20
104.3985228248600947
 30
0.0
 11
65.0000000000000142
 21
110.0193359837560934
 31
0.0
  0
LINE
  5
6169
  8
0
 62
     0
 10
74.2179932429475855
 20
100.8013427408084937
 30
0.0
 11
71.023522824859981
 21
103.9958131588961976
 31
0.0
  0
LINE
  5
616A
  8
0
 62
     0
 10
73.1976191638302964
 20
101.1146100387393005
 30
0.0
 11
65.2595940642882937
 21
109.0526351382813033
 31
0.0
  0
LINE
  5
616B
  8
0
 62
     0
 10
71.9999806509750897
 20
101.6051417704079967
 30
0.0
 11
65.7501257959569472
 21
107.8549966254260966
 31
0.0
  0
LINE
  5
616C
  8
0
 62
     0
 10
70.3996058560133946
 20
102.4984097841830959
 30
0.0
 11
66.6433938097321175
 21
106.2546218304644015
 31
0.0
  0
LINE
  5
616D
  8
0
 62
     0
 10
30.591747357915569
 20
110.4864631288862995
 30
0.0
 11
30.4532104868018685
 21
110.625
 31
0.0
  0
LINE
  5
616E
  8
0
 62
     0
 10
30.591747357915569
 20
109.7793563476997036
 30
0.0
 11
29.7461037056153295
 21
110.625
 31
0.0
  0
LINE
  5
616F
  8
0
 62
     0
 10
30.5917473579155583
 20
109.072249566513193
 30
0.0
 11
29.0389969244287691
 21
110.625
 31
0.0
  0
LINE
  5
6170
  8
0
 62
     0
 10
30.5917473579155583
 20
108.3651427853266966
 30
0.0
 11
28.3318901432422301
 21
110.625
 31
0.0
  0
LINE
  5
6171
  8
0
 62
     0
 10
30.5917473579155583
 20
107.6580360041401008
 30
0.0
 11
27.6247833620556804
 21
110.625
 31
0.0
  0
LINE
  5
6172
  8
0
 62
     0
 10
30.5917473579155796
 20
106.9509292229536044
 30
0.0
 11
27.0917473579155583
 21
110.4509292229536044
 31
0.0
  0
LINE
  5
6173
  8
0
 62
     0
 10
30.591747357915569
 20
106.2438224417669943
 30
0.0
 11
27.0917473579155583
 21
109.7438224417669943
 31
0.0
  0
LINE
  5
6174
  8
0
 62
     0
 10
30.2534630184960314
 20
105.875
 30
0.0
 11
27.0917473579155512
 21
109.0367156605804979
 31
0.0
  0
LINE
  5
6175
  8
0
 62
     0
 10
30.5917473579155583
 20
105.5367156605804979
 30
0.0
 11
30.2534630184960314
 21
105.875
 31
0.0
  0
LINE
  5
6176
  8
0
 62
     0
 10
30.5463562373094888
 20
104.875
 30
0.0
 11
29.5463562373094817
 21
105.875
 31
0.0
  0
LINE
  5
6177
  8
0
 62
     0
 10
29.5463562373094817
 20
105.875
 30
0.0
 11
27.0917473579155512
 21
108.329608879393902
 31
0.0
  0
LINE
  5
6178
  8
0
 62
     0
 10
30.5917473579155583
 20
104.829608879393902
 30
0.0
 11
30.5463562373094888
 21
104.875
 31
0.0
  0
LINE
  5
6179
  8
0
 62
     0
 10
29.8392494561229391
 20
104.875
 30
0.0
 11
28.8392494561229391
 21
105.875
 31
0.0
  0
LINE
  5
617A
  8
0
 62
     0
 10
28.8392494561229391
 20
105.875
 30
0.0
 11
27.0917473579155512
 21
107.6225020982074057
 31
0.0
  0
LINE
  5
617B
  8
0
 62
     0
 10
30.5917473579155583
 20
104.1225020982074057
 30
0.0
 11
29.8392494561229391
 21
104.875
 31
0.0
  0
LINE
  5
617C
  8
0
 62
     0
 10
29.1321426749364107
 20
104.875
 30
0.0
 11
28.1321426749364001
 21
105.875
 31
0.0
  0
LINE
  5
617D
  8
0
 62
     0
 10
30.1321426749363894
 20
103.875
 30
0.0
 11
29.1321426749364107
 21
104.875
 31
0.0
  0
LINE
  5
617E
  8
0
 62
     0
 10
28.1321426749364001
 20
105.875
 30
0.0
 11
27.0917473579155583
 21
106.915395317020895
 31
0.0
  0
LINE
  5
617F
  8
0
 62
     0
 10
30.5917473579155796
 20
103.4153953170207956
 30
0.0
 11
30.1321426749363894
 21
103.875
 31
0.0
  0
LINE
  5
6180
  8
0
 62
     0
 10
28.4250358937498611
 20
104.875
 30
0.0
 11
27.4250358937498397
 21
105.875
 31
0.0
  0
LINE
  5
6181
  8
0
 62
     0
 10
29.4250358937498504
 20
103.875
 30
0.0
 11
28.4250358937498611
 21
104.875
 31
0.0
  0
LINE
  5
6182
  8
0
 62
     0
 10
27.4250358937498397
 20
105.875
 30
0.0
 11
27.0917473579155583
 21
106.2082885358342992
 31
0.0
  0
LINE
  5
6183
  8
0
 62
     0
 10
30.5917473579155583
 20
102.7082885358342992
 30
0.0
 11
29.4250358937498504
 21
103.875
 31
0.0
  0
LINE
  5
6184
  8
0
 62
     0
 10
28.7179291125633007
 20
103.875
 30
0.0
 11
27.7179291125633007
 21
104.875
 31
0.0
  0
LINE
  5
6185
  8
0
 62
     0
 10
27.7179291125633007
 20
104.875
 30
0.0
 11
27.0917473579155512
 21
105.5011817546477033
 31
0.0
  0
LINE
  5
6186
  8
0
 62
     0
 10
30.5917473579155583
 20
102.0011817546477033
 30
0.0
 11
28.7179291125633007
 21
103.875
 31
0.0
  0
LINE
  5
6187
  8
0
 62
     0
 10
28.0108223313767404
 20
103.875
 30
0.0
 11
27.0917473579155512
 21
104.7940749734612069
 31
0.0
  0
LINE
  5
6188
  8
0
 62
     0
 10
30.5917473579155583
 20
101.2940749734612069
 30
0.0
 11
28.0108223313767404
 21
103.875
 31
0.0
  0
LINE
  5
6189
  8
0
 62
     0
 10
27.3037155501901907
 20
103.875
 30
0.0
 11
27.0917473579155512
 21
104.0869681922745968
 31
0.0
  0
LINE
  5
618A
  8
0
 62
     0
 10
30.5917473579155583
 20
100.5869681922745968
 30
0.0
 11
27.3037155501901907
 21
103.875
 31
0.0
  0
LINE
  5
618B
  8
0
 62
     0
 10
30.0966087690036801
 20
100.375
 30
0.0
 11
27.0917473579155583
 21
103.3798614110881005
 31
0.0
  0
LINE
  5
618C
  8
0
 62
     0
 10
29.3895019878171304
 20
100.375
 30
0.0
 11
27.0917473579155583
 21
102.6727546299015046
 31
0.0
  0
LINE
  5
618D
  8
0
 62
     0
 10
28.6823952066305807
 20
100.375
 30
0.0
 11
27.0917473579155512
 21
101.965647848714994
 31
0.0
  0
LINE
  5
618E
  8
0
 62
     0
 10
27.975288425444031
 20
100.375
 30
0.0
 11
27.0917473579155512
 21
101.2585410675284976
 31
0.0
  0
LINE
  5
618F
  8
0
 62
     0
 10
27.2681816442574814
 20
100.375
 30
0.0
 11
27.0917473579155512
 21
100.5514342863419017
 31
0.0
  0
ENDBLK
  5
6191
  8
0
  0
BLOCK
  8
0
  2
*U75
 70
     1
 10
0.0
 20
0.0
 30
0.0
  3
*U75
  1

  0
TEXT
  5
6193
  8
DIMENSION
 62
     3
 10
164.4954832035051027
 20
113.1514310623129944
 30
0.0
 40
1.5
  1
0.35
 50
90.0
  7
GOTHIC
  0
ENDBLK
  5
6195
  8
0
  0
BLOCK
  8
0
  2
*U76
 70
     1
 10
0.0
 20
0.0
 30
0.0
  3
*U76
  1

  0
INSERT
  5
6197
  8
DIMENSION
  2
_OPEN30
 10
178.0865747397527059
 20
122.6843075664941978
 30
0.0
 50
299.9999999999998863
  0
POLYLINE
  5
6198
  8
DIMENSION
 66
     1
 10
0.0
 20
0.0
 30
0.0
  0
VERTEX
  5
6199
  8
DIMENSION
 10
177.5865747397527059
 20
123.5503329702787028
 30
0.0
  0
VERTEX
  5
619A
  8
DIMENSION
 10
175.3528147277837945
 20
127.4193188029243942
 30
0.0
  0
VERTEX
  5
619B
  8
DIMENSION
 10
175.0529620494382925
 20
127.4193188029243942
 30
0.0
  0
VERTEX
  5
619C
  8
DIMENSION
 10
171.7966168717732955
 20
127.4193188029243942
 30
0.0
  0
SEQEND
  5
619D
  8
DIMENSION
  0
ENDBLK
  5
619F
  8
0
  0
BLOCK
  8
0
  2
*U77
 70
     1
 10
0.0
 20
0.0
 30
0.0
  3
*U77
  1

  0
TEXT
  5
61A1
  8
DIMENSION
 62
     3
 10
171.7052463133977085
 20
127.9193188029242947
 30
0.0
 40
1.5
  1
R10
  7
GOTHIC
  0
ENDBLK
  5
61A3
  8
0
  0
BLOCK
  8
0
  2
*U78
 70
     1
 10
0.0
 20
0.0
 30
0.0
  3
*U78
  1

  0
TEXT
  5
61A5
  8
DIMENSION
 62
     3
 10
86.7126929559640587
 20
113.5831025794528983
 30
0.0
 40
1.5
  1
\U+220524
 50
335.8701048619129779
  7
GOTHIC
  0
ENDBLK
  5
61A7
  8
0
  0
BLOCK
  8
0
  2
*U79
 70
     1
 10
0.0
 20
0.0
 30
0.0
  3
*U79
  1

  0
TEXT
  5
61A9
  8
DIMENSION
 62
     3
 10
79.6738578680203062
 20
135.4946670143166898
 30
0.0
 40
1.5
  1
31
  7
GOTHIC
  0
ENDBLK
  5
61AB
  8
0
  0
BLOCK
  8
0
  2
*U80
 70
     1
 10
0.0
 20
0.0
 30
0.0
  3
*U80
  1

  0
TEXT
  5
61AD
  8
DIMENSION
 62
     3
 10
55.5151412488609779
 20
111.3914974619289069
 30
0.0
 40
1.5
  1
4
 50
90.0
  7
GOTHIC
  0
ENDBLK
  5
61AF
  8
0
  0
BLOCK
  8
0
  2
*U81
 70
     1
 10
0.0
 20
0.0
 30
0.0
  3
*U81
  1

  0
TEXT
  5
61B1
  8
DIMENSION
 62
     3
 10
71.4873096446700487
 20
130.9748927245169057
 30
0.0
 40
1.5
  1
15
  7
GOTHIC
  0
ENDBLK
  5
61B3
  8
0
  0
BLOCK
  8
0
  2
*U82
 70
     1
 10
0.0
 20
0.0
 30
0.0
  3
*U82
  1

  0
TEXT
  5
61B5
  8
DIMENSION
 62
     3
 10
162.1651347333329056
 20
101.0029687478988052
 30
0.0
 40
1.5
  1
R6
  7
GOTHIC
  0
ENDBLK
  5
61B7
  8
0
  0
BLOCK
  8
0
  2
*U83
 70
     1
 10
0.0
 20
0.0
 30
0.0
  3
*U83
  1

  0
TEXT
  5
61B9
  8
DIMENSION
 62
     3
 10
86.9835025380710647
 20
130.9748927245169057
 30
0.0
 40
1.5
  1
16
  7
GOTHIC
  0
ENDBLK
  5
61BB
  8
0
  0
BLOCK
  8
0
  2
*U84
 70
     1
 10
0.0
 20
0.0
 30
0.0
  3
*U84
  1

  0
TEXT
  5
61BD
  8
DIMENSION
 62
     3
 10
135.5406091370558102
 20
130.9748927245169057
 30
0.0
 40
1.5
  1
39
  7
GOTHIC
  0
ENDBLK
  5
61BF
  8
0
  0
BLOCK
  8
0
  2
*U85
 70
     1
 10
0.0
 20
0.0
 30
0.0
  3
*U85
  1

  0
TEXT
  5
61C1
  8
DIMENSION
 62
     3
 10
112.0291878172589008
 20
139.9858918303976907
 30
0.0
 40
1.5
  1
96
  7
GOTHIC
  0
ENDBLK
  5
61C3
  8
0
  0
BLOCK
  8
0
  2
*U86
 70
     1
 10
0.0
 20
0.0
 30
0.0
  3
*U86
  1

  0
TEXT
  5
61C5
  8
DIMENSION
 62
     3
 10
105.6700507614212938
 20
130.9748927245169057
 30
0.0
 40
1.5
  1
21
  7
GOTHIC
  0
ENDBLK
  5
61C7
  8
0
  0
BLOCK
  8
0
  2
*U87
 70
     1
 10
0.0
 20
0.0
 30
0.0
  3
*U87
  1

  0
TEXT
  5
61C9
  8
DIMENSION
 62
     3
 10
127.5291878172589008
 20
135.4946670143166898
 30
0.0
 40
1.5
  1
65
  7
GOTHIC
  0
ENDBLK
  5
61CB
  8
0
  0
BLOCK
  8
0
  2
*U88
 70
     1
 10
0.0
 20
0.0
 30
0.0
  3
*U88
  1

  0
TEXT
  5
61CD
  8
DIMENSION
 62
     3
 10
107.0571216943904034
 20
96.5436020605444156
 30
0.0
 40
1.5
  1
18
  7
GOTHIC
  0
ENDBLK
  5
61CF
  8
0
  0
BLOCK
  8
0
  2
*U89
 70
     1
 10
0.0
 20
0.0
 30
0.0
  3
*U89
  1

  0
TEXT
  5
61D1
  8
DIMENSION
 62
     3
 10
85.4873096446699492
 20
59.0007849860636497
 30
0.0
 40
1.5
  1
19
  7
GOTHIC
  0
ENDBLK
  5
61D3
  8
0
  0
BLOCK
  8
0
  2
*U90
 70
     1
 10
0.0
 20
0.0
 30
0.0
  3
*U90
  1

  0
TEXT
  5
61D5
  8
DIMENSION
 62
     3
 10
168.9745939026061023
 20
110.8394670050761022
 30
0.0
 40
1.5
  1
14
 50
90.0
  7
GOTHIC
  0
ENDBLK
  5
61D7
  8
0
  0
BLOCK
  8
0
  2
*U91
 70
     1
 10
0.0
 20
0.0
 30
0.0
  3
*U91
  1

  0
TEXT
  5
61D9
  8
DIMENSION
 62
     3
 10
80.3146982206079656
 20
24.7256961444848606
 30
0.0
 40
1.5
  1
4.5
  7
GOTHIC
  0
ENDBLK
  5
61DB
  8
0
  0
BLOCK
  8
0
  2
*U92
 70
     1
 10
0.0
 20
0.0
 30
0.0
  3
*U92
  1

  0
TEXT
  5
61DD
  8
DIMENSION
 62
     3
 10
158.0279187817259015
 20
130.9789361770799019
 30
0.0
 40
1.5
  1
5
  7
GOTHIC
  0
ENDBLK
  5
61DF
  8
0
  0
BLOCK
  8
0
  2
*U93
 70
     1
 10
0.0
 20
0.0
 30
0.0
  3
*U93
  1

  0
TEXT
  5
61E1
  8
DIMENSION
 62
     3
 10
193.0344899801744134
 20
110.9118020304567978
 30
0.0
 40
1.5
  1
23
 50
90.0
  7
GOTHIC
  0
ENDBLK
  5
61E3
  8
0
  0
BLOCK
  8
0
  2
*U94
 70
     1
 10
0.0
 20
0.0
 30
0.0
  3
*U94
  1

  0
TEXT
  5
61E5
  8
DIMENSION
 62
     3
 10
17.5221932587236715
 20
111.3914974619289069
 30
0.0
 40
1.5
  1
4
 50
90.0
  7
GOTHIC
  0
ENDBLK
  5
61E7
  8
0
  0
BLOCK
  8
0
  2
*U95
 70
     1
 10
0.0
 20
0.0
 30
0.0
  3
*U95
  1

  0
TEXT
  5
61E9
  8
DIMENSION
 62
     3
 10
13.0047050391175105
 20
110.9118020304568972
 30
0.0
 40
1.5
  1
23
 50
90.0
  7
GOTHIC
  0
ENDBLK
  5
61EB
  8
0
  0
BLOCK
  8
0
  2
*U96
 70
     1
 10
0.0
 20
0.0
 30
0.0
  3
*U96
  1

  0
TEXT
  5
61ED
  8
DIMENSION
 62
     3
 10
22.8950468503013482
 20
97.937174465231962
 30
0.0
 40
1.5
  1
5.5
  7
GOTHIC
  0
ENDBLK
  5
61EF
  8
0
  0
BLOCK
  8
0
  2
*U97
 70
     1
 10
0.0
 20
0.0
 30
0.0
  3
*U97
  1

  0
TEXT
  5
61F1
  8
DIMENSION
 62
     3
 10
32.6030491294926534
 20
97.937174465231962
 30
0.0
 40
1.5
  1
3.5
  7
GOTHIC
  0
ENDBLK
  5
61F3
  8
0
  0
BLOCK
  8
0
  2
*U98
 70
     1
 10
0.0
 20
0.0
 30
0.0
  3
*U98
  1

  0
TEXT
  5
61F5
  8
DIMENSION
 62
     3
 10
25.6120519264434705
 20
93.4901674063047352
 30
0.0
 40
1.5
  1
9
  7
GOTHIC
  0
ENDBLK
  5
61F7
  8
0
  0
BLOCK
  8
0
  2
*U99
 70
     1
 10
0.0
 20
0.0
 30
0.0
  3
*U99
  1

  0
TEXT
  5
61F9
  8
DIMENSION
 62
     3
 10
38.4490798045571225
 20
115.9722308550554999
 30
0.0
 40
1.5
  1
2.5
 50
90.0
  7
GOTHIC
  0
ENDBLK
  5
61FB
  8
0
  0
BLOCK
  8
0
  2
*U100
 70
     1
 10
0.0
 20
0.0
 30
0.0
  3
*U100
  1

  0
TEXT
  5
61FD
  8
DIMENSION
 62
     3
 10
152.0799492385787062
 20
89.1427664436914711
 30
0.0
 40
1.5
  1
（12）
  7
GOTHIC
  0
ENDBLK
  5
61FF
  8
0
  0
BLOCK
  8
0
  2
*U101
 70
     1
 10
0.0
 20
0.0
 30
0.0
  3
*U101
  1

  0
TEXT
  5
6201
  8
DIMENSION
 62
     3
 10
168.9408906918683897
 20
76.7703045685278767
 30
0.0
 40
1.5
  1
9
 50
90.0
  7
GOTHIC
  0
ENDBLK
  5
6203
  8
0
  0
BLOCK
  8
0
  2
*U102
 70
     1
 10
0.0
 20
0.0
 30
0.0
  3
*U102
  1

  0
TEXT
  5
6205
  8
DIMENSION
 62
     3
 10
175.0099816540351867
 20
76.2335025380710363
 30
0.0
 40
1.5
  1
12
 50
90.0
  7
GOTHIC
  0
ENDBLK
  5
6207
  8
0
  0
BLOCK
  8
0
  2
*U103
 70
     1
 10
0.0
 20
0.0
 30
0.0
  3
*U103
  1

  0
TEXT
  5
6209
  8
DIMENSION
 62
     3
 10
66.7918781725887811
 20
59.0007849860636497
 30
0.0
 40
1.5
  1
6.5
  7
GOTHIC
  0
ENDBLK
  5
620B
  8
0
  0
BLOCK
  8
0
  2
*U104
 70
     1
 10
0.0
 20
0.0
 30
0.0
  3
*U104
  1

  0
TEXT
  5
620D
  8
DIMENSION
 62
     3
 10
72.8032994923857757
 20
59.0007849860636497
 30
0.0
 40
1.5
  1
5.5
  7
GOTHIC
  0
ENDBLK
  5
620F
  8
0
  0
BLOCK
  8
0
  2
*U105
 70
     1
 10
0.0
 20
0.0
 30
0.0
  3
*U105
  1

  0
TEXT
  5
6211
  8
DIMENSION
 62
     3
 10
59.4963102680709923
 20
42.1414974619287577
 30
0.0
 40
1.5
  1
4
 50
90.0
  7
GOTHIC
  0
ENDBLK
  5
6213
  8
0
  0
BLOCK
  8
0
  2
*U106
 70
     1
 10
0.0
 20
0.0
 30
0.0
  3
*U106
  1

  0
TEXT
  5
6215
  8
DIMENSION
 62
     3
 10
86.4808769797288051
 20
43.9266654427709469
 30
0.0
 40
1.5
  1
1
 50
90.0
  7
GOTHIC
  0
ENDBLK
  5
6217
  8
0
  0
BLOCK
  8
0
  2
*U107
 70
     1
 10
0.0
 20
0.0
 30
0.0
  3
*U107
  1

  0
TEXT
  5
6219
  8
DIMENSION
 62
     3
 10
59.5005808025315019
 20
115.6794116631075013
 30
0.0
 40
1.5
  1
2.5
 50
90.0
  7
GOTHIC
  0
ENDBLK
  5
621B
  8
0
  0
BLOCK
  8
0
  2
*U108
 70
     1
 10
0.0
 20
0.0
 30
0.0
  3
*U108
  1

  0
TEXT
  5
621D
  8
DIMENSION
 62
     3
 10
71.4873096446700487
 20
87.5363028848116755
 30
0.0
 40
1.5
  1
15
  7
GOTHIC
  0
ENDBLK
  5
621F
  8
0
  0
BLOCK
  8
0
  2
*U109
 70
     1
 10
0.0
 20
0.0
 30
0.0
  3
*U109
  1

  0
TEXT
  5
6221
  8
DIMENSION
 62
     3
 10
28.6271204507550117
 20
134.5800032284203098
 30
0.0
 40
1.5
  1
40°
 50
340.0
  7
GOTHIC
  0
ENDBLK
  5
6223
  8
0
  0
BLOCK
  8
0
  2
*U110
 70
     1
 10
0.0
 20
0.0
 30
0.0
  3
*U110
  1

  0
TEXT
  5
6225
  8
DIMENSION
 62
     3
 10
18.3410515898739988
 20
135.3925921594234865
 30
0.0
 40
1.5
  1
10°
 50
4.9999999999999813
  7
GOTHIC
  0
ENDBLK
  5
6227
  8
0
  0
BLOCK
  8
0
  2
*U111
 70
     1
 10
0.0
 20
0.0
 30
0.0
  3
*U111
  1

  0
TEXT
  5
6229
  8
DIMENSION
 62
     3
 10
87.6347485759029752
 20
95.5565143773492309
 30
0.0
 40
1.5
  1
25
 50
335.8701048619128073
  7
GOTHIC
  0
ENDBLK
  5
622B
  8
0
  0
BLOCK
  8
0
  2
*U112
 70
     1
 10
0.0
 20
0.0
 30
0.0
  3
*U112
  1

  0
TEXT
  5
622D
  8
DIMENSION
 62
     3
 10
59.5045698954606408
 20
72.5532994923857757
 30
0.0
 40
1.5
  1
5.5
 50
90.0
  7
GOTHIC
  0
ENDBLK
  5
622F
  8
0
  0
BLOCK
  8
0
  2
*U113
 70
     1
 10
0.0
 20
0.0
 30
0.0
  3
*U113
  1

  0
TEXT
  5
6231
  8
DIMENSION
 62
     3
 10
56.5045698954606408
 20
79.816243654822344
 30
0.0
 40
1.5
  1
3.5
 50
90.0
  7
GOTHIC
  0
ENDBLK
  5
6233
  8
0
  0
BLOCK
  8
0
  2
*U114
 70
     1
 10
0.0
 20
0.0
 30
0.0
  3
*U114
  1

  0
TEXT
  5
6235
  8
DIMENSION
 62
     3
 10
59.5045698954606479
 20
81.2779187817258872
 30
0.0
 40
1.5
  1
3
 50
90.0
  7
GOTHIC
  0
ENDBLK
  5
6237
  8
0
  0
BLOCK
  8
0
  2
*U115
 70
     1
 10
0.0
 20
0.0
 30
0.0
  3
*U115
  1

  0
TEXT
  5
6239
  8
DIMENSION
 62
     3
 10
54.9920734953965891
 20
41.5894670050761803
 30
0.0
 40
1.5
  1
14
 50
90.0
  7
GOTHIC
  0
ENDBLK
  5
623B
  8
0
  0
BLOCK
  8
0
  2
*U116
 70
     1
 10
0.0
 20
0.0
 30
0.0
  3
*U116
  1

  0
TEXT
  5
623D
  8
DIMENSION
 62
     3
 10
122.4917538944660009
 20
45.9029187817257807
 30
0.0
 40
1.5
  1
5
 50
90.0
  7
GOTHIC
  0
ENDBLK
  5
623F
  8
0
  0
BLOCK
  8
0
  2
*U117
 70
     1
 10
0.0
 20
0.0
 30
0.0
  3
*U117
  1

  0
TEXT
  5
6241
  8
DIMENSION
 62
     3
 10
112.393401015228406
 20
46.6935212660969725
 30
0.0
 40
1.5
  1
φ6
  7
GOTHIC
  0
ENDBLK
  5
6243
  8
0
  0
BLOCK
  8
0
  2
*U118
 70
     1
 10
0.0
 20
0.0
 30
0.0
  3
*U118
  1

  0
TEXT
  5
6245
  8
DIMENSION
 62
     3
 10
62.4546680903481004
 20
65.8844871471534645
 30
0.0
 40
1.5
  1
0.5
 50
90.0
  7
GOTHIC
  0
ENDBLK
  5
6247
  8
0
  0
BLOCK
  8
0
  2
*U119
 70
     1
 10
0.0
 20
0.0
 30
0.0
  3
*U119
  1

  0
TEXT
  5
6249
  8
DIMENSION
 62
     3
 10
70.0456852791878504
 20
68.0082227533330155
 30
0.0
 40
1.5
  1
3.8
  7
GOTHIC
  0
ENDBLK
  5
624B
  8
0
  0
BLOCK
  8
0
  2
*U120
 70
     1
 10
0.0
 20
0.0
 30
0.0
  3
*U120
  1

  0
TEXT
  5
624D
  8
DIMENSION
 62
     3
 10
70.182741116751302
 20
64.8932065413951733
 30
0.0
 40
1.5
  1
90°
  7
GOTHIC
  0
ENDBLK
  5
624F
  8
0
  0
BLOCK
  8
0
  2
*U121
 70
     1
 10
0.0
 20
0.0
 30
0.0
  3
*U121
  1

  0
TEXT
  5
6251
  8
DIMENSION
 62
     3
 10
129.3128766879206069
 20
115.6915324481905998
 30
0.0
 40
1.5
  1
2.5
 50
90.0
  7
GOTHIC
  0
ENDBLK
  5
6253
  8
0
  0
BLOCK
  8
0
  2
*U122
 70
     1
 10
0.0
 20
0.0
 30
0.0
  3
*U122
  1

  0
TEXT
  5
6255
  8
DIMENSION
 62
     3
 10
173.4963810805134017
 20
100.8953045685279051
 30
0.0
 40
1.5
  1
2
 50
90.0
  7
GOTHIC
  0
ENDBLK
  5
6257
  8
0
  0
BLOCK
  8
0
  2
*U123
 70
     1
 10
0.0
 20
0.0
 30
0.0
  3
*U123
  1

  0
TEXT
  5
6259
  8
DIMENSION
 62
     3
 10
181.2588366782964044
 20
130.0272118233700951
 30
0.0
 40
1.5
  1
9
  7
GOTHIC
  0
ENDBLK
  5
625B
  8
0
  0
BLOCK
  8
0
  2
*U124
 70
     1
 10
0.0
 20
0.0
 30
0.0
  3
*U124
  1

  0
TEXT
  5
625D
  8
DIMENSION
 62
     3
 10
32.8045992709372527
 20
86.2436548223350314
 30
0.0
 40
1.5
  1
φ4.1リーマ
  7
GOTHIC
  0
ENDBLK
  5
625F
  8
0
  0
BLOCK
  8
0
  2
*U125
 70
     1
 10
0.0
 20
0.0
 30
0.0
  3
*U125
  1

  0
TEXT
  5
6261
  8
DIMENSION
 62
     3
 10
24.0435240076617482
 20
89.2436548223350172
 30
0.0
 40
1.5
  1
φ9
  7
GOTHIC
  0
TEXT
  5
6262
  8
DIMENSION
 62
     3
 10
26.9673818756820509
 20
90.8314720812182657
 30
0.0
 40
1.1999999999999991
  1
 0
  7
GOTHIC
  0
TEXT
  5
6263
  8
DIMENSION
 62
     3
 10
26.9308336523317884
 20
89.2436548223350172
 30
0.0
 40
1.1999999999999991
  1
-0.02
  7
GOTHIC
  0
ENDBLK
  5
6265
  8
0
  0
BLOCK
  8
0
  2
*U126
 70
     1
 10
0.0
 20
0.0
 30
0.0
  3
*U126
  1

  0
TEXT
  5
6267
  8
DIMENSION
 62
     3
 10
24.0465696929409312
 20
66.7436548223350314
 30
0.0
 40
1.5
  1
φ9
  7
GOTHIC
  0
TEXT
  5
6268
  8
DIMENSION
 62
     3
 10
26.9338793376109784
 20
68.3314720812182799
 30
0.0
 40
1.1999999999999991
  1
+0.05
  7
GOTHIC
  0
TEXT
  5
6269
  8
DIMENSION
 62
     3
 10
26.9338793376109784
 20
66.7436548223350314
 30
0.0
 40
1.1999999999999991
  1
+0.03
  7
GOTHIC
  0
ENDBLK
  5
626B
  8
0
  0
BLOCK
  8
0
  2
*U127
 70
     1
 10
0.0
 20
0.0
 30
0.0
  3
*U127
  1

  0
TEXT
  5
626D
  8
DIMENSION
 62
     3
 10
18.9310257485713791
 20
87.9024494393787563
 30
0.0
 40
1.5
  1
45°
 50
22.5000000000000107
  7
GOTHIC
  0
ENDBLK
  5
626F
  8
0
  0
BLOCK
  8
0
  2
*U128
 70
     1
 10
0.0
 20
0.0
 30
0.0
  3
*U128
  1

  0
TEXT
  5
6271
  8
DIMENSION
 62
     3
 10
19.6973631022428393
 20
67.1061655528107508
 30
0.0
 40
1.5
  1
30°
 50
345.0
  7
GOTHIC
  0
ENDBLK
  5
6273
  8
0
  0
BLOCK
  8
0
  2
*U129
 70
     1
 10
0.0
 20
0.0
 30
0.0
  3
*U129
  1

  0
TEXT
  5
6275
  8
DIMENSION
 62
     3
 10
187.5624470885315986
 20
58.4382049670528119
 30
0.0
 40
1.5
  1
15°
 50
329.9999999999998863
  7
GOTHIC
  0
ENDBLK
  5
6277
  8
0
  0
BLOCK
  8
0
  2
*U130
 70
     1
 10
0.0
 20
0.0
 30
0.0
  3
*U130
  1

  0
TEXT
  5
6279
  8
DIMENSION
 62
     3
 10
90.6932252264974039
 20
115.7975664677288989
 30
0.0
 40
1.5
  1
φ24
 50
330.0000000000005116
  7
GOTHIC
  0
ENDBLK
  5
627B
  8
0
  0
BLOCK
  8
0
  2
*U131
 70
     1
 10
0.0
 20
0.0
 30
0.0
  3
*U131
  1

  0
TEXT
  5
627D
  8
DIMENSION
 62
     3
 10
165.557810589402294
 20
66.2927094124475502
 30
0.0
 40
1.5
  1
R5
  7
GOTHIC
  0
ENDBLK
  5
627F
  8
0
  0
BLOCK
  8
0
  2
*U132
 70
     1
 10
0.0
 20
0.0
 30
0.0
  3
*U132
  1

  0
TEXT
  5
6281
  8
DIMENSION
 62
     3
 10
191.0229574584674026
 20
51.7507006884918326
 30
0.0
 40
1.5
  1
φ19
  7
GOTHIC
  0
ENDBLK
  5
6283
  8
0
  0
ENDSEC
  0
SECTION
  2
ENTITIES
  0
LINE
  5
A5
  8
HIDDEN
 10
205.0
 20
17.0
 30
0.0
 11
5.0
 21
17.0
 31
0.0
  0
LINE
  5
F7
  8
HIDDEN
 62
     2
 10
5.0
 20
17.0
 30
0.0
 11
5.0
 21
143.5
 31
0.0
  0
LINE
  5
F8
  8
HIDDEN
 62
     2
 10
5.0
 20
143.5
 30
0.0
 11
205.0
 21
143.5
 31
0.0
  0
LINE
  5
2A52
  8
HIDDEN
 62
     2
 10
205.0
 20
143.5
 30
0.0
 11
205.0
 21
17.0
 31
0.0
  0
LINE
  5
2A53
  8
CENTER
 10
189.2385321097684141
 20
111.875
 30
0.0
 11
174.2385321097684141
 21
111.875
 31
0.0
  0
ARC
  5
2A9A
  8
LINE
 10
96.0
 20
111.875
 30
0.0
 40
12.0
 50
106.5978421358668982
 51
180.0
  0
CIRCLE
  5
2A9B
  8
LINE
 10
96.0
 20
111.875
 30
0.0
 40
6.5
  0
CIRCLE
  5
2A9C
  8
LINE
 10
96.0
 20
111.875
 30
0.0
 40
2.0499999999999989
  0
LINE
  5
2A9D
  8
LINE
 10
65.0000000000000142
 20
111.8749999999999005
 30
0.0
 11
79.5000000000000142
 21
111.875
 31
0.0
  0
LINE
  5
2A9E
  8
CENTER
 10
69.5
 20
118.875
 30
0.0
 11
73.5
 21
118.875
 31
0.0
  0
LINE
  5
2A9F
  8
LINE
 10
65.0000000000000142
 20
113.1249999999999005
 30
0.0
 11
80.0
 21
113.125
 31
0.0
  0
LINE
  5
2AA1
  8
LINE
 10
108.0
 20
111.875
 30
0.0
 11
108.0
 21
111.875
 31
0.0
  0
LINE
  5
2AA3
  8
LINE
 10
84.0
 20
111.875
 30
0.0
 11
84.0
 21
111.875
 31
0.0
  0
LINE
  5
2AA4
  8
LINE
 10
83.4999999999999858
 20
111.375
 30
0.0
 11
80.0000000000000142
 21
111.375
 31
0.0
  0
LINE
  5
2AA5
  8
LINE
 10
80.5000000000000142
 20
111.875
 30
0.0
 11
80.5000000000000142
 21
111.875
 31
0.0
  0
ARC
  5
2AA6
  8
LINE
 10
80.0000000000000142
 20
111.875
 30
0.0
 40
0.5
 50
180.0
 51
270.0
  0
ARC
  5
2AA7
  8
LINE
 10
83.4999999999999858
 20
111.875
 30
0.0
 40
0.5
 50
270.0
 51
0.0
  0
ARC
  5
2AAA
  8
LINE
 10
83.4999999999999858
 20
111.875
 30
0.0
 40
0.5
 50
0.0
 51
90.0
  0
ARC
  5
2AAB
  8
LINE
 10
80.0000000000000142
 20
111.875
 30
0.0
 40
0.5
 50
90.0
 51
180.0
  0
LINE
  5
2AAC
  8
LINE
 10
80.5000000000000142
 20
111.875
 30
0.0
 11
80.5000000000000142
 21
111.875
 31
0.0
  0
LINE
  5
2AAD
  8
LINE
 10
83.4999999999999858
 20
112.375
 30
0.0
 11
80.0000000000000142
 21
112.375
 31
0.0
  0
LINE
  5
2AAE
  8
LINE
 10
84.0
 20
111.875
 30
0.0
 11
84.0
 21
111.875
 31
0.0
  0
LINE
  5
2AB0
  8
LINE
 10
108.0
 20
111.875
 30
0.0
 11
108.0
 21
111.875
 31
0.0
  0
LINE
  5
2AB1
  8
LINE
 10
77.5199840255489363
 20
123.375
 30
0.0
 11
107.0
 21
123.375
 31
0.0
  0
LINE
  5
2AB2
  8
CENTER
 10
79.5000000000000142
 20
111.875
 30
0.0
 11
112.5
 21
111.875
 31
0.0
  0
LINE
  5
2AB3
  8
CENTER
 10
63.2238739453809302
 20
111.875
 30
0.0
 11
65.0000000000000142
 21
111.875
 31
0.0
  0
LINE
  5
2AB4
  8
CENTER
 10
96.0
 20
124.947122682829999
 30
0.0
 11
96.0
 21
98.3003669106232962
 31
0.0
  0
LINE
  5
2AB5
  8
LINE
 10
79.9999999999999716
 20
123.375
 30
0.0
 11
80.0
 21
112.375
 31
0.0
  0
LINE
  5
2AB9
  8
LINE
 10
65.0000000000000142
 20
113.875
 30
0.0
 11
65.0
 21
111.8749999999999005
 31
0.0
  0
CIRCLE
  5
2ABB
  8
LINE
 10
71.5
 20
118.875
 30
0.0
 40
1.0
  0
LINE
  5
2ABD
  8
CENTER
 10
71.5
 20
120.875
 30
0.0
 11
71.5
 21
116.875
 31
0.0
  0
LINE
  5
2ABE
  8
CENTER
 10
75.0
 20
118.875
 30
0.0
 11
79.0
 21
118.875
 31
0.0
  0
CIRCLE
  5
2ABF
  8
LINE
 10
77.0
 20
118.875
 30
0.0
 40
1.0
  0
LINE
  5
2AC1
  8
CENTER
 10
77.0
 20
120.875
 30
0.0
 11
77.0
 21
116.875
 31
0.0
  0
LINE
  5
2B4C
  8
LINE
 10
155.9886859966642021
 20
112.0499999999999972
 30
0.0
 11
161.0
 21
112.0499999999999972
 31
0.0
  0
LINE
  5
2B57
  8
CENTER
 10
114.0
 20
85.25
 30
0.0
 11
114.0
 21
69.25
 31
0.0
  0
LINE
  5
2BF9
  8
LINE
 10
65.0000000000000142
 20
71.25
 30
0.0
 11
149.0
 21
71.25
 31
0.0
  0
LINE
  5
2BFB
  8
LINE
 10
65.0000000000000142
 20
80.25
 30
0.0
 11
80.0
 21
80.25
 31
0.0
  0
LINE
  5
2BFC
  8
LINE
 10
79.9999999999999858
 20
83.2500000000000142
 30
0.0
 11
149.0
 21
83.2500000000000142
 31
0.0
  0
LINE
  5
2BFD
  8
LINE
 10
91.1010205144336851
 20
77.2500000000000142
 30
0.0
 11
100.8989794855663007
 21
77.2499999999999858
 31
0.0
  0
LINE
  5
2BFE
  8
CENTER
 10
100.8989794855663007
 20
77.25
 30
0.0
 11
162.5
 21
77.25
 31
0.0
  0
LINE
  5
2C00
  8
LINE
 10
65.0000000000000142
 20
80.2500000000000142
 30
0.0
 11
65.0000000000000142
 21
77.25
 31
0.0
  0
LINE
  5
2C01
  8
LINE
 10
65.0000000000000142
 20
77.25
 30
0.0
 11
65.0000000000000142
 21
71.25
 31
0.0
  0
LINE
  5
2C02
  8
LINE
 10
79.9999999999999858
 20
83.2500000000000142
 30
0.0
 11
80.0000000000000142
 21
77.75
 31
0.0
  0
ARC
  5
2C03
  8
LINE
 10
79.0
 20
77.75
 30
0.0
 40
1.0
 50
270.0
 51
0.0
  0
LINE
  5
2C04
  8
LINE
  6
HIDDEN2
 10
76.0000000000000284
 20
72.5024724932746096
 30
0.0
 11
76.0000000000000284
 21
80.25
 31
0.0
  0
LINE
  5
2C05
  8
LINE
  6
HIDDEN2
 10
78.0000000000000284
 20
72.5024724932746096
 30
0.0
 11
78.0000000000000142
 21
80.25
 31
0.0
  0
LINE
  5
2C08
  8
CENTER
 10
77.0000000000000142
 20
69.75
 30
0.0
 11
77.0000000000000142
 21
81.75
 31
0.0
  0
LINE
  5
2C09
  8
LINE
  6
HIDDEN2
 10
70.5000000000000426
 20
72.5024724932746238
 30
0.0
 11
70.5000000000000284
 21
80.25
 31
0.0
  0
LINE
  5
2C0D
  8
CENTER
 10
71.5000000000000284
 20
69.75
 30
0.0
 11
71.5000000000000284
 21
81.75
 31
0.0
  0
LINE
  5
2C1D
  8
LINE
 10
161.0
 20
77.1639110926865897
 30
0.0
 11
161.0
 21
77.3360889073134103
 31
0.0
  0
LINE
  5
2C7D
  8
TEXT
 10
161.0
 20
81.7499999999999858
 30
0.0
 11
156.6201736729460947
 21
82.2974782908817133
 31
0.0
  0
ARC
  5
2C7E
  8
LINE
 10
156.0
 20
77.3360889073134103
 30
0.0
 40
5.0
 50
0.0
 51
82.8749836510981766
  0
ARC
  5
2C88
  8
LINE
 10
156.0
 20
77.1639110926865897
 30
0.0
 40
5.0
 50
277.1250163489016813
 51
0.0
  0
LINE
  5
2C89
  8
LINE
 10
156.6201736729460094
 20
72.2025217091182583
 30
0.0
 11
149.0
 21
71.25
 31
0.0
  0
LINE
  5
2C8A
  8
TEXT
 10
161.0
 20
83.2500000000000142
 30
0.0
 11
161.0
 21
71.25
 31
0.0
  0
LINE
  5
2C8D
  8
TEXT
 10
149.0
 20
83.2500000000000142
 30
0.0
 11
161.0
 21
83.2500000000000142
 31
0.0
  0
LINE
  5
2C8E
  8
TEXT
 10
149.0
 20
71.25
 30
0.0
 11
161.0
 21
71.25
 31
0.0
  0
LINE
  5
2CD4
  8
CENTER
 10
79.5000000000000142
 20
42.6249999999999005
 30
0.0
 11
162.5
 21
42.6250000000004476
 31
0.0
  0
LINE
  5
2CD6
  8
CENTER
 10
95.9999999999999005
 20
55.6971226828300487
 30
0.0
 11
96.0000000000000853
 21
29.0503669106233104
 31
0.0
  0
LINE
  5
2D33
  8
LINE
 10
27.5917473579155512
 20
112.375
 30
0.0
 11
27.5917473579155512
 21
111.875
 31
0.0
  0
LINE
  5
2D34
  8
LINE
 10
22.3639511349211304
 20
112.375
 30
0.0
 11
33.5917473579155512
 21
112.375
 31
0.0
  0
LINE
  5
2D35
  8
LINE
 10
33.5917473579155512
 20
123.375
 30
0.0
 11
33.5917473579155512
 21
111.875
 31
0.0
  0
LINE
  5
2D36
  8
LINE
 10
30.5917473579155512
 20
123.375
 30
0.0
 11
30.5917473579155512
 21
113.125
 31
0.0
  0
LINE
  5
2D37
  8
LINE
 10
21.5917473579155512
 20
123.375
 30
0.0
 11
33.5917473579155512
 21
123.375
 31
0.0
  0
LINE
  5
2D38
  8
LINE
 10
21.5917473579155512
 20
111.875
 30
0.0
 11
21.5917473579155512
 21
123.375
 31
0.0
  0
LINE
  5
2D39
  8
CENTER
 10
20.0917473579155512
 20
111.875
 30
0.0
 11
34.9690770417296406
 21
111.875
 31
0.0
  0
LINE
  5
2D3D
  8
LINE
 10
23.6226005816870313
 20
113.8749999999999005
 30
0.0
 11
21.5917473579155512
 21
113.875
 31
0.0
  0
LINE
  5
2D4A
  8
LINE
 10
27.0917473579155512
 20
113.125
 30
0.0
 11
27.0917473579155512
 21
123.375
 31
0.0
  0
LINE
  5
2D4B
  8
LINE
 10
27.0917473579155512
 20
113.125
 30
0.0
 11
30.5917473579155512
 21
113.125
 31
0.0
  0
LINE
  5
2D4F
  8
LINE
  6
HIDDEN2
 10
110.9999999999999005
 20
113.4249999999999972
 30
0.0
 11
111.0
 21
117.875
 31
0.0
  0
LINE
  5
2D50
  8
LINE
  6
HIDDEN2
 10
117.0
 20
113.4249999999999972
 30
0.0
 11
117.0
 21
117.875
 31
0.0
  0
LINE
  5
2D51
  8
LINE
  6
HIDDEN2
 10
111.0
 20
117.875
 30
0.0
 11
116.9999999999999005
 21
117.875
 31
0.0
  0
LINE
  5
2D52
  8
LINE
  6
HIDDEN2
 10
111.0
 20
117.875
 30
0.0
 11
114.0
 21
119.6070508075688963
 31
0.0
  0
LINE
  5
2D53
  8
LINE
  6
HIDDEN2
 10
117.0
 20
117.875
 30
0.0
 11
114.0
 21
119.6070508075688963
 31
0.0
  0
LINE
  5
2D55
  8
LINE
  6
HIDDEN2
 10
117.0
 20
113.4249999999998977
 30
0.0
 11
117.2999999999999972
 21
113.125
 31
0.0
  0
LINE
  5
2D56
  8
LINE
  6
HIDDEN2
 10
111.0
 20
113.4249999999998977
 30
0.0
 11
110.7000000000000028
 21
113.125
 31
0.0
  0
LINE
  5
2D57
  8
LINE
  6
HIDDEN2
 10
111.0
 20
113.4249999999998977
 30
0.0
 11
117.0
 21
113.4249999999998977
 31
0.0
  0
CIRCLE
  5
2D62
  8
LINE
  6
HIDDEN2
 10
114.0
 20
77.25
 30
0.0
 40
3.0
  0
LINE
  5
2D6C
  8
CENTER
 10
181.7385321097684141
 20
125.3749999999999005
 30
0.0
 11
181.7385321097684141
 21
98.3750000000000284
 31
0.0
  0
LINE
  5
2D8A
  8
LINE
 10
175.7385321097684141
 20
113.2301940820413932
 30
0.0
 11
175.7385321097684994
 21
102.375
 31
0.0
  0
LINE
  5
2D8E
  8
LINE
 10
187.7385321097684141
 20
102.375
 30
0.0
 11
187.7385321097684141
 21
113.2301940820413932
 31
0.0
  0
LINE
  5
2D93
  8
LINE
 10
187.7385321097684141
 20
121.375
 30
0.0
 11
187.7385321097684141
 21
113.2301940820413932
 31
0.0
  0
LINE
  5
2D96
  8
LINE
 10
175.7385321097684141
 20
113.2301940820413932
 30
0.0
 11
175.7385321097684141
 21
121.375
 31
0.0
  0
ARC
  5
2DAB
  8
LINE
 10
181.7385321097684141
 20
113.375
 30
0.0
 40
10.0
 50
53.1301023541560014
 51
126.8698976458440058
  0
LINE
  5
2DBF
  8
LINE
 10
149.0
 20
113.1249999999999005
 30
0.0
 11
149.0
 21
118.091840225800695
 31
0.0
  0
ARC
  5
2DC0
  8
LINE
 10
181.7385321097684141
 20
110.375
 30
0.0
 40
10.0
 50
233.1301023541564064
 51
306.8698976458435936
  0
LINE
  5
2DF6
  8
LINE
 10
186.2385321097684994
 20
118.3467819796342013
 30
0.0
 11
187.7385321097684141
 21
121.375
 31
0.0
  0
LINE
  5
2DF7
  8
LINE
 10
177.2385321097684141
 20
118.3467819796342013
 30
0.0
 11
175.7385321097684141
 21
121.375
 31
0.0
  0
LINE
  5
2E40
  8
CENTER
 10
162.5
 20
111.875
 30
0.0
 11
79.5000000000000142
 21
111.875
 31
0.0
  0
LINE
  5
2EB3
  8
CENTER
 10
35.0917473579155512
 20
111.875
 30
0.0
 11
20.0917473579155512
 21
111.875
 31
0.0
  0
LINE
  5
2F4C
  8
LINE
 10
156.6201736729460947
 20
82.2974782908817133
 30
0.0
 11
149.0
 21
83.2500000000000142
 31
0.0
  0
LINE
  5
2F4D
  8
TEXT
 10
161.0
 20
72.7500000000000142
 30
0.0
 11
156.6201736729460947
 21
72.2025217091182867
 31
0.0
  0
LINE
  5
30BC
  8
CENTER
 10
114.0
 20
98.8488510130835607
 30
0.0
 11
114.0
 21
124.9011489869163967
 31
0.0
  0
LINE
  5
30BF
  8
CENTER
 10
114.0
 20
55.6511489869165317
 30
0.0
 11
114.0
 21
29.5988510130836886
 31
0.0
  0
DIMENSION
  5
30F5
  8
DIMENSION
  2
*D3
 10
56.0151412488609708
 20
109.875
 30
0.0
 11
54.7651412488609779
 21
111.875
 31
0.0
 70
     0
 13
65.0000000000000142
 23
113.875
 33
0.0
 14
65.0
 24
109.875
 34
0.0
 50
90.0
  0
DIMENSION
  5
310D
  8
DIMENSION
  2
*D4
 10
80.0000000000000142
 20
130.4748927245169057
 30
0.0
 11
72.5
 21
131.7248927245169057
 31
0.0
 70
     0
 13
65.0
 23
113.875
 33
0.0
 14
80.0000000000000142
 24
111.875
 34
0.0
  0
DIMENSION
  5
3125
  8
DIMENSION
  2
*D5
 10
96.0
 20
130.4748927245169057
 30
0.0
 11
88.0
 21
131.7248927245169057
 31
0.0
 70
     0
 13
80.0000000000000142
 23
111.875
 33
0.0
 14
96.0
 24
124.947122682829999
 34
0.0
  0
DIMENSION
  5
31B8
  8
DIMENSION
  2
*D6
 10
96.0
 20
134.9946670143166898
 30
0.0
 11
80.5
 21
136.2446670143166898
 31
0.0
 70
     0
 13
65.0000000000000142
 23
113.125
 33
0.0
 14
96.0
 24
124.947122682829999
 34
0.0
  0
DIMENSION
  5
31C5
  8
DIMENSION
  2
*D7
 10
160.9999999999998863
 20
139.4858918303976907
 30
0.0
 11
113.0
 21
140.7358918303976907
 31
0.0
 70
     0
 13
65.0000000000000142
 23
113.125
 33
0.0
 14
160.9999999999998863
 24
118.875
 34
0.0
  0
DIMENSION
  5
31DD
  8
DIMENSION
  2
*D8
 10
117.0
 20
130.4748927245169057
 30
0.0
 11
106.5
 21
131.7248927245169057
 31
0.0
 70
     0
 13
96.0
 23
124.947122682829999
 33
0.0
 14
117.0
 24
123.375
 34
0.0
  0
DIMENSION
  5
31F5
  8
DIMENSION
  2
*D9
 10
160.9999999999998863
 20
134.9946670143166898
 30
0.0
 11
128.5
 21
136.2446670143166898
 31
0.0
 70
     0
 13
96.0
 23
127.9249463622584955
 33
0.0
 14
160.9999999999998863
 24
118.875
 34
0.0
  0
DIMENSION
  5
3202
  8
DIMENSION
  2
*D10
 10
156.0
 20
130.4748927245169057
 30
0.0
 11
136.5
 21
131.7248927245169057
 31
0.0
 70
     0
 13
117.0
 23
123.375
 33
0.0
 14
156.0
 24
111.875
 34
0.0
  0
DIMENSION
  5
321A
  8
DIMENSION
  2
*D11
 10
114.0
 20
96.0436020605444014
 30
0.0
 11
108.0774262629183937
 21
96.0436020605444014
 31
0.0
 70
   128
 13
96.0
 23
98.3003669106232962
 33
0.0
 14
114.0
 24
98.8488510130835607
 34
0.0
  0
DIMENSION
  5
3254
  8
DIMENSION
  2
*D12
 10
169.4745939026061023
 20
104.875
 30
0.0
 11
168.2245939026061023
 21
111.8749999999999005
 31
0.0
 70
     0
 13
160.9999999999998863
 23
118.875
 33
0.0
 14
161.0
 24
104.8749999999999005
 34
0.0
 50
90.0
  0
DIMENSION
  5
3283
  8
DIMENSION
  2
*D13
 10
154.999999999999801
 20
110.3257497938194973
 30
0.0
 11
163.1321398094750066
 21
100.5029687478989047
 31
0.0
 70
   132
 15
158.4003153933267072
 25
105.3822838815361962
 35
0.0
 40
0.0
1001
ACAD
1000
DSTYLE
1002
{
1070
   288
1070
     1
1002
}
1001
ACAD_DSTYLE_DIMRADIAL_EXTENSION
1070
   387
1070
     1
1070
   388
1040
4.8082481274947009
1070
   390
1040
0.0000000000000151
  0
DIMENSION
  5
32FA
  8
DIMENSION
  2
*D14
 10
161.0
 20
130.4789361770799019
 30
0.0
 11
158.5
 21
131.7289361770799019
 31
0.0
 70
     0
 13
156.0
 23
111.875
 33
0.0
 14
161.0
 24
111.875
 34
0.0
  0
DIMENSION
  5
3312
  8
DIMENSION
  2
*D15
 10
193.5344899801744987
 20
100.375
 30
0.0
 11
192.2844899801744134
 21
111.8749999999999005
 31
0.0
 70
     0
 13
181.7385321097684141
 23
123.375
 33
0.0
 14
181.7385321097684141
 24
100.375
 34
0.0
 50
90.0
  0
DIMENSION
  5
334E
  8
DIMENSION
  2
*D16
 10
18.0221932587236395
 20
109.875
 30
0.0
 11
16.7721932587236715
 21
111.875
 31
0.0
 70
     0
 13
21.5917473579155512
 23
113.875
 33
0.0
 14
21.5917473579155512
 24
109.875
 34
0.0
 50
90.0
  0
DIMENSION
  5
3366
  8
DIMENSION
  2
*D17
 10
13.5047050391174892
 20
100.375
 30
0.0
 11
12.2547050391175105
 21
111.875
 31
0.0
 70
     0
 13
21.5917473579155512
 23
123.375
 33
0.0
 14
21.5917473579155512
 24
100.375
 34
0.0
 50
90.0
  0
DIMENSION
  5
33DE
  8
DIMENSION
  2
*D18
 10
27.091747357915569
 20
97.4371744652319478
 30
0.0
 11
24.3417473579155583
 21
98.6871744652319478
 31
0.0
 70
     0
 13
21.5917473579155512
 23
99.8750000000000142
 33
0.0
 14
27.091747357915569
 24
100.375
 34
0.0
  0
DIMENSION
  5
33F6
  8
DIMENSION
  2
*D19
 10
30.591747357915569
 20
97.4371744652319478
 30
0.0
 11
34.0497496371068635
 21
96.2669385380885387
 31
0.0
 70
   128
 13
27.0917473579155512
 23
100.375
 33
0.0
 14
30.591747357915569
 24
100.375
 34
0.0
  0
DIMENSION
  5
341C
  8
DIMENSION
  2
*D20
 10
30.5917473579155512
 20
92.9901674063047636
 30
0.0
 11
26.0917473579155512
 21
94.2401674063047636
 31
0.0
 70
     0
 13
21.5917473579155512
 23
100.375
 33
0.0
 14
30.5917473579155512
 24
100.375
 34
0.0
  0
DIMENSION
  5
3445
  8
DIMENSION
  2
*D21
 10
38.9490798045571012
 20
110.6250000000000995
 30
0.0
 11
38.5013413352883518
 21
117.422738469268694
 31
0.0
 70
   128
 13
30.5917473579155512
 23
113.125
 33
0.0
 14
30.5917473579155512
 24
110.6250000000000995
 34
0.0
 50
90.0
  0
DIMENSION
  5
34E4
  8
DIMENSION
  2
*D22
 10
161.0
 20
88.4828679665341156
 30
0.0
 11
155.0
 21
89.8204314183107471
 31
0.0
 70
     0
  1
（<>）
 13
149.0
 23
83.2500000000000142
 33
0.0
 14
161.0
 24
77.1639110926865897
 34
0.0
  0
DIMENSION
  5
34FC
  8
DIMENSION
  2
*D23
 10
169.4408906918683897
 20
72.7500000000000426
 30
0.0
 11
168.1908906918683897
 21
77.2499999999999574
 31
0.0
 70
     0
 13
161.0
 23
81.7499999999999858
 33
0.0
 14
161.0
 24
72.7500000000000142
 34
0.0
 50
90.0
  0
DIMENSION
  5
3514
  8
DIMENSION
  2
*D24
 10
175.5099816540351867
 20
71.2500000000000426
 30
0.0
 11
174.2599816540351867
 21
77.2499999999999716
 31
0.0
 70
     0
 13
149.0
 23
83.2500000000000142
 33
0.0
 14
149.0
 24
71.25
 34
0.0
 50
90.0
  0
DIMENSION
  5
3544
  8
DIMENSION
  2
*D25
 10
71.4999999999999289
 20
58.5007849860636426
 30
0.0
 11
68.2499999999999432
 21
59.7507849860636426
 31
0.0
 70
     0
 13
64.9999999999999858
 23
44.6249999999998934
 33
0.0
 14
71.4999999999999289
 24
53.1249999999998366
 34
0.0
  0
DIMENSION
  5
355C
  8
DIMENSION
  2
*D26
 10
76.9999999999999858
 20
58.5007849860636426
 30
0.0
 11
74.2499999999999858
 21
59.7507849860636426
 31
0.0
 70
     0
 13
71.4999999999999858
 23
52.6250000000000426
 33
0.0
 14
76.9999999999999858
 24
52.6250000000000426
 34
0.0
  0
DIMENSION
  5
3574
  8
DIMENSION
  2
*D27
 10
95.9999999999999005
 20
58.5007849860636426
 30
0.0
 11
86.4999999999999147
 21
59.7507849860636426
 31
0.0
 70
     0
 13
76.9999999999999289
 23
53.1249999999998792
 33
0.0
 14
95.9999999999999005
 24
55.6971226828300487
 34
0.0
  0
DIMENSION
  5
3595
  8
DIMENSION
  2
*D28
 10
59.9963102680709994
 20
40.6249999999998082
 30
0.0
 11
58.7463102680709923
 21
42.6249999999998295
 31
0.0
 70
     0
 13
65.0
 23
44.6249999999998934
 33
0.0
 14
65.0000000000000284
 24
40.6249999999997868
 34
0.0
 50
90.0
  0
DIMENSION
  5
35AD
  8
DIMENSION
  2
*D29
 10
83.9999548168504617
 20
24.2256961444848606
 30
0.0
 11
81.749977408425238
 21
25.4756961444848606
 31
0.0
 70
     0
 13
79.5000000000000142
 23
42.6249999999999005
 33
0.0
 14
83.9999548168504617
 24
42.6317216893720428
 34
0.0
  0
LINE
  5
35DC
  8
LINE
  6
HIDDEN2
 10
69.5999999999999801
 20
71.75
 30
0.0
 11
73.3999999999999915
 21
71.75
 31
0.0
  0
LINE
  5
35F7
  8
LINE
  6
HIDDEN2
 10
69.5999999999999801
 20
71.25
 30
0.0
 11
69.5999999999999801
 21
71.75
 31
0.0
  0
LINE
  5
361B
  8
LINE
  6
HIDDEN2
 10
69.747527506725433
 20
71.75
 30
0.0
 11
70.5000000000000284
 21
72.5024724932746096
 31
0.0
  0
LINE
  5
361C
  8
LINE
  6
HIDDEN2
 10
73.2524724932746238
 20
71.75
 30
0.0
 11
72.5000000000000284
 21
72.5024724932746096
 31
0.0
  0
LINE
  5
361D
  8
LINE
  6
HIDDEN2
 10
70.5000000000000284
 20
72.5024724932746096
 30
0.0
 11
72.5000000000000284
 21
72.5024724932746096
 31
0.0
  0
LINE
  5
362D
  8
LINE
  6
HIDDEN2
 10
75.247527506725433
 20
71.75
 30
0.0
 11
76.0000000000000284
 21
72.5024724932746096
 31
0.0
  0
LINE
  5
362E
  8
LINE
  6
HIDDEN2
 10
78.7524724932746238
 20
71.75
 30
0.0
 11
78.0000000000000284
 21
72.5024724932746096
 31
0.0
  0
LINE
  5
362F
  8
LINE
  6
HIDDEN2
 10
76.0000000000000284
 20
72.5024724932746096
 30
0.0
 11
78.0000000000000284
 21
72.5024724932746096
 31
0.0
  0
DIMENSION
  5
367C
  8
DIMENSION
  2
*D30
 10
86.9808769797288477
 20
42.1249999999999432
 30
0.0
 11
86.9808769797288051
 21
44.3187974224663819
 31
0.0
 70
   128
 13
83.2598076937590861
 23
43.1249999999999218
 33
0.0
 14
83.2598076937590861
 24
42.1249999999999289
 34
0.0
 50
90.0
  0
DIMENSION
  5
370D
  8
DIMENSION
  2
*D31
 10
60.0005808025314877
 20
110.625
 30
0.0
 11
61.2762312289259228
 21
117.1299192773206954
 31
0.0
 70
   128
 13
65.0000000000000142
 23
113.1249999999999005
 33
0.0
 14
65.9999999999999858
 24
110.6249999999999005
 34
0.0
 50
90.0
  0
TEXT
  5
3741
  8
DIMENSION
 62
     3
 10
43.5395651764125731
 20
128.0840031911525898
 30
0.0
 40
1.5
  1
ウレタン
  7
GOTHIC
  0
TEXT
  5
3744
  8
DIMENSION
 62
     3
 10
38.9936485967932711
 20
125.2425664644109986
 30
0.0
 40
1.5
  1
（皿小ネジM2X11
  7
GOTHIC
  0
TEXT
  5
374F
  8
DIMENSION
 62
     3
 10
41.1146377672514021
 20
122.8682049775739955
 30
0.0
 40
1.5
  1
　にて取付事）
  7
GOTHIC
  0
POLYLINE
  5
3754
  8
DIMENSION
 66
     1
 10
0.0
 20
0.0
 30
0.0
1001
ACAD
1000
DSTYLE
1002
{
1070
   147
1040
0.5
1070
    77
1070
     1
1002
}
  0
VERTEX
  5
606C
  8
DIMENSION
 10
66.1718701453781648
 20
115.721039967251798
 30
0.0
  0
VERTEX
  5
606D
  8
DIMENSION
 10
54.4611911854366184
 20
127.4317189271933017
 30
0.0
  0
VERTEX
  5
606E
  8
DIMENSION
 10
53.6035222413651127
 20
127.4317189271932023
 30
0.0
  0
VERTEX
  5
606F
  8
DIMENSION
 10
40.8811352291803374
 20
127.4317189271932023
 30
0.0
  0
SEQEND
  5
6070
  8
DIMENSION
  0
INSERT
  5
3755
  8
0
  2
*U60
 10
0.0
 20
0.0
 30
0.0
1001
ACAD
1000
DSTYLE
1002
{
1070
   147
1040
0.5
1070
    77
1070
     1
1002
}
  0
ARC
  5
3AD6
  8
LINE
 10
104.5313345041745947
 20
77.25
 30
0.0
 40
5.0
 50
0.0
 51
28.0480398587343913
  0
LINE
  5
3AD7
  8
LINE
 10
107.0000000000003979
 20
83.2500000000000142
 30
0.0
 11
108.9441027660484025
 21
79.6010585418061822
 31
0.0
  0
ARC
  5
3AD8
  8
LINE
 10
104.5313345041745947
 20
77.25
 30
0.0
 40
5.0
 50
331.9519601412657721
 51
0.0
  0
LINE
  5
3AD9
  8
LINE
 10
107.0000000000003979
 20
71.25
 30
0.0
 11
108.9441027660484025
 21
74.8989414581938036
 31
0.0
  0
DIMENSION
  5
3BC4
  8
DIMENSION
  2
*D33
 10
156.0
 20
77.1639110926866039
 30
0.0
 11
166.5210085589455105
 21
65.7927094124475502
 31
0.0
 70
   132
 15
159.1343714108645031
 25
73.2683089750727277
 35
0.0
 40
0.0
1001
ACAD
1000
DSTYLE
1002
{
1070
   288
1070
     1
1002
}
1001
ACAD_DSTYLE_DIMRADIAL_EXTENSION
1070
   387
1070
     1
1070
   388
1040
4.8367439749314487
1070
   390
1040
0.0
  0
LINE
  5
3E16
  8
CENTER
 10
65.0
 20
111.875
 30
0.0
 11
64.5000000000000142
 21
111.875
 31
0.0
  0
LINE
  5
3E9B
  8
CENTER
 10
63.5000000000000071
 20
77.25
 30
0.0
 11
91.1010205144336851
 21
77.2499999999999716
 31
0.0
  0
DIMENSION
  5
3ECC
  8
DIMENSION
  2
*D34
 10
79.9999999999999858
 20
87.0363028848116755
 30
0.0
 11
72.5
 21
88.2863028848116755
 31
0.0
 70
     0
 13
65.0000000000000142
 23
80.2500000000000142
 33
0.0
 14
79.9999999999999858
 24
83.2500000000000142
 34
0.0
  0
INSERT
  5
3EE4
  8
0
  2
*U61
 10
0.0
 20
0.0
 30
0.0
1001
ACAD
1000
DSTYLE
1002
{
1070
   147
1040
0.5
1070
    77
1070
     1
1002
}
  0
INSERT
  5
3EE6
  8
0
  2
*U62
 10
0.0
 20
0.0
 30
0.0
  0
LINE
  5
3FEB
  8
LINE
 10
79.5000000000000142
 20
123.375
 30
0.0
 11
117.0
 21
123.375
 31
0.0
  0
LINE
  5
3FED
  8
LINE
 10
117.0
 20
123.375
 30
0.0
 11
155.7053682410920885
 21
119.4164964298882978
 31
0.0
  0
ARC
  5
3FF1
  8
LINE
 10
77.5199840255489221
 20
110.375
 30
0.0
 40
13.0
 50
89.9999999999999147
 51
164.3815017243510965
  0
ARC
  5
4053
  8
LINE
 10
155.0
 20
113.4573388592202008
 30
0.0
 40
6.0
 50
0.0
 51
84.160507688482582
  0
LINE
  5
405D
  8
TEXT
 10
161.0
 20
118.875
 30
0.0
 11
161.0
 21
111.7249999999997954
 31
0.0
  0
LINE
  5
405E
  8
TEXT
 10
155.7053682410920885
 20
119.4164964298882978
 30
0.0
 11
161.0
 21
118.875
 31
0.0
  0
LINE
  5
405F
  8
LINE
  6
HIDDEN2
 10
117.0
 20
110.3250000000000028
 30
0.0
 11
117.0
 21
105.875
 31
0.0
  0
LINE
  5
4060
  8
LINE
  6
HIDDEN2
 10
110.9999999999999005
 20
110.3250000000000028
 30
0.0
 11
111.0
 21
105.875
 31
0.0
  0
LINE
  5
4061
  8
CENTER
 10
65.0
 20
111.875
 30
0.0
 11
64.5000000000000142
 21
111.875
 31
0.0
  0
LINE
  5
4064
  8
LINE
  6
HIDDEN2
 10
111.0
 20
105.875
 30
0.0
 11
116.9999999999999005
 21
105.875
 31
0.0
  0
ARC
  5
4065
  8
LINE
 10
96.0
 20
111.875
 30
0.0
 40
12.0
 50
286.5978421358660739
 51
0.0
  0
LINE
  5
4066
  8
LINE
 10
65.0000000000000142
 20
111.875
 30
0.0
 11
79.5000000000000142
 21
111.875
 31
0.0
  0
LINE
  5
4068
  8
LINE
 10
65.0000000000000142
 20
110.625
 30
0.0
 11
80.0
 21
110.625
 31
0.0
  0
LINE
  5
4069
  8
LINE
 10
108.0
 20
111.875
 30
0.0
 11
108.0
 21
111.875
 31
0.0
  0
LINE
  5
406A
  8
LINE
 10
84.0
 20
111.875
 30
0.0
 11
84.0
 21
111.875
 31
0.0
  0
LINE
  5
406B
  8
LINE
 10
83.4999999999999858
 20
112.375
 30
0.0
 11
80.0000000000000142
 21
112.375
 31
0.0
  0
LINE
  5
406C
  8
LINE
 10
80.5000000000000142
 20
111.875
 30
0.0
 11
80.5000000000000142
 21
111.875
 31
0.0
  0
ARC
  5
406D
  8
LINE
 10
80.0000000000000142
 20
111.875
 30
0.0
 40
0.5
 50
90.0
 51
180.0
  0
ARC
  5
406E
  8
LINE
 10
83.4999999999999858
 20
111.875
 30
0.0
 40
0.5
 50
0.0
 51
90.0
  0
ARC
  5
406F
  8
LINE
 10
83.4999999999999858
 20
111.875
 30
0.0
 40
0.5
 50
270.0
 51
0.0
  0
ARC
  5
4070
  8
LINE
 10
80.0000000000000142
 20
111.875
 30
0.0
 40
0.5
 50
180.0
 51
270.0
  0
LINE
  5
4071
  8
LINE
 10
80.5000000000000142
 20
111.875
 30
0.0
 11
80.5000000000000142
 21
111.875
 31
0.0
  0
LINE
  5
4072
  8
LINE
 10
83.4999999999999858
 20
111.375
 30
0.0
 11
80.0000000000000142
 21
111.375
 31
0.0
  0
LINE
  5
4073
  8
LINE
 10
84.0
 20
111.875
 30
0.0
 11
84.0
 21
111.875
 31
0.0
  0
LINE
  5
4074
  8
LINE
 10
108.0
 20
111.875
 30
0.0
 11
108.0
 21
111.875
 31
0.0
  0
LINE
  5
4075
  8
LINE
 10
77.5199840255489363
 20
100.3749999999999005
 30
0.0
 11
107.0
 21
100.375
 31
0.0
  0
LINE
  5
4076
  8
CENTER
 10
79.5000000000000142
 20
111.875
 30
0.0
 11
112.5
 21
111.875
 31
0.0
  0
LINE
  5
4077
  8
LINE
 10
79.5000000000000142
 20
100.375
 30
0.0
 11
117.0
 21
100.375
 31
0.0
  0
LINE
  5
4078
  8
CENTER
 10
63.2238739453809302
 20
111.8749999999999005
 30
0.0
 11
65.0000000000000142
 21
111.8749999999999005
 31
0.0
  0
LINE
  5
407A
  8
TEXT
 10
161.0
 20
104.875
 30
0.0
 11
161.0
 21
111.7249999999997954
 31
0.0
  0
LINE
  5
407B
  8
LINE
 10
79.9999999999999716
 20
100.375
 30
0.0
 11
80.0
 21
111.375
 31
0.0
  0
LINE
  5
407C
  8
LINE
 10
65.0000000000000142
 20
109.875
 30
0.0
 11
65.0
 21
111.875
 31
0.0
  0
LINE
  5
4084
  8
LINE
  6
HIDDEN2
 10
111.0
 20
105.875
 30
0.0
 11
114.0
 21
104.1429491924311037
 31
0.0
  0
LINE
  5
4085
  8
LINE
  6
HIDDEN2
 10
117.0
 20
105.875
 30
0.0
 11
114.0
 21
104.1429491924311037
 31
0.0
  0
LINE
  5
4086
  8
LINE
  6
HIDDEN2
 10
117.0
 20
110.3250000000000028
 30
0.0
 11
117.2999999999999972
 21
110.625
 31
0.0
  0
LINE
  5
4087
  8
LINE
  6
HIDDEN2
 10
111.0
 20
110.3250000000000028
 30
0.0
 11
110.7000000000000028
 21
110.625
 31
0.0
  0
LINE
  5
4088
  8
LINE
  6
HIDDEN2
 10
111.0
 20
110.3250000000000028
 30
0.0
 11
117.0
 21
110.3250000000000028
 31
0.0
  0
LINE
  5
408F
  8
LINE
 10
117.0
 20
100.375
 30
0.0
 11
155.7053682410920885
 21
104.3335035701116027
 31
0.0
  0
LINE
  5
4090
  8
TEXT
 10
155.7053682410920885
 20
104.3335035701116027
 30
0.0
 11
161.0
 21
104.8749999999999005
 31
0.0
  0
ARC
  5
4091
  8
LINE
 10
155.0
 20
110.2926611407797992
 30
0.0
 40
6.0
 50
275.8394923115174038
 51
0.0
  0
ARC
  5
4093
  8
LINE
 10
77.5199840255489221
 20
113.3749999999999005
 30
0.0
 40
13.0
 50
195.6184982756487898
 51
270.0
  0
LINE
  5
40AA
  8
CENTER
 10
69.5000000000001137
 20
104.875000000000199
 30
0.0
 11
73.5000000000001137
 21
104.875000000000199
 31
0.0
  0
CIRCLE
  5
40AB
  8
LINE
 10
71.5000000000001137
 20
104.875000000000199
 30
0.0
 40
1.0
  0
LINE
  5
40AC
  8
CENTER
 10
71.5000000000001421
 20
102.875000000000199
 30
0.0
 11
71.5000000000000853
 21
106.875000000000199
 31
0.0
  0
LINE
  5
40AD
  8
CENTER
 10
75.0000000000001137
 20
104.8750000000002984
 30
0.0
 11
79.0000000000001137
 21
104.8750000000002984
 31
0.0
  0
CIRCLE
  5
40AE
  8
LINE
 10
77.0000000000001137
 20
104.8750000000002984
 30
0.0
 40
1.0
  0
LINE
  5
40AF
  8
CENTER
 10
77.0000000000001421
 20
102.8750000000002984
 30
0.0
 11
77.0000000000000853
 21
106.8750000000002984
 31
0.0
  0
LINE
  5
4144
  8
LINE
 10
21.5917473579155512
 20
113.875
 30
0.0
 11
21.9444013193324814
 21
111.875
 31
0.0
  0
LINE
  5
4145
  8
LINE
 10
27.0917473579155512
 20
118.0093681338069018
 30
0.0
 11
21.9444013193324814
 21
111.875
 31
0.0
  0
LINE
  5
4147
  8
LINE
  6
HIDDEN2
 10
22.8442198511901609
 20
119.8749999999999005
 30
0.0
 11
30.5917473579155512
 21
119.875
 31
0.0
  0
LINE
  5
4148
  8
LINE
  6
HIDDEN2
 10
22.8442198511901609
 20
117.8749999999999005
 30
0.0
 11
30.5917473579155512
 21
117.875
 31
0.0
  0
LINE
  5
4149
  8
CENTER
 10
20.5917473579155512
 20
118.875
 30
0.0
 11
31.5917473579155512
 21
118.875
 31
0.0
  0
LINE
  5
414E
  8
LINE
 10
27.5917473579155512
 20
111.375
 30
0.0
 11
27.5917473579155512
 21
111.875
 31
0.0
  0
LINE
  5
414F
  8
LINE
 10
22.3639511349211304
 20
111.375
 30
0.0
 11
33.5917473579155512
 21
111.375
 31
0.0
  0
LINE
  5
4150
  8
LINE
 10
33.5917473579155512
 20
100.375
 30
0.0
 11
33.5917473579155512
 21
111.875
 31
0.0
  0
LINE
  5
4151
  8
LINE
 10
30.5917473579155512
 20
100.375
 30
0.0
 11
30.5917473579155512
 21
110.625
 31
0.0
  0
LINE
  5
4153
  8
LINE
 10
21.5917473579155512
 20
100.375
 30
0.0
 11
33.5917473579155512
 21
100.375
 31
0.0
  0
LINE
  5
4154
  8
LINE
 10
21.5917473579155512
 20
111.875
 30
0.0
 11
21.5917473579155512
 21
100.375
 31
0.0
  0
LINE
  5
4155
  8
LINE
 10
23.6226005816870313
 20
109.875
 30
0.0
 11
21.5917473579155512
 21
109.875
 31
0.0
  0
LINE
  5
4156
  8
LINE
 10
27.0917473579155512
 20
110.625
 30
0.0
 11
27.0917473579155512
 21
100.375
 31
0.0
  0
LINE
  5
4157
  8
LINE
 10
27.0917473579155512
 20
110.625
 30
0.0
 11
30.5917473579155512
 21
110.625
 31
0.0
  0
LINE
  5
4158
  8
LINE
 10
21.5917473579155512
 20
109.875
 30
0.0
 11
21.9444013193324814
 21
111.875
 31
0.0
  0
LINE
  5
4159
  8
LINE
 10
27.0917473579155512
 20
105.7406318661929987
 30
0.0
 11
21.9444013193324814
 21
111.875
 31
0.0
  0
LINE
  5
415A
  8
LINE
  6
HIDDEN2
 10
22.8442198511901609
 20
103.875
 30
0.0
 11
30.5917473579155512
 21
103.875
 31
0.0
  0
LINE
  5
415B
  8
LINE
  6
HIDDEN2
 10
22.8442198511901609
 20
105.875
 30
0.0
 11
30.5917473579155512
 21
105.875
 31
0.0
  0
LINE
  5
415C
  8
CENTER
 10
20.5917473579155512
 20
104.875
 30
0.0
 11
31.5917473579155512
 21
104.875
 31
0.0
  0
LINE
  5
4248
  8
CENTER
 10
114.0
 20
29.5988510130835785
 30
0.0
 11
114.0
 21
55.6511489869164322
 31
0.0
  0
LINE
  5
424C
  8
CENTER
 10
64.9999999999999858
 20
42.6250000000000071
 30
0.0
 11
64.5
 21
42.6250000000000213
 31
0.0
  0
ARC
  5
4250
  8
LINE
 10
95.9999999999999858
 20
42.6250000000000071
 30
0.0
 40
12.0
 50
106.5978421358669976
 51
180.0
  0
CIRCLE
  5
4251
  8
LINE
 10
95.9999999999999858
 20
42.6250000000000071
 30
0.0
 40
6.5
  0
CIRCLE
  5
4252
  8
LINE
 10
95.9999999999999858
 20
42.6250000000000071
 30
0.0
 40
2.0499999999999989
  0
LINE
  5
4253
  8
LINE
 10
65.0
 20
42.6249999999999787
 30
0.0
 11
79.5
 21
42.6250000000000213
 31
0.0
  0
LINE
  5
4257
  8
LINE
 10
83.9999999999999858
 20
42.6250000000000071
 30
0.0
 11
83.9999999999999858
 21
42.6250000000000071
 31
0.0
  0
LINE
  5
4258
  8
LINE
 10
83.4999999999999858
 20
42.1250000000000071
 30
0.0
 11
80.0
 21
42.1250000000000071
 31
0.0
  0
LINE
  5
4259
  8
LINE
 10
80.5
 20
42.6250000000000071
 30
0.0
 11
80.5
 21
42.6250000000000071
 31
0.0
  0
ARC
  5
425A
  8
LINE
 10
80.0
 20
42.6250000000000071
 30
0.0
 40
0.5
 50
180.0
 51
270.0
  0
ARC
  5
425B
  8
LINE
 10
83.4999999999999858
 20
42.6250000000000071
 30
0.0
 40
0.5
 50
270.0
 51
0.0
  0
ARC
  5
425C
  8
LINE
 10
83.4999999999999858
 20
42.6250000000000071
 30
0.0
 40
0.5
 50
0.0
 51
90.0
  0
ARC
  5
425D
  8
LINE
 10
80.0
 20
42.6250000000000071
 30
0.0
 40
0.5
 50
90.0
 51
180.0
  0
LINE
  5
425E
  8
LINE
 10
80.5
 20
42.6250000000000071
 30
0.0
 11
80.5
 21
42.6250000000000071
 31
0.0
  0
LINE
  5
425F
  8
LINE
 10
83.4999999999999858
 20
43.1250000000000071
 30
0.0
 11
80.0
 21
43.1250000000000071
 31
0.0
  0
LINE
  5
4260
  8
LINE
 10
83.9999999999999858
 20
42.6250000000000071
 30
0.0
 11
83.9999999999999858
 21
42.6250000000000071
 31
0.0
  0
LINE
  5
4262
  8
LINE
 10
77.5199840255489221
 20
54.1250000000000497
 30
0.0
 11
107.0
 21
54.125
 31
0.0
  0
LINE
  5
4263
  8
CENTER
 10
79.5
 20
42.6250000000000071
 30
0.0
 11
112.5
 21
42.625
 31
0.0
  0
LINE
  5
4264
  8
LINE
 10
79.5
 20
54.1250000000000071
 30
0.0
 11
117.0
 21
54.125
 31
0.0
  0
LINE
  5
4265
  8
CENTER
 10
63.2238739453809089
 20
42.6250000000000426
 30
0.0
 11
65.0
 21
42.6250000000000426
 31
0.0
  0
LINE
  5
4266
  8
CENTER
 10
95.9999999999999858
 20
55.6971226828300487
 30
0.0
 11
95.9999999999999858
 21
29.0503669106233104
 31
0.0
  0
LINE
  5
4267
  8
TEXT
 10
161.0
 20
49.6250000000000213
 30
0.0
 11
161.0
 21
42.625
 31
0.0
  0
LINE
  5
4268
  8
LINE
 10
79.9999999999999716
 20
44.6249999999999787
 30
0.0
 11
79.9999999999999858
 21
43.1250000000000213
 31
0.0
  0
LINE
  5
4269
  8
LINE
 10
65.0
 20
44.6250000000000071
 30
0.0
 11
64.9999999999999858
 21
42.6249999999999787
 31
0.0
  0
CIRCLE
  5
426A
  8
LINE
 10
71.4999999999999858
 20
49.625
 30
0.0
 40
1.0
  0
LINE
  5
426B
  8
CENTER
 10
71.4999999999999858
 20
52.6250000000000426
 30
0.0
 11
71.4999999999999858
 21
46.6249999999999574
 31
0.0
  0
LINE
  5
426C
  8
CENTER
 10
68.4999999999999432
 20
49.625
 30
0.0
 11
80.0000000000000284
 21
49.625
 31
0.0
  0
CIRCLE
  5
426D
  8
LINE
 10
76.9999999999999858
 20
49.625
 30
0.0
 40
1.0
  0
LINE
  5
426E
  8
CENTER
 10
76.9999999999999858
 20
52.6250000000000426
 30
0.0
 11
76.9999999999999858
 21
46.6249999999999574
 31
0.0
  0
LINE
  5
427A
  8
LINE
 10
117.0
 20
54.125
 30
0.0
 11
155.7053682410920032
 21
50.1664964298883689
 31
0.0
  0
LINE
  5
427B
  8
TEXT
 10
155.7053682410920032
 20
50.1664964298883689
 30
0.0
 11
161.0
 21
49.6250000000000426
 31
0.0
  0
ARC
  5
427C
  8
LINE
 10
154.9999999999998863
 20
44.2073388592202292
 30
0.0
 40
6.0
 50
0.0
 51
84.1605076884828947
  0
ARC
  5
427E
  8
LINE
 10
77.5199840255489079
 20
41.1250000000000568
 30
0.0
 40
13.0
 50
90.0
 51
164.3815017243510965
  0
LINE
  5
4281
  8
CENTER
 10
64.9999999999999858
 20
42.6250000000000071
 30
0.0
 11
64.5
 21
42.625
 31
0.0
  0
ARC
  5
4285
  8
LINE
 10
95.9999999999999858
 20
42.6250000000000071
 30
0.0
 40
12.0
 50
286.5978421358660171
 51
0.0
  0
LINE
  5
4286
  8
LINE
 10
65.0
 20
42.6250000000000426
 30
0.0
 11
79.5
 21
42.625
 31
0.0
  0
LINE
  5
4289
  8
LINE
 10
83.9999999999999858
 20
42.6250000000000071
 30
0.0
 11
83.9999999999999858
 21
42.6250000000000071
 31
0.0
  0
LINE
  5
428A
  8
LINE
 10
83.4999999999999858
 20
43.1250000000000071
 30
0.0
 11
80.0
 21
43.1250000000000071
 31
0.0
  0
LINE
  5
428B
  8
LINE
 10
80.5
 20
42.6250000000000071
 30
0.0
 11
80.5
 21
42.6250000000000071
 31
0.0
  0
ARC
  5
428C
  8
LINE
 10
80.0
 20
42.6250000000000071
 30
0.0
 40
0.5
 50
90.0
 51
180.0
  0
ARC
  5
428D
  8
LINE
 10
83.4999999999999858
 20
42.6250000000000071
 30
0.0
 40
0.5
 50
0.0
 51
90.0
  0
ARC
  5
428E
  8
LINE
 10
83.4999999999999858
 20
42.6250000000000071
 30
0.0
 40
0.5
 50
270.0
 51
0.0
  0
ARC
  5
428F
  8
LINE
 10
80.0
 20
42.6250000000000071
 30
0.0
 40
0.5
 50
180.0
 51
270.0
  0
LINE
  5
4290
  8
LINE
 10
80.5
 20
42.6250000000000071
 30
0.0
 11
80.5
 21
42.6250000000000071
 31
0.0
  0
LINE
  5
4291
  8
LINE
 10
83.4999999999999858
 20
42.1250000000000071
 30
0.0
 11
80.0
 21
42.1250000000000071
 31
0.0
  0
LINE
  5
4292
  8
LINE
 10
83.9999999999999858
 20
42.6250000000000071
 30
0.0
 11
83.9999999999999858
 21
42.6250000000000071
 31
0.0
  0
LINE
  5
4294
  8
LINE
 10
77.5199840255489221
 20
31.1249999999999716
 30
0.0
 11
107.0
 21
31.1250000000000284
 31
0.0
  0
LINE
  5
4296
  8
LINE
 10
79.5
 20
31.1250000000000213
 30
0.0
 11
117.0
 21
31.1250000000000284
 31
0.0
  0
LINE
  5
4297
  8
CENTER
 10
63.2238739453809089
 20
42.6249999999999787
 30
0.0
 11
65.0
 21
42.6249999999999787
 31
0.0
  0
LINE
  5
4298
  8
TEXT
 10
161.0
 20
35.6250000000000213
 30
0.0
 11
161.0
 21
42.6250000000000213
 31
0.0
  0
LINE
  5
4299
  8
LINE
 10
79.9999999999999858
 20
40.6249999999999929
 30
0.0
 11
79.9999999999999858
 21
42.125
 31
0.0
  0
LINE
  5
429A
  8
LINE
 10
65.0
 20
40.6250000000000071
 30
0.0
 11
64.9999999999999858
 21
42.6250000000000426
 31
0.0
  0
LINE
  5
42A6
  8
LINE
 10
117.0
 20
31.1250000000000284
 30
0.0
 11
155.7053682410920032
 21
35.0835035701116595
 31
0.0
  0
LINE
  5
42A7
  8
TEXT
 10
155.7053682410920032
 20
35.0835035701116595
 30
0.0
 11
161.0
 21
35.6249999999999929
 31
0.0
  0
ARC
  5
42A8
  8
LINE
 10
154.9999999999998863
 20
41.0426611407797921
 30
0.0
 40
6.0
 50
275.8394923115171196
 51
0.0
  0
ARC
  5
42AA
  8
LINE
 10
77.5199840255489079
 20
44.1249999999999574
 30
0.0
 40
13.0
 50
195.6184982756487898
 51
270.0
  0
LINE
  5
42B3
  8
LINE
 10
65.0
 20
44.6250000000000426
 30
0.0
 11
79.9999999999999858
 21
44.6249999999999929
 31
0.0
  0
LINE
  5
42B4
  8
LINE
 10
65.0
 20
40.6250000000000426
 30
0.0
 11
79.9999999999999858
 21
40.6249999999999929
 31
0.0
  0
CIRCLE
  5
42C4
  8
LINE
 10
71.4999999999999858
 20
35.6250000000000924
 30
0.0
 40
1.0
  0
LINE
  5
42C5
  8
CENTER
 10
71.4999999999999858
 20
32.6250000000000497
 30
0.0
 11
71.4999999999999858
 21
38.6250000000001279
 31
0.0
  0
LINE
  5
42C6
  8
CENTER
 10
68.4999999999999432
 20
35.6250000000000924
 30
0.0
 11
80.0000000000000284
 21
35.6250000000000924
 31
0.0
  0
CIRCLE
  5
42C7
  8
LINE
 10
76.9999999999999858
 20
35.6250000000000924
 30
0.0
 40
1.0
  0
LINE
  5
42C8
  8
CENTER
 10
76.9999999999999858
 20
32.6250000000000497
 30
0.0
 11
76.9999999999999858
 21
38.6250000000001279
 31
0.0
  0
DIMENSION
  5
443D
  8
DIMENSION
  2
*D35
 10
21.5917473579155512
 20
123.375
 30
0.0
 11
30.1035664606147186
 21
134.8407541576872006
 31
0.0
 70
     2
 13
27.0917473579155512
 23
118.0093681338069018
 33
0.0
 14
21.9444013193324814
 24
111.875
 34
0.0
 15
21.5917473579155512
 25
111.875
 35
0.0
 16
32.1999660730644308
 26
132.5774234991521894
 36
0.0
  0
DIMENSION
  5
4459
  8
DIMENSION
  2
*D36
 10
21.5917473579155512
 20
123.375
 30
0.0
 11
19.6334425312276402
 21
136.2585265937931069
 31
0.0
 70
     2
 13
21.5917473579155512
 23
113.875
 33
0.0
 14
21.9444013193324814
 24
111.875
 34
0.0
 15
21.5917473579155512
 25
111.875
 35
0.0
 16
20.3579706035211103
 26
135.0581287919659133
 36
0.0
  0
INSERT
  5
44E4
  8
0
  2
*U63
 10
0.0
 20
0.0
 30
0.0
1001
ACAD
1000
DSTYLE
1002
{
1070
   147
1040
0.5
1070
    77
1070
     1
1002
}
  0
INSERT
  5
44E5
  8
0
  2
*U64
 10
0.0
 20
0.0
 30
0.0
  0
DIMENSION
  5
4516
  8
DIMENSION
  2
*D38
 10
99.7171424098172849
 20
89.5963584390116665
 30
0.0
 11
88.8203882888152236
 21
95.8472183499698787
 31
0.0
 70
     1
 13
84.5922375127743607
 23
116.9850836622355956
 33
0.0
 14
107.4077624872255967
 24
106.7649163377643049
 34
0.0
  0
LINE
  5
455B
  8
LINE
 10
65.0000000000000142
 20
76.75
 30
0.0
 11
79.0
 21
76.75
 31
0.0
  0
LINE
  5
4575
  8
LINE
  6
HIDDEN2
 10
72.5000000000000142
 20
72.5024724932746238
 30
0.0
 11
72.5
 21
80.25
 31
0.0
  0
INSERT
  5
45CA
  8
HATCHING
  6
CONTINUOUS
  2
*X65
 10
0.0
 20
0.0
 30
0.0
1001
GRADIENTCOLOR1ACI
1070
     5
1001
GRADIENTCOLOR2ACI
1070
     2
1001
ACAD
1000
HATCH
1002
{
1070
    19
1000
_USER
1040
0.5
1040
0.7853981633974483
1000
R14_HATCH_DATA
1000
45CA
1011
1.0
1021
0.0
1031
0.0
1021
0.0
1031
0.0
1011
0.0
1021
0.0
1031
0.0
1021
1.0
1031
0.0
1011
0.0
1021
0.0
1031
0.0
1021
0.0
1031
1.0
1040
0.0
1010
0.0
1020
0.0
1030
1.0
1000
_USER
1070
     0
1070
     0
1071
        7
1071
        7
1070
     0
1070
     1
1071
        5
1040
70.5000000000000284
1040
80.25
1040
65.0000000000000142
1040
80.25
1040
65.0000000000000142
1040
77.25
1040
65.0000000000000142
1040
76.75
1040
70.5000000000000284
1040
76.75
1071
        0
1071
        7
1070
     0
1070
     1
1071
        4
1040
71.5000000000000284
1040
80.25
1040
70.5000000000000284
1040
80.25
1040
70.5000000000000284
1040
76.75
1040
71.5000000000000284
1040
76.75
1071
        0
1071
        7
1070
     0
1070
     1
1071
        4
1040
72.5
1040
80.25
1040
71.5000000000000284
1040
80.25
1040
71.5000000000000284
1040
76.75
1040
72.5
1040
76.75
1071
        0
1071
        7
1070
     0
1070
     1
1071
        4
1040
76.0000000000000284
1040
80.25
1040
72.5
1040
80.25
1040
72.5
1040
76.75
1040
76.0000000000000284
1040
76.75
1071
        0
1071
        7
1070
     0
1070
     1
1071
        4
1040
77.0000000000000142
1040
80.25
1040
76.0000000000000284
1040
80.25
1040
76.0000000000000284
1040
76.75
1040
77.0000000000000142
1040
76.75
1071
        0
1071
        7
1070
     1
1070
     1
1071
        5
1040
80.0
1040
77.7500000000000142
1040
0.0
1040
80.0
1040
80.25
1040
0.0
1040
78.0000000000000142
1040
80.25
1040
0.0
1040
78.0000000000000284
1040
76.75
1040
0.0
1040
79.0
1040
76.75
1040
0.414213562373098
1071
        0
1071
        7
1070
     0
1070
     1
1071
        4
1040
78.0000000000000142
1040
80.25
1040
77.0000000000000142
1040
80.25
1040
77.0000000000000142
1040
76.75
1040
78.0000000000000284
1040
76.75
1071
        0
1070
     1
1070
     0
1040
0.7853981633974483
1040
0.5
1070
     0
1070
     1
1040
0.7853981633974483
1040
-9.0
1040
-3.0
1040
-0.3535533905932737
1040
0.3535533905932738
1070
     0
1040
0.0496907189047067
1071
        7
1040
70.1113325334831643
1040
78.9311432846880052
1040
0.0
1040
71.0561349613137736
1040
78.2851640172812608
1040
0.0
1040
71.8020319946774634
1040
78.2851640172812608
1040
0.0
1040
73.2938252595771473
1040
78.3348544621667884
1040
0.0
1040
76.7249503301257931
1040
77.9373288127456334
1040
0.0
1040
78.2664705450130214
1040
77.5894939565994832
1040
0.0
1040
77.3713942653421327
1040
77.688875194760044
1040
0.0
1002
}
  0
DIMENSION
  5
45D4
  8
DIMENSION
  2
*D39
 10
60.0045698954606266
 20
76.7500000000000284
 30
0.0
 11
58.7545698954606408
 21
74.0
 31
0.0
 70
     0
 13
65.0000000000000142
 23
71.25
 33
0.0
 14
65.0000000000000142
 24
76.75
 34
0.0
 50
90.0
  0
DIMENSION
  5
45EC
  8
DIMENSION
  2
*D40
 10
60.0045698954606266
 20
80.2500000000000284
 30
0.0
 11
55.7545698954606479
 21
79.9000000000000057
 31
0.0
 70
     0
 13
65.0000000000000142
 23
76.75
 33
0.0
 14
65.0000000000000142
 24
80.25
 34
0.0
 50
90.0
  0
DIMENSION
  5
4608
  8
DIMENSION
  2
*D41
 10
60.0045698954606266
 20
83.2500000000000142
 30
0.0
 11
58.7545698954606479
 21
81.75
 31
0.0
 70
     0
 13
65.0000000000000142
 23
80.25
 33
0.0
 14
79.9999999999999858
 24
83.2500000000000142
 34
0.0
 50
90.0
  0
INSERT
  5
4624
  8
0
  2
*U66
 10
0.0
 20
0.0
 30
0.0
1001
ACAD
1000
DSTYLE
1002
{
1070
   147
1040
0.5
1070
    77
1070
     1
1002
}
  0
INSERT
  5
4625
  8
0
  2
*U67
 10
0.0
 20
0.0
 30
0.0
  0
DIMENSION
  5
46AB
  8
DIMENSION
  2
*D42
 10
55.4920734953966033
 20
35.6250000000000995
 30
0.0
 11
54.2420734953965891
 21
42.6250000000000426
 31
0.0
 70
     0
 13
68.4999999999999432
 23
49.625
 33
0.0
 14
68.4999999999999432
 24
35.6250000000000924
 34
0.0
 50
90.0
  0
DIMENSION
  5
474D
  8
DIMENSION
  2
*D43
 10
122.9917538944660009
 20
43.8749999999999289
 30
0.0
 11
121.7417538944660009
 21
46.3749999999998934
 31
0.0
 70
     0
 13
116.999999999999801
 23
48.8749999999999218
 33
0.0
 14
117.2999999999999972
 24
43.8749999999999076
 34
0.0
 50
90.0
  0
DIMENSION
  5
4777
  8
DIMENSION
  2
*D44
 10
116.9999999999999005
 20
45.9498664437619411
 30
0.0
 11
113.9999999999999005
 21
47.3216938549294568
 31
0.0
 70
     0
  1
φ<>
 13
111.0
 23
48.6250000000000071
 33
0.0
 14
116.9999999999999005
 24
48.625
 34
0.0
  0
INSERT
  5
47FD
  8
0
  2
*U68
 10
0.0
 20
0.0
 30
0.0
1001
ACAD
1000
DSTYLE
1002
{
1070
   147
1040
0.5
1070
    77
1070
     1
1002
}
  0
INSERT
  5
47FE
  8
0
  2
*U69
 10
0.0
 20
0.0
 30
0.0
  0
CIRCLE
  5
48EE
  8
LINE
 10
71.4999999999999858
 20
49.625
 30
0.0
 40
1.8999999999999999
  0
CIRCLE
  5
48F6
  8
LINE
 10
76.9999999999999858
 20
49.625
 30
0.0
 40
1.8999999999999999
  0
CIRCLE
  5
48F7
  8
LINE
 10
71.5000000000000995
 20
35.6250000000002132
 30
0.0
 40
1.8999999999999999
  0
CIRCLE
  5
48F8
  8
LINE
 10
77.0000000000000853
 20
35.6250000000002984
 30
0.0
 40
1.8999999999999999
  0
LINE
  5
48FB
  8
LINE
  6
HIDDEN2
 10
73.4000000000000767
 20
71.25
 30
0.0
 11
73.4000000000000767
 21
71.75
 31
0.0
  0
LINE
  5
4922
  8
LINE
  6
HIDDEN2
 10
75.0999999999999801
 20
71.75
 30
0.0
 11
78.8999999999999915
 21
71.75
 31
0.0
  0
LINE
  5
4923
  8
LINE
  6
HIDDEN2
 10
75.0999999999999801
 20
71.25
 30
0.0
 11
75.0999999999999801
 21
71.75
 31
0.0
  0
LINE
  5
4924
  8
LINE
  6
HIDDEN2
 10
78.9000000000000767
 20
71.25
 30
0.0
 11
78.9000000000000767
 21
71.75
 31
0.0
  0
INSERT
  5
496E
  8
0
  2
*U70
 10
0.0
 20
0.0
 30
0.0
1001
ACAD
1000
DSTYLE
1002
{
1070
   147
1040
0.5
1070
    77
1070
     1
1002
}
  0
INSERT
  5
496F
  8
0
  2
*U71
 10
0.0
 20
0.0
 30
0.0
  0
INSERT
  5
497C
  8
0
  2
*U72
 10
0.0
 20
0.0
 30
0.0
1001
ACAD
1000
DSTYLE
1002
{
1070
   147
1040
0.5
1070
    77
1070
     1
1002
}
  0
DIMENSION
  5
4CD0
  8
DIMENSION
  2
*D46
 10
62.9546680903481004
 20
71.2500000000000284
 30
0.0
 11
62.8948316964105132
 21
67.3197663349707227
 31
0.0
 70
   128
 13
69.5999999999999801
 23
71.75
 33
0.0
 14
69.466025403784414
 24
71.25
 34
0.0
 50
90.0
  0
DIMENSION
  5
4CFF
  8
DIMENSION
  2
*D47
 10
73.4000000000000767
 20
67.5082227533330297
 30
0.0
 11
71.5000000000000284
 21
68.7582227533330297
 31
0.0
 70
     0
 13
69.5999999999999801
 23
71.25
 33
0.0
 14
73.4000000000000767
 24
71.25
 34
0.0
  0
DIMENSION
  5
4D17
  8
DIMENSION
  2
*D48
 10
70.5000000000000284
 20
72.5024724932746096
 30
0.0
 11
71.5000000000000284
 21
65.6432065413951733
 31
0.0
 70
     2
 13
73.2524724932746238
 23
71.75
 33
0.0
 14
72.5000000000000284
 24
72.5024724932746096
 34
0.0
 15
69.747527506725433
 25
71.75
 35
0.0
 16
69.1423484847497036
 26
64.7035972518185645
 36
0.0
  0
LINE
  5
4DC8
  8
LINE
  6
HIDDEN2
 10
22.0917473579155512
 20
120.6274724932744959
 30
0.0
 11
22.8442198511901609
 21
119.8749999999999005
 31
0.0
  0
LINE
  5
4DC9
  8
LINE
  6
HIDDEN2
 10
22.0917473579155512
 20
117.1225275067253051
 30
0.0
 11
22.8442198511901609
 21
117.8749999999999005
 31
0.0
  0
LINE
  5
4DCA
  8
LINE
  6
HIDDEN2
 10
22.8442198511901609
 20
119.8749999999999005
 30
0.0
 11
22.8442198511901609
 21
117.8749999999999005
 31
0.0
  0
LINE
  5
4DCB
  8
LINE
  6
HIDDEN2
 10
22.0917473579155512
 20
120.7750000000000057
 30
0.0
 11
22.0917473579155512
 21
116.9749999999999943
 31
0.0
  0
LINE
  5
4DCC
  8
LINE
  6
HIDDEN2
 10
21.5917473579155512
 20
120.7750000000000057
 30
0.0
 11
22.0917473579155512
 21
120.7750000000000057
 31
0.0
  0
LINE
  5
4DCD
  8
LINE
  6
HIDDEN2
 10
21.5917473579155512
 20
116.9749999999998948
 30
0.0
 11
22.0917473579155512
 21
116.9749999999998948
 31
0.0
  0
LINE
  5
4DCF
  8
LINE
  6
HIDDEN2
 10
22.0917473579155512
 20
103.1225275067254046
 30
0.0
 11
22.8442198511901609
 21
103.875
 31
0.0
  0
LINE
  5
4DD0
  8
LINE
  6
HIDDEN2
 10
22.0917473579155512
 20
106.6274724932745954
 30
0.0
 11
22.8442198511901609
 21
105.875
 31
0.0
  0
LINE
  5
4DD1
  8
LINE
  6
HIDDEN2
 10
22.8442198511901609
 20
103.875
 30
0.0
 11
22.8442198511901609
 21
105.875
 31
0.0
  0
LINE
  5
4DD2
  8
LINE
  6
HIDDEN2
 10
22.0917473579155512
 20
102.9749999999999943
 30
0.0
 11
22.0917473579155512
 21
106.7750000000000057
 31
0.0
  0
LINE
  5
4DD3
  8
LINE
  6
HIDDEN2
 10
21.5917473579155512
 20
102.9749999999999943
 30
0.0
 11
22.0917473579155512
 21
102.9749999999999943
 31
0.0
  0
LINE
  5
4DD4
  8
LINE
  6
HIDDEN2
 10
21.5917473579155512
 20
106.7750000000001052
 30
0.0
 11
22.0917473579155512
 21
106.7750000000001052
 31
0.0
  0
LINE
  5
4E54
  8
LINE
 10
161.0
 20
113.4766633080426033
 30
0.0
 11
160.9999999999998863
 21
112.0249999999999062
 31
0.0
  0
LINE
  5
4E55
  8
LINE
 10
155.9886859966642874
 20
111.7000000000002018
 30
0.0
 11
161.0000000000001137
 21
111.7000000000000028
 31
0.0
  0
LINE
  5
4E56
  8
LINE
 10
160.9999999999998863
 20
110.2733366919570983
 30
0.0
 11
160.9999999999998863
 21
111.7249999999997954
 31
0.0
  0
INSERT
  5
4F67
  8
HATCHING
  6
CONTINUOUS
  2
*X73
 10
0.0
 20
0.0
 30
0.0
1001
GRADIENTCOLOR1ACI
1070
     5
1001
GRADIENTCOLOR2ACI
1070
     2
1001
ACAD
1000
HATCH
1002
{
1070
    19
1000
_USER
1040
0.5
1040
0.7853981633974483
1000
R14_HATCH_DATA
1000
4F67
1011
1.0
1021
0.0
1031
0.0
1021
0.0
1031
0.0
1011
0.0
1021
0.0
1031
0.0
1021
1.0
1031
0.0
1011
0.0
1021
0.0
1031
0.0
1021
0.0
1031
1.0
1040
0.0
1010
0.0
1020
0.0
1030
1.0
1000
_USER
1070
     0
1070
     0
1071
        7
1071
        7
1070
     0
1070
     1
1071
        4
1040
30.5917473579155512
1040
123.375
1040
27.0917473579155512
1040
123.375
1040
27.0917473579155512
1040
119.875
1040
30.5917473579155512
1040
119.875
1071
        0
1071
        7
1070
     0
1070
     1
1071
        4
1040
30.5917473579155512
1040
119.875
1040
27.0917473579155512
1040
119.875
1040
27.0917473579155512
1040
118.875
1040
30.5917473579155512
1040
118.875
1071
        0
1071
        7
1070
     0
1070
     1
1071
        4
1040
30.5917473579155512
1040
118.875
1040
27.0917473579155512
1040
118.875
1040
27.0917473579155512
1040
117.875
1040
30.5917473579155512
1040
117.875
1071
        0
1071
        7
1070
     0
1070
     1
1071
        4
1040
30.5917473579155512
1040
117.875
1040
27.0917473579155512
1040
117.875
1040
27.0917473579155512
1040
113.125
1040
30.5917473579155512
1040
113.125
1071
        0
1071
        7
1070
     1
1070
     1
1071
        6
1040
79.9999999999999716
1040
123.375
1040
0.0
1040
79.5000000000000142
1040
123.375
1040
0.0
1040
77.5199840255492063
1040
123.375
1040
0.33644732841609
1040
65.0000000000000142
1040
113.875
1040
0.0
1040
65.0000000000000142
1040
113.1249999999999005
1040
0.0
1040
79.9999999999999716
1040
113.125
1040
0.0
1071
        0
1071
       22
1070
     1
1070
     1
1071
        2
1040
70.5
1040
118.875
1040
-1.0
1040
72.5
1040
118.875
1040
-1.0
1071
        0
1071
       22
1070
     1
1070
     1
1071
        2
1040
76.0
1040
118.875
1040
-1.0
1040
78.0
1040
118.875
1040
-1.0
1071
        0
1070
     1
1070
     0
1040
0.7853981633974483
1040
0.5
1070
     0
1070
     1
1040
0.7853981633974483
1040
-9.0
1040
3.0
1040
-0.3535533905932737
1040
0.3535533905932738
1070
     0
1040
0.0500022725163184
1071
        7
1040
28.3725086625662506
1040
121.5029114660764975
1040
0.0
1040
29.4733491710592297
1040
119.1528045072981996
1040
0.0
1040
29.4733491710592297
1040
118.5027752120443978
1040
0.0
1040
29.4733491710592297
1040
116.5526866295040946
1040
0.0
1040
69.5039319956537156
1040
115.402634102660798
1040
0.0
1040
69.5039319956537156
1040
115.402634102660798
1040
0.0
1040
69.5039319956537156
1040
115.402634102660798
1040
0.0
1002
}
  0
INSERT
  5
4FA2
  8
HATCHING
  6
CONTINUOUS
  2
*X74
 10
0.0
 20
0.0
 30
0.0
1001
GRADIENTCOLOR1ACI
1070
     5
1001
GRADIENTCOLOR2ACI
1070
     2
1001
ACAD
1000
HATCH
1002
{
1070
    19
1000
_USER
1040
0.5
1040
2.3561944901923439
1000
R14_HATCH_DATA
1000
4FA2
1011
1.0
1021
0.0
1031
0.0
1021
0.0
1031
0.0
1011
0.0
1021
0.0
1031
0.0
1021
1.0
1031
0.0
1011
0.0
1021
0.0
1031
0.0
1021
0.0
1031
1.0
1040
0.0
1010
0.0
1020
0.0
1030
1.0
1000
_USER
1070
     0
1070
     0
1071
        7
1071
        7
1070
     0
1070
     1
1071
        4
1040
30.5917473579155512
1040
110.625
1040
27.0917473579155512
1040
110.625
1040
27.0917473579155512
1040
105.875
1040
30.5917473579155512
1040
105.875
1071
        0
1071
        7
1070
     0
1070
     1
1071
        4
1040
30.5917473579155512
1040
105.875
1040
27.0917473579155512
1040
105.875
1040
27.0917473579155512
1040
104.875
1040
30.5917473579155512
1040
104.875
1071
        0
1071
        7
1070
     0
1070
     1
1071
        4
1040
30.5917473579155512
1040
104.875
1040
27.0917473579155512
1040
104.875
1040
27.0917473579155512
1040
103.875
1040
30.5917473579155512
1040
103.875
1071
        0
1071
        7
1070
     0
1070
     1
1071
        4
1040
30.5917473579155512
1040
103.875
1040
27.0917473579155512
1040
103.875
1040
27.0917473579155512
1040
100.375
1040
30.5917473579155512
1040
100.375
1071
        0
1071
        7
1070
     1
1070
     1
1071
        5
1040
80.0
1040
110.625
1040
0.0
1040
65.0
1040
110.625
1040
0.0
1040
65.0000000000000142
1040
109.8749999999999005
1040
0.3364473284160842
1040
77.5199840255489505
1040
100.3749999999999005
1040
0.0
1040
79.9999999999999716
1040
100.3749999999999005
1040
0.0
1071
        0
1071
       22
1070
     1
1070
     1
1071
        2
1040
70.5000000000001137
1040
104.875000000000199
1040
-1.0
1040
72.5000000000001137
1040
104.875000000000199
1040
-1.0
1071
        0
1071
       22
1070
     1
1070
     1
1071
        2
1040
76.0000000000001137
1040
104.8750000000002984
1040
-1.0
1040
78.0000000000001137
1040
104.8750000000002984
1040
-1.0
1071
        0
1070
     1
1070
     0
1040
2.3561944901923439
1040
0.5
1070
     0
1070
     1
1040
2.3561944901923439
1040
-9.0
1040
3.0
1040
-0.3535533905932738
1040
-0.3535533905932737
1070
     0
1040
0.0313644116783605
1071
        7
1040
28.9045205559147007
1040
108.1991605087679034
1040
0.0
1040
28.5074987654614915
1040
105.4878293888785947
1040
0.0
1040
28.5388855099075691
1040
104.6409903404075976
1040
0.0
1040
28.5388855099075691
1040
103.4491425713513024
1040
0.0
1040
68.5433848786256021
1040
106.9580462848382041
1040
0.0
1040
68.5433848786256021
1040
106.9580462848382041
1040
0.0
1040
68.5433848786256021
1040
106.9580462848382041
1040
0.0
1002
}
  0
LINE
  5
50E6
  8
LINE
 10
116.7965159691801063
 20
121.3853783653162992
 30
0.0
 11
149.0
 21
118.091840225800695
 31
0.0
  0
ARC
  5
5102
  8
LINE
 10
118.6278722465593063
 20
139.2919730774692937
 30
0.0
 40
18.0
 50
242.162591490006406
 51
264.1605076884824825
  0
LINE
  5
5161
  8
LINE
 10
149.0
 20
110.625
 30
0.0
 11
149.0
 21
105.658159774199305
 31
0.0
  0
LINE
  5
5162
  8
LINE
 10
116.7965159691801063
 20
102.3646216346836013
 30
0.0
 11
149.0
 21
105.658159774199305
 31
0.0
  0
ARC
  5
5163
  8
LINE
 10
118.6278722465593063
 20
84.4580269225307347
 30
0.0
 40
18.0
 50
95.8394923115174038
 51
117.8374085099934945
  0
LINE
  5
5179
  8
LINE
 10
149.0
 20
43.8749999999999218
 30
0.0
 11
149.0
 21
48.8418402258006807
 31
0.0
  0
LINE
  5
517A
  8
LINE
 10
116.7965159691801063
 20
52.1353783653163205
 30
0.0
 11
149.0
 21
48.8418402258006807
 31
0.0
  0
ARC
  5
517B
  8
LINE
 10
118.6278722465593063
 20
70.0419730774692653
 30
0.0
 40
18.0
 50
242.1625914900060081
 51
264.1605076884828804
  0
LINE
  5
517C
  8
LINE
 10
149.0
 20
41.3749999999999218
 30
0.0
 11
149.0
 21
36.4081597741992979
 31
0.0
  0
LINE
  5
517D
  8
LINE
 10
116.7965159691801063
 20
33.1146216346836582
 30
0.0
 11
149.0
 21
36.4081597741992979
 31
0.0
  0
ARC
  5
517E
  8
LINE
 10
118.6278722465593063
 20
15.2080269225307294
 30
0.0
 40
18.0
 50
95.8394923115171053
 51
117.8374085099940061
  0
LINE
  5
5209
  8
LINE
 10
154.75
 20
113.125
 30
0.0
 11
109.25
 21
113.125
 31
0.0
  0
LINE
  5
520A
  8
LINE
 10
154.75
 20
110.625
 30
0.0
 11
109.25
 21
110.625
 31
0.0
  0
ARC
  5
520C
  8
LINE
 10
109.25
 20
111.875
 30
0.0
 40
1.25
 50
90.0
 51
270.0
  0
ARC
  5
520D
  8
LINE
 10
154.75
 20
111.875
 30
0.0
 40
1.25
 50
270.0
 51
351.9585441273906099
  0
ARC
  5
5210
  8
TEXT
 10
154.75
 20
111.875
 30
0.0
 40
1.25
 50
0.0
 51
8.0414558726190268
  0
ARC
  5
5211
  8
LINE
 10
154.75
 20
111.875
 30
0.0
 40
1.25
 50
8.0414558726190268
 51
90.0
  0
ARC
  5
5212
  8
TEXT
 10
154.75
 20
111.875
 30
0.0
 40
1.25
 50
351.9585441273906099
 51
0.0
  0
LINE
  5
5213
  8
LINE
 10
187.7385321097684141
 20
112.0499999999999972
 30
0.0
 11
175.7385321097684141
 21
112.0499999999999972
 31
0.0
  0
LINE
  5
5214
  8
LINE
 10
187.7385321097684141
 20
111.7000000000000028
 30
0.0
 11
175.7385321097684141
 21
111.7000000000000028
 31
0.0
  0
ARC
  5
5245
  8
LINE
 10
96.0
 20
111.875
 30
0.0
 40
12.5
 50
293.0739180656308918
 51
355.5468327777641093
  0
ARC
  5
5246
  8
LINE
 10
96.0
 20
111.875
 30
0.0
 40
12.5
 50
113.0739180656311049
 51
180.0
  0
ARC
  5
5247
  8
LINE
 10
96.0
 20
111.875
 30
0.0
 40
12.5
 50
182.2919839967771054
 51
182.2924427759558057
  0
LINE
  5
5249
  8
LINE
 10
99.427827300200434
 20
77.25
 30
0.0
 11
99.427827300200434
 21
83.2500000000000142
 31
0.0
  0
LINE
  5
524A
  8
LINE
 10
100.8989794855663007
 20
77.25
 30
0.0
 11
100.8989794855663007
 21
83.2500000000000142
 31
0.0
  0
LINE
  5
525C
  8
LINE
 10
92.5721726997995944
 20
77.2499999999999716
 30
0.0
 11
92.5721726997995944
 21
71.2499999999999716
 31
0.0
  0
LINE
  5
525D
  8
LINE
 10
91.1010205144336851
 20
77.2499999999999716
 30
0.0
 11
91.1010205144336851
 21
71.2499999999999716
 31
0.0
  0
DIMENSION
  5
5350
  8
DIMENSION
  2
*D49
 10
129.8128766879206069
 20
110.625
 30
0.0
 11
130.046200537459697
 21
117.1420400624037939
 31
0.0
 70
   128
 13
132.0
 23
113.125
 33
0.0
 14
132.0
 24
110.625
 34
0.0
 50
90.0
  0
LINE
  5
53BC
  8
DIMENSION
 62
     3
 10
161.0
 20
112.0499999999999972
 30
0.0
 11
166.4794642608854929
 21
112.0499999999999972
 31
0.0
  0
LINE
  5
53BD
  8
DIMENSION
 62
     3
 10
161.0000000000001137
 20
111.7000000000000028
 30
0.0
 11
166.4794642608854929
 21
111.7000000000000028
 31
0.0
  0
LINE
  5
53BE
  8
DIMENSION
 62
     3
 10
164.9954832035051027
 20
113.0499999999999972
 30
0.0
 11
164.9954832035051027
 21
114.0499999999999972
 31
0.0
  0
LINE
  5
53BF
  8
DIMENSION
 62
     3
 10
164.9954832035051027
 20
110.7000000000000028
 30
0.0
 11
164.9954832035051027
 21
109.7000000000000028
 31
0.0
  0
LINE
  5
53C0
  8
DIMENSION
 62
     3
 10
164.9954832035051027
 20
117.0269562130499992
 30
0.0
 11
164.9954832035051027
 21
112.0499999999999972
 31
0.0
  0
INSERT
  5
53C1
  8
0
  2
*U75
 10
0.0
 20
0.0
 30
0.0
  0
LINE
  5
53C2
  8
DIMENSION
 62
     3
 10
164.9954832035051027
 20
112.0499999999999972
 30
0.0
 11
164.9954832035051027
 21
111.7000000000000028
 31
0.0
  0
LINE
  5
53C3
  8
DIMENSION
 62
     3
 10
164.9954832035051027
 20
112.0499999999999972
 30
0.0
 11
164.9954832035051027
 21
111.7000000000000028
 31
0.0
  0
INSERT
  5
53C4
  8
DIMENSION
 62
     3
  2
_OPEN30
 10
164.9954832035051027
 20
112.0499999999999972
 30
0.0
 50
270.0
  0
INSERT
  5
53C5
  8
DIMENSION
 62
     3
  2
_OPEN30
 10
164.9954832035051027
 20
111.7000000000000028
 30
0.0
 50
90.0
  0
LINE
  5
53DE
  8
LINE
 10
177.2385321097684141
 20
112.0499999999999972
 30
0.0
 11
177.2385321097684141
 21
118.3467819796342013
 31
0.0
  0
LINE
  5
53DF
  8
LINE
 10
186.2385321097684994
 20
118.3467819796342013
 30
0.0
 11
186.2385321097684141
 21
112.0499999999999972
 31
0.0
  0
ARC
  5
53E2
  8
LINE
 10
181.7385321097684141
 20
109.4164964298882978
 30
0.0
 40
10.0
 50
63.2563160495971601
 51
116.7436839504028967
  0
LINE
  5
53E5
  8
LINE
 10
186.2385321097684994
 20
105.4032180203657987
 30
0.0
 11
186.2385321097684141
 21
111.6999999999999034
 31
0.0
  0
LINE
  5
53E6
  8
LINE
 10
177.2385321097684141
 20
111.6999999999999034
 30
0.0
 11
177.2385321097684994
 21
105.4032180203658982
 31
0.0
  0
DIMENSION
  5
53EA
  8
DIMENSION
  2
*D50
 10
173.9963810805134017
 20
100.375
 30
0.0
 11
172.7463810805134017
 21
101.3749999999999005
 31
0.0
 70
     0
 13
175.7385321097684994
 23
102.3749999999999005
 33
0.0
 14
181.7385321097684141
 24
100.375
 34
0.0
 50
90.0
  0
DIMENSION
  5
5406
  8
DIMENSION
  2
*D51
 10
186.2385321097684141
 20
129.5272118233700951
 30
0.0
 11
181.7385321097684141
 21
130.7772118233700951
 31
0.0
 70
     0
 13
177.2385321097684994
 23
118.3467819796342013
 33
0.0
 14
186.2385321097684141
 24
118.3467819796342013
 34
0.0
  0
INSERT
  5
541E
  8
0
  2
*U76
 10
0.0
 20
0.0
 30
0.0
1001
ACAD
1000
DSTYLE
1002
{
1070
   147
1040
0.5
1070
    77
1070
     1
1002
}
  0
INSERT
  5
5420
  8
0
  2
*U77
 10
0.0
 20
0.0
 30
0.0
  0
ARC
  5
5451
  8
LINE
 10
175.3952524665365047
 20
111.875
 30
0.0
 40
1.2962796432318879
 50
285.3562055641689881
 51
352.2412798241156224
  0
ARC
  5
5452
  8
LINE
 10
175.3952524665365047
 20
111.875
 30
0.0
 40
1.2962796432318879
 50
7.7587201758849984
 51
74.6437944358305998
  0
ARC
  5
5453
  8
LINE
 10
188.0818117530004088
 20
111.875
 30
0.0
 40
1.2962796432318879
 50
187.7587201758842923
 51
254.6437944358320067
  0
ARC
  5
5454
  8
LINE
 10
188.0818117530004088
 20
111.875
 30
0.0
 40
1.2962796432318879
 50
105.3562055641679933
 51
172.2412798241149972
  0
LINE
  5
5462
  8
LINE
 10
186.2385321097684994
 20
105.4032180203656992
 30
0.0
 11
187.7385321097684141
 21
102.375
 31
0.0
  0
LINE
  5
5463
  8
LINE
 10
177.2385321097684141
 20
105.4032180203657987
 30
0.0
 11
175.7385321097684141
 21
102.375
 31
0.0
  0
ARC
  5
5464
  8
LINE
 10
181.7385321097684141
 20
114.3335035701116027
 30
0.0
 40
10.0
 50
243.2563160495969896
 51
296.743683950402783
  0
LINE
  5
5592
  8
LINE
  6
HIDDEN2
 10
117.0
 20
44.174999999999919
 30
0.0
 11
117.0
 21
48.8749999999999076
 31
0.0
  0
LINE
  5
5593
  8
LINE
  6
HIDDEN2
 10
110.9999999999999005
 20
44.174999999999919
 30
0.0
 11
110.9999999999999005
 21
48.8749999999999076
 31
0.0
  0
LINE
  5
5594
  8
LINE
 10
154.75
 20
41.3749999999999289
 30
0.0
 11
109.25
 21
41.3749999999999076
 31
0.0
  0
LINE
  5
5595
  8
LINE
 10
154.75
 20
43.8749999999999289
 30
0.0
 11
109.25
 21
43.8749999999999076
 31
0.0
  0
LINE
  5
5596
  8
LINE
 10
155.9886859966642021
 20
42.7999999999999403
 30
0.0
 11
161.0
 21
42.7999999999999403
 31
0.0
  0
LINE
  5
5597
  8
LINE
  6
HIDDEN2
 10
111.0
 20
48.8749999999998508
 30
0.0
 11
116.9999999999999005
 21
48.8749999999998295
 31
0.0
  0
LINE
  5
5598
  8
LINE
 10
108.0
 20
42.6249999999999289
 30
0.0
 11
108.0
 21
42.6249999999999076
 31
0.0
  0
LINE
  5
5599
  8
LINE
 10
108.0
 20
42.6249999999999289
 30
0.0
 11
108.0
 21
42.6249999999999432
 31
0.0
  0
LINE
  5
559A
  8
LINE
 10
161.0
 20
44.2266633080425891
 30
0.0
 11
160.9999999999998863
 21
42.7749999999998991
 31
0.0
  0
LINE
  5
559B
  8
LINE
  6
HIDDEN2
 10
111.0
 20
48.8749999999998508
 30
0.0
 11
114.0
 21
50.6070508075687187
 31
0.0
  0
LINE
  5
559C
  8
LINE
  6
HIDDEN2
 10
117.0
 20
48.8749999999998508
 30
0.0
 11
114.0
 21
50.6070508075687187
 31
0.0
  0
LINE
  5
559D
  8
LINE
  6
HIDDEN2
 10
117.0
 20
44.1749999999999119
 30
0.0
 11
117.2999999999999972
 21
43.8749999999999076
 31
0.0
  0
LINE
  5
559E
  8
LINE
  6
HIDDEN2
 10
111.0
 20
44.1749999999999119
 30
0.0
 11
110.7000000000000028
 21
43.8749999999999076
 31
0.0
  0
LINE
  5
559F
  8
LINE
  6
HIDDEN2
 10
111.0
 20
44.1749999999999119
 30
0.0
 11
117.0
 21
44.1749999999999119
 31
0.0
  0
LINE
  5
55A3
  8
LINE
 10
108.0
 20
42.6249999999999289
 30
0.0
 11
108.0
 21
42.6249999999999432
 31
0.0
  0
LINE
  5
55A4
  8
LINE
 10
108.0
 20
42.6249999999999289
 30
0.0
 11
108.0
 21
42.6249999999999076
 31
0.0
  0
LINE
  5
55AA
  8
LINE
 10
155.9886859966642874
 20
42.4500000000001094
 30
0.0
 11
161.0
 21
42.4499999999999389
 31
0.0
  0
LINE
  5
55AB
  8
LINE
 10
160.9999999999998863
 20
41.023336691957077
 30
0.0
 11
160.9999999999998863
 21
42.4749999999997314
 31
0.0
  0
ARC
  5
55AC
  8
LINE
 10
109.25
 20
42.6249999999999076
 30
0.0
 40
1.25
 50
90.0
 51
270.0
  0
ARC
  5
55AD
  8
LINE
 10
154.75
 20
42.6249999999999289
 30
0.0
 40
1.25
 50
270.0
 51
351.9585441273907236
  0
ARC
  5
55AE
  8
TEXT
 10
154.75
 20
42.6249999999999289
 30
0.0
 40
1.25
 50
351.9585441273907236
 51
0.0
  0
ARC
  5
55AF
  8
TEXT
 10
154.75
 20
42.6249999999999289
 30
0.0
 40
1.25
 50
0.0
 51
8.0414558726191032
  0
ARC
  5
55B0
  8
LINE
 10
154.75
 20
42.6249999999999289
 30
0.0
 40
1.25
 50
8.0414558726191032
 51
90.0
  0
ARC
  5
55B1
  8
LINE
 10
95.9999999999999858
 20
42.6249999999999289
 30
0.0
 40
12.5
 50
293.0739180656304939
 51
355.546832777764223
  0
ARC
  5
55B2
  8
LINE
 10
95.9999999999999858
 20
42.6249999999999289
 30
0.0
 40
12.5
 50
113.0739180656314034
 51
177.7075572240437111
  0
LINE
  5
5715
  8
LINE
  6
HIDDEN2
 10
117.0
 20
41.0749999999999034
 30
0.0
 11
117.0
 21
36.3749999999999218
 31
0.0
  0
LINE
  5
5716
  8
LINE
  6
HIDDEN2
 10
110.9999999999999005
 20
41.0749999999999034
 30
0.0
 11
110.9999999999999005
 21
36.3749999999999218
 31
0.0
  0
LINE
  5
5717
  8
LINE
  6
HIDDEN2
 10
111.0
 20
36.3749999999999929
 30
0.0
 11
116.9999999999999005
 21
36.375
 31
0.0
  0
LINE
  5
5718
  8
LINE
  6
HIDDEN2
 10
111.0
 20
36.3749999999999929
 30
0.0
 11
114.0
 21
34.6429491924311108
 31
0.0
  0
LINE
  5
5719
  8
LINE
  6
HIDDEN2
 10
117.0
 20
36.3749999999999929
 30
0.0
 11
114.0
 21
34.6429491924311108
 31
0.0
  0
LINE
  5
571A
  8
LINE
  6
HIDDEN2
 10
117.0
 20
41.0749999999999105
 30
0.0
 11
117.2999999999999972
 21
41.3749999999999076
 31
0.0
  0
LINE
  5
571B
  8
LINE
  6
HIDDEN2
 10
111.0
 20
41.0749999999999105
 30
0.0
 11
110.7000000000000028
 21
41.3749999999999076
 31
0.0
  0
LINE
  5
571C
  8
LINE
  6
HIDDEN2
 10
111.0
 20
41.0749999999999105
 30
0.0
 11
117.0
 21
41.0749999999999105
 31
0.0
  0
LINE
  5
5A8D
  8
LINE
 10
16.0917473579155512
 20
71.25
 30
0.0
 11
16.0917473579155512
 21
83.2500000000000142
 31
0.0
  0
LINE
  5
5A8E
  8
LINE
 10
16.0917473579155512
 20
83.2500000000000142
 30
0.0
 11
39.0917473579155512
 21
83.2500000000000142
 31
0.0
  0
LINE
  5
5A8F
  8
LINE
 10
39.0917473579155512
 20
83.2500000000000142
 30
0.0
 11
39.0917473579155512
 21
71.25
 31
0.0
  0
LINE
  5
5A90
  8
LINE
 10
39.0917473579155512
 20
71.25
 30
0.0
 11
16.0917473579155512
 21
71.25
 31
0.0
  0
LINE
  5
5A95
  8
CENTER
 10
15.0917473579155494
 20
77.25
 30
0.0
 11
40.0917473579155512
 21
77.25
 31
0.0
  0
LINE
  5
5A96
  8
CENTER
 10
27.5917473579155512
 20
84.25
 30
0.0
 11
27.5917473579155512
 21
70.25
 31
0.0
  0
LINE
  5
5A97
  8
LINE
 10
29.6417473579155484
 20
71.25
 30
0.0
 11
29.6417473579155484
 21
83.2500000000000142
 31
0.0
  0
LINE
  5
5A98
  8
LINE
 10
25.5417473579155505
 20
71.25
 30
0.0
 11
25.5417473579155505
 21
83.2500000000000142
 31
0.0
  0
LINE
  5
5A99
  8
LINE
 10
32.0917473579155512
 20
74.7141016151377642
 30
0.0
 11
32.0917473579155512
 21
81.25
 31
0.0
  0
LINE
  5
5A9D
  8
LINE
 10
21.0917473579155512
 20
83.2500000000000142
 30
0.0
 11
23.0917473579155512
 21
81.25
 31
0.0
  0
LINE
  5
5A9E
  8
LINE
 10
34.0917473579155512
 20
83.2500000000000142
 30
0.0
 11
32.0917473579155512
 21
81.25
 31
0.0
  0
LINE
  5
5A9F
  8
LINE
 10
21.0917473579155512
 20
71.25
 30
0.0
 11
23.0917473579155512
 21
74.7141016151377642
 31
0.0
  0
LINE
  5
5AA0
  8
LINE
 10
34.0917473579155512
 20
71.25
 30
0.0
 11
32.0917473579155512
 21
74.7141016151377642
 31
0.0
  0
LINE
  5
5AA1
  8
LINE
 10
23.0917473579155512
 20
74.7141016151377642
 30
0.0
 11
23.0917473579155512
 21
81.25
 31
0.0
  0
LINE
  5
5AB6
  8
HATCHING
  6
CONTINUOUS
 10
34.987590053235941
 20
71.25
 30
0.0
 11
32.8680034783131916
 21
73.3695865749227636
 31
0.0
1001
GRADIENTCOLOR1ACI
1070
     5
1001
GRADIENTCOLOR2ACI
1070
     2
1001
ACAD
1010
0.0
1020
0.0
1030
0.0
  0
LINE
  5
5AB7
  8
HATCHING
  6
CONTINUOUS
 10
36.4018036156090332
 20
71.25
 30
0.0
 11
32.0917473579155512
 21
75.5600562576934891
 31
0.0
1001
GRADIENTCOLOR1ACI
1070
     5
1001
GRADIENTCOLOR2ACI
1070
     2
1001
ACAD
1010
0.0
1020
0.0
1030
0.0
  0
LINE
  5
5AB8
  8
HATCHING
  6
CONTINUOUS
 10
37.8160171779821326
 20
71.25
 30
0.0
 11
32.0917473579155512
 21
76.9742698200665814
 31
0.0
1001
GRADIENTCOLOR1ACI
1070
     5
1001
GRADIENTCOLOR2ACI
1070
     2
1001
ACAD
1010
0.0
1020
0.0
1030
0.0
  0
LINE
  5
5AB9
  8
HATCHING
  6
CONTINUOUS
 10
39.0917473579155512
 20
71.3884833824396594
 30
0.0
 11
32.0917473579155512
 21
78.3884833824396736
 31
0.0
1001
GRADIENTCOLOR1ACI
1070
     5
1001
GRADIENTCOLOR2ACI
1070
     2
1001
ACAD
1010
0.0
1020
0.0
1030
0.0
  0
LINE
  5
5ABA
  8
HATCHING
  6
CONTINUOUS
 10
39.0917473579155583
 20
72.8026969448127659
 30
0.0
 11
32.0917473579155512
 21
79.8026969448127659
 31
0.0
1001
GRADIENTCOLOR1ACI
1070
     5
1001
GRADIENTCOLOR2ACI
1070
     2
1001
ACAD
1010
0.0
1020
0.0
1030
0.0
  0
LINE
  5
5ABB
  8
HATCHING
  6
CONTINUOUS
 10
39.0917473579155512
 20
74.2169105071858723
 30
0.0
 11
32.0917473579155512
 21
81.2169105071858581
 31
0.0
1001
GRADIENTCOLOR1ACI
1070
     5
1001
GRADIENTCOLOR2ACI
1070
     2
1001
ACAD
1010
0.0
1020
0.0
1030
0.0
  0
LINE
  5
5ABC
  8
HATCHING
  6
CONTINUOUS
 10
39.0917473579155512
 20
75.6311240695589504
 30
0.0
 11
32.7823093926950335
 21
81.9405620347794752
 31
0.0
1001
GRADIENTCOLOR1ACI
1070
     5
1001
GRADIENTCOLOR2ACI
1070
     2
1001
ACAD
1010
0.0
1020
0.0
1030
0.0
  0
LINE
  5
5ABD
  8
HATCHING
  6
CONTINUOUS
 10
39.0917473579155583
 20
77.0453376319320427
 30
0.0
 11
33.4894161738815797
 21
82.6476688159660284
 31
0.0
1001
GRADIENTCOLOR1ACI
1070
     5
1001
GRADIENTCOLOR2ACI
1070
     2
1001
ACAD
1010
0.0
1020
0.0
1030
0.0
  0
LINE
  5
5ABE
  8
HATCHING
  6
CONTINUOUS
 10
39.0917473579155512
 20
78.4595511943051491
 30
0.0
 11
34.3012985522207003
 21
83.2500000000000142
 31
0.0
1001
GRADIENTCOLOR1ACI
1070
     5
1001
GRADIENTCOLOR2ACI
1070
     2
1001
ACAD
1010
0.0
1020
0.0
1030
0.0
  0
LINE
  5
5ABF
  8
HATCHING
  6
CONTINUOUS
 10
39.0917473579155583
 20
79.8737647566782414
 30
0.0
 11
35.7155121145937926
 21
83.2500000000000142
 31
0.0
1001
GRADIENTCOLOR1ACI
1070
     5
1001
GRADIENTCOLOR2ACI
1070
     2
1001
ACAD
1010
0.0
1020
0.0
1030
0.0
  0
LINE
  5
5AC0
  8
HATCHING
  6
CONTINUOUS
 10
39.0917473579155512
 20
81.2879783190513479
 30
0.0
 11
37.129725676966892
 21
83.2500000000000142
 31
0.0
1001
GRADIENTCOLOR1ACI
1070
     5
1001
GRADIENTCOLOR2ACI
1070
     2
1001
ACAD
1010
0.0
1020
0.0
1030
0.0
  0
LINE
  5
5AC1
  8
HATCHING
  6
CONTINUOUS
 10
39.0917473579155512
 20
82.7021918814244259
 30
0.0
 11
38.5439392393399913
 21
83.2500000000000142
 31
0.0
1001
GRADIENTCOLOR1ACI
1070
     5
1001
GRADIENTCOLOR2ACI
1070
     2
1001
ACAD
1010
0.0
1020
0.0
1030
0.0
  0
LINE
  5
5AC2
  8
HATCHING
  6
CONTINUOUS
 10
29.6417473579155697
 20
82.1392220409739053
 30
0.0
 11
30.7525253169416786
 21
83.2500000000000142
 31
0.0
1001
GRADIENTCOLOR1ACI
1070
     5
1001
GRADIENTCOLOR2ACI
1070
     2
1001
ACAD
1010
0.0
1020
0.0
1030
0.0
  0
LINE
  5
5AC3
  8
HATCHING
  6
CONTINUOUS
 10
29.6417473579155484
 20
80.7250084786007989
 30
0.0
 11
32.1667388793147779
 21
83.2500000000000142
 31
0.0
1001
GRADIENTCOLOR1ACI
1070
     5
1001
GRADIENTCOLOR2ACI
1070
     2
1001
ACAD
1010
0.0
1020
0.0
1030
0.0
  0
LINE
  5
5AC4
  8
HATCHING
  6
CONTINUOUS
 10
29.641747357915559
 20
79.3107949162277066
 30
0.0
 11
33.5809524416878702
 21
83.2500000000000142
 31
0.0
1001
GRADIENTCOLOR1ACI
1070
     5
1001
GRADIENTCOLOR2ACI
1070
     2
1001
ACAD
1010
0.0
1020
0.0
1030
0.0
  0
LINE
  5
5AC5
  8
HATCHING
  6
CONTINUOUS
 10
29.641747357915559
 20
77.8965813538546143
 30
0.0
 11
32.0917473579155512
 21
80.346581353854603
 31
0.0
1001
GRADIENTCOLOR1ACI
1070
     5
1001
GRADIENTCOLOR2ACI
1070
     2
1001
ACAD
1010
0.0
1020
0.0
1030
0.0
  0
LINE
  5
5AC6
  8
HATCHING
  6
CONTINUOUS
 10
29.641747357915559
 20
76.4823677914815221
 30
0.0
 11
32.0917473579155583
 21
78.9323677914815107
 31
0.0
1001
GRADIENTCOLOR1ACI
1070
     5
1001
GRADIENTCOLOR2ACI
1070
     2
1001
ACAD
1010
0.0
1020
0.0
1030
0.0
  0
LINE
  5
5AC7
  8
HATCHING
  6
CONTINUOUS
 10
29.6417473579155484
 20
75.0681542291084156
 30
0.0
 11
32.0917473579155583
 21
77.5181542291084185
 31
0.0
1001
GRADIENTCOLOR1ACI
1070
     5
1001
GRADIENTCOLOR2ACI
1070
     2
1001
ACAD
1010
0.0
1020
0.0
1030
0.0
  0
LINE
  5
5AC8
  8
HATCHING
  6
CONTINUOUS
 10
29.6417473579155484
 20
73.6539406667353234
 30
0.0
 11
32.0917473579155512
 21
76.103940666735312
 31
0.0
1001
GRADIENTCOLOR1ACI
1070
     5
1001
GRADIENTCOLOR2ACI
1070
     2
1001
ACAD
1010
0.0
1020
0.0
1030
0.0
  0
LINE
  5
5AC9
  8
HATCHING
  6
CONTINUOUS
 10
29.641747357915559
 20
72.2397271043622311
 30
0.0
 11
32.1006690480642192
 21
74.6986487945108877
 31
0.0
1001
GRADIENTCOLOR1ACI
1070
     5
1001
GRADIENTCOLOR2ACI
1070
     2
1001
ACAD
1010
0.0
1020
0.0
1030
0.0
  0
LINE
  5
5ACA
  8
HATCHING
  6
CONTINUOUS
 10
30.0662338159264415
 20
71.2500000000000142
 30
0.0
 11
32.6183071382692731
 21
73.8020733223428351
 31
0.0
1001
GRADIENTCOLOR1ACI
1070
     5
1001
GRADIENTCOLOR2ACI
1070
     2
1001
ACAD
1010
0.0
1020
0.0
1030
0.0
  0
LINE
  5
5ACB
  8
HATCHING
  6
CONTINUOUS
 10
31.4804473782995409
 20
71.2500000000000142
 30
0.0
 11
33.1359452284742986
 21
72.9054978501747826
 31
0.0
1001
GRADIENTCOLOR1ACI
1070
     5
1001
GRADIENTCOLOR2ACI
1070
     2
1001
ACAD
1010
0.0
1020
0.0
1030
0.0
  0
LINE
  5
5ACC
  8
HATCHING
  6
CONTINUOUS
 10
32.8946609406726367
 20
71.2500000000000142
 30
0.0
 11
33.6535833186793383
 21
72.00892237800673
 31
0.0
1001
GRADIENTCOLOR1ACI
1070
     5
1001
GRADIENTCOLOR2ACI
1070
     2
1001
ACAD
1010
0.0
1020
0.0
1030
0.0
  0
LINE
  5
5ACD
  8
HATCHING
  6
CONTINUOUS
 10
25.5417473579155399
 20
82.1392220409739053
 30
0.0
 11
24.430969398889431
 21
83.2500000000000142
 31
0.0
1001
GRADIENTCOLOR1ACI
1070
     5
1001
GRADIENTCOLOR2ACI
1070
     2
1001
ACAD
1010
0.0
1020
0.0
1030
0.0
  0
LINE
  5
5ACE
  8
HATCHING
  6
CONTINUOUS
 10
25.5417473579155505
 20
80.7250084786007989
 30
0.0
 11
23.0167558365163316
 21
83.2500000000000142
 31
0.0
1001
GRADIENTCOLOR1ACI
1070
     5
1001
GRADIENTCOLOR2ACI
1070
     2
1001
ACAD
1010
0.0
1020
0.0
1030
0.0
  0
LINE
  5
5ACF
  8
HATCHING
  6
CONTINUOUS
 10
25.5417473579155399
 20
79.3107949162277066
 30
0.0
 11
21.6025422741432287
 21
83.2500000000000142
 31
0.0
1001
GRADIENTCOLOR1ACI
1070
     5
1001
GRADIENTCOLOR2ACI
1070
     2
1001
ACAD
1010
0.0
1020
0.0
1030
0.0
  0
LINE
  5
5AD0
  8
HATCHING
  6
CONTINUOUS
 10
25.5417473579155399
 20
77.8965813538546143
 30
0.0
 11
23.0917473579155512
 21
80.346581353854603
 31
0.0
1001
GRADIENTCOLOR1ACI
1070
     5
1001
GRADIENTCOLOR2ACI
1070
     2
1001
ACAD
1010
0.0
1020
0.0
1030
0.0
  0
LINE
  5
5AD1
  8
HATCHING
  6
CONTINUOUS
 10
25.5417473579155399
 20
76.4823677914815221
 30
0.0
 11
23.0917473579155406
 21
78.9323677914815107
 31
0.0
1001
GRADIENTCOLOR1ACI
1070
     5
1001
GRADIENTCOLOR2ACI
1070
     2
1001
ACAD
1010
0.0
1020
0.0
1030
0.0
  0
LINE
  5
5AD2
  8
HATCHING
  6
CONTINUOUS
 10
25.5417473579155505
 20
75.0681542291084156
 30
0.0
 11
23.0917473579155406
 21
77.5181542291084185
 31
0.0
1001
GRADIENTCOLOR1ACI
1070
     5
1001
GRADIENTCOLOR2ACI
1070
     2
1001
ACAD
1010
0.0
1020
0.0
1030
0.0
  0
LINE
  5
5AD3
  8
HATCHING
  6
CONTINUOUS
 10
25.5417473579155505
 20
73.6539406667353234
 30
0.0
 11
23.0917473579155512
 21
76.103940666735312
 31
0.0
1001
GRADIENTCOLOR1ACI
1070
     5
1001
GRADIENTCOLOR2ACI
1070
     2
1001
ACAD
1010
0.0
1020
0.0
1030
0.0
  0
LINE
  5
5AD4
  8
HATCHING
  6
CONTINUOUS
 10
25.5417473579155399
 20
72.2397271043622311
 30
0.0
 11
23.0828256677668797
 21
74.6986487945108877
 31
0.0
1001
GRADIENTCOLOR1ACI
1070
     5
1001
GRADIENTCOLOR2ACI
1070
     2
1001
ACAD
1010
0.0
1020
0.0
1030
0.0
  0
LINE
  5
5AD5
  8
HATCHING
  6
CONTINUOUS
 10
25.1172608999046609
 20
71.2500000000000142
 30
0.0
 11
22.56518757756184
 21
73.8020733223428351
 31
0.0
1001
GRADIENTCOLOR1ACI
1070
     5
1001
GRADIENTCOLOR2ACI
1070
     2
1001
ACAD
1010
0.0
1020
0.0
1030
0.0
  0
LINE
  5
5AD6
  8
HATCHING
  6
CONTINUOUS
 10
23.7030473375315616
 20
71.2500000000000142
 30
0.0
 11
22.047549487356811
 21
72.9054978501747826
 31
0.0
1001
GRADIENTCOLOR1ACI
1070
     5
1001
GRADIENTCOLOR2ACI
1070
     2
1001
ACAD
1010
0.0
1020
0.0
1030
0.0
  0
LINE
  5
5AD7
  8
HATCHING
  6
CONTINUOUS
 10
22.2888337751584693
 20
71.2500000000000142
 30
0.0
 11
21.5299113971517606
 21
72.00892237800673
 31
0.0
1001
GRADIENTCOLOR1ACI
1070
     5
1001
GRADIENTCOLOR2ACI
1070
     2
1001
ACAD
1010
0.0
1020
0.0
1030
0.0
  0
LINE
  5
5AD8
  8
HATCHING
  6
CONTINUOUS
 10
20.1959046625951686
 20
71.25
 30
0.0
 11
22.3154912375179215
 21
73.3695865749227636
 31
0.0
1001
GRADIENTCOLOR1ACI
1070
     5
1001
GRADIENTCOLOR2ACI
1070
     2
1001
ACAD
1010
0.0
1020
0.0
1030
0.0
  0
LINE
  5
5AD9
  8
HATCHING
  6
CONTINUOUS
 10
18.7816911002220692
 20
71.25
 30
0.0
 11
23.0917473579155512
 21
75.5600562576934891
 31
0.0
1001
GRADIENTCOLOR1ACI
1070
     5
1001
GRADIENTCOLOR2ACI
1070
     2
1001
ACAD
1010
0.0
1020
0.0
1030
0.0
  0
LINE
  5
5ADA
  8
HATCHING
  6
CONTINUOUS
 10
17.3674775378489805
 20
71.25
 30
0.0
 11
23.0917473579155512
 21
76.9742698200665814
 31
0.0
1001
GRADIENTCOLOR1ACI
1070
     5
1001
GRADIENTCOLOR2ACI
1070
     2
1001
ACAD
1010
0.0
1020
0.0
1030
0.0
  0
LINE
  5
5ADB
  8
HATCHING
  6
CONTINUOUS
 10
16.0917473579155512
 20
71.3884833824396594
 30
0.0
 11
23.0917473579155583
 21
78.3884833824396736
 31
0.0
1001
GRADIENTCOLOR1ACI
1070
     5
1001
GRADIENTCOLOR2ACI
1070
     2
1001
ACAD
1010
0.0
1020
0.0
1030
0.0
  0
LINE
  5
5ADC
  8
HATCHING
  6
CONTINUOUS
 10
16.0917473579155406
 20
72.8026969448127659
 30
0.0
 11
23.0917473579155512
 21
79.8026969448127659
 31
0.0
1001
GRADIENTCOLOR1ACI
1070
     5
1001
GRADIENTCOLOR2ACI
1070
     2
1001
ACAD
1010
0.0
1020
0.0
1030
0.0
  0
LINE
  5
5ADD
  8
HATCHING
  6
CONTINUOUS
 10
16.0917473579155512
 20
74.2169105071858723
 30
0.0
 11
23.0917473579155512
 21
81.2169105071858581
 31
0.0
1001
GRADIENTCOLOR1ACI
1070
     5
1001
GRADIENTCOLOR2ACI
1070
     2
1001
ACAD
1010
0.0
1020
0.0
1030
0.0
  0
LINE
  5
5ADE
  8
HATCHING
  6
CONTINUOUS
 10
16.0917473579155512
 20
75.6311240695589504
 30
0.0
 11
22.4011853231360796
 21
81.9405620347794752
 31
0.0
1001
GRADIENTCOLOR1ACI
1070
     5
1001
GRADIENTCOLOR2ACI
1070
     2
1001
ACAD
1010
0.0
1020
0.0
1030
0.0
  0
LINE
  5
5ADF
  8
HATCHING
  6
CONTINUOUS
 10
16.0917473579155406
 20
77.0453376319320427
 30
0.0
 11
21.6940785419495192
 21
82.6476688159660284
 31
0.0
1001
GRADIENTCOLOR1ACI
1070
     5
1001
GRADIENTCOLOR2ACI
1070
     2
1001
ACAD
1010
0.0
1020
0.0
1030
0.0
  0
LINE
  5
5AE0
  8
HATCHING
  6
CONTINUOUS
 10
16.0917473579155512
 20
78.4595511943051491
 30
0.0
 11
20.8821961636103985
 21
83.2500000000000142
 31
0.0
1001
GRADIENTCOLOR1ACI
1070
     5
1001
GRADIENTCOLOR2ACI
1070
     2
1001
ACAD
1010
0.0
1020
0.0
1030
0.0
  0
LINE
  5
5AE1
  8
HATCHING
  6
CONTINUOUS
 10
16.0917473579155406
 20
79.8737647566782414
 30
0.0
 11
19.4679826012373098
 21
83.2500000000000142
 31
0.0
1001
GRADIENTCOLOR1ACI
1070
     5
1001
GRADIENTCOLOR2ACI
1070
     2
1001
ACAD
1010
0.0
1020
0.0
1030
0.0
  0
LINE
  5
5AE2
  8
HATCHING
  6
CONTINUOUS
 10
16.0917473579155512
 20
81.2879783190513479
 30
0.0
 11
18.0537690388642105
 21
83.2500000000000142
 31
0.0
1001
GRADIENTCOLOR1ACI
1070
     5
1001
GRADIENTCOLOR2ACI
1070
     2
1001
ACAD
1010
0.0
1020
0.0
1030
0.0
  0
LINE
  5
5AE3
  8
HATCHING
  6
CONTINUOUS
 10
16.0917473579155512
 20
82.7021918814244259
 30
0.0
 11
16.6395554764911218
 21
83.2500000000000142
 31
0.0
1001
GRADIENTCOLOR1ACI
1070
     5
1001
GRADIENTCOLOR2ACI
1070
     2
1001
ACAD
1010
0.0
1020
0.0
1030
0.0
  0
DIMENSION
  5
5AE4
  8
DIMENSION
  2
*D52
 10
29.6417473579155484
 20
85.5
 30
0.0
 11
38.263990133881407
 21
85.316331061985295
 31
0.0
 70
   128
  1
φ<>リーマ
 13
25.5417473579155505
 23
83.2500000000000142
 33
0.0
 14
29.6417473579155484
 24
83.2500000000000142
 34
0.0
  0
DIMENSION
  5
5B21
  8
DIMENSION
  2
*D53
 10
32.0917473579155512
 20
88.4999999999999858
 30
0.0
 11
27.5917473579155512
 21
90.5126903553299371
 31
0.0
 70
     0
  1
φ<>
 13
23.0917473579155512
 23
81.25
 33
0.0
 14
32.0917473579155512
 24
81.25
 34
0.0
1001
ACAD
1000
DSTYLE
1002
{
1070
   146
1040
0.8
1070
    47
1040
0.0
1070
    48
1040
0.02
1070
   147
1040
0.5
1070
    72
1070
     0
1070
    71
1070
     1
1002
}
  0
DIMENSION
  5
5B78
  8
DIMENSION
  2
*D54
 10
32.0917473579155512
 20
66.0
 30
0.0
 11
27.5917473579155512
 21
68.0096446700507613
 31
0.0
 70
     0
  1
φ<>
 13
23.0917473579155512
 23
74.7141016151377642
 33
0.0
 14
32.0917473579155512
 24
74.7141016151377642
 34
0.0
1001
ACAD
1000
DSTYLE
1002
{
1070
   146
1040
0.8
1070
    47
1040
0.05
1070
    48
1040
-0.03
1070
   147
1040
0.5
1070
    72
1070
     0
1070
    71
1070
     1
1002
}
  0
DIMENSION
  5
5BCF
  8
DIMENSION
  2
*D55
 10
23.0917473579155512
 20
81.25
 30
0.0
 11
19.8434151562252907
 21
89.0921676564138636
 31
0.0
 70
     2
 13
23.0917473579155512
 23
74.7141016151377642
 33
0.0
 14
23.0917473579155512
 24
81.25
 34
0.0
 15
21.0917473579155512
 25
83.2500000000000142
 35
0.0
 16
21.218337177835771
 26
88.2416619754744573
 36
0.0
1001
ACAD
1000
DSTYLE
1002
{
1070
    76
1070
     1
1002
}
  0
DIMENSION
  5
5BFF
  8
DIMENSION
  2
*D56
 10
23.0917473579155512
 20
74.7141016151377642
 30
0.0
 11
21.1564969961335905
 21
67.4916489396014043
 31
0.0
 70
     2
 13
23.0917473579155512
 23
74.7141016151377642
 33
0.0
 14
23.0917473579155512
 24
81.25
 34
0.0
 15
21.0917473579155512
 25
71.25
 35
0.0
 16
20.1068578014749484
 26
66.5131849592512907
 36
0.0
  0
LINE
  5
5C1F
  8
CENTER
 10
96.0
 20
84.25
 30
0.0
 11
96.0
 21
70.25
 31
0.0
  0
TEXT
  5
5C22
  8
TEXT
 10
95.0253807106598885
 20
85.0
 30
0.0
 40
1.5
  1
Ａ
  7
GOTHIC
 72
     1
 11
96.0
 21
85.7500000000000142
 31
0.0
 73
     2
  0
TEXT
  5
5C23
  8
TEXT
 10
95.0253807106598885
 20
68.0
 30
0.0
 40
1.5
  1
Ａ
  7
GOTHIC
 72
     1
 11
96.0
 21
68.75
 31
0.0
 73
     2
  0
TEXT
  5
5C24
  8
TEXT
 10
96.5253807106599027
 20
68.0
 30
0.0
 40
1.5
  1
’
  7
GOTHIC
 72
     1
 11
97.5
 21
68.75
 31
0.0
 73
     2
  0
TEXT
  5
5C28
  8
TEXT
 10
21.7440316218749388
 20
62.25
 30
0.0
 40
1.5
  1
Ａ－Ａ’断面
  7
GOTHIC
 72
     1
 11
27.5917473579155512
 21
63.0
 31
0.0
 73
     2
  0
LINE
  5
5C30
  8
TEXT
 10
21.7440316218749388
 20
61.5
 30
0.0
 11
33.4394630939561566
 21
61.5
 31
0.0
  0
DIMENSION
  5
5C32
  8
DIMENSION
  2
*D57
 10
106.3923048454133067
 20
105.875
 30
0.0
 11
92.1512611367780039
 21
114.0970704187216995
 31
0.0
 70
   131
  1
φ24
 15
85.6076951545867075
 25
117.8749999999999005
 35
0.0
 40
0.0
1001
ACAD
1000
DSTYLE
1002
{
1070
   288
1070
     1
1002
}
1001
ACAD_DSTYLE_DIMRADIAL_EXTENSION
1070
   387
1070
     1
1070
   388
1040
1.8604833207920211
1070
   390
1040
3.1415926535897931
  0
TEXT
  5
5C71
  8
TEXT
 10
87.4031008853867917
 20
111.6960975855876939
 30
0.0
 40
2.0
  1
Ｓ
 50
82.5
  7
GOTHIC
 72
     1
 11
86.5812738169486806
 21
113.1149988260904991
 31
0.0
 73
     2
  0
TEXT
  5
5C72
  8
TEXT
 10
106.240553251489203
 20
109.2160999334066958
 30
0.0
 40
2.0
  1
２
 50
82.5
  7
GOTHIC
 72
     1
 11
105.4187261830511062
 21
110.6350011739095009
 31
0.0
 73
     2
  0
TEXT
  5
5C78
  8
TEXT
 10
87.7423364712581844
 20
109.4771523178468016
 30
0.0
 40
2.0
  1
Ｓ
 50
97.5000000000000142
  7
GOTHIC
 72
     1
 11
86.5812738169486806
 21
110.6350011739095009
 31
0.0
 73
     2
  0
TEXT
  5
5C79
  8
TEXT
 10
106.5797888373604962
 20
111.9571499700277997
 30
0.0
 40
2.0
  1
０
 50
97.5000000000000142
  7
GOTHIC
 72
     1
 11
105.4187261830510067
 21
113.1149988260904991
 31
0.0
 73
     2
  0
TEXT
  5
5C7A
  8
TEXT
 10
88.6443181801791837
 20
107.4216164070139001
 30
0.0
 40
2.0
  1
Ｅ
 50
112.5
  7
GOTHIC
 72
     1
 11
87.2231444411427077
 21
108.2395073925314932
 31
0.0
 73
     2
  0
TEXT
  5
5C7B
  8
TEXT
 10
106.1980292978935978
 20
114.692601621950601
 30
0.0
 40
2.0
  1
Ａ
 50
112.5
  7
GOTHIC
 72
     1
 11
104.7768555588570933
 21
115.5104926074681941
 31
0.0
 73
     2
  0
TEXT
  5
5C7C
  8
TEXT
 10
90.0475774492822012
 20
105.6695712284785031
 30
0.0
 40
2.0
  1
Ｖ
 50
127.5
  7
GOTHIC
 72
     1
 11
88.4631432672334341
 21
106.0917664244167042
 31
0.0
 73
     2
  0
TEXT
  5
5C7D
  8
TEXT
 10
105.1212909148150061
 20
117.2360383796449952
 30
0.0
 40
2.0
  1
Ｊ
 50
127.5
  7
GOTHIC
 72
     1
 11
103.5368567327662959
 21
117.6582335755831963
 31
0.0
 73
     2
  0
TEXT
  5
5C7E
  8
TEXT
 10
87.6497297671288322
 20
113.927234757220802
 30
0.0
 40
2.0
  1
Ｅ
 50
67.5
  7
GOTHIC
 72
     1
 11
87.2231444411427361
 21
115.5104926074685068
 31
0.0
 73
     2
  0
TEXT
  5
5C7F
  8
TEXT
 10
105.2034408848433031
 20
106.656249542284101
 30
0.0
 40
2.0
  1
Ｚ
 50
67.5
  7
GOTHIC
 72
     1
 11
104.776855558857207
 21
108.2395073925318059
 31
0.0
 73
     2
  0
TEXT
  5
5C80
  8
TEXT
 10
88.4654157657667213
 20
116.0185155216268953
 30
0.0
 40
2.0
  1
Ｌ
 50
52.5
  7
GOTHIC
 72
     1
 11
88.4631432672329936
 21
117.6582335755825994
 31
0.0
 73
     2
  0
TEXT
  5
5C81
  8
TEXT
 10
103.5391292313000946
 20
104.4520483704611991
 30
0.0
 40
2.0
  1
Ｎ
 50
52.5
  7
GOTHIC
 72
     1
 11
103.5368567327663953
 21
106.0917664244170027
 31
0.0
 73
     2
  0
LINE
  5
5C8E
  8
CENTER
 10
181.7385321097684141
 20
56.1250000000004619
 30
0.0
 11
181.7385321097684141
 21
35.1250000000004476
 31
0.0
  0
LINE
  5
5C8F
  8
CENTER
 10
192.2385321097684141
 20
45.6250000000004476
 30
0.0
 11
171.2385321097684141
 21
45.6250000000004476
 31
0.0
  0
CIRCLE
  5
5C90
  8
CENTER
 10
181.7385321097684141
 20
45.6250000000004476
 30
0.0
 40
9.5
  0
TEXT
  5
5C91
  8
TEXT
 10
181.5596296953563069
 20
54.2218991146136773
 30
0.0
 40
2.0
  1
Ｓ
 50
352.4999999999996021
  7
GOTHIC
 72
     1
 11
182.9785309358589984
 21
55.043726183051767
 31
0.0
 73
     2
  0
TEXT
  5
5C92
  8
TEXT
 10
179.3406844276152867
 20
53.8826635287422491
 30
0.0
 40
2.0
  1
Ｓ
 50
7.5000000000003952
  7
GOTHIC
 72
     1
 11
180.4985332836780003
 21
55.043726183051767
 31
0.0
 73
     2
  0
TEXT
  5
5C93
  8
TEXT
 10
177.285148516782499
 20
52.9806818198212426
 30
0.0
 40
2.0
  1
Ｅ
 50
22.5000000000006288
  7
GOTHIC
 72
     1
 11
178.1030395023001063
 21
54.4018555588577328
 31
0.0
 73
     2
  0
TEXT
  5
5C94
  8
TEXT
 10
175.5331033382470025
 20
51.5774225507182393
 30
0.0
 40
2.0
  1
Ｖ
 50
37.4999999999996874
  7
GOTHIC
 72
     1
 11
175.9552985341852889
 21
53.1618567327669993
 31
0.0
 73
     2
  0
TEXT
  5
5C95
  8
TEXT
 10
183.7907668669892871
 20
53.975270232871658
 30
0.0
 40
2.0
  1
Ｅ
 50
337.4999999999993747
  7
GOTHIC
 72
     1
 11
185.3740247172370914
 21
54.4018555588577328
 31
0.0
 73
     2
  0
TEXT
  5
5C96
  8
TEXT
 10
185.8820476313954941
 20
53.1595842342337122
 30
0.0
 40
2.0
  1
Ｌ
 50
322.5000000000002842
  7
GOTHIC
 72
     1
 11
187.5217656853511983
 21
53.1618567327674327
 31
0.0
 73
     2
  0
TEXT
  5
5C97
  8
TEXT
 10
179.0796320431751951
 20
35.384446748511273
 30
0.0
 40
2.0
  1
２
 50
352.4999999999996021
  7
GOTHIC
 72
     1
 11
180.4985332836780003
 21
36.2062738169493628
 31
0.0
 73
     2
  0
TEXT
  5
5C98
  8
TEXT
 10
181.8206820797963132
 20
35.0452111626398732
 30
0.0
 40
2.0
  1
０
 50
7.5000000000003952
  7
GOTHIC
 72
     1
 11
182.9785309358589132
 21
36.2062738169493912
 31
0.0
 73
     2
  0
TEXT
  5
5C99
  8
TEXT
 10
184.5561337317190862
 20
35.4269707021068001
 30
0.0
 40
2.0
  1
Ａ
 50
22.5000000000006288
  7
GOTHIC
 72
     1
 11
185.3740247172366935
 21
36.8481444411432904
 31
0.0
 73
     2
  0
TEXT
  5
5C9A
  8
TEXT
 10
187.0995704894133951
 20
36.5037090851853989
 30
0.0
 40
2.0
  1
Ｊ
 50
37.4999999999996874
  7
GOTHIC
 72
     1
 11
187.5217656853517099
 21
38.0881432672341589
 31
0.0
 73
     2
  0
TEXT
  5
5C9B
  8
TEXT
 10
176.5197816520525009
 20
36.4215591151572227
 30
0.0
 40
2.0
  1
Ｚ
 50
337.4999999999993747
  7
GOTHIC
 72
     1
 11
178.1030395023003052
 21
36.8481444411432904
 31
0.0
 73
     2
  0
TEXT
  5
5C9C
  8
TEXT
 10
174.3155804802296984
 20
38.0858707687002678
 30
0.0
 40
2.0
  1
Ｎ
 50
322.5000000000002842
  7
GOTHIC
 72
     1
 11
175.9552985341854026
 21
38.0881432672339884
 31
0.0
 73
     2
  0
LINE
  5
5C9D
  8
CENTER
 10
188.1305271143598077
 20
53.9552100730585877
 30
0.0
 11
175.3465371051771058
 21
37.2947899269423075
 31
0.0
  0
LINE
  5
5C9E
  8
CENTER
 10
185.7567081496021046
 20
55.3257350913688626
 30
0.0
 11
177.7203560699346951
 21
35.9242649086320611
 31
0.0
  0
LINE
  5
5C9F
  8
CENTER
 10
183.1090571280790869
 20
56.0351710444254465
 30
0.0
 11
180.3680070914577982
 21
35.214828955575463
 31
0.0
  0
LINE
  5
5CA0
  8
CENTER
 10
180.3680070914579971
 20
56.0351710444254607
 30
0.0
 11
183.1090571280788879
 21
35.2148289555754275
 31
0.0
  0
LINE
  5
5CA1
  8
CENTER
 10
177.7203560699350078
 20
55.3257350913689478
 30
0.0
 11
185.7567081496019057
 21
35.9242649086319403
 31
0.0
  0
LINE
  5
5CA2
  8
CENTER
 10
175.3465371051765089
 20
53.9552100730581685
 30
0.0
 11
188.1305271143602909
 21
37.2947899269427268
 31
0.0
  0
DIMENSION
  5
5CA5
  8
DIMENSION
  2
*D58
 10
173.543077801781493
 20
40.8203638342024604
 30
0.0
 11
193.1130589813101039
 21
51.0070458661568011
 31
0.0
 70
   131
  1
φ19
 15
189.933986417755591
 25
50.4296361657985202
 35
0.0
 40
0.0
1001
ACAD
1000
DSTYLE
1002
{
1070
   288
1070
     1
1002
}
1001
ACAD_DSTYLE_DIMRADIAL_EXTENSION
1070
   387
1070
     1
1070
   388
1040
0.0
1070
   390
1040
0.0
  0
DIMENSION
  5
5CCB
  8
DIMENSION
  2
*D59
 10
177.7203560699346951
 20
35.9242649086320611
 30
0.0
 11
189.1177913571414138
 21
58.4062519386728596
 31
0.0
 70
     2
 13
188.1305271143598077
 23
53.9552100730585877
 33
0.0
 14
175.3465371051771058
 24
37.2947899269423075
 34
0.0
 15
185.7567081496021046
 25
55.3257350913688626
 35
0.0
 16
188.9966538063411008
 26
57.0179689440743473
 36
0.0
  0
TEXT
  5
5CEE
  8
TEXT
 10
165.1700041909867025
 20
32.25
 30
0.0
 40
1.5
  1
レーザーマーカー刻印　文字幅　1.50
  7
GOTHIC
 72
     1
 11
181.7385321097684141
 21
33.0
 31
0.0
 73
     2
  0
TEXT
  5
5CF6
  8
TEXT
 10
186.5999999999999943
 20
29.25
 30
0.0
 40
1.5
  1
文字高　2.00
  7
GOTHIC
 11
186.5999999999999943
 21
30.0
 31
0.0
 73
     2
  0
LINE
  5
5CFC
  8
TEXT
 10
165.1700041909867025
 20
31.5
 30
0.0
 11
198.3070600285500973
 21
31.5
 31
0.0
  0
LINE
  5
5CFD
  8
TEXT
 10
186.5999999999999943
 20
28.5
 30
0.0
 11
198.3070600285500973
 21
28.5
 31
0.0
  0
TEXT
  5
5D44
  8
TEXT
 10
19.5
 20
23.25
 30
0.0
 40
1.5
  1
柄部硬度　　＝ HRC 41～43
  7
GOTHIC
 11
19.5
 21
24.0
 31
0.0
 73
     2
  0
TEXT
  5
5D45
  8
TEXT
 10
19.5
 20
26.25
 30
0.0
 40
1.5
  1
刃部硬度　　＝ HRC 59～61
  7
GOTHIC
 11
19.5
 21
27.0
 31
0.0
 73
     2
  0
TEXT
  5
5D46
  8
TEXT
 10
19.5
 20
29.25
 30
0.0
 40
1.5
  1
刃開き最大　＝  7
  7
GOTHIC
 11
19.5
 21
30.0
 31
0.0
 73
     2
  0
TEXT
  5
5D47
  8
TEXT
 10
19.5
 20
32.25
 30
0.0
 40
1.5
  1
切刃有効長　＝ 14
  7
GOTHIC
 11
19.5
 21
33.0
 31
0.0
 73
     2
  0
TEXT
  5
5D48
  8
TEXT
 10
15.3045685279187804
 20
35.25
 30
0.0
 40
1.5
  1
◇ブレード仕様
  7
GOTHIC
 11
15.3045685279187804
 21
36.0
 31
0.0
 73
     2
  0
TEXT
  5
5D49
  8
TEXT
 10
19.5
 20
39.75
 30
0.0
 40
1.5
  1
巻方向 ＝ 左巻き
  7
GOTHIC
 11
19.5
 21
40.4999999999999929
 31
0.0
 73
     2
  0
TEXT
  5
5D4A
  8
TEXT
 10
19.5
 20
42.75
 30
0.0
 40
1.5
  1
材質　 ＝ SWP
  7
GOTHIC
 11
19.5
 21
43.5
 31
0.0
 73
     2
  0
TEXT
  5
5D4B
  8
TEXT
 10
19.5
 20
48.75
 30
0.0
 40
1.5
  1
全長　 ＝ 23
  7
GOTHIC
 11
19.5
 21
49.5
 31
0.0
 73
     2
  0
TEXT
  5
5D4C
  8
TEXT
 10
19.5
 20
45.75
 30
0.0
 40
1.5
  1
ピッチ ＝ 2.0
  7
GOTHIC
 11
19.5
 21
46.5
 31
0.0
 73
     2
  0
TEXT
  5
5D4D
  8
TEXT
 10
19.5
 20
51.75
 30
0.0
 40
1.5
  1
外径　 ＝ φ5.5
  7
GOTHIC
 11
19.5
 21
52.5
 31
0.0
 73
     2
  0
TEXT
  5
5D4E
  8
TEXT
 10
19.5
 20
54.75
 30
0.0
 40
1.5
  1
線径　 ＝ φ0.8
  7
GOTHIC
 11
19.5
 21
55.5
 31
0.0
 73
     2
  0
TEXT
  5
5D4F
  8
TEXT
 10
15.3045685279187804
 20
57.8415063509461334
 30
0.0
 40
1.5
  1
◇ブレードスプリング仕様
  7
GOTHIC
 72
     1
 11
27.0
 21
58.5915063509461334
 31
0.0
 73
     2
  0
LINE
  5
5D50
  8
TEXT
 10
19.5
 20
54.0
 30
0.0
 11
34.5
 21
54.0
 31
0.0
  0
LINE
  5
5D51
  8
TEXT
 10
19.5
 20
51.0
 30
0.0
 11
34.5
 21
51.0
 31
0.0
  0
LINE
  5
5D52
  8
TEXT
 10
19.5
 20
48.0
 30
0.0
 11
34.5
 21
48.0
 31
0.0
  0
LINE
  5
5D53
  8
TEXT
 10
19.5
 20
45.0
 30
0.0
 11
34.5
 21
45.0
 31
0.0
  0
LINE
  5
5D54
  8
TEXT
 10
19.5
 20
42.0
 30
0.0
 11
34.5
 21
42.0
 31
0.0
  0
LINE
  5
5D55
  8
TEXT
 10
19.5
 20
39.0
 30
0.0
 11
34.5
 21
39.0
 31
0.0
  0
LINE
  5
5D56
  8
TEXT
 10
19.5
 20
31.5
 30
0.0
 11
36.0
 21
31.5
 31
0.0
  0
LINE
  5
5D57
  8
TEXT
 10
19.5
 20
28.5
 30
0.0
 11
36.0
 21
28.5
 31
0.0
  0
LINE
  5
5D58
  8
TEXT
 10
19.5
 20
25.5
 30
0.0
 11
43.5
 21
25.5
 31
0.0
  0
LINE
  5
5D59
  8
TEXT
 10
19.5
 20
22.5
 30
0.0
 11
43.5
 21
22.5
 31
0.0
  0
VIEWPORT
  5
106
 67
     1
  8
0
 62
     2
 10
209.9994459187055043
 20
148.5032636281432019
 30
0.0
 40
678.1561992048865477
 41
299.1754342281457184
 68
     1
 69
     1
1001
ACAD
1000
MVIEW
1002
{
1070
    16
1010
0.0
1020
0.0
1030
0.0
1010
0.0
1020
0.0
1030
1.0
1040
0.0
1040
299.1754342281457184
1040
209.9994459187055043
1040
148.5032636281432019
1040
50.0
1040
0.0
1040
0.0
1070
     0
1070
 20000
1070
     1
1070
     1
1070
     0
1070
     0
1070
     0
1070
     0
1040
0.0
1040
0.0
1040
0.0
1040
10.0
1040
10.0
1040
10.0
1040
10.0
1070
     0
1002
{
1002
}
1002
}
  0
INSERT
  5
5FDF
 67
     1
  8
0
  2
CW
 10
0.0
 20
0.0
 30
0.0
  0
VIEWPORT
  5
5FE1
 67
     1
  8
0
 10
210.0000049999999874
 20
160.5
 30
0.0
 40
399.9999900000000252
 41
253.0
 68
     2
 69
     2
1001
ACAD
1000
MVIEW
1002
{
1070
    16
1010
0.0
1020
0.0
1030
0.0
1010
0.0
1020
0.0
1030
1.0
1040
0.0
1040
126.5
1040
105.0
1040
80.25
1040
50.0
1040
0.0
1040
0.0
1070
     0
1070
 20000
1070
     1
1070
     3
1070
     0
1070
     0
1070
     0
1070
     0
1040
0.0
1040
0.0
1040
0.0
1040
1.5
1040
1.5
1040
1.5
1040
1.5
1070
     0
1002
{
1002
}
1002
}
  0
ENDSEC
  0
EOF
